osu file format v14

[General]
AudioFilename: audio.mp3
AudioLeadIn: 0
PreviewTime: 76260
Countdown: 0
SampleSet: Soft
StackLeniency: 0.2
Mode: 0
LetterboxInBreaks: 0
WidescreenStoryboard: 1

[Editor]
Bookmarks: 13660,20060,32860,45660,51260,58460,68060,77660,87260,96860,103260,117660,130460,139860,148060,157660,168860,175260,181660,184860,196060,202460,208860,213660,223260,227260,229860,236060,248860
DistanceSpacing: 0.7
BeatDivisor: 8
GridSize: 8
TimelineZoom: 2.5

[Metadata]
Title:San Yousei SAY YA!!!
TitleUnicode:三妖精SAY YA!!!
Artist:ShinRa-Bansho
ArtistUnicode:森羅万象
Creator:verychill
Version:SAY YA!!!
Source:妖精大戦争 ~ 東方三月精
Tags:春の氷精 An Ice Fairy in Spring touhou 12.8 th12.8 eternity parade エイセイパレード vocal oriental Ayaponzu* & Ayo あやぽんず*,あよ kaztora waoru ACTRock
BeatmapID:2138823
BeatmapSetID:1022289

[Difficulty]
HPDrainRate:5.7
CircleSize:4.2
OverallDifficulty:8.5
ApproachRate:9.5
SliderMultiplier:2.2
SliderTickRate:2

[Events]
//Background and Video events
0,0,"50049313_p0 resize.jpg",0,0
//Break Periods
2,172160,174735
2,178460,181135
2,196260,201935
//Storyboard Layer 0 (Background)
//Storyboard Layer 1 (Fail)
//Storyboard Layer 2 (Pass)
//Storyboard Layer 3 (Foreground)
//Storyboard Layer 4 (Overlay)
//Storyboard Sound Samples

[TimingPoints]
860,400,4,2,10,60,1,0
860,-66.6666666666667,4,2,10,70,0,0
1060,-66.6666666666667,4,2,99,5,0,0
1260,-166.666666666667,4,2,10,60,0,0
1860,-166.666666666667,4,2,99,5,0,0
2060,-166.666666666667,4,2,10,60,0,0
2260,-166.666666666667,4,2,99,5,0,0
2460,-142.857142857143,4,2,10,60,0,0
2660,-142.857142857143,4,2,99,5,0,0
2860,-100,4,2,10,60,0,0
3660,-250.000000000001,4,2,10,60,0,0
3760,-250.000000000001,4,2,99,5,0,0
3960,-250.000000000001,4,2,10,60,0,0
4060,-66.6666666666667,4,2,10,70,0,0
4860,-125,4,2,10,60,0,0
5060,-125,4,2,99,5,0,0
5260,-142.857142857143,4,2,10,60,0,0
5460,-142.857142857143,4,2,99,5,0,0
5660,-111.111111111111,4,2,10,60,0,0
5910,-74.0740740740741,4,2,10,60,0,0
6360,-74.0740740740741,4,2,99,5,0,0
6460,-58.8235294117647,4,2,10,60,0,0
6660,-58.8235294117647,4,2,99,5,0,0
6860,-100,4,2,10,60,0,0
7060,-100,4,2,99,5,0,0
7160,-142.857142857143,4,2,10,60,0,0
7260,-66.6666666666667,4,2,10,70,0,0
7560,-66.6666666666667,4,2,99,5,0,0
7660,-142.857142857143,4,2,10,60,0,0
8260,-142.857142857143,4,2,99,5,0,0
8460,-142.857142857143,4,2,10,60,0,0
8660,-142.857142857143,4,2,99,5,0,0
8860,-125,4,2,10,60,0,0
9060,-125,4,2,99,5,0,0
9260,-100,4,2,10,60,0,0
10060,-125,4,2,10,60,0,0
10260,-125,4,2,99,5,0,0
10360,-125,4,2,10,60,0,0
10460,-66.6666666666667,4,2,10,60,0,0
10660,-125,4,2,10,60,0,0
11260,-100,4,2,10,60,0,0
11560,-100,4,2,99,5,0,0
11660,-83.3333333333333,4,2,10,65,0,0
11960,-83.3333333333333,4,2,10,5,0,0
12060,-62.5,4,2,1,70,0,0
12160,-62.5,4,2,99,5,0,0
12460,-58.8235294117647,4,2,1,75,0,0
12560,-58.8235294117647,4,2,99,5,0,0
12860,-55.5555555555556,4,2,1,80,0,0
12960,-55.5555555555556,4,2,99,5,0,0
13260,-71.4285714285714,4,2,10,85,0,0
13560,-50,4,2,99,5,0,0
13660,-66.6666666666667,4,2,1,85,0,0
14060,-57.1428571428571,4,2,1,70,0,0
15260,-66.6666666666667,4,2,1,85,0,0
15660,-66.6666666666667,4,2,1,70,0,0
16060,-66.6666666666667,4,2,1,85,0,0
16160,-66.6666666666667,4,2,1,70,0,0
16460,-66.6666666666667,4,2,1,80,0,0
16660,-66.6666666666667,4,2,1,75,0,0
16860,-66.6666666666667,4,2,1,85,0,0
17060,-66.6666666666667,4,2,1,75,0,0
17260,-66.6666666666667,4,2,1,70,0,0
18160,-66.6666666666667,4,2,99,5,0,0
18260,-66.6666666666667,4,2,1,70,0,0
18460,-50,4,2,1,100,0,0
18560,-50,4,2,99,5,0,0
18660,-125,4,2,1,100,0,0
18760,-50,4,2,99,5,0,0
18860,-50,4,2,1,100,0,0
18960,-50,4,2,99,5,0,0
19060,-50,4,2,1,100,0,0
19260,-50,4,2,1,100,0,0
19360,-50,4,2,99,5,0,0
19460,-50,4,2,1,100,0,0
19660,-38.4615384615385,4,2,1,100,0,0
19760,-38.4615384615385,4,2,99,5,0,0
19860,-38.4615384615385,4,2,1,100,0,0
20060,-55.5555555555556,4,2,1,100,0,1
20160,-55.5555555555556,4,2,99,5,0,1
20260,-55.5555555555556,4,2,1,100,0,1
21660,-125,4,2,1,100,0,1
21760,-125,4,2,99,5,0,1
21860,-125,4,2,1,100,0,1
22060,-83.3333333333333,4,2,1,100,0,1
22160,-83.3333333333333,4,2,99,5,0,1
22260,-125,4,2,1,100,0,1
22360,-125,4,2,99,5,0,1
22460,-62.5,4,2,1,100,0,1
22560,-62.5,4,2,99,5,0,1
22660,-83.3333333333333,4,2,1,75,0,1
22760,-83.3333333333333,4,2,99,5,0,1
22860,-50,4,2,1,100,0,1
22960,-50,4,2,99,5,0,1
23060,-62.5,4,2,1,100,0,1
23160,-62.5,4,2,99,5,0,1
23260,-55.5555555555556,4,2,1,100,0,1
24860,-125,4,2,1,100,0,1
24960,-125,4,2,99,5,0,1
25060,-125,4,2,1,100,0,1
25260,-83.3333333333333,4,2,1,100,0,1
25360,-83.3333333333333,4,2,99,5,0,1
25460,-125,4,2,1,100,0,1
25560,-125,4,2,99,5,0,1
25660,-62.5,4,2,1,100,0,1
25760,-62.5,4,2,99,5,0,1
25860,-45.4545454545455,4,2,1,100,0,1
25960,-45.4545454545455,4,2,99,5,0,1
26060,-45.4545454545455,4,2,1,100,0,1
26160,-45.4545454545455,4,2,99,5,0,1
26260,-125,4,2,1,100,0,1
26360,-125,4,2,99,5,0,1
26460,-55.5555555555556,4,2,1,100,0,1
28060,-125,4,2,1,100,0,1
28160,-125,4,2,99,5,0,1
28260,-125,4,2,1,100,0,1
28460,-83.3333333333333,4,2,1,100,0,1
28560,-83.3333333333333,4,2,99,5,0,1
28660,-125,4,2,1,100,0,1
28760,-125,4,2,99,5,0,1
28860,-62.5,4,2,1,100,0,1
28960,-62.5,4,2,99,5,0,1
29060,-83.3333333333333,4,2,1,100,0,1
29160,-83.3333333333333,4,2,99,5,0,1
29260,-50,4,2,1,100,0,1
29360,-50,4,2,99,5,0,1
29460,-62.5,4,2,1,100,0,1
29560,-62.5,4,2,99,5,0,1
29660,-55.5555555555556,4,2,1,100,0,1
31260,-125,4,2,1,100,0,1
31360,-125,4,2,99,5,0,1
31460,-125,4,2,1,100,0,1
31660,-83.3333333333333,4,2,1,100,0,1
31760,-83.3333333333333,4,2,99,5,0,1
31860,-125,4,2,1,100,0,1
31960,-125,4,2,99,5,0,1
32060,-62.5,4,2,1,100,0,1
32160,-62.5,4,2,99,5,0,1
32260,-50,4,2,1,100,0,1
32360,-50,4,2,99,5,0,1
32460,-50,4,2,1,100,0,1
32560,-50,4,2,99,5,0,1
32660,-125,4,2,1,100,0,1
32760,-125,4,2,99,5,0,1
32860,-100,4,2,1,80,0,0
33060,-100,4,2,1,60,0,0
34260,-83.3333333333333,4,2,1,60,0,0
34660,-100,4,2,1,60,0,0
35260,-83.3333333333333,4,2,1,60,0,0
35660,-100,4,2,1,60,0,0
36060,-90.9090909090909,4,2,1,60,0,0
36860,-83.3333333333333,4,2,1,60,0,0
37260,-90.9090909090909,4,2,1,60,0,0
37660,-66.6666666666667,4,2,1,65,0,0
37960,-66.6666666666667,4,2,99,5,0,0
38060,-66.6666666666667,4,2,1,65,0,0
38860,-83.3333333333333,4,2,1,65,0,0
39260,-66.6666666666667,4,2,1,65,0,0
39460,-100,4,2,1,60,0,0
40060,-83.3333333333333,4,2,1,60,0,0
40260,-76.9230769230769,4,2,1,60,0,0
40460,-71.4285714285714,4,2,1,60,0,0
40660,-83.3333333333333,4,2,1,60,0,0
41260,-71.4285714285714,4,2,1,60,0,0
41660,-76.9230769230769,4,2,1,60,0,0
41960,-76.9230769230769,4,2,99,5,0,0
42060,-76.9230769230769,4,2,1,60,0,0
42660,-71.4285714285714,4,2,1,60,0,0
44060,-83.3333333333333,4,2,10,70,0,0
45260,-83.3333333333333,4,2,1,50,0,0
45660,-55.5555555555556,4,2,1,80,0,0
45760,-83.3333333333333,4,2,1,5,0,0
45860,-83.3333333333333,4,2,1,70,0,0
47060,-100,4,2,1,70,0,0
47660,-90.9090909090909,4,2,1,70,0,0
48060,-83.3333333333333,4,2,1,70,0,0
48260,-76.9230769230769,4,2,1,70,0,0
48460,-71.4285714285714,4,2,1,70,0,0
48660,-66.6666666666667,4,2,1,70,0,0
48860,-62.5,4,2,1,70,0,0
50460,-76.9230769230769,4,2,1,75,0,0
50760,-76.9230769230769,4,2,99,5,0,0
50860,-58.8235294117647,4,2,1,75,0,0
51260,-76.9230769230769,4,2,1,75,0,0
51460,-58.8235294117647,4,2,1,75,0,0
52060,-62.5,4,2,1,70,0,0
53460,-100,4,2,1,70,0,0
54060,-55.5555555555556,4,2,1,70,0,0
54360,-55.5555555555556,4,2,1,5,0,0
54460,-83.3333333333333,4,2,1,70,0,0
54760,-83.3333333333333,4,2,99,5,0,0
54860,-83.3333333333333,4,2,1,70,0,0
55260,-125,4,2,1,85,0,0
55360,-125,4,2,1,5,0,0
55460,-125,4,2,1,85,0,0
56160,-125,4,2,1,5,0,0
56260,-125,4,2,1,85,0,0
56660,-125,4,2,1,85,0,0
56760,-125,4,2,1,5,0,0
56860,-100,4,2,1,85,0,0
57460,-125,4,2,1,85,0,0
57660,-166.666666666667,4,2,1,85,0,0
57860,-66.6666666666667,4,2,1,85,0,0
58360,-66.6666666666667,4,2,99,5,0,0
58460,-125,4,2,1,80,0,0
58960,-125,4,2,99,5,0,0
59060,-125,4,2,1,80,0,0
61260,-166.666666666667,4,2,10,80,0,0
61660,-125,4,2,1,80,0,0
62160,-125,4,2,99,5,0,0
62260,-125,4,2,1,80,0,0
62860,-100,4,2,1,80,0,0
63260,-66.6666666666667,4,2,1,80,0,0
64060,-133.333333333333,4,2,1,80,0,0
64360,-125,4,2,99,5,0,0
64460,-45.4545454545455,4,2,1,80,0,0
64560,-45.4545454545455,4,2,99,5,0,0
64660,-66.6666666666667,4,2,1,85,0,0
65060,-125,4,2,1,85,0,0
67560,-125,4,2,99,5,0,0
67660,-125,4,2,1,85,0,0
68060,-50,4,2,1,100,0,0
68260,-50,4,2,1,5,0,0
69260,-50,4,2,1,80,0,0
69660,-50,4,2,1,100,0,0
69860,-50,4,2,99,5,0,0
70860,-50,4,2,1,65,0,0
71060,-125,4,2,1,60,0,0
71160,-125,4,2,99,5,0,0
71260,-50,4,2,1,85,0,0
71460,-50,4,2,99,5,0,0
72460,-50,4,2,1,80,0,0
72860,-50,4,2,1,85,0,0
74460,-50,4,2,1,90,0,0
75660,-100,4,2,1,90,0,0
76060,-100,4,2,99,5,0,0
76260,-83.3333333333333,4,2,1,85,0,0
76960,-200,4,2,99,5,0,0
77060,-50,4,2,1,85,0,0
77460,-50,4,2,99,5,0,0
77660,-66.6666666666667,4,2,1,100,0,1
78860,-133.333333333333,4,2,1,100,0,1
79260,-66.6666666666667,4,2,1,100,0,1
79660,-133.333333333333,4,2,1,100,0,1
80060,-66.6666666666667,4,2,1,100,0,1
80460,-100,4,2,1,100,0,1
80860,-50,4,2,1,100,0,1
81860,-66.6666666666667,4,2,1,100,0,1
83260,-40,4,2,1,100,0,1
84060,-66.6666666666667,4,2,1,100,0,1
85260,-100,4,2,1,100,0,1
85660,-66.6666666666667,4,2,1,100,0,1
86060,-133.333333333333,4,2,1,100,0,1
86460,-66.6666666666667,4,2,1,100,0,1
86860,-100,4,2,1,100,0,1
87260,-50,4,2,1,100,0,1
87460,-100,4,2,1,85,0,0
88460,-71.4285714285714,4,2,1,85,0,0
88860,-62.5,4,2,1,85,0,0
89260,-71.4285714285714,4,2,1,85,0,0
89660,-55.5555555555556,4,2,1,85,0,0
90460,-125,4,2,1,85,0,0
90760,-125,4,2,99,5,0,0
90860,-125,4,2,1,85,0,0
91260,-125,4,2,1,85,0,0
91560,-125,4,2,99,5,0,0
91660,-83.3333333333333,4,2,1,70,0,0
93860,-83.3333333333333,4,2,1,85,0,0
94260,-83.3333333333333,4,2,1,70,0,0
94460,-50,4,2,1,85,0,0
95060,-83.3333333333333,4,2,1,85,0,0
96060,-64.5161290322581,4,2,1,85,0,0
96360,-64.5161290322581,4,2,99,5,0,0
96460,-55.5555555555556,4,2,1,85,0,0
96860,-55.5555555555556,4,2,1,100,0,1
96960,-55.5555555555556,4,2,1,100,0,1
98460,-125,4,2,1,100,0,1
98560,-125,4,2,99,5,0,1
98660,-250,4,2,1,100,0,1
98760,-250,4,2,99,5,0,1
98860,-83.3333333333333,4,2,1,100,0,1
98960,-83.3333333333333,4,2,99,5,0,1
99060,-125,4,2,1,100,0,1
99160,-125,4,2,99,5,0,1
99260,-62.5,4,2,1,100,0,1
99360,-62.5,4,2,99,5,0,1
99460,-83.3333333333333,4,2,1,100,0,1
99560,-83.3333333333333,4,2,99,5,0,1
99660,-50,4,2,1,100,0,1
99760,-50,4,2,99,5,0,1
99860,-62.5,4,2,1,100,0,1
99960,-62.5,4,2,99,5,0,1
100060,-55.5555555555556,4,2,1,100,0,1
101660,-125,4,2,1,100,0,1
101760,-125,4,2,99,5,0,1
101860,-125,4,2,1,100,0,1
101960,-125,4,2,99,5,0,1
102060,-83.3333333333333,4,2,1,100,0,1
102160,-83.3333333333333,4,2,99,5,0,1
102260,-125,4,2,1,100,0,1
102360,-125,4,2,99,5,0,1
102460,-62.5,4,2,1,100,0,1
102560,-62.5,4,2,99,5,0,1
102660,-50,4,2,1,100,0,1
102760,-50,4,2,99,5,0,1
102860,-50,4,2,1,100,0,1
102960,-50,4,2,99,5,0,1
103060,-125,4,2,1,100,0,1
103160,-125,4,2,99,5,0,1
103260,-55.5555555555556,4,2,1,85,0,0
103460,-55.5555555555556,4,2,99,5,0,0
104860,-55.5555555555556,4,2,1,85,0,0
105460,-55.5555555555556,4,2,99,5,0,0
105660,-55.5555555555556,4,2,1,85,0,0
105860,-55.5555555555556,4,2,99,5,0,0
106460,-55.5555555555556,4,2,1,85,0,0
106660,-55.5555555555556,4,2,99,5,0,0
108060,-100,4,2,1,85,0,0
108560,-100,4,2,99,5,0,0
108660,-100,4,2,1,70,0,0
108760,-100,4,2,99,5,0,0
108860,-55.5555555555556,4,2,1,85,0,0
109060,-55.5555555555556,4,2,99,5,0,0
109660,-55.5555555555556,4,2,1,85,0,0
109860,-55.5555555555556,4,2,99,5,0,0
111260,-55.5555555555556,4,2,1,85,0,0
111860,-55.5555555555556,4,2,99,5,0,0
112060,-55.5555555555556,4,2,1,85,0,0
112260,-55.5555555555556,4,2,99,5,0,0
112860,-111.111111111111,4,2,1,76,0,0
113260,-111.111111111111,4,2,1,74,0,0
113660,-111.111111111111,4,2,1,72,0,0
114060,-111.111111111111,4,2,1,70,0,0
114460,-111.111111111111,4,2,1,68,0,0
114860,-111.111111111111,4,2,1,66,0,0
115260,-111.111111111111,4,2,1,64,0,0
115660,-111.111111111111,4,2,1,62,0,0
116060,-55.5555555555556,4,2,1,60,0,0
116160,-55.5555555555556,4,2,99,5,0,0
116260,-55.5555555555556,4,2,1,65,0,0
116360,-55.5555555555556,4,2,99,5,0,0
116460,-55.5555555555556,4,2,1,70,0,0
116560,-55.5555555555556,4,2,99,5,0,0
116660,-55.5555555555556,4,2,1,75,0,0
116760,-55.5555555555556,4,2,99,5,0,0
116860,-55.5555555555556,4,2,1,80,0,0
116960,-55.5555555555556,4,2,99,5,0,0
117060,-55.5555555555556,4,2,1,85,0,0
117160,-55.5555555555556,4,2,99,5,0,0
117260,-100,4,2,1,75,0,0
117660,-55.5555555555556,4,2,1,65,0,0
117860,-100,4,2,1,60,0,0
118460,-83.3333333333333,4,2,1,60,0,0
119060,-71.4285714285714,4,2,1,60,0,0
119660,-83.3333333333333,4,2,1,60,0,0
121060,-76.9230769230769,4,2,1,60,0,0
121660,-125,4,2,1,60,0,0
122460,-71.4285714285714,4,2,1,65,0,0
122760,-71.4285714285714,4,2,99,5,0,0
122860,-71.4285714285714,4,2,1,65,0,0
123260,-71.4285714285714,4,2,1,65,0,0
123360,-71.4285714285714,4,2,99,5,0,0
123460,-71.4285714285714,4,2,1,65,0,0
123660,-83.3333333333333,4,2,1,65,0,0
123760,-83.3333333333333,4,2,99,5,0,0
123860,-83.3333333333333,4,2,1,65,0,0
124060,-71.4285714285714,4,2,1,65,0,0
124160,-71.4285714285714,4,2,99,5,0,0
124260,-100,4,2,1,60,0,0
125460,-125,4,2,1,60,0,0
125860,-83.3333333333333,4,2,1,60,0,0
126460,-76.9230769230769,4,2,1,60,0,0
127060,-76.9230769230769,4,2,1,40,0,0
128860,-76.9230769230769,4,2,1,100,0,0
130460,-125,4,2,1,80,0,0
130960,-125,4,2,99,5,0,0
131060,-125,4,2,1,80,0,0
132060,-126.582278481013,4,2,1,80,0,0
132860,-100,4,2,1,80,0,0
133260,-63.2911392405063,4,2,10,80,0,0
133360,-83.3333333333333,4,2,99,5,0,0
133660,-125,4,2,1,80,0,0
134160,-125,4,2,99,5,0,0
134260,-125,4,2,1,80,0,0
134860,-100,4,2,1,80,0,0
135260,-66.6666666666667,4,2,1,80,0,0
136060,-133.333333333333,4,2,1,80,0,0
136360,-133.333333333333,4,2,99,5,0,0
136460,-50,4,2,1,80,0,0
136560,-50,4,2,99,5,0,0
136660,-66.6666666666667,4,2,1,85,0,0
137060,-100,4,2,1,85,0,0
138360,-100,4,2,99,5,0,0
138460,-100,4,2,1,85,0,0
139860,-50,4,2,1,100,0,0
140060,-66.6666666666667,4,2,99,5,0,0
141260,-66.6666666666667,4,2,1,80,0,0
141460,-50,4,2,1,100,0,0
141660,-66.6666666666667,4,2,99,5,0,0
142860,-100,4,2,1,100,0,0
143360,-100,4,2,99,5,0,0
143460,-50,4,2,1,100,0,0
143560,-50,4,2,99,5,0,0
143660,-50,4,2,1,100,0,0
143860,-50,4,2,99,5,0,0
144060,-50,4,2,1,100,0,0
144160,-50,4,2,99,5,0,0
144260,-50,4,2,1,100,0,0
144460,-50,4,2,99,5,0,0
144660,-50,4,2,1,100,0,0
144960,-66.6666666666667,4,2,99,5,0,0
145060,-66.6666666666667,4,2,1,100,0,0
146060,-66.6666666666667,4,2,1,100,0,0
146660,-83.3333333333333,4,2,10,80,0,0
147560,-83.3333333333333,4,2,99,5,0,0
147660,-66.6666666666667,4,2,1,60,0,0
148060,-66.6666666666667,4,2,1,100,0,1
149260,-133.333333333333,4,2,1,100,0,1
149660,-66.6666666666667,4,2,1,100,0,1
150060,-133.333333333333,4,2,1,100,0,1
150460,-66.6666666666667,4,2,1,100,0,1
150860,-100,4,2,1,100,0,1
151260,-50,4,2,1,100,0,1
152260,-66.6666666666667,4,2,1,100,0,1
153660,-40,4,2,1,100,0,1
154260,-66.6666666666667,4,2,1,100,0,1
155660,-100,4,2,1,100,0,1
156060,-66.6666666666667,4,2,1,100,0,1
156460,-133.333333333333,4,2,1,100,0,1
156860,-66.6666666666667,4,2,1,100,0,1
157260,-100,4,2,1,100,0,1
157660,-50,4,2,1,100,0,1
157860,-100,4,2,1,85,0,0
158460,-83.3333333333333,4,2,1,85,0,0
158860,-71.4285714285714,4,2,1,85,0,0
159260,-62.5,4,2,1,85,0,0
160060,-55.5555555555556,4,2,1,85,0,0
160360,-55.5555555555556,4,2,99,5,0,0
160460,-66.6666666666667,4,2,1,85,0,0
160660,-66.6666666666667,4,2,1,85,0,0
160860,-66.6666666666667,4,2,10,60,0,0
162060,-66.6666666666667,4,2,1,85,0,0
162460,-66.6666666666667,4,2,1,100,0,0
162860,-133.333333333333,4,2,1,100,0,0
163260,-66.6666666666667,4,2,1,100,0,0
163660,-133.333333333333,4,2,1,100,0,0
164060,-62.5,4,2,1,85,0,0
164360,-62.5,4,2,99,5,0,0
164460,-50.761421319797,4,2,1,85,0,0
164760,-50.761421319797,4,2,99,5,0,0
164860,-41.1522633744856,4,2,1,85,0,0
165160,-41.1522633744856,4,2,99,5,0,0
165260,-45.4545454545455,4,2,1,80,0,0
165660,-45.4545454545455,4,2,10,85,0,0
167260,-45.4545454545455,4,2,10,40,0,0
168860,-71.4285714285714,4,2,10,50,0,0
169060,-71.4285714285714,4,2,99,5,0,0
169160,-71.4285714285714,4,2,10,50,0,0
169460,-66.6666666666667,4,2,10,50,0,0
169660,-41.6666666666667,4,2,10,60,0,0
169760,-41.6666666666667,4,2,99,5,0,0
169860,-41.6666666666667,4,2,10,60,0,0
169960,-41.6666666666667,4,2,99,5,0,0
170060,-41.6666666666667,4,2,10,60,0,0
170160,-41.6666666666667,4,2,99,5,0,0
170260,-71.4285714285714,4,2,10,50,0,0
170660,-71.4285714285714,4,2,99,5,0,0
170760,-66.6666666666667,4,2,10,50,0,0
171260,-50,4,2,1,60,0,0
171560,-50,4,2,99,5,0,0
171660,-50,4,2,1,60,0,0
171960,-50,4,2,99,5,0,0
175260,-66.6666666666667,4,2,10,55,0,0
175460,-66.6666666666667,4,2,99,5,0,0
175560,-62.5,4,2,10,55,0,0
176060,-50,4,2,10,65,0,0
176160,-50,4,2,99,5,0,0
176260,-50,4,2,10,65,0,0
176360,-50,4,2,99,5,0,0
176460,-50,4,2,1,65,0,0
176660,-50,4,2,99,5,0,0
176860,-66.6666666666667,4,2,10,55,0,0
177060,-66.6666666666667,4,2,99,5,0,0
177160,-62.5,4,2,10,55,0,0
177660,-50,4,2,10,65,0,0
177760,-50,4,2,99,5,0,0
177860,-50,4,2,1,65,0,0
177960,-50,4,2,99,5,0,0
178060,-50,4,2,10,65,0,0
178260,-50,4,2,99,5,0,0
181660,-66.6666666666667,4,2,10,55,0,0
181860,-66.6666666666667,4,2,99,5,0,0
181960,-62.5,4,2,10,55,0,0
182460,-50,4,2,10,65,0,0
182560,-50,4,2,99,5,0,0
182660,-50,4,2,10,65,0,0
182760,-50,4,2,99,5,0,0
182860,-50,4,2,1,65,0,0
183060,-50,4,2,99,5,0,0
183260,-66.6666666666667,4,2,10,55,0,0
183460,-66.6666666666667,4,2,99,5,0,0
183560,-62.5,4,2,10,55,0,0
184060,-50,4,2,10,65,0,0
184160,-50,4,2,99,5,0,0
184260,-50,4,2,1,65,0,0
184360,-50,4,2,99,5,0,0
184460,-50,4,2,10,65,0,0
184660,-50,4,2,99,5,0,0
184860,-71.4285714285714,4,2,1,70,0,0
185660,-62.5,4,2,1,75,0,0
186460,-55.5555555555556,4,2,1,80,0,0
187260,-50,4,2,1,85,0,0
187660,-500,4,2,10,60,0,0
187960,-500,4,2,99,5,0,0
188060,-100,4,2,1,85,0,0
188460,-83.3333333333333,4,2,1,85,0,0
189260,-68.9655172413793,4,2,1,85,0,0
189660,-55.5555555555556,4,2,1,85,0,0
190060,-62.5,4,2,1,85,0,0
190160,-62.5,4,2,99,5,0,0
190260,-62.5,4,2,1,85,0,0
190860,-71.4285714285714,4,2,1,85,0,0
191260,-66.6666666666667,4,2,1,85,0,0
191526,-66.6666666666667,4,2,99,5,0,0
191660,-100,4,2,1,85,0,0
192860,-100,4,2,1,85,0,0
193260,-100,4,2,1,80,0,0
193660,-100,4,2,1,85,0,0
194060,-62.5,4,2,1,85,0,0
194660,-100,4,2,1,50,0,0
195661,-83.3333333333333,4,2,1,55,0,0
195760,-83.3333333333333,4,2,99,5,0,0
195860,-83.3333333333333,4,2,1,55,0,0
195960,-83.3333333333333,4,2,99,5,0,0
196060,-83.3333333333333,4,2,10,65,0,0
202460,-142.857142857143,4,2,1,40,0,0
202660,-142.857142857143,4,2,99,5,0,0
202860,-142.857142857143,4,2,1,40,0,0
203060,-142.857142857143,4,2,99,5,0,0
203260,-100,4,2,1,40,0,0
203360,-100,4,2,99,5,0,0
203460,-100,4,2,1,40,0,0
203560,-100,4,2,99,5,0,0
203660,-200,4,2,1,40,0,0
203860,-200,4,2,99,5,0,0
204060,-100,4,2,1,40,0,0
204160,-100,4,2,99,5,0,0
204260,-100,4,2,1,40,0,0
204360,-100,4,2,99,5,0,0
204460,-200,4,2,1,40,0,0
204660,-200,4,2,99,5,0,0
204860,-83.3333333333333,4,2,1,40,0,0
204960,-83.3333333333333,4,2,99,5,0,0
205060,-83.3333333333333,4,2,1,45,0,0
205160,-83.3333333333333,4,2,99,5,0,0
205260,-250,4,2,1,45,0,0
205560,-250,4,2,99,5,0,0
205660,-125,4,2,1,45,0,0
205960,-125,4,2,99,5,0,0
206060,-200,4,2,1,50,0,0
207460,-200,4,2,99,5,0,0
207660,-200,4,2,1,50,0,0
207860,-200,4,2,99,5,0,0
208060,-100,4,2,1,55,0,0
208760,-100,4,2,99,5,0,0
208860,-200,4,2,1,60,0,0
209860,-200,4,2,1,75,0,0
210260,-55.5555555555556,4,2,1,85,0,0
210360,-55.5555555555556,4,2,1,5,0,0
210460,-71.4285714285714,4,2,1,75,0,0
210860,-71.4285714285714,4,2,1,75,0,0
211160,-71.4285714285714,4,2,1,5,0,0
211260,-66.6666666666667,4,2,1,50,0,0
211960,-66.6666666666667,4,2,1,5,0,0
212260,-66.6666666666667,4,2,1,100,0,0
212960,-66.6666666666667,4,2,1,5,0,0
213060,-66.6666666666667,4,2,1,100,0,0
213160,-66.6666666666667,4,2,1,5,0,0
213260,-83.3333333333333,4,2,10,100,0,0
213326,-83.3333333333333,4,2,10,40,0,0
213660,-62.5,4,2,1,100,0,1
214860,-125,4,2,1,100,0,1
215260,-83.3333333333333,4,2,1,100,0,1
216460,-62.5,4,2,1,100,0,1
216860,-45.4545454545455,4,2,1,100,0,1
217860,-71.4285714285714,4,2,1,100,0,1
218460,-66.6666666666667,4,2,1,100,0,1
219260,-40,4,2,1,100,0,1
219860,-62.5,4,2,1,100,0,1
221260,-125,4,2,1,100,0,1
221660,-62.5,4,2,1,100,0,1
222060,-125,4,2,1,100,0,1
222460,-62.5,4,2,1,100,0,1
222860,-83.3333333333333,4,2,1,100,0,1
223260,-41.6666666666667,4,2,1,100,0,1
223460,-100,4,2,1,85,0,0
224060,-83.3333333333333,4,2,1,85,0,0
224460,-71.4285714285714,4,2,1,85,0,0
224860,-62.5,4,2,1,85,0,0
225260,-71.4285714285714,4,2,1,85,0,0
225660,-55.5555555555556,4,2,1,85,0,0
226460,-125,4,2,1,85,0,0
226760,-125,4,2,99,5,0,0
226860,-125,4,2,1,85,0,0
227560,-125,4,2,99,5,0,0
227660,-125,4,2,1,85,0,0
228060,-100,4,2,1,85,0,0
228760,-100,4,2,99,5,0,0
228860,-125,4,2,1,85,0,0
229860,-83.3333333333333,4,2,1,85,0,0
232460,-83.3333333333333,4,2,1,70,0,0
234460,-83.3333333333333,4,2,1,70,0,0
235610,-50,4,2,1,100,0,0
235860,-50,4,2,1,80,0,0
236060,-55.5555555555556,4,2,1,100,0,1
237660,-125,4,2,1,100,0,1
237760,-125,4,2,99,5,0,1
237860,-125,4,2,1,100,0,1
238060,-83.3333333333333,4,2,1,100,0,1
238160,-83.3333333333333,4,2,99,5,0,1
238260,-125,4,2,1,100,0,1
238360,-125,4,2,99,5,0,1
238460,-62.5,4,2,1,100,0,1
238560,-62.5,4,2,99,5,0,1
238660,-83.3333333333333,4,2,1,100,0,1
238760,-83.3333333333333,4,2,99,5,0,1
238860,-50,4,2,1,100,0,1
238960,-50,4,2,99,5,0,1
239060,-62.5,4,2,1,100,0,1
239160,-125,4,2,99,5,0,1
239260,-55.5555555555556,4,2,1,100,0,1
240860,-125,4,2,1,100,0,1
240960,-125,4,2,99,5,0,1
241060,-125,4,2,1,100,0,1
241260,-83.3333333333333,4,2,1,100,0,1
241360,-83.3333333333333,4,2,99,5,0,1
241460,-125,4,2,1,100,0,1
241560,-125,4,2,99,5,0,1
241660,-62.5,4,2,1,100,0,1
241760,-62.5,4,2,99,5,0,1
241860,-45.4545454545455,4,2,1,100,0,1
241960,-45.4545454545455,4,2,99,5,0,1
242060,-45.4545454545455,4,2,1,100,0,1
242160,-45.4545454545455,4,2,99,5,0,1
242260,-125,4,2,1,100,0,1
242360,-125,4,2,99,5,0,1
242460,-55.5555555555556,4,2,1,100,0,1
244060,-125,4,2,1,100,0,1
244160,-125,4,2,99,5,0,1
244260,-125,4,2,1,100,0,1
244460,-83.3333333333333,4,2,1,100,0,1
244560,-83.3333333333333,4,2,99,5,0,1
244660,-125,4,2,1,100,0,1
244760,-125,4,2,99,5,0,1
244860,-62.5,4,2,1,100,0,1
244960,-62.5,4,2,99,5,0,1
245060,-83.3333333333333,4,2,1,100,0,1
245160,-83.3333333333333,4,2,99,5,0,1
245260,-50,4,2,1,100,0,1
245360,-50,4,2,99,5,0,1
245460,-62.5,4,2,1,100,0,1
245560,-62.5,4,2,99,5,0,1
245660,-55.5555555555556,4,2,1,100,0,1
247260,-125,4,2,1,100,0,1
247360,-125,4,2,99,5,0,1
247460,-125,4,2,1,100,0,1
247660,-83.3333333333333,4,2,1,100,0,1
247760,-83.3333333333333,4,2,99,5,0,1
247860,-125,4,2,1,100,0,1
247960,-125,4,2,99,5,0,1
248060,-62.5,4,2,1,100,0,1
248160,-62.5,4,2,99,5,0,1
248260,-50,4,2,1,100,0,1
248360,-50,4,2,99,5,0,1
248460,-50,4,2,1,100,0,1
248560,-50,4,2,99,5,0,1
248660,-125,4,2,1,100,0,1
248760,-125,4,2,99,5,0,1
248860,-66.6666666666667,4,2,1,55,0,0
250660,-50,4,2,1,85,0,0
250960,-50,4,2,99,5,0,0
251060,-83.3333333333333,4,2,1,85,0,0
251160,-83.3333333333333,4,2,99,5,0,0
251260,-83.3333333333333,4,2,1,85,0,0
252060,-83.3333333333333,4,2,99,5,0,0

[Colours]
Combo1 : 117,218,98
Combo2 : 150,78,206
Combo3 : 86,125,254
Combo4 : 181,41,18

[HitObjects]
65,4,860,6,0,B|95:1|95:1|164:35|141:97|112:112,1,165.000006294251,4|0,0:3|0:0,0:0:0:0:
0,199,1260,5,2,0:0:0:0:
167,184,1460,1,2,0:0:0:0:
0,199,1660,2,0,P|12:168|32:142,1,65.9999979858399,2|0,0:0|0:0,0:0:0:0:
167,184,2060,2,0,P|169:216|164:249,1,65.9999979858399,2|0,0:0|0:0,0:0:0:0:
17,307,2460,2,0,P|53:319|91:325,1,76.9999976501466,2|0,0:0|0:0,0:0:0:0:
330,297,2860,1,2,0:0:0:0:
290,363,3060,1,2,0:0:0:0:
214,384,3260,2,0,L|233:268,1,110,8|0,0:3|0:0,0:0:0:0:
213,124,3660,2,0,L|235:127,1,22
418,229,3960,1,0,0:0:0:0:
347,219,4060,6,0,B|319:114|319:114|361:77,1,165.000006294251,4|0,0:3|0:0,0:0:0:0:
512,9,4460,1,2,0:0:0:0:
414,150,4660,1,2,0:0:0:0:
512,9,4860,2,0,P|468:7|424:14,1,88,2|0,0:0|0:0,0:0:0:0:
414,150,5260,2,0,P|452:154|490:152,1,76.9999976501466,2|0,0:0|0:0,0:0:0:0:
324,305,5660,6,0,P|340:344|381:365,1,74.2499977340699,2|2,0:0|0:0,0:0:0:0:
398,384,5910,6,0,B|357:396|280:339|315:263|315:263|305:253|305:253|339:224|347:147|288:121,1,334.125001274586,2|0,0:0|0:0,0:0:0:0:
291,138,6460,2,0,P|314:202|219:258,1,187.000003566742,6|0,0:0|0:0,0:0:0:0:
41,148,6860,2,0,P|75:93|159:94,1,110,8|0,0:3|0:0,0:0:0:0:
99,192,7160,5,0,0:0:0:0:
28,178,7261,2,0,B|12:139|47:53|144:61|144:61|112:61|99:33,1,247.500009441376,4|0,0:3|0:0,0:0:0:0:
233,8,7660,5,2,0:0:0:0:
314,160,7860,1,2,0:0:0:0:
233,8,8060,2,0,P|271:-2|318:2,1,76.9999976501466,2|0,0:0|0:0,0:0:0:0:
314,160,8460,2,0,P|276:164|232:156,1,76.9999976501466,2|0,0:0|0:0,0:0:0:0:
411,120,8860,2,0,P|415:76|405:34,1,88,2|0,0:0|0:0,0:0:0:0:
505,140,9260,1,2,0:0:0:0:
512,220,9460,1,2,0:0:0:0:
478,292,9660,2,0,B|363:304,1,110,8|0,0:3|0:3,0:0:0:0:
244,195,10060,2,0,P|203:205|173:236,1,88,2|0,0:0|0:0,0:0:0:0:
21,322,10360,1,0,0:0:0:0:
0,254,10460,6,0,B|16:213|70:229|70:229|70:284|115:329,1,165.000006294251,4|0,0:3|0:0,0:0:0:0:
263,352,10860,1,2,0:0:0:0:
244,195,11060,1,2,0:0:0:0:
263,352,11260,2,0,B|266:254|344:225|365:258|337:283|263:274,1,165,2|0,0:0|0:0,0:0:0:0:
244,195,11660,6,0,B|247:133|218:38|152:30|156:71|195:92,1,197.99999395752,4|0,0:0|0:0,0:0:0:0:
161,205,12060,6,0,P|105:197|52:198,1,88,2|0,1:0|0:0,0:0:0:0:
315,120,12460,6,0,P|350:72|376:17,1,93.500001783371,2|0,1:0|0:0,0:0:0:0:
314,272,12860,6,0,P|346:329|390:385,1,98.9999969787599,2|0,1:0|0:0,0:0:0:0:
161,205,13260,6,0,B|143:185|148:149|148:149|125:155|27:205|87:285,1,230.99999295044,6|0,1:1|0:0,0:0:0:0:
134,347,13660,5,12,0:0:0:0:
408,280,13860,1,12,0:0:0:0:
255,322,14060,5,2,3:2:0:0:
255,274,14160,1,0,3:2:0:0:
255,226,14260,1,0,3:2:0:0:
255,178,14360,1,0,3:2:0:0:
347,155,14460,5,2,3:2:0:0:
342,202,14560,1,0,3:2:0:0:
338,250,14660,1,0,3:2:0:0:
334,298,14760,1,0,3:2:0:0:
327,347,14860,2,0,L|99:347,1,192.500001835823,2|0,0:2|0:2,0:2:0:0:
512,301,15260,5,12,0:2:0:0:
362,42,15460,1,12,0:2:0:0:
255,178,15660,5,0,3:2:0:0:
303,178,15760,1,0,3:2:0:0:
351,178,15860,1,0,3:2:0:0:
399,178,15960,1,0,3:2:0:0:
447,178,16060,6,0,L|447:95,1,82.5000031471254,12|0,0:2|0:2,0:2:0:0:
272,0,16260,1,0,3:2:0:0:
224,0,16360,1,0,3:2:0:0:
176,0,16460,1,12,0:0:0:0:
72,99,16660,5,8,0:2:0:0:
72,176,16760,1,8,0:2:0:0:
71,253,16860,1,14,0:0:0:0:
321,384,17060,1,12,0:2:0:0:
421,192,17260,5,2,3:2:0:0:
373,192,17360,1,0,3:2:0:0:
325,192,17460,1,0,3:2:0:0:
277,192,17560,1,0,3:2:0:0:
228,289,17660,5,2,3:2:0:0:
274,282,17760,1,0,3:2:0:0:
323,280,17860,1,0,3:2:0:0:
371,276,17960,1,0,3:2:0:0:
418,271,18060,6,0,P|430:229|412:178,1,82.5000031471254,2|0,0:2|0:2,0:2:0:0:
356,71,18260,1,2,0:0:0:0:
0,120,18460,6,0,B|14:89|14:89|90:107,1,110,12|0,0:2|0:2,0:2:0:0:
192,110,18660,2,0,L|205:169,1,44,12|0,0:2|0:2,0:2:0:0:
297,331,18860,6,0,B|282:359|282:359|208:336,1,110,2|0,0:3|0:2,0:2:0:0:
104,227,19060,1,8,0:2:0:0:
102,303,19160,1,8,0:2:0:0:
26,323,19260,6,0,B|-5:296|-5:296|18:205,1,110,2|0,0:3|0:2,0:2:0:0:
237,236,19460,1,8,0:2:0:0:
169,268,19560,1,8,0:2:0:0:
104,227,19660,6,0,B|110:180|110:180|208:152,1,142.99999345398,2|0,0:3|0:2,0:2:0:0:
301,333,19860,1,8,0:2:0:0:
230,309,19960,1,8,0:2:0:0:
237,236,20060,6,0,P|268:217|294:160,1,98.9999969787599,4|0,3:2|0:2,0:2:0:0:
147,38,20260,2,0,B|97:45|97:45|141:68,1,98.9999969787599,2|0,0:2|0:2,0:2:0:0:
365,38,20460,1,8,3:2:0:0:
365,38,20660,2,0,B|414:44|414:44|371:67,1,98.9999969787599,2|0,0:2|0:2,0:2:0:0:
258,79,20860,6,0,P|227:98|201:155,1,98.9999969787599,0|0,3:2|0:2,0:2:0:0:
366,321,21060,2,0,B|359:371|359:371|337:328,1,98.9999969787599,2|0,0:2|0:2,0:2:0:0:
145,321,21260,1,8,3:2:0:0:
145,321,21460,2,0,B|152:371|152:371|175:328,1,98.9999969787599,2|0,0:2|0:2,0:2:0:0:
44,121,21660,6,0,P|23:114|1:114,1,44,2|0,3:2|0:2,0:2:0:0:
80,263,21860,1,2,0:2:0:0:
129,206,21960,1,2,0:2:0:0:
108,134,22060,6,0,P|75:133|44:121,1,65.9999979858399,10|0,3:2|0:2,0:2:0:0:
235,86,22260,2,0,P|252:77|242:91,1,44,2|0,0:2|0:2,0:2:0:0:
193,152,22460,6,0,P|151:138|107:133,1,88,2|0,3:2|0:2,0:2:0:0:
355,230,22660,2,0,P|368:249|360:228,1,65.9999979858399,2|0,0:2|0:2,0:2:0:0:
298,169,22860,6,0,P|243:171|192:151,1,110,10|0,3:2|0:2,0:2:0:0:
365,103,23060,2,0,P|391:104|367:106,1,88,2|0,0:2|0:2,0:2:0:0:
478,139,23260,6,0,P|490:91|475:45,1,98.9999969787599,0|0,3:2|0:2,0:2:0:0:
268,67,23460,2,0,B|245:24|245:24|239:74,1,98.9999969787599,2|0,0:2|0:2,0:2:0:0:
273,274,23660,1,8,3:2:0:0:
273,274,23860,2,0,B|266:323|266:323|243:280,1,98.9999969787599,2|0,0:2|0:2,0:2:0:0:
66,335,24060,6,0,P|112:319|159:332,1,98.9999969787599,0|0,3:2|0:2,0:2:0:0:
156,189,24260,2,0,B|106:182|106:182|150:160,1,98.9999969787599,2|0,0:2|0:2,0:2:0:0:
362,184,24460,1,8,3:2:0:0:
363,185,24661,2,0,B|406:162|406:162|356:155,1,98.9999969787599,2|0,0:2|0:2,0:2:0:0:
490,226,24860,6,0,B|476:290,1,44,2|0,3:2|0:2,0:2:0:0:
278,297,25060,1,2,0:2:0:0:
348,279,25160,1,2,0:2:0:0:
411,319,25260,2,0,B|401:388,1,65.9999979858399,10|0,3:2|0:2,0:2:0:0:
272,279,25460,2,0,L|280:233,1,44,2|0,0:2|0:2,0:2:0:0:
385,84,25660,6,0,B|369:170,1,88,2|0,3:2|0:2,0:2:0:0:
210,106,25860,2,0,B|141:36|141:36|165:35,1,121.000003692627,2|0,0:3|0:3,0:3:0:0:
184,40,26061,2,0,B|249:111|249:111|225:112,1,121.000003692627,2|0,3:3|0:3,0:3:0:0:
269,260,26260,6,0,L|278:216,1,44,2|0,0:2|0:2,0:2:0:0:
192,192,26460,6,0,P|146:175|112:139,1,98.9999969787599,0|0,3:2|0:2,0:2:0:0:
358,269,26660,2,0,B|376:316|376:316|335:290,1,98.9999969787599,2|0,0:2|0:2,0:2:0:0:
335,94,26860,1,8,3:2:0:0:
335,94,27060,2,0,B|376:69|376:69|357:115,1,98.9999969787599,2|0,0:2|0:2,0:2:0:0:
192,192,27260,6,0,P|146:210|112:246,1,98.9999969787599,0|0,3:2|0:2,0:2:0:0:
190,76,27460,2,0,B|209:30|209:30|220:78,1,98.9999969787599,2|0,0:2|0:2,0:2:0:0:
190,308,27660,1,8,3:2:0:0:
190,308,27860,2,0,B|209:355|209:355|220:307,1,98.9999969787599,2|0,0:2|0:2,0:2:0:0:
44,263,28060,6,0,P|23:270|1:270,1,44,2|0,3:2|0:2,0:2:0:0:
80,121,28260,1,2,0:2:0:0:
129,178,28360,1,2,0:2:0:0:
108,250,28460,6,0,P|75:251|44:263,1,65.9999979858399,10|0,3:2|0:2,0:2:0:0:
235,298,28660,2,0,P|252:307|242:293,1,44,2|0,0:2|0:2,0:2:0:0:
193,232,28860,6,0,P|151:246|107:251,1,88,2|0,3:2|0:2,0:2:0:0:
355,154,29060,2,0,P|368:135|360:156,1,65.9999979858399,2|0,0:2|0:2,0:2:0:0:
298,215,29260,6,0,P|243:213|192:233,1,110,10|0,3:2|0:2,0:2:0:0:
365,281,29460,2,0,P|391:280|367:278,1,88,2|0,0:2|0:2,0:2:0:0:
237,65,29660,6,0,P|177:41|118:57,1,98.9999969787599,0|0,3:2|0:2,0:2:0:0:
335,289,29860,2,0,B|366:329|366:329|364:280,1,98.9999969787599,2|0,0:2|0:2,0:2:0:0:
157,171,30060,1,8,3:2:0:0:
157,170,30260,2,0,B|107:176|107:176|150:199,1,98.9999969787599,2|0,0:2|0:2,0:2:0:0:
237,307,30460,6,0,P|177:331|118:315,1,98.9999969787599,0|0,3:2|0:2,0:2:0:0:
350,75,30660,2,0,B|369:29|369:29|328:54,1,98.9999969787599,2|0,0:2|0:2,0:2:0:0:
335,290,30860,1,8,3:2:0:0:
335,289,31060,2,0,B|366:329|366:329|364:280,1,98.9999969787599,2|0,0:2|0:2,0:2:0:0:
465,134,31260,6,0,B|488:96,1,44,2|0,3:2|0:2,0:2:0:0:
265,87,31460,1,2,0:2:0:0:
343,114,31560,1,2,0:2:0:0:
409,65,31660,2,0,B|419:-4,1,65.9999979858399,10|0,3:2|0:2,0:2:0:0:
255,95,31860,2,0,L|263:141,1,44,2|0,0:2|0:2,0:2:0:0:
169,286,32060,6,0,B|180:189,1,88,2|0,3:2|0:2,0:2:0:0:
93,52,32260,2,0,B|67:51|40:65|40:65|26:42|1:30,1,110,8|0,0:1|0:2,0:2:0:0:
5,14,32460,2,0,B|30:14|57:0|57:0|71:23|96:35,1,110,8|0,3:1|0:2,0:2:0:0:
247,104,32660,6,0,L|252:152,1,44,0|0,0:2|0:2,0:2:0:0:
195,384,32860,5,4,3:2:0:0:
195,384,33060,2,0,P|206:349|232:327,1,55,2|0,0:2|0:2,0:2:0:0:
130,287,33260,2,0,P|105:267|98:239,1,55,2|0,3:2|0:2,0:2:0:0:
0,357,33460,1,2,0:2:0:0:
0,357,33660,6,0,P|30:352|72:328,1,55,2|0,3:2|0:2,0:2:0:0:
130,287,33860,2,0,P|147:261|157:230,1,55,2|0,0:2|0:2,0:2:0:0:
266,271,34060,2,0,P|303:266|340:281,1,55,2|0,3:2|0:2,0:2:0:0:
241,153,34260,2,0,P|278:219|250:293,1,131.99999597168,2|0,0:2|3:2,0:2:0:0:
268,270,34660,6,0,P|267:297|275:323,1,55,2|0,0:2|0:2,0:2:0:0:
241,153,34861,2,0,P|235:126|234:98,1,55,2|0,3:2|0:2,0:2:0:0:
389,182,35060,1,2,0:2:0:0:
389,182,35260,2,0,P|455:163|517:108,1,131.99999597168,2|0,3:2|0:2,0:2:0:0:
463,19,35660,1,0,3:2:0:0:
348,0,35860,1,0,0:2:0:0:
154,66,36060,1,0,3:2:0:0:
154,66,36260,6,0,P|151:23|134:-21,1,60.5000018463135,2|0,0:2|0:2,0:2:0:0:
77,128,36460,2,0,P|80:171|97:215,1,60.5000018463135,2|0,3:2|0:2,0:2:0:0:
133,268,36660,2,0,P|157:303|193:333,1,60.5000018463135,2|0,0:2|0:2,0:2:0:0:
253,365,36860,2,0,P|318:371|400:336,1,131.99999597168,2|0,3:2|0:2,0:2:0:0:
380,349,37260,2,0,P|338:345|301:329,1,60.5000018463135,2|0,3:2|0:2,0:2:0:0:
369,252,37460,2,0,P|397:242|420:222,1,60.5000018463135,2|0,0:2|0:2,0:2:0:0:
337,162,37660,6,0,P|266:83|98:95,1,247.500009441376,8|0,3:3|0:2,0:2:0:0:
36,2,38060,2,0,P|44:66|149:53,1,165.000006294251,8|0,3:1|0:2,0:2:0:0:
337,162,38460,6,0,P|316:126|287:97,1,82.5000031471254,8|0,3:3|0:2,0:2:0:0:
130,75,38660,1,8,0:1:0:0:
36,2,38860,2,0,P|31:35|54:77,1,65.9999979858399,8|0,3:1|0:2,0:2:0:0:
140,199,39060,1,8,3:3:0:0:
136,220,39160,1,8,3:3:0:0:
132,240,39260,6,0,L|28:224,1,82.5000031471254,4|0,3:2|0:2,0:2:0:0:
170,373,39460,2,0,L|177:313,1,55,2|0,0:2|0:2,0:2:0:0:
252,255,39660,2,0,L|258:309,1,55,2|0,3:2|0:2,0:2:0:0:
402,296,39860,1,0,0:2:0:0:
402,296,40060,6,0,P|369:294|337:302,1,65.9999979858399,2|0,3:2|0:2,0:2:0:0:
241,383,40260,2,0,P|205:383|171:374,1,71.4999967269899,2|0,0:2|0:2,0:2:0:0:
252,255,40460,2,0,P|287:230|321:221,1,76.9999976501466,2|0,3:2|0:2,0:2:0:0:
451,368,40660,2,0,P|490:310|466:241,1,131.99999597168,2|0,0:2|3:2,0:2:0:0:
476,253,41060,6,0,P|462:222|476:170,1,65.9999979858399,2|0,0:2|0:2,0:2:0:0:
320,221,41260,2,0,P|378:180|410:97,1,153.999995300293,2|0,3:2|0:2,0:2:0:0:
451,368,41660,2,0,B|367:405|328:323|181:412,1,214.49999018097,2|0,3:2|0:2,0:2:0:0:
157,368,42060,1,0,3:2:0:0:
65,377,42260,1,0,0:2:0:0:
54,211,42460,1,0,3:2:0:0:
54,211,42660,6,0,P|33:243|26:281,1,76.9999976501466,2|0,0:2|0:2,0:2:0:0:
199,213,42860,2,0,P|220:244|228:282,1,76.9999976501466,2|0,3:2|0:2,0:2:0:0:
157,368,43060,2,0,P|134:336|127:299,1,76.9999976501466,2|0,0:2|0:2,0:2:0:0:
55,211,43260,6,0,P|22:190|0:160,1,76.9999976501466,2|0,3:2|0:2,0:2:0:0:
198,212,43460,2,0,P|230:191|252:160,1,76.9999976501466,2|0,0:2|0:2,0:2:0:0:
96,53,43660,2,0,P|118:84|125:121,1,76.9999976501466,2|0,3:2|0:2,0:2:0:0:
127,300,43860,2,0,P|134:337|156:368,1,76.9999976501466,2|0,0:2|0:2,0:2:0:0:
353,269,44060,5,4,0:2:0:0:
322,247,45260,5,8,0:1:0:0:
302,247,45360,1,8,0:1:0:0:
282,247,45460,1,8,0:1:0:0:
262,247,45560,1,8,0:1:0:0:
178,270,45660,2,0,P|157:244|181:268,1,98.9999969787599,2|0,3:3|0:2,0:2:0:0:
142,346,45860,6,0,P|175:354|207:345,1,65.9999979858399,2|0,0:2|0:2,0:2:0:0:
209,165,46060,2,0,P|176:157|144:166,1,65.9999979858399,10|0,3:2|0:2,0:2:0:0:
47,253,46260,1,0,0:2:0:0:
145,165,46460,2,0,L|131:101,1,65.9999979858399,2|0,3:2|0:2,0:2:0:0:
241,0,46660,2,0,L|227:64,1,65.9999979858399,2|0,0:2|0:2,0:2:0:0:
298,138,46860,2,0,L|381:120,1,65.9999979858399,10|0,3:2|0:2,0:2:0:0:
471,80,47060,2,0,L|449:208,2,110,2|0|2,0:2|3:2|0:2,0:2:0:0:
452,188,47660,2,0,P|470:212|483:239,1,60.5000018463135,10|0,3:2|0:2,0:2:0:0:
342,335,47860,2,0,P|353:305|369:281,1,60.5000018463135,2|0,0:2|0:2,0:2:0:0:
470,80,48060,6,0,P|424:78|385:52,1,65.9999979858399,2|0,3:2|0:2,0:2:0:0:
285,143,48260,2,0,P|263:181|267:227,1,71.4999967269899,2|0,0:3|0:2,0:2:0:0:
483,239,48460,2,0,P|496:282|486:327,1,76.9999976501466,10|0,3:2|0:2,0:2:0:0:
369,281,48660,2,0,P|367:235|341:195,1,82.5000031471254,2|0,0:3|0:2,0:2:0:0:
255,362,48860,6,0,B|233:354|211:387|132:358,1,88,2|0,3:2|0:2,0:2:0:0:
0,303,49060,2,0,P|63:284|103:294,1,88,2|0,0:2|0:2,0:2:0:0:
192,285,49260,2,0,P|144:239|132:200,1,88,10|0,3:2|0:2,0:2:0:0:
80,128,49460,2,0,P|64:192|36:221,1,88,2|0,0:2|0:2,0:2:0:0:
109,39,49660,2,0,P|144:65|165:104,1,88,2|0,3:2|0:2,0:2:0:0:
220,196,49860,2,0,P|225:153|249:116,1,88,2|0,0:2|0:2,0:2:0:0:
300,21,50060,2,0,P|260:37|217:37,1,88,10|0,3:2|0:2,0:2:0:0:
390,0,50260,2,0,P|385:43|363:81,1,88,2|0,0:2|0:2,0:2:0:0:
512,134,50460,6,0,B|488:117|467:79|467:79|445:131|414:160|339:180,1,214.49999018097,2|0,3:2|0:2,0:2:0:0:
304,211,50860,1,10,3:2:0:0:
308,276,50960,1,8,0:1:0:0:
314,341,51060,1,8,0:1:0:0:
512,134,51260,6,0,P|486:109|467:79,1,71.4999967269899,2|0,3:2|0:2,0:2:0:0:
362,81,51460,2,0,P|316:74|270:75,1,93.500001783371,8|0,0:1|0:2,0:2:0:0:
304,211,51660,2,0,P|248:236|192:284,1,93.500001783371,10|0,3:2|0:2,0:2:0:0:
314,341,51860,1,8,0:3:0:0:
370,384,51960,1,8,0:3:0:0:
440,384,52060,6,0,L|440:280,1,88,4|0,3:2|0:2,0:2:0:0:
410,205,52260,2,0,P|453:197|493:214,1,88,2|0,0:2|0:2,0:2:0:0:
314,183,52460,2,0,P|329:143|364:117,1,88,10|0,3:2|0:2,0:2:0:0:
251,256,52660,2,0,P|223:223|218:180,1,88,2|0,0:2|0:2,0:2:0:0:
76,372,52860,2,0,P|105:338|112:297,1,88,2|0,3:2|0:2,0:2:0:0:
5,220,53060,2,0,P|48:228|88:214,1,88,2|0,0:2|0:2,0:2:0:0:
100,82,53260,2,0,P|114:123|146:151,1,88,10|0,3:2|0:2,0:2:0:0:
191,70,53460,2,0,P|250:31|305:31,2,110,2|0|2,0:2|3:2|0:2,0:2:0:0:
191,70,54060,6,0,B|277:-1|409:56|353:186|256:172|226:104,1,296.99999093628,10|0,3:2|0:2,0:2:0:0:
256,116,54460,2,0,P|339:85|406:184,1,197.99999395752,2|0,3:2|0:2,0:2:0:0:
411,236,54860,5,8,3:1:0:0:
311,377,55060,1,2,0:2:0:0:
311,377,55260,6,0,P|332:380|354:377,1,44,2|0,3:3|0:2,0:2:0:0:
256,116,55460,1,8,0:1:0:0:
81,210,55660,1,8,0:1:0:0:
201,377,55860,1,2,0:2:0:0:
201,377,56060,6,0,P|180:380|158:377,1,44,2|0,3:3|0:2,0:2:0:0:
256,116,56260,1,8,0:1:0:0:
431,210,56460,1,8,0:1:0:0:
311,377,56660,2,0,P|308:349|298:317,1,44,0|0,0:2|0:2,0:2:0:0:
352,243,56860,6,8,P|327:227|277:217,1,55,10|0,3:1|0:2,0:2:0:0:
256,116,57060,1,8,0:1:0:0:
189,77,57160,1,8,0:1:0:0:
122,111,57260,2,8,P|118:139|121:166,1,55,10|0,0:1|0:2,0:2:0:0:
312,43,57460,2,8,P|316:20|315:-1,1,44,8|0,0:1|0:2,0:2:0:0:
348,141,57660,6,8,P|369:138|389:133,1,32.99999899292,0|0,3:2|0:2,0:2:0:0:
120,165,57860,6,0,B|81:156|81:156|15:183,1,82.5000031471254,2|0,0:3|0:2,0:2:0:0:
390,358,58060,2,0,B|488:324|508:239|427:189|380:253,1,247.500009441376,2|0,0:3|0:2,0:2:0:0:
197,285,58460,6,0,P|218:196|287:257,1,220,6|0,3:2|0:2,0:2:0:0:
287,257,59060,1,2,3:2:0:0:
287,257,59260,5,8,0:2:0:0:
197,285,59459,1,0,0:2:0:0:
124,228,59660,1,2,0:2:0:0:
136,136,59860,1,0,0:2:0:0:
225,96,60060,6,0,L|232:137,5,29.3333333333333,2|2|2|2|2|2,3:2|0:2|0:2|0:2|0:2|0:2,0:2:0:0:
136,136,60460,5,8,0:1:0:0:
124,228,60593,5,8,0:1:0:0:
197,285,60726,5,8,0:1:0:0:
287,257,60860,6,0,B|399:209,2,88,10|0|2,0:2|0:2|0:3,0:2:0:0:
59,315,61660,6,0,P|46:235|167:214,1,220,2|0,3:2|0:2,0:2:0:0:
160,207,62260,1,2,3:2:0:0:
160,207,62460,6,0,L|169:250,1,44,10|0,0:2|0:2,0:2:0:0:
286,298,62660,2,0,L|256:266,1,44,2|0,0:2|0:2,0:2:0:0:
361,210,62860,2,0,L|413:225,1,55,2|0,0:2|0:2,0:2:0:0:
480,100,63060,2,0,L|427:113,1,55,2|0,0:2|0:2,0:2:0:0:
385,10,63260,6,2,L|296:-1,1,82.5000031471254,2|0,3:2|0:2,0:2:0:0:
216,86,63460,1,2,0:2:0:0:
226,87,63526,1,2,0:2:0:0:
237,88,63593,1,2,0:2:0:0:
247,89,63660,2,0,L|336:100,1,82.5000031471254,2|0,3:2|0:2,0:2:0:0:
427,113,63860,2,0,L|508:125,1,82.5000031471254,2|0,0:2|0:2,0:2:0:0:
361,210,64060,2,0,P|302:207|280:286,1,123.750004720688,8|0,0:2|0:2,0:2:0:0:
279,344,64460,6,0,B|321:342|331:366|331:366|307:375|279:344,1,121.000003692627,2|0,0:3|0:2,0:2:0:0:
192,384,64660,1,8,0:2:0:0:
116,384,64760,1,8,0:2:0:0:
40,384,64860,6,0,B|27:353|29:318|77:288|80:255|34:185,1,165.000006294251,4|0,3:2|0:2,0:2:0:0:
272,257,65260,2,0,L|281:360,1,88,10|0,3:2|0:2,0:2:0:0:
371,87,65660,2,0,L|380:-16,1,88,2|0,3:2|0:2,0:2:0:0:
72,0,66060,2,0,L|95:97,1,88,10|0,3:2|0:2,0:2:0:0:
371,87,66460,6,0,L|413:98,1,44,2|0,3:2|0:2,0:2:0:0:
315,159,66660,2,0,L|357:170,1,44,2|0,0:2|0:2,0:2:0:0:
92,85,66860,2,0,L|49:95,1,44,10|0,3:2|0:2,0:2:0:0:
158,154,67060,2,0,L|115:164,1,44,2|0,0:2|0:2,0:2:0:0:
235,0,67260,2,0,L|239:144,1,132,2|0,3:2|0:2,0:2:0:0:
240,210,67660,1,8,3:2:0:0:
270,302,67860,1,0,0:2:0:0:
470,384,68060,6,0,B|491:333|491:333|421:271|421:271|432:200,1,220,6|0,3:1|0:2,0:2:0:0:
432,200,69260,5,8,0:2:0:0:
281,57,69460,1,8,0:2:0:0:
301,19,69560,1,8,0:2:0:0:
358,0,69660,6,0,B|397:41|397:41|432:200,1,220,6|0,0:1|0:2,0:2:0:0:
432,200,70860,5,8,0:1:0:0:
413,201,70960,1,8,0:1:0:0:
396,203,71060,2,0,P|364:199|316:206,1,44,8|0,0:3|0:2,0:2:0:0:
77,325,71260,6,0,B|57:260|57:260|121:244|121:244|195:166,1,220,6|0,0:1|0:2,0:2:0:0:
180,181,72460,5,8,0:2:0:0:
184,142,72560,1,8,0:2:0:0:
219,99,72660,1,8,0:2:0:0:
286,83,72760,1,8,0:2:0:0:
354,99,72860,6,0,B|404:175|404:175|308:195|308:195|313:124,1,220,4|0,3:2|0:2,0:2:0:0:
507,43,73260,1,2,3:2:0:0:
512,60,73460,1,0,0:2:0:0:
462,341,73660,5,2,3:2:0:0:
436,248,73860,1,0,0:2:0:0:
410,156,74060,1,2,3:2:0:0:
385,63,74260,1,0,0:0:0:0:
197,79,74460,5,10,3:1:0:0:
240,249,74660,1,0,3:1:0:0:
52,326,74860,5,10,3:1:0:0:
4,139,75060,1,0,3:0:0:0:
192,61,75260,5,10,3:1:0:0:
244,266,75460,1,0,3:0:0:0:
57,343,75660,5,8,0:2:0:0:
32,274,75760,1,8,0:2:0:0:
62,206,75860,1,8,0:2:0:0:
130,177,75960,2,0,L|214:185,1,55,10|0,0:2|0:2,0:2:0:0:
185,183,76260,5,0,0:2:0:0:
340,168,76460,1,0,0:2:0:0:
130,177,76660,1,0,0:2:0:0:
405,156,76860,2,0,L|291:176,1,65.9999979858399,2|0,0:2|0:2,0:2:0:0:
269,253,77060,5,4,0:3:0:0:
262,176,77160,1,4,0:3:0:0:
251,99,77260,2,0,B|220:88|220:88|200:51|240:18|240:18|281:38|273:80|273:80|251:99,1,220,2|0,0:3|0:2,0:2:0:0:
340,167,77660,6,0,B|392:145|392:145|448:159|448:159|511:146,1,165.000006294251,6|0,3:2|0:2,0:2:0:0:
468,349,78060,2,0,P|411:317|302:345,1,165.000006294251,10|0,3:2|0:2,0:2:0:0:
79,336,78460,6,0,P|38:332|0:346,1,82.5000031471254,2|0,3:2|0:2,0:2:0:0:
149,212,78660,2,0,P|182:235|223:242,1,82.5000031471254,2|0,0:2|0:2,0:2:0:0:
376,281,78860,2,0,P|340:301|317:335,1,82.5000031471254,10|0,3:2|0:2,0:2:0:0:
158,346,79260,6,0,P|117:349|78:335,1,82.5000031471254,2|0,3:2|0:2,0:2:0:0:
74,181,79460,2,0,P|114:188|148:211,1,82.5000031471254,2|0,0:2|0:2,0:2:0:0:
434,226,79660,2,0,P|410:259|375:280,1,82.5000031471254,10|0,3:2|0:2,0:2:0:0:
237,356,80060,6,0,P|198:342|157:345,1,82.5000031471254,2|0,3:2|0:2,0:2:0:0:
0,151,80260,2,0,P|33:174|74:181,1,82.5000031471254,2|0,0:2|0:2,0:2:0:0:
210,25,80460,6,0,P|170:15|129:22,1,55,10|0,3:2|0:2,3:2:0:0:
316,128,80660,2,0,P|277:139|236:132,1,55,0|0,0:2|0:2,0:2:0:0:
418,117,80860,6,0,B|425:152|444:186|429:257,1,110,2|0,3:2|0:2,0:2:0:0:
300,333,81060,2,0,B|293:298|274:264|289:193,1,110,2|0,0:2|0:2,0:2:0:0:
436,131,81260,2,0,B|443:166|462:200|447:271,1,110,10|0,3:2|0:2,0:2:0:0:
318,347,81460,2,0,B|311:312|268:275|337:180|234:114,1,220,2|0,0:2|3:2,0:2:0:0:
31,221,81860,2,0,B|79:230|79:230|108:251|108:251|142:241|142:241|187:249,2,165.000006294251,2|10|2,0:2|3:2|0:2,0:2:0:0:
130,119,82460,6,0,B|137:73|137:73|117:44,1,82.5000031471254,6|0,3:2|0:2,0:2:0:0:
212,9,82660,2,0,B|223:42|223:42|205:86,1,82.5000031471254,2|0,0:2|0:2,0:2:0:0:
285,72,82860,2,0,B|315:34|315:34|312:0,1,82.5000031471254,12|0,3:2|0:2,0:2:0:0:
411,18,83060,2,0,B|404:52|404:52|366:81,1,82.5000031471254,2|0,0:2|0:2,0:2:0:0:
130,119,83260,6,0,L|225:-9,1,137.5,2|0,0:3|0:2,0:2:0:0:
312,0,83460,2,0,L|205:85,1,137.5,2|0,0:3|0:2,0:2:0:0:
287,73,83660,2,0,L|432:9,1,137.5,2|0,0:3|0:2,0:2:0:0:
496,147,83860,1,0,0:2:0:0:
496,147,84060,6,0,B|506:261|506:261|510:297|471:324,1,165.000006294251,6|0,3:2|0:2,0:2:0:0:
294,364,84460,2,0,P|270:316|288:203,1,165.000006294251,10|0,3:2|0:2,0:2:0:0:
433,14,84860,6,0,P|473:17|512:3,1,82.5000031471254,2|0,3:2|0:2,0:2:0:0:
363,147,85060,2,0,P|329:123|288:116,1,82.5000031471254,2|0,0:2|0:2,0:2:0:0:
379,19,85260,6,0,P|405:11|432:13,1,55,10|0,3:2|0:2,0:2:0:0:
412,168,85460,2,0,P|385:161|362:146,1,55,0|0,0:2|0:2,0:2:0:0:
140,80,85660,6,0,P|143:39|129:1,1,82.5000031471254,2|0,3:2|0:2,0:2:0:0:
289,115,85860,2,0,P|265:148|258:189,1,82.5000031471254,2|0,0:2|0:2,0:2:0:0:
159,340,86060,2,0,P|147:300|121:269,1,82.5000031471254,10|0,3:2|0:2,0:2:0:0:
150,159,86460,6,0,P|136:120|139:79,1,82.5000031471254,2|0,3:2|0:2,0:2:0:0:
257,190,86660,2,0,P|249:230|226:264,1,82.5000031471254,2|0,0:2|0:2,0:2:0:0:
434,183,86860,6,0,P|426:151|441:99,1,55,10|0,3:2|0:2,0:2:0:0:
502,328,87060,2,0,B|510:296|501:282|495:244,1,55,0|0,0:2|0:2,0:2:0:0:
328,361,87260,2,0,B|331:381|291:396|282:333|349:303|361:149,1,220,6|0,3:2|0:2,0:2:0:0:
394,38,87660,6,0,P|333:46|249:27,1,110,10|0,3:2|0:2,0:2:0:0:
136,0,88060,1,2,0:2:0:0:
0,101,88260,1,2,3:2:0:0:
134,301,88460,2,0,P|113:218|114:134,1,153.999995300293,10|0,0:2|0:2,0:2:0:0:
469,3,88860,6,0,P|470:90|418:160,1,176,6|0,3:2|0:2,0:2:0:0:
113,150,89260,2,0,P|187:161|229:224,1,153.999995300293,10|0,0:2|0:2,0:2:0:0:
158,27,89660,1,2,0:0:0:0:
274,1,89860,1,2,3:2:0:0:
419,159,90060,2,0,P|409:251|319:275,1,197.99999395752,8|0,0:2|0:2,0:2:0:0:
228,115,90460,6,0,P|168:109|109:157,1,132,6|0,3:2|0:2,0:2:0:0:
78,220,90860,2,0,P|85:295|106:323,1,88,2|0,0:3|0:2,0:2:0:0:
90,304,91260,6,0,P|146:271|224:279,1,132,10|0,0:2|0:2,0:2:0:0:
249,294,91660,1,2,0:3:0:0:
314,384,91860,1,2,3:2:0:0:
512,314,92060,6,0,P|473:337|381:326,1,131.99999597168,6|0,3:2|0:3,0:3:0:0:
341,257,92460,1,2,0:2:0:0:
335,225,92660,1,0,0:2:0:0:
286,244,92860,5,10,0:2:0:0:
207,244,93060,1,2,0:2:0:0:
125,188,93260,1,2,0:2:0:0:
84,79,93460,1,2,0:2:0:0:
345,26,93860,5,6,3:1:0:0:
204,265,94060,1,6,3:1:0:0:
84,79,94260,5,8,0:1:0:0:
101,32,94360,1,8,0:1:0:0:
155,7,94460,2,0,L|299:2,1,110,6|0,3:1|0:2,0:2:0:0:
507,140,94660,2,0,B|452:100|452:100|277:105,1,220,6|0,3:1|0:2,0:2:0:0:
166,145,95060,1,10,2:1:0:0:
512,138,95260,5,6,3:1:0:0:
265,4,95460,1,0,0:2:0:0:
269,275,95660,1,6,3:1:0:0:
511,143,95860,1,0,0:2:0:0:
270,0,96060,2,0,B|257:71|336:126|363:71|421:112|438:184,1,255.750001951218,12|0,0:2|0:2,0:2:0:0:
453,248,96460,5,8,0:2:0:0:
445,299,96560,1,8,0:2:0:0:
405,342,96660,1,8,0:2:0:0:
337,373,96760,1,8,0:2:0:0:
256,381,96860,6,0,P|243:334|256:287,1,98.9999969787599,4|0,3:2|0:2,0:2:0:0:
410,188,97060,2,0,B|458:189|458:189|418:159,1,98.9999969787599,2|0,0:2|0:2,0:2:0:0:
255,286,97260,2,0,P|268:239|256:192,1,98.9999969787599,8|0,3:2|0:2,0:2:0:0:
146,93,97460,2,0,B|97:91|97:91|137:121,1,98.9999969787599,2|0,0:2|0:2,0:2:0:0:
255,2,97660,6,0,P|268:49|256:97,1,98.9999969787599,0|0,3:2|0:2,0:2:0:0:
410,188,97860,2,0,B|458:186|458:186|418:216,1,98.9999969787599,2|0,0:2|0:2,0:2:0:0:
256,97,98059,2,0,P|243:144|256:192,1,98.9999969787599,8|0,3:2|0:2,0:2:0:0:
146,291,98260,2,0,B|97:292|97:292|137:262,1,98.9999969787599,2|0,0:2|0:2,0:2:0:0:
341,346,98460,6,0,P|362:388|362:419,1,44,2|0,3:2|0:2,0:2:0:0:
241,273,98660,2,0,P|241:283|245:276,1,22,2|0,0:2|0:2,0:2:0:0:
325,283,98860,6,0,P|325:313|341:346,1,65.9999979858399,10|0,3:2|0:2,0:2:0:0:
323,128,99060,2,0,P|339:126|327:132,1,44,2|0,0:2|0:2,0:2:0:0:
291,206,99260,6,0,P|325:260|319:300,1,88,2|0,3:2|0:2,0:2:0:0:
153,175,99460,2,0,P|138:195|157:180,1,65.9999979858399,2|0,0:2|0:2,0:2:0:0:
235,119,99660,6,0,P|250:172|293:207,1,110,10|0,3:2|0:2,0:2:0:0:
292,43,99860,2,0,P|315:23|297:47,1,88,2|0,0:2|0:2,0:2:0:0:
173,77,100060,6,0,P|98:89|62:110,1,98.9999969787599,0|0,3:2|0:2,0:2:0:0:
78,252,100260,2,0,B|76:300|76:300|106:260,1,98.9999969787599,2|0,0:2|0:2,0:2:0:0:
173,77,100460,2,0,P|234:119|274:128,1,98.9999969787599,8|0,3:2|0:2,0:2:0:0:
434,132,100660,2,0,B|436:84|436:84|406:124,1,98.9999969787599,2|0,0:2|0:2,0:2:0:0:
339,307,100860,6,0,P|412:294|447:273,1,98.9999969787599,0|0,3:2|0:2,0:2:0:0:
405,123,101060,2,0,B|407:75|407:75|377:115,1,98.9999969787599,2|0,0:2|0:2,0:2:0:0:
339,307,101260,2,0,P|277:264|237:255,1,98.9999969787599,8|0,3:2|0:2,0:2:0:0:
107,261,101460,2,0,B|105:309|105:309|135:269,1,98.9999969787599,2|0,0:2|0:2,0:2:0:0:
122,128,101660,6,0,B|123:110|123:110|157:74,1,44,2|0,3:2|0:2,0:2:0:0:
221,133,101860,2,0,L|212:185,1,44,2|0,0:2|0:2,0:2:0:0:
81,190,102060,2,0,B|62:184|62:184|38:143,1,65.9999979858399,10|0,3:2|0:2,0:2:0:0:
238,146,102260,2,0,L|229:198,1,44,2|0,0:2|0:2,0:2:0:0:
107,261,102460,6,0,B|78:275|78:275|22:256,1,88,2|0,3:2|0:2,0:2:0:0:
229,283,102660,2,0,B|256:303|256:303|280:357|253:403,1,110,10|0,0:2|0:2,0:2:0:0:
246,384,102860,2,0,B|219:364|219:364|195:310|222:264,1,110,10|0,3:2|0:2,0:2:0:0:
256,156,103060,6,0,L|247:208,1,44,2|0,0:2|0:2,0:2:0:0:
418,381,103260,6,0,P|407:291|495:271,1,197.99999395752,6|0,3:1|0:2,0:2:0:0:
496,272,104860,5,6,3:2:0:0:
317,132,105060,1,6,3:2:0:0:
507,271,105260,2,0,L|512:74,1,197.99999395752,6|0,3:2|0:2,0:2:0:0:
306,133,105660,2,0,L|301:330,1,197.99999395752,14|0,3:2|0:2,0:2:0:0:
300,330,106460,6,0,B|215:338|215:338|195:359|195:359|111:366,1,197.99999395752,6|0,3:1|0:2,0:2:0:0:
111,365,108060,5,6,3:2:0:0:
204,113,108260,1,6,3:2:0:0:
119,352,108460,2,0,L|112:277,1,55,6|0,3:2|0:2,0:2:0:0:
193,122,108660,2,0,L|199:197,1,55,2|0,3:2|0:2,0:2:0:0:
0,172,108860,2,0,L|197:177,1,197.99999395752,14|0,3:2|0:2,0:2:0:0:
198,178,109660,6,0,B|215:347|215:347|199:370,1,197.99999395752,6|0,0:1|0:2,0:2:0:0:
198,370,111260,5,6,3:2:0:0:
270,187,111460,1,6,3:2:0:0:
197,384,111660,2,0,L|0:379,1,197.99999395752,6|0,3:2|0:2,0:2:0:0:
272,174,112059,2,0,L|469:170,1,197.99999395752,14|0,3:2|0:2,0:2:0:0:
470,170,112860,6,0,P|444:127|443:79,1,98.9999969787599,6|0,3:1|0:2,0:2:0:0:
399,274,113260,2,0,P|385:321|396:368,1,98.9999969787599,6|0,3:2|0:2,0:2:0:0:
319,204,113660,2,0,P|318:155|341:111,1,98.9999969787599,6|0,3:1|0:2,0:2:0:0:
250,252,114060,2,0,P|261:299|295:335,1,98.9999969787599,6|0,3:2|0:2,0:2:0:0:
175,213,114460,2,0,P|198:170|240:144,1,98.9999969787599,6|0,3:1|0:2,0:2:0:0:
114,253,114860,2,0,P|148:288|194:302,1,98.9999969787599,6|0,3:2|0:2,0:2:0:0:
49,204,115260,2,0,P|91:178|139:177,1,98.9999969787599,6|0,3:1|0:2,0:2:0:0:
0,267,115660,2,0,P|47:280|94:269,1,98.9999969787599,6|0,3:2|0:2,0:2:0:0:
191,262,116060,6,0,P|139:258|92:269,1,98.9999969787599,2|0,3:2|0:2,0:2:0:0:
235,159,116260,6,0,P|186:175|137:177,1,98.9999969787599,0|0,3:2|0:2,0:2:0:0:
278,304,116460,6,0,P|235:275|188:261,1,98.9999969787599,0|0,3:2|0:2,0:2:0:0:
308,95,116660,6,0,P|274:133|232:159,1,98.9999969787599,0|0,3:2|0:2,0:2:0:0:
332,384,116860,6,0,P|309:338|275:302,1,98.9999969787599,0|0,3:2|0:2,0:2:0:0:
340,2,117060,6,0,P|330:52|306:95,1,98.9999969787599,0|0,3:2|0:2,0:2:0:0:
383,183,117260,1,8,0:2:0:0:
408,107,117360,1,8,0:2:0:0:
487,107,117460,1,8,0:2:0:0:
512,183,117560,1,8,0:2:0:0:
448,229,117660,6,0,P|399:212|350:210,1,98.9999969787599,4|0,3:2|0:2,0:2:0:0:
163,179,117860,2,0,P|136:180|110:173,1,55,2|0,0:2|0:2,0:2:0:0:
254,252,118060,2,0,P|269:276|276:303,1,55,2|0,3:2|0:2,0:2:0:0:
273,136,118261,2,0,P|287:113|306:93,1,55,2|0,0:2|0:2,0:2:0:0:
197,74,118460,6,0,L|132:66,1,65.9999979858399,2|0,3:2|0:2,0:2:0:0:
110,173,118660,2,0,L|47:148,1,65.9999979858399,2|0,0:2|0:2,0:2:0:0:
185,28,118860,2,0,L|108:81,1,65.9999979858399,2|0,3:2|0:2,0:2:0:0:
124,282,119060,2,0,L|42:138,2,153.999995300293,2|0|2,0:2|3:2|0:2,0:2:0:0:
124,282,119660,6,0,L|106:369,1,65.9999979858399,2|0,3:2|0:2,0:2:0:0:
250,384,119860,2,0,L|232:297,1,65.9999979858399,2|0,0:2|0:2,0:2:0:0:
223,194,120060,2,0,L|88:311,3,131.99999597168,2|0|0|0,3:2|0:2|3:2|0:2,0:2:0:0:
299,282,120860,1,0,3:2:0:0:
299,282,121060,6,0,P|312:220|305:175,1,71.4999967269899,2|0,0:2|0:2,0:2:0:0:
245,94,121260,2,0,P|230:146|242:208,1,71.4999967269899,2|0,3:2|0:2,0:2:0:0:
401,198,121460,2,0,P|415:145|403:83,1,71.4999967269899,2|0,0:2|0:2,0:2:0:0:
339,44,121660,2,0,L|326:131,3,88,2|0|2|0,3:2|0:2|3:2|0:2,0:2:0:0:
216,287,122460,6,0,B|226:223|226:223|314:206|314:206|326:130,1,230.99999295044,8|0,3:3|0:2,0:2:0:0:
425,45,122860,2,0,L|401:196,1,153.999995300293,8|0,3:1|0:2,0:2:0:0:
216,287,123260,6,0,L|227:210,1,76.9999976501466,8|0,3:3|0:2,0:2:0:0:
325,129,123460,1,8,0:1:0:0:
425,45,123660,2,0,L|414:110,1,65.9999979858399,8|0,3:1|0:2,0:2:0:0:
400,197,123860,1,8,0:3:0:0:
395,229,123960,1,8,0:3:0:0:
390,260,124060,6,0,P|358:282|321:291,1,76.9999976501466,4|0,3:2|0:2,0:2:0:0:
273,384,124260,2,0,P|243:369|191:329,1,55,2|0,0:2|0:2,0:2:0:0:
128,372,124460,2,0,P|129:340|139:319,1,55,2|0,3:2|0:2,0:2:0:0:
127,222,124660,2,0,P|162:223|186:234,1,55,2|0,0:2|0:2,0:2:0:0:
52,282,124860,6,0,P|29:293|-1:294,1,55,2|0,3:2|0:2,0:2:0:0:
15,139,125060,2,0,P|33:166|39:188,1,55,2|0,0:2|0:2,0:2:0:0:
119,128,125260,2,0,P|114:98|121:72,1,55,2|0,3:2|0:2,0:2:0:0:
39,44,125460,2,0,P|89:54|138:97,1,88,2|0,0:2|3:2,0:2:0:0:
120,73,125860,6,0,P|152:65|193:63,1,65.9999979858399,2|0,0:2|0:2,0:2:0:0:
274,139,126060,2,0,P|241:144|208:146,1,65.9999979858399,2|0,3:2|0:2,0:2:0:0:
331,11,126260,2,0,P|335:43|335:77,1,65.9999979858399,2|0,0:2|0:2,0:2:0:0:
208,145,126460,2,0,P|195:215|212:296,3,142.99999345398,2|0|0|0,3:2|0:2|3:2|0:2,0:2:0:0:
306,133,128860,5,14,0:2:0:0:
216,302,129060,1,0,3:2:0:0:
366,202,129260,5,12,0:2:0:0:
117,146,129460,1,0,3:2:0:0:
284,358,129660,5,12,0:2:0:0:
245,42,129860,1,0,3:2:0:0:
193,40,129960,1,8,3:2:0:0:
150,65,130060,1,4,0:3:0:0:
365,302,130260,1,0,3:2:0:0:
28,379,130460,6,0,P|5:261|83:156,1,220,6|2,3:2|0:2,0:2:0:0:
51,178,131060,1,0,3:2:0:0:
51,178,131260,5,10,0:2:0:0:
135,153,131460,1,0,0:2:0:0:
217,178,131660,1,2,0:2:0:0:
273,244,131860,1,0,0:2:0:0:
135,153,132060,5,2,3:2:0:0:
217,178,132260,1,2,0:2:0:0:
284,329,132460,2,0,P|284:284|272:243,1,86.9000021215821,2|0,3:2|0:2,0:2:0:0:
217,178,132860,2,0,B|239:188|267:187|267:187|260:217|272:244,1,110,10|0,0:2|0:2,0:2:0:0:
273,244,133260,6,0,P|240:214|218:177,1,86.9000021215821,2|0,0:3|0:2,0:2:0:0:
441,4,133660,6,0,P|344:55|392:159,1,220,2|0,3:2|0:2,0:2:0:0:
368,145,134260,1,2,3:2:0:0:
368,145,134460,6,0,L|410:158,1,44,10|0,0:2|0:2,0:2:0:0:
281,195,134660,2,0,L|239:182,1,44,2|0,0:2|0:2,0:2:0:0:
356,293,134860,2,0,L|419:312,1,55,2|0,0:2|0:2,0:2:0:0:
232,362,135060,2,0,L|165:341,1,55,2|0,0:2|0:2,0:2:0:0:
238,181,135260,6,0,L|258:271,1,82.5000031471254,2|0,3:2|0:2,0:2:0:0:
418,353,135460,1,2,0:2:0:0:
415,339,135526,1,2,0:2:0:0:
412,324,135593,1,0,0:2:0:0:
408,309,135660,2,0,L|387:218,1,82.5000031471254,2|0,3:2|0:2,0:2:0:0:
219,100,135860,2,0,L|240:191,1,82.5000031471254,2|0,0:2|0:2,0:2:0:0:
389,228,136060,2,0,B|373:160|373:160|365:121|327:119,1,123.750004720688,10|0,0:2|0:2,0:2:0:0:
297,46,136460,6,0,B|301:7|326:2|326:2|330:25|297:46,1,110,2|0,0:3|0:2,0:2:0:0:
170,23,136660,1,8,0:2:0:0:
94,0,136760,1,8,0:2:0:0:
27,41,136860,6,8,B|8:87|8:87|52:143|52:143|36:184,1,165.000006294251,4|0,3:2|0:2,0:2:0:0:
237,179,137260,2,0,P|291:168|346:164,1,110,10|0,3:2|0:2,0:2:0:0:
122,301,137660,2,0,P|68:321|-20:340,1,110,2|0,3:2|0:2,0:2:0:0:
304,384,138060,2,0,B|384:366|439:370|439:370|401:350,1,165,10|0,3:2|0:2,0:2:0:0:
231,364,138460,6,0,L|224:309,1,55,2|0,3:2|0:2,0:2:0:0:
123,303,138660,2,0,L|116:248,1,55,2|0,0:2|0:2,0:2:0:0:
93,26,138860,2,0,L|100:81,1,55,10|0,3:2|0:2,0:2:0:0:
201,87,139060,2,0,L|208:142,1,55,2|0,0:2|0:2,0:2:0:0:
22,159,139260,5,2,3:2:0:0:
116,248,139460,1,0,0:2:0:0:
262,210,139660,1,10,3:2:0:0:
405,0,139860,6,0,B|463:28|463:28|393:166,1,220,6|0,0:1|0:2,0:2:0:0:
392,166,141260,5,8,0:2:0:0:
323,109,141360,1,8,0:2:0:0:
239,127,141460,6,0,B|169:181|169:181|265:270,1,220,6|0,0:1|0:2,0:2:0:0:
264,270,142860,6,0,B|249:184|249:184|177:123|177:123|161:31,1,275,6|0,0:1|0:2,0:2:0:0:
160,14,143460,6,0,B|199:2|199:2|348:32,1,110,6|0,0:1|0:2,0:2:0:0:
485,164,143660,2,0,B|508:230|508:230|472:308|472:308|409:321,1,220,6|0,0:1|0:2,0:2:0:0:
11,341,144060,6,0,B|-1:302|-1:302|29:153,1,110,6|0,0:1|0:2,0:2:0:0:
161,30,144260,2,0,B|227:6|227:6|305:43|305:43|318:105,1,220,6|0,0:1|0:2,0:2:0:0:
264,270,144660,6,0,B|254:213|164:86|-27:92|-5:234|116:209|94:107,1,330,14|0,0:2|0:2,0:2:0:0:
71,49,145060,5,0,3:2:0:0:
95,315,145260,1,10,0:1:0:0:
227,97,145460,1,0,3:2:0:0:
336,341,145660,1,10,0:1:0:0:
418,76,145860,1,0,3:2:0:0:
438,266,146060,5,8,0:2:0:0:
361,229,146160,1,8,0:2:0:0:
355,142,146260,1,8,0:2:0:0:
404,70,146360,1,8,0:2:0:0:
404,70,146660,6,0,B|337:23|243:65|244:152|244:152|243:252|77:260|66:156|90:125|195:140|183:259|165:314,1,593.999981872559,4|0,0:2|0:2,0:2:0:0:
129,384,147660,5,0,0:2:0:0:
165,313,147860,1,0,0:2:0:0:
414,384,148060,6,0,B|428:344|456:333|456:333|483:273|445:229,1,165.000006294251,6|0,3:2|0:2,0:2:0:0:
241,110,148460,2,0,P|165:139|124:209,1,165.000006294251,10|0,3:2|0:2,0:2:0:0:
235,302,148860,6,0,L|227:385,1,82.5000031471254,2|0,3:2|0:2,0:2:0:0:
360,229,149060,2,0,L|331:151,1,82.5000031471254,2|0,0:2|0:2,0:2:0:0:
124,209,149260,2,0,L|82:280,1,82.5000031471254,10|0,3:2|0:2,0:2:0:0:
242,219,149660,6,0,L|231:334,1,82.5000031471254,2|0,3:2|0:2,0:2:0:0:
389,307,149860,2,0,L|360:229,1,82.5000031471254,2|0,0:2|0:2,0:2:0:0:
166,138,150060,2,0,L|124:209,1,82.5000031471254,10|0,3:2|0:2,0:2:0:0:
249,136,150460,6,0,L|240:226,1,82.5000031471254,2|0,3:2|0:2,0:2:0:0:
418,384,150660,2,0,L|389:306,1,82.5000031471254,2|0,0:2|0:2,0:2:0:0:
235,273,150860,6,0,L|240:218,1,55,10|0,3:2|0:2,0:2:0:0:
53,327,151060,2,0,L|81:279,1,55,0|0,0:2|0:2,0:2:0:0:
133,66,151260,6,0,B|168:59|202:40|273:55,1,110,2|0,3:2|0:2,0:2:0:0:
436,166,151460,2,0,B|401:173|367:192|296:177,1,110,2|0,0:2|0:2,0:2:0:0:
147,48,151660,2,0,B|182:41|216:22|287:37,1,110,10|0,3:2|0:2,0:2:0:0:
450,148,151860,2,0,B|415:155|378:198|283:129|217:232,1,220,2|0,0:2|3:2,0:2:0:0:
138,358,152260,2,0,B|146:313|146:313|136:279|136:279|157:250|157:250|166:202,2,165.000006294251,2|10|2,0:2|3:2|0:2,0:2:0:0:
434,358,152860,6,0,B|416:327|416:327|426:281,1,82.5000031471254,2|0,3:2|0:2,0:2:0:0:
266,313,153060,2,0,B|235:349|235:349|235:384,1,82.5000031471254,6|0,0:2|0:2,0:2:0:0:
336,384,153260,2,0,B|327:350|327:350|348:307,1,82.5000031471254,8|0,3:2|0:2,0:2:0:0:
187,298,153460,2,0,B|148:324|148:324|138:358,1,82.5000031471254,6|0,0:2|0:2,0:2:0:0:
426,281,153660,6,0,L|320:400,1,137.5,2|0,0:3|0:2,0:2:0:0:
235,384,153860,2,0,L|350:309,1,137.5,2|0,0:3|0:2,0:2:0:0:
268,314,154060,2,0,L|117:365,1,137.5,2|0,0:3|0:2,0:2:0:0:
28,215,154260,1,0,0:2:0:0:
28,215,154460,6,0,B|24:170|3:139|3:139|30:60,1,165.000006294251,6|0,3:2|0:2,0:2:0:0:
292,0,154860,2,0,P|323:68|290:155,1,165.000006294251,10|0,3:2|0:2,0:2:0:0:
137,357,155260,6,0,L|49:369,1,82.5000031471254,2|0,3:2|0:2,0:2:0:0:
257,222,155460,2,0,L|377:271,1,82.5000031471254,2|0,0:2|0:2,0:2:0:0:
191,349,155660,6,0,L|103:361,1,55,10|0,3:2|0:2,0:2:0:0:
206,200,155860,2,0,L|266:224,1,55,0|0,0:2|0:2,0:2:0:0:
500,268,156060,6,0,L|511:348,1,82.5000031471254,2|0,3:2|0:2,0:2:0:0:
333,253,156260,2,0,L|382:133,1,82.5000031471254,2|0,0:2|0:2,0:2:0:0:
433,17,156460,2,0,L|480:106,1,82.5000031471254,10|0,3:2|0:2,0:2:0:0:
488,186,156860,6,0,L|499:266,1,82.5000031471254,2|0,3:2|0:2,0:2:0:0:
364,176,157060,2,0,L|395:99,1,82.5000031471254,2|0,0:2|0:2,0:2:0:0:
248,48,157260,6,0,L|259:128,1,55,10|0,3:2|0:2,0:2:0:0:
159,256,157460,2,0,L|180:206,1,55,0|0,0:2|0:2,0:2:0:0:
73,25,157660,2,0,B|100:-1|19:-21|-18:25|34:164,1,220,6|0,3:2|0:2,0:2:0:0:
103,329,158060,5,2,0:0:0:0:
210,384,158260,1,2,3:2:0:0:
493,256,158460,2,0,P|445:210|353:240,1,131.99999597168,10|0,0:2|0:2,0:2:0:0:
134,70,158860,2,0,P|181:129|180:205,1,153.999995300293,2|0,3:2|0:2,0:2:0:0:
298,384,159260,6,0,P|351:319|462:357,1,176,6|8,3:2|0:1,0:2:0:0:
268,142,159660,1,8,0:3:0:0:
384,214,159860,1,0,3:0:0:0:
298,384,160060,2,0,P|247:295|386:215,1,296.99999093628,10|0,0:2|0:2,0:2:0:0:
341,299,160460,1,8,0:2:0:0:
150,213,160660,5,2,0:2:0:0:
138,249,160726,1,2,0:2:0:0:
106,271,160793,1,2,0:2:0:0:
66,275,160860,1,12,0:2:0:0:
68,261,161260,5,8,0:2:0:0:
70,247,161660,5,8,0:2:0:0:
72,233,162060,5,8,0:2:0:0:
170,246,162160,1,8,0:2:0:0:
268,259,162260,1,8,0:2:0:0:
366,272,162360,1,8,0:2:0:0:
464,285,162460,6,0,L|455:120,1,165.000006294251,6|0,0:1|0:2,0:2:0:0:
464,285,162860,2,0,L|468:367,1,82.5000031471254,8|0,0:2|0:2,0:2:0:0:
276,94,163260,6,0,L|267:259,1,165.000006294251,6|0,0:1|0:2,0:2:0:0:
276,94,163660,2,0,L|280:12,1,82.5000031471254,8|0,0:2|0:2,0:2:0:0:
21,201,164060,6,0,P|167:267|273:257,1,264,6|0,0:1|0:2,0:2:0:0:
455,120,164460,6,0,P|322:222|149:243,1,325.05000074398,6|0,0:1|0:2,0:2:0:0:
6,99,164860,6,0,P|128:210|383:152,1,400.949997399845,6|0,0:1|0:2,0:2:0:0:
418,0,165260,5,10,0:2:0:0:
391,80,165360,1,8,0:2:0:0:
330,170,165460,1,8,0:2:0:0:
214,204,165560,1,8,0:2:0:0:
87,162,165660,1,4,0:2:0:0:
256,192,165760,12,0,167260,0:2:0:0:
395,219,168860,6,0,P|323:241|254:210,1,153.999995300293,4|0,0:3|0:3,0:3:0:0:
374,132,169160,1,8,0:3:0:0:
374,132,169460,2,0,P|339:155|287:121,1,82.5000031471254,8|0,0:3|0:3,0:3:0:0:
222,78,169660,6,0,B|173:9|138:-6|126:33|161:32,1,131.99999597168,8|0,0:3|0:3,0:3:0:0:
152,108,169860,2,0,B|235:100|266:77|237:47|221:78,1,131.99999597168,8|0,0:3|0:3,0:3:0:0:
160,32,170060,2,0,B|125:107|128:146|169:136|151:107,1,131.99999597168,8|0,0:3|0:3,0:3:0:0:
70,208,170260,1,8,0:3:0:0:
88,206,170360,1,8,0:3:0:0:
104,218,170460,6,0,P|30:216|58:163,1,153.999995300293,4|0,0:3|0:3,0:3:0:0:
211,222,170760,1,8,0:3:0:0:
211,222,171060,2,0,P|250:231|278:260,1,82.5000031471254,8|0,0:3|0:3,0:3:0:0:
402,342,171260,6,0,B|502:301|536:167|455:107|394:125|386:178|424:197,1,330,2|0,0:3|0:3,0:3:0:0:
402,342,171660,2,0,B|407:234|300:146|211:194|201:257|246:287|279:260,1,330,2|0,0:3|0:3,0:3:0:0:
116,168,175260,6,0,P|176:114|256:121,1,165.000006294251,4|0,0:3|0:3,0:3:0:0:
346,149,175560,1,8,0:3:0:0:
357,155,175660,2,0,P|400:158|443:148,1,88,8|0,0:3|0:3,0:3:0:0:
325,36,175860,2,0,P|360:10|403:0,1,88,8|0,0:3|0:3,0:3:0:0:
253,119,176060,6,0,P|307:131|357:155,1,110,8|0,0:3|0:3,0:3:0:0:
254,120,176260,2,0,P|294:81|326:36,1,110,8|0,0:3|0:3,0:3:0:0:
402,0,176460,2,0,P|485:56|441:147,1,220,2|0,0:3|0:3,0:3:0:0:
53,215,176860,6,0,P|101:151|181:149,1,165.000006294251,4|0,0:3|0:3,0:3:0:0:
256,188,177160,1,8,0:3:0:0:
257,204,177260,2,0,P|263:246|294:277,1,88,8|0,0:3|0:3,0:3:0:0:
257,207,177461,2,0,P|248:249|215:278,1,88,8|0,0:3|0:3,0:3:0:0:
121,277,177660,6,0,B|153:269|169:252|169:252|185:269|217:277,1,110,2|0,0:3|0:3,0:3:0:0:
392,278,177860,2,0,B|360:270|344:253|344:253|328:270|296:278,1,110,2|0,0:3|0:3,0:3:0:0:
167,343,178060,2,0,B|202:405|257:378|257:378|312:405|347:343,1,220,4|0,0:3|0:3,0:3:0:0:
396,216,181660,6,0,P|336:270|256:263,1,165.000006294251,4|0,0:3|0:3,0:3:0:0:
166,235,181960,1,8,0:3:0:0:
155,229,182060,2,0,P|112:226|69:236,1,88,8|0,0:3|0:3,0:3:0:0:
186,347,182260,2,0,P|151:373|109:384,1,88,8|0,0:3|0:3,0:3:0:0:
258,264,182460,6,0,P|204:252|154:228,1,110,8|0,0:3|0:3,0:3:0:0:
257,263,182660,2,0,P|217:302|185:347,1,110,2|0,0:3|0:3,0:3:0:0:
110,384,182860,6,0,P|27:328|71:237,1,220,2|0,0:3|0:3,0:3:0:0:
462,115,183260,6,0,P|415:48|338:25,1,165.000006294251,4|0,0:3|0:3,0:3:0:0:
256,44,183560,1,8,0:3:0:0:
255,60,183660,2,0,P|248:102|217:133,1,88,8|0,0:3|0:3,0:3:0:0:
255,63,183861,2,0,P|263:105|296:134,1,88,8|0,0:3|0:3,0:3:0:0:
391,133,184060,6,0,B|359:125|343:108|343:108|327:125|295:133,1,110,10|0,0:3|0:3,0:3:0:0:
120,134,184260,2,0,B|152:126|168:109|168:109|184:126|216:134,1,110,2|0,0:3|0:3,0:3:0:0:
345,199,184460,2,0,B|310:261|255:234|255:234|200:261|165:199,1,220,4|0,0:3|0:3,0:3:0:0:
0,224,184860,6,0,B|76:229|76:229|115:296,2,153.999995300293,12|0|0,3:1|0:2|0:2,0:2:0:0:
512,263,185660,6,0,B|465:294|429:267|429:267|429:313|379:330,2,176,12|0|0,3:1|0:2|0:2,0:2:0:0:
306,0,186460,6,0,B|292:80|292:80|270:109|270:109|256:188,2,197.99999395752,12|0|0,3:2|0:2|0:2,0:2:0:0:
0,210,187260,6,0,B|-13:215|98:172|98:172|239:267,1,220,12|0,3:2|0:2,0:2:0:0:
190,234,187660,6,0,L|190:269,1,33,4|0,0:2|0:2,0:2:0:0:
267,384,188060,6,0,P|317:339|330:291,1,110,6|0,3:2|0:2,0:2:0:0:
478,384,188460,6,0,P|469:352|475:320,1,65.9999979858399,10|0,3:2|0:2,0:2:0:0:
506,164,188660,1,8,0:1:0:0:
433,182,188760,1,8,0:1:0:0:
372,137,188860,2,0,P|360:72|380:4,1,131.99999597168,2|0,3:2|0:2,0:2:0:0:
365,210,189260,6,0,P|295:247|216:243,1,159.500004867554,10|0,3:2|0:2,0:2:0:0:
89,142,189660,6,0,B|172:146|216:28|80:-9|66:99,1,197.99999395752,2|0,3:2|0:2,0:2:0:0:
24,79,189960,1,8,0:1:0:0:
0,147,190060,2,0,P|11:178|69:226,1,88,10|0,3:2|0:2,0:2:0:0:
215,169,190260,1,8,0:1:0:0:
307,301,190460,1,2,3:2:0:0:
192,366,190660,1,8,0:0:0:0:
48,216,190860,2,0,P|0:273|8:348,1,153.999995300293,10|0,3:2|0:2,0:2:0:0:
171,46,191260,6,0,B|300:4|331:33|331:33|300:19|224:45,1,220.000008392334,6|0,3:2|0:2,0:2:0:0:
57,70,191660,6,0,B|22:67|22:67|-1:36,2,73.3333333333333,10|2|2,3:2|0:2|0:2,0:2:0:0:
135,156,192060,2,0,B|149:187|149:187|134:223,2,73.3333333333333,2|2|2,3:2|0:2|0:2,0:2:0:0:
171,46,192460,2,0,B|191:17|191:17|229:12,2,73.3333333333333,2|2|2,3:2|0:2|0:2,0:2:0:0:
120,90,192860,5,2,3:2:0:0:
118,126,192926,1,2,0:2:0:0:
135,156,192993,1,2,0:2:0:0:
169,169,193060,1,2,0:2:0:0:
204,162,193126,1,2,0:2:0:0:
232,138,193193,1,2,0:2:0:0:
249,105,193260,5,10,3:2:0:0:
278,84,193326,1,2,0:2:0:0:
314,80,193393,1,2,0:2:0:0:
346,95,193459,1,2,0:2:0:0:
367,125,193526,1,2,0:2:0:0:
369,161,193593,1,2,0:2:0:0:
352,193,193660,6,0,P|346:210|343:228,5,36.6666666666667,2|2|2|2|2|2,3:2|0:2|0:2|0:2|0:2|0:2,0:2:0:0:
462,187,194060,2,0,P|441:204|422:237,5,58.6666666666667,10|2|2|2|2|2,3:2|0:2|0:2|0:2|0:2|0:2,0:2:0:0:
203,164,194660,5,0,0:2:0:0:
222,238,194860,1,0,0:2:0:0:
241,312,195060,1,0,0:2:0:0:
90,384,195260,5,2,0:2:0:0:
109,310,195460,1,0,0:2:0:0:
187,308,195660,2,0,L|291:317,1,55,2|0,0:2|0:2,0:2:0:0:
323,384,195860,2,0,L|427:375,1,65.9999979858399,2|0,0:2|0:2,0:2:0:0:
512,333,196060,5,4,0:2:0:0:
130,38,202460,6,0,P|156:64|193:74,1,76.9999976501466,2|0,0:2|0:2,0:2:0:0:
23,33,202860,2,0,P|54:55|75:86,1,76.9999976501466,2|0,0:2|0:2,0:2:0:0:
236,105,203260,6,0,P|217:83|192:73,1,55,2|0,0:2|0:2,0:2:0:0:
75,87,203460,2,0,P|83:112|79:139,1,55,2|0,0:2|0:2,0:2:0:0:
168,151,203660,2,0,P|184:172|208:186,1,55,2|0,0:2|0:2,0:2:0:0:
83,192,204060,6,0,P|74:166|78:139,1,55,2|0,0:2|0:2,0:2:0:0:
148,44,204260,2,0,P|166:63|192:73,1,55,2|0,0:2|0:2,0:2:0:0:
248,221,204461,2,0,P|231:198|207:185,1,55,2|0,0:2|0:2,0:2:0:0:
208,185,204860,6,0,P|182:219|138:253,1,65.9999979858399,2|0,0:2|0:2,0:2:0:0:
20,202,205060,2,0,P|46:189|116:207,1,65.9999979858399,2|0,0:2|0:2,0:2:0:0:
108,320,205260,2,0,P|79:301|65:273,1,66,2|0,0:2|0:2,0:2:0:0:
3,325,205660,6,0,P|31:253|2:176,1,132,2|0,0:2|0:2,0:2:0:0:
19,201,206060,5,0,0:2:0:0:
102,138,206460,1,0,0:2:0:0:
212,178,206860,1,0,0:2:0:0:
182,55,207260,6,0,P|175:26|171:-10,1,55,2|0,0:2|0:2,0:2:0:0:
323,93,207660,2,0,P|317:128|319:165,1,55,2|0,0:2|0:2,0:2:0:0:
460,298,208060,2,0,B|455:306|440:295|450:273|483:264|544:303|498:383|392:371|341:289|386:192|542:179|484:52|379:19,1,385,2|0,0:2|0:2,0:2:0:0:
419,40,208860,5,2,0:2:0:0:
331,24,209060,1,0,0:2:0:0:
394,187,209260,1,2,0:2:0:0:
449,120,209460,1,0,0:2:0:0:
276,92,209660,1,2,0:2:0:0:
307,172,209860,5,8,0:1:0:0:
452,120,210060,1,8,0:1:0:0:
331,24,210260,2,0,P|310:-2|333:21,1,98.9999969787599,10|0,0:1|0:2,0:2:0:0:
362,105,210460,5,8,0:2:0:0:
307,172,210560,1,8,0:2:0:0:
224,194,210660,1,8,0:2:0:0:
144,172,210760,1,8,0:2:0:0:
93,102,210860,2,0,B|74:41|163:5|163:5|219:32|246:129,1,230.99999295044,8|0,0:2|0:2,0:2:0:0:
247,150,211260,5,8,0:3:0:0:
214,249,211460,1,8,0:3:0:0:
265,363,211660,1,8,0:3:0:0:
408,384,211860,2,0,P|415:341|394:289,1,82.5000031471254,8|0,0:3|0:2,0:2:0:0:
241,11,212260,5,4,3:3:0:0:
458,257,212460,1,4,3:3:0:0:
114,306,212660,1,4,3:3:0:0:
369,28,212860,6,0,L|360:130,1,82.5000031471254,6|0,3:1|0:2,0:2:0:0:
265,363,213060,2,0,L|256:261,1,82.5000031471254,6|0,3:1|0:2,0:2:0:0:
58,143,213260,2,0,L|25:137,6,32.99999899292,4|4|4|4|4|4|4,0:2|0:2|0:2|0:2|0:2|0:2|0:2,0:2:0:0:
71,149,213660,6,0,B|85:187|66:236|66:236|104:260|113:306,1,176,6|0,3:2|0:2,0:2:0:0:
454,147,214060,2,0,P|428:64|363:7,1,176,10|0,3:2|0:2,0:2:0:0:
81,25,214460,6,0,P|37:22|-1:1,1,88,2|0,3:2|0:2,0:2:0:0:
224,140,214660,2,0,P|267:142|310:130,1,88,2|0,0:2|0:2,0:2:0:0:
449,19,214860,2,0,P|407:6|363:8,1,88,10|0,3:2|0:2,0:2:0:0:
81,25,215260,5,2,3:2:0:0:
290,258,215460,1,2,0:2:0:0:
512,33,215660,2,0,P|479:31|448:18,1,65.9999979858399,10|0,3:2|0:2,0:2:0:0:
158,125,215860,6,0,P|190:128|222:137,1,65.9999979858399,2|0,0:2|0:2,0:2:0:0:
340,77,216060,2,0,P|320:103|296:126,1,65.9999979858399,2|0,3:2|0:2,0:2:0:0:
290,258,216260,2,0,P|277:227|268:195,1,65.9999979858399,2|0,0:2|0:2,0:2:0:0:
57,161,216460,2,0,P|137:127|224:139,1,176,10|0,3:2|0:2,0:2:0:0:
157,375,216860,6,0,P|196:376|286:359,1,121.000003692627,2|0,3:2|0:2,0:2:0:0:
439,354,217060,2,0,P|422:305|363:246,1,121.000003692627,2|0,0:2|0:2,0:2:0:0:
507,64,217260,2,0,P|488:99|415:141,1,121.000003692627,10|0,3:2|0:2,0:2:0:0:
223,138,217460,2,0,P|151:125|48:-16,1,242.000007385254,2|0,0:2|3:2,0:2:0:0:
287,228,217860,2,0,B|302:187|331:171|331:171|318:141|338:93,2,153.999995300293,2|10|2,0:2|3:2|0:2,0:2:0:0:
119,282,218460,6,0,B|72:276|72:276|44:297,1,82.5000031471254,2|0,3:2|0:2,0:2:0:0:
9,202,218661,2,0,B|41:190|41:190|86:208,1,82.5000031471254,6|0,0:2|0:2,0:2:0:0:
171,348,218861,2,0,B|124:354|124:354|101:381,1,82.5000031471254,10|0,3:2|0:2,0:2:0:0:
0,102,219060,2,0,B|35:99|35:99|72:127,1,82.5000031471254,6|0,0:2|0:2,0:2:0:0:
171,346,219260,6,0,L|22:287,1,137.5,2|0,3:3|0:2,0:2:0:0:
9,202,219460,2,0,L|118:284,1,137.5,2|0,0:3|0:2,0:2:0:0:
86,209,219660,2,0,L|-13:84,1,137.5,2|0,3:3|0:2,0:2:0:0:
111,0,219860,1,0,0:2:0:0:
111,0,220060,6,0,B|179:-6|173:86|214:0|276:26,1,176,6|0,3:2|0:2,0:2:0:0:
470,245,220460,2,0,P|477:158|449:76,1,176,10|0,3:2|0:2,0:2:0:0:
152,192,220860,6,0,P|161:240|191:274,1,88,2|0,3:2|0:2,0:2:0:0:
360,192,221060,2,0,P|351:144|321:110,1,88,2|0,0:2|0:2,0:2:0:0:
256,222,221260,2,0,L|256:310,1,88,10|0,3:2|0:2,0:2:0:0:
152,192,221660,6,0,P|161:144|191:110,1,88,2|0,3:2|0:2,0:2:0:0:
360,192,221860,2,0,P|351:240|321:274,1,88,2|0,0:2|0:2,0:2:0:0:
256,134,222060,2,0,L|256:222,1,88,10|0,3:2|0:2,0:2:0:0:
151,191,222460,6,0,P|110:177|67:181,1,88,2|0,3:2|0:2,0:2:0:0:
359,190,222660,2,0,P|401:177|444:180,1,88,2|0,0:2|0:2,0:2:0:0:
158,54,222860,6,0,L|192:130,1,65.9999979858399,10|0,3:2|0:2,0:2:0:0:
354,54,223060,2,0,L|327:114,1,65.9999979858399,0|0,0:2|0:2,0:2:0:0:
151,191,223260,2,0,B|136:200|144:224|256:297|368:224|376:200|360:192,1,263.99999194336,6|0,3:2|0:2,0:2:0:0:
110,375,223660,6,0,P|56:364|3:376,1,110,10|0,0:2|0:2,0:2:0:0:
289,321,224060,1,2,0:0:0:0:
172,280,224260,1,2,3:2:0:0:
512,292,224460,2,0,P|437:316|403:383,1,153.999995300293,10|0,0:2|0:2,0:2:0:0:
172,280,224860,6,0,P|249:236|213:151,1,176,2|0,3:2|0:2,0:2:0:0:
512,61,225260,2,0,P|443:87|449:165,1,153.999995300293,10|0,0:2|0:2,0:2:0:0:
360,302,225660,1,0,3:2:0:0:
349,232,225760,1,8,0:2:0:0:
289,194,225860,1,0,3:2:0:0:
19,213,226060,2,0,P|76:288|171:278,1,197.99999395752,8|0,0:2|0:2,0:2:0:0:
289,194,226460,6,0,P|252:138|290:58,1,132,6|0,3:2|0:2,0:2:0:0:
351,16,226860,2,0,P|408:8|465:27,1,88,2|0,0:3|0:2,0:2:0:0:
437,14,227260,6,0,P|397:64|408:130,1,132,10|0,0:2|0:2,0:2:0:0:
406,127,227660,1,2,0:3:0:0:
425,222,227860,1,0,3:2:0:0:
114,347,228060,2,2,P|240:210|426:223,1,385,4|0,3:1|0:2,0:1:0:0:
489,301,228860,2,0,P|508:348|504:401,3,88,10|0|0|0,0:2|0:2|0:2|0:2,0:2:0:0:
343,51,229860,5,6,3:1:0:0:
300,360,230060,1,6,3:1:0:0:
314,370,230460,5,6,3:1:0:0:
140,74,230660,1,6,3:1:0:0:
128,86,231060,5,6,3:1:0:0:
119,101,231460,5,6,3:1:0:0:
399,295,231660,1,6,3:1:0:0:
403,280,232060,5,6,3:1:0:0:
82,384,232260,1,6,3:1:0:0:
261,278,232460,5,8,0:2:0:0:
286,179,232560,1,8,0:2:0:0:
242,88,232660,1,6,3:1:0:0:
220,89,233060,5,6,3:1:0:0:
512,306,233260,1,6,3:1:0:0:
494,294,233660,5,6,3:1:0:0:
479,283,234060,5,6,3:1:0:0:
196,90,234260,1,6,3:1:0:0:
131,225,234460,2,0,P|255:178|383:212,2,263.99999194336,2|2|2,0:2|0:2|0:2,0:2:0:0:
259,268,235660,6,0,B|239:293|239:293|263:370|263:370|282:291|282:291|265:271,1,220,4|0,0:3|3:2,0:2:0:0:
195,125,236060,6,0,B|181:172|181:172|206:216,1,98.9999969787599,4|0,3:2|0:2,0:2:0:0:
412,79,236260,2,0,B|454:56|454:56|404:49,1,98.9999969787599,2|0,0:2|0:2,0:2:0:0:
320,119,236460,2,0,B|334:166|334:166|310:210,1,98.9999969787599,8|0,3:2|0:2,0:2:0:0:
100,79,236660,2,0,B|57:56|57:56|106:50,1,98.9999969787599,2|0,0:2|0:2,0:2:0:0:
320,119,236860,6,0,B|296:75|296:75|310:29,1,98.9999969787599,0|0,3:2|0:2,0:2:0:0:
152,304,237060,2,0,B|133:350|133:350|173:324,1,98.9999969787599,2|0,0:2|0:2,0:2:0:0:
195,125,237260,2,0,B|220:82|220:82|206:35,1,98.9999969787599,8|0,3:2|0:2,0:2:0:0:
360,304,237460,2,0,B|378:350|378:350|338:324,1,98.9999969787599,2|0,0:2|0:2,0:2:0:0:
468,121,237660,6,0,P|489:114|511:114,1,44,2|0,3:2|0:2,0:2:0:0:
446,281,237860,1,2,0:2:0:0:
380,220,237960,1,2,0:2:0:0:
404,134,238060,6,0,P|437:133|468:121,1,65.9999979858399,10|0,3:2|0:2,0:2:0:0:
277,86,238260,2,0,P|260:77|270:91,1,44,2|0,0:2|0:2,0:2:0:0:
319,152,238460,6,0,P|361:138|405:133,1,88,2|0,3:2|0:2,0:2:0:0:
157,230,238660,2,0,P|144:249|152:228,1,65.9999979858399,2|0,0:2|0:2,0:2:0:0:
214,169,238860,6,0,P|269:171|320:151,1,110,10|0,3:2|0:2,0:2:0:0:
147,103,239060,2,0,P|121:104|145:106,1,88,2|0,0:2|0:2,0:2:0:0:
76,12,239260,6,0,B|38:42|38:42|28:92,1,98.9999969787599,0|0,3:2|0:2,0:2:0:0:
244,67,239460,2,0,B|267:24|267:24|273:74,1,98.9999969787599,2|0,0:2|0:2,0:2:0:0:
155,196,239660,2,0,B|117:230|117:230|111:277,1,98.9999969787599,8|0,3:2|0:2,0:2:0:0:
362,160,239860,2,0,B|406:182|406:182|356:189,1,98.9999969787599,2|0,0:2|0:2,0:2:0:0:
435,371,240060,6,0,B|473:341|473:341|484:292,1,98.9999969787599,0|0,3:2|0:2,0:2:0:0:
269,280,240259,2,0,B|246:323|246:323|239:274,1,98.9999969787599,2|0,0:2|0:2,0:2:0:0:
357,188,240460,2,0,B|395:154|395:154|401:107,1,98.9999969787599,8|0,3:2|0:2,0:2:0:0:
149,185,240661,2,0,B|106:162|106:162|156:155,1,98.9999969787599,2|0,0:2|0:2,0:2:0:0:
24,249,240860,6,0,B|-12:304,1,44,2|0,3:2|0:2,0:2:0:0:
263,256,241060,1,2,0:2:0:0:
174,259,241160,1,2,0:2:0:0:
110,319,241260,2,0,B|100:388,1,65.9999979858399,10|0,3:2|0:2,0:2:0:0:
274,243,241460,2,0,L|266:197,1,44,2|0,0:2|0:2,0:2:0:0:
101,65,241660,6,0,B|109:167,1,88,2|0,3:2|0:2,0:2:0:0:
344,111,241860,2,0,B|337:166|406:87|453:142,1,121.000003692627,2|0,0:3|0:2,0:2:0:0:
439,144,242060,2,0,B|409:189|403:85|333:99,1,121.000003692627,2|0,3:3|0:2,0:2:0:0:
286,231,242260,6,0,L|279:177,1,44,2|0,0:2|0:2,0:2:0:0:
253,87,242460,6,0,B|277:44|277:44|318:17,1,98.9999969787599,0|0,3:2|0:2,0:2:0:0:
274,305,242660,2,0,B|316:331|316:331|266:334,1,98.9999969787599,2|0,0:2|0:2,0:2:0:0:
186,156,242861,2,0,B|228:129|228:129|253:87,1,98.9999969787599,8|0,3:2|0:2,0:2:0:0:
82,253,243060,2,0,B|49:288|49:288|98:279,1,98.9999969787599,2|0,0:2|0:2,0:2:0:0:
292,175,243260,6,0,B|262:135|262:135|253:87,1,98.9999969787599,0|0,3:2|0:2,0:2:0:0:
87,225,243461,2,0,B|37:235|37:235|82:254,1,98.9999969787599,2|0,0:2|0:2,0:2:0:0:
253,87,243660,2,0,B|243:38|243:38|214:0,1,98.9999969787599,8|0,3:2|0:2,0:2:0:0:
267,335,243860,2,0,B|284:379|284:379|241:352,1,98.9999969787599,2|0,0:2|0:2,0:2:0:0:
468,263,244060,6,0,P|489:270|511:270,1,44,2|0,3:2|0:2,0:2:0:0:
428,87,244260,1,2,0:2:0:0:
374,162,244360,1,2,0:2:0:0:
404,250,244460,6,0,P|437:251|468:263,1,65.9999979858399,10|0,3:2|0:2,0:2:0:0:
277,298,244660,2,0,P|260:307|270:293,1,44,2|0,0:2|0:2,0:2:0:0:
319,232,244860,6,0,P|361:246|405:251,1,88,2|0,3:2|0:2,0:2:0:0:
157,154,245060,2,0,P|144:135|152:156,1,65.9999979858399,2|0,0:2|0:2,0:2:0:0:
214,215,245260,6,0,P|269:213|320:233,1,110,10|0,3:2|0:2,0:2:0:0:
147,281,245460,2,0,P|121:280|145:278,1,88,2|0,0:2|0:2,0:2:0:0:
228,380,245660,6,0,B|261:343|261:343|264:294,1,98.9999969787599,0|0,3:2|0:2,0:2:0:0:
308,51,245860,2,0,B|302:1|302:1|279:44,1,98.9999969787599,2|0,0:2|0:2,0:2:0:0:
472,152,246060,2,0,B|423:142|423:142|379:164,1,98.9999969787599,8|0,3:2|0:2,0:2:0:0:
397,288,246260,2,0,B|443:307|443:307|417:266,1,98.9999969787599,2|0,0:2|0:2,0:2:0:0:
209,127,246460,6,0,B|167:99|167:99|151:52,1,98.9999969787599,0|0,3:2|0:2,0:2:0:0:
148,247,246660,2,0,B|107:276|107:276|155:275,1,98.9999969787599,2|0,0:2|0:2,0:2:0:0:
228,380,246860,2,0,B|261:343|261:343|264:294,1,98.9999969787599,8|0,3:2|0:2,0:2:0:0:
308,51,247060,2,0,B|302:1|302:1|279:44,1,98.9999969787599,2|0,0:2|0:2,0:2:0:0:
41,187,247260,6,0,B|5:131,1,44,2|0,3:2|0:2,0:2:0:0:
209,127,247460,1,2,0:2:0:0:
117,139,247560,1,2,0:2:0:0:
59,65,247660,2,0,B|49:-4,1,65.9999979858399,10|8,3:2|3:2,0:2:0:0:
155,275,247860,2,0,L|147:321,1,44,2|0,0:2|0:2,0:2:0:0:
301,138,248060,6,0,B|309:36,1,88,2|0,3:2|0:2,0:2:0:0:
390,244,248260,2,0,B|442:230|442:230|510:252,1,110,8|0,0:1|0:2,0:2:0:0:
494,258,248460,2,0,B|440:270|440:270|388:253,1,110,8|0,0:1|0:2,0:2:0:0:
301,138,248660,6,0,L|294:210,1,44,2|0,0:2|0:2,0:2:0:0:
0,244,248860,5,2,0:3:0:0:
39,207,249060,1,2,0:3:0:0:
114,188,249260,1,2,0:3:0:0:
202,215,249460,1,2,0:3:0:0:
343,319,249660,5,2,0:3:0:0:
368,334,249760,1,2,0:3:0:0:
405,331,249860,1,2,0:3:0:0:
441,300,249960,1,2,0:3:0:0:
452,248,250060,1,2,0:3:0:0:
512,384,250260,5,2,0:3:0:0:
476,156,250660,6,0,B|412:157|412:157|334:218|334:218|150:190,1,330,6|0,3:1|0:2,0:2:0:0:
151,173,251060,6,0,B|145:140|145:140|175:95,1,65.9999979858399,6|0,3:1|0:2,0:2:0:0:
360,0,251260,6,10,B|412:158|412:158|334:219|334:219|445:202|473:360|352:391|289:317|298:237|414:239|420:311|374:312|367:295|378:291,1,527.999983886719,6|0,3:1|0:2,0:1:0:0:
