osu file format v14

[General]
AudioFilename: audio.mp3
AudioLeadIn: 0
PreviewTime: 54503
Countdown: 0
SampleSet: Soft
StackLeniency: 0.7
Mode: 3
LetterboxInBreaks: 0
SpecialStyle: 0
WidescreenStoryboard: 0

[Editor]
Bookmarks: 105553
DistanceSpacing: 0.6
BeatDivisor: 4
GridSize: 16
TimelineZoom: 1.8

[Metadata]
Title:Pink Kurage to, Sotto, Kiss o Shita.
TitleUnicode:ピンククラゲと、そっと、キスをした。
Artist:ShinRa-Bansho
ArtistUnicode:森羅万象
Creator:Yukari_Sama
Version:Let's Stacking Stone
Source:東方鬼形獣 ~ Wily Beast and Weakest Creature.
Tags:atian540 東方Project touhou project zun 上海アリス幻樂団 team shanghai alice th17 Reitaisai 16 RTS16 comiket 98 c98 wbawc i softly gently kissed the pink jellyfish 地蔵だけが知る哀嘆 Jizou dake ga shiru aitan The Lamentations Known Only by Jizo ジェリーストーン Jelly Stone stage 1 boss theme 戎 瓔花 eika ebisu kaztora 清水"カルロス"宥人 yuto carlos Shimizu みゅい myui あよ ayo Pira まおう maou Hedonist waoru(OrbitArk) AJ カリスマ煉獄天神 Karisuma Rengoku Tenshin The Charismatic Purgatory Goddess rock jrock j-rock pop jpop j-pop japanese video game
BeatmapID:2908114
BeatmapSetID:1410566

[Difficulty]
HPDrainRate:8.5
CircleSize:4
OverallDifficulty:8.5
ApproachRate:5
SliderMultiplier:1.4
SliderTickRate:1

[Events]
//Background and Video events
0,0,"B.jpeg",0,0
//Break Periods
//Storyboard Layer 0 (Background)
//Storyboard Layer 1 (Fail)
//Storyboard Layer 2 (Pass)
//Storyboard Layer 3 (Foreground)
//Storyboard Layer 4 (Overlay)
//Storyboard Sound Samples

[TimingPoints]
863,309.278350515464,4,2,69,60,1,0
1805,309.278350515464,4,2,69,60,1,0
2105,309.278350515464,4,2,69,60,1,0
2274,309.278350515464,4,2,69,60,1,0
2729,309.278350515464,4,2,69,60,1,0
3037,309.278350515464,4,2,69,60,1,0
3347,309.278350515464,4,2,69,60,1,0
3815,309.278350515464,4,2,69,60,1,0
4588,309.278350515464,4,2,69,60,1,0
5501,309.278350515464,4,2,69,60,1,0
6130,309.278350515464,4,2,69,60,1,0
6429,309.278350515464,4,2,69,60,1,0
7048,309.278350515464,4,2,69,60,1,0
17548,309.278350515464,4,2,69,60,1,0
18166,309.278350515464,4,2,69,60,1,0
18955,309.278350515464,4,2,69,60,1,0
19420,309.278350515464,4,2,69,60,1,0
55296,-100,4,2,69,60,0,1
70141,-100,4,2,69,60,0,0
84362,309.278350515464,4,2,69,60,1,0
84504,309.278350515464,4,2,69,60,1,0
84968,309.278350515464,4,2,69,60,1,0
85309,309.278350515464,4,2,69,60,1,0
85450,309.278350515464,4,2,69,60,1,0
86360,309.278350515464,4,2,69,60,1,0
87461,309.278350515464,4,2,69,60,1,0
122100,-100,4,2,69,60,0,1
136945,-100,4,2,69,60,0,0
158726,309.278350515464,4,2,69,60,1,0
159058,309.278350515464,4,2,69,60,1,0
159213,309.278350515464,4,2,69,60,1,0
163233,300,4,2,69,60,1,0
163233,-103.092783505155,4,2,69,60,0,0
163533,285.714285714286,4,2,69,60,1,0
163533,-108.695652173913,4,2,69,60,0,0
164159,309.278350515464,4,2,69,60,1,0
174055,-100,4,2,69,60,0,1
185808,-100,4,2,69,60,0,0
186427,-100,4,2,69,60,0,1
202818,-100,4,2,69,60,0,0

[HitObjects]
64,192,863,5,2,0:0:0:0:
320,192,863,1,4,0:0:0:0:
448,192,863,128,0,1172:0:0:0:0:
192,192,1172,1,0,0:0:0:0:
320,192,1326,128,8,1636:0:0:0:0:
448,192,1326,1,0,0:0:0:0:
192,192,1636,1,0,0:0:0:0:
64,192,1805,128,8,2105:0:0:0:0:
448,192,1805,1,0,0:0:0:0:
320,192,2105,1,8,0:0:0:15:
192,192,2274,128,8,2583:0:0:0:20:
64,192,2274,1,0,0:0:0:0:
448,192,2428,1,8,0:0:0:15:
320,192,2583,1,8,0:0:0:15:
192,192,2729,1,8,0:0:0:0:
448,192,2729,128,0,3347:0:0:0:0:
64,192,3037,1,8,0:0:0:15:
192,192,3114,1,8,0:0:0:15:
320,192,3191,1,8,0:0:0:15:
192,192,3268,1,8,0:0:0:15:
64,192,3347,128,2,3656:0:0:0:0:
320,192,3347,1,0,0:0:0:0:
320,192,3656,1,0,0:0:0:0:
64,192,3815,1,8,0:0:0:0:
192,192,3815,128,0,4124:0:0:0:0:
320,192,4124,1,0,0:0:0:0:
64,192,4278,1,8,0:0:0:0:
448,192,4278,128,0,4588:0:0:0:0:
192,192,4588,1,8,0:0:0:15:
320,192,4742,128,8,5051:0:0:0:20:
448,192,4742,1,0,0:0:0:0:
64,192,4897,1,8,0:0:0:15:
448,192,5051,1,8,0:0:0:15:
64,192,5206,128,8,5810:0:0:0:0:
192,192,5206,1,0,0:0:0:0:
448,192,5501,1,8,0:0:0:15:
320,192,5578,1,8,0:0:0:15:
192,192,5655,1,8,0:0:0:15:
320,192,5732,1,8,0:0:0:15:
192,192,5810,1,2,0:0:0:0:
448,192,5810,128,4,6130:0:0:0:0:
64,192,6130,1,2,0:0:0:0:
192,192,6130,1,0,0:0:0:0:
192,192,6284,1,8,0:0:0:0:
320,192,6284,1,0,0:0:0:0:
320,192,6429,1,2,0:0:0:0:
448,192,6429,1,8,0:0:0:15:
192,192,6506,1,8,0:0:0:15:
64,192,6583,1,8,0:0:0:15:
448,192,6660,1,8,0:0:0:15:
192,192,6738,1,8,0:0:0:0:
320,192,6738,1,2,0:0:0:0:
64,192,6815,1,8,0:0:0:20:
448,192,6892,1,8,0:0:0:20:
320,192,6970,1,8,0:0:0:20:
64,192,7047,1,8,0:0:0:20:
192,192,7047,1,0,0:0:0:0:
448,192,7125,1,8,0:0:0:20:
64,192,7202,1,8,0:0:0:0:
320,192,7202,1,0,0:0:0:0:
192,192,7279,1,8,0:0:0:25:
320,192,7357,1,2,0:0:0:0:
448,192,7357,1,8,0:0:0:25:
64,192,7434,1,8,0:0:0:25:
192,192,7511,1,8,0:0:0:25:
320,192,7589,1,8,0:0:0:25:
64,192,7666,1,2,0:0:0:0:
448,192,7666,1,8,0:0:0:0:
192,192,7743,1,8,0:0:0:30:
320,192,7821,1,8,0:0:0:30:
448,192,7898,1,8,0:0:0:30:
64,192,7975,1,2,0:0:0:0:
192,192,7975,1,8,0:0:0:0:
320,192,8053,1,8,0:0:0:35:
448,192,8130,1,8,0:0:0:35:
64,192,8207,1,8,0:0:0:35:
192,192,8285,1,2,0:0:0:0:
320,192,8285,1,4,0:0:0:0:
448,192,8285,1,0,0:0:0:0:
320,192,8594,1,0,0:0:0:0:
64,192,8671,1,0,0:0:0:0:
448,192,8749,1,0,0:0:0:0:
320,192,8826,1,0,0:0:0:0:
192,192,8903,128,0,9058:0:0:0:0:
320,192,9058,128,0,9212:0:0:0:0:
64,192,9212,128,0,9367:0:0:0:0:
320,192,9367,1,0,0:0:0:0:
192,192,9444,1,0,0:0:0:0:
448,192,9522,128,0,9676:0:0:0:0:
320,192,9676,1,0,0:0:0:0:
192,192,9754,1,0,0:0:0:0:
64,192,9831,128,0,9986:0:0:0:0:
320,192,9986,1,2,0:0:0:0:
448,192,9986,1,0,0:0:0:0:
192,192,10063,1,2,0:0:0:0:
64,192,10140,1,8,0:0:0:0:
320,192,10140,1,0,0:0:0:100:Tom & Jerry 3.wav
448,192,10140,1,0,0:0:0:0:
192,192,10295,1,2,0:0:0:0:
320,192,10295,1,0,0:0:0:0:
64,192,10450,128,8,10759:0:0:0:0:
192,192,10450,1,4,0:0:0:0:
448,192,10450,1,0,0:0:0:0:
192,192,10759,128,2,11068:0:0:0:0:
320,192,10759,1,4,0:0:0:0:
448,192,10759,1,0,0:0:0:0:
64,192,11068,1,8,0:0:0:0:
320,192,11068,1,2,0:0:0:0:
448,192,11068,1,0,0:0:0:0:
320,192,11223,128,0,11532:0:0:0:70:hit-hat.wav
64,192,11377,1,2,0:0:0:0:
192,192,11377,1,0,0:0:0:0:
192,192,11532,1,0,0:0:0:70:hit-hat.wav
64,192,11687,128,2,11996:0:0:0:0:
320,192,11687,1,8,0:0:0:0:
448,192,11687,1,0,0:0:0:0:
320,192,11841,1,0,0:0:0:70:hit-hat.wav
192,192,11996,1,2,0:0:0:0:
448,192,11996,1,0,0:0:0:0:
448,192,12151,128,0,12460:0:0:0:70:hit-hat.wav
64,192,12305,1,8,0:0:0:0:
192,192,12305,1,2,0:0:0:0:
320,192,12305,1,0,0:0:0:0:
192,192,12460,1,0,0:0:0:70:hit-hat.wav
320,192,12615,128,2,12924:0:0:0:0:
448,192,12615,1,0,0:0:0:0:
64,192,12769,1,0,0:0:0:70:hit-hat.wav
64,192,12924,1,8,0:0:0:0:
192,192,12924,128,2,13233:0:0:0:0:
448,192,12924,1,0,0:0:0:0:
320,192,13078,1,0,0:0:0:70:hit-hat.wav
64,192,13233,128,2,13542:0:0:0:0:
320,192,13233,1,0,0:0:0:0:
448,192,13388,1,0,0:0:0:70:hit-hat.wav
192,192,13542,1,2,0:0:0:0:
320,192,13542,1,8,0:0:0:0:
448,192,13542,1,0,0:0:0:0:
192,192,13697,128,0,14006:0:0:0:70:hit-hat.wav
320,192,13852,1,2,0:0:0:0:
448,192,13852,1,0,0:0:0:0:
320,192,14006,1,0,0:0:0:70:hit-hat.wav
64,192,14161,1,2,0:0:0:0:
192,192,14161,1,8,0:0:0:0:
448,192,14161,128,0,14470:0:0:0:0:
64,192,14316,1,0,0:0:0:70:hit-hat.wav
192,192,14470,1,2,0:0:0:0:
320,192,14470,1,0,0:0:0:0:
192,192,14625,128,0,14934:0:0:0:70:hit-hat.wav
64,192,14779,1,8,0:0:0:0:
320,192,14779,1,2,0:0:0:0:
448,192,14779,1,0,0:0:0:0:
448,192,14934,1,0,0:0:0:70:hit-hat.wav
64,192,15089,128,2,15398:0:0:0:0:
192,192,15089,1,0,0:0:0:0:
192,192,15243,1,0,0:0:0:70:hit-hat.wav
320,192,15398,1,8,0:0:0:0:
448,192,15398,1,0,0:0:0:0:
64,192,15475,1,8,0:0:0:0:
192,192,15475,1,0,0:0:0:0:
320,192,15553,1,8,0:0:0:0:
448,192,15553,1,0,0:0:0:0:
192,192,15630,1,8,0:0:0:0:
64,192,15707,1,2,0:0:0:0:
320,192,15707,1,4,0:0:0:0:
448,192,15707,128,0,16017:0:0:0:0:
64,192,16017,1,2,0:0:0:0:
192,192,16017,1,8,0:0:0:0:
320,192,16017,1,0,0:0:0:0:
192,192,16171,128,0,16480:0:0:0:70:hit-hat.wav
64,192,16326,1,2,0:0:0:0:
448,192,16326,1,0,0:0:0:0:
448,192,16480,1,0,0:0:0:70:hit-hat.wav
64,192,16635,1,2,0:0:0:0:
192,192,16635,1,8,0:0:0:0:
320,192,16635,128,0,16944:0:0:0:0:
192,192,16790,1,0,0:0:0:70:hit-hat.wav
64,192,16944,1,2,0:0:0:0:
448,192,16944,1,0,0:0:0:0:
448,192,17099,128,0,17408:0:0:0:70:hit-hat.wav
64,192,17254,1,2,0:0:0:0:
192,192,17254,1,8,0:0:0:0:
320,192,17254,1,0,0:0:0:0:
64,192,17408,1,0,0:0:0:70:hit-hat.wav
320,192,17548,1,2,0:0:0:0:
448,192,17548,1,0,0:0:0:0:
192,192,17702,1,0,0:0:0:100:Tom & Jerry 1.wav
320,192,17702,1,0,0:0:0:0:
64,192,17857,1,0,0:0:0:100:Tom & Jerry 2.wav
192,192,17857,1,0,0:0:0:0:
320,192,17934,1,0,0:0:0:100:Tom & Jerry 2.wav
448,192,18011,1,0,0:0:0:100:Tom & Jerry 3.wav
192,192,18089,1,0,0:0:0:100:Tom & Jerry 3.wav
64,192,18166,1,8,0:0:0:0:
320,192,18166,1,0,0:0:0:0:
448,192,18166,1,0,0:0:0:0:
64,192,18320,1,8,0:0:0:0:
320,192,18320,1,0,0:0:0:0:
448,192,18320,1,0,0:0:0:0:
64,192,18475,1,2,0:0:0:0:
192,192,18475,1,0,0:0:0:0:
192,192,18629,1,8,0:0:0:0:
320,192,18629,1,0,0:0:0:0:
448,192,18629,1,0,0:0:0:0:
448,192,18784,1,8,0:0:0:0:
192,192,18784,1,0,0:0:0:0:
320,192,18784,1,0,0:0:0:0:
64,192,18955,1,2,0:0:0:0:
448,192,18955,1,0,0:0:0:0:
64,192,19109,1,8,0:0:0:0:
320,192,19109,1,0,0:0:0:0:
192,192,19109,1,0,0:0:0:0:
64,192,19264,1,8,0:0:0:0:
192,192,19264,1,0,0:0:0:0:
320,192,19264,1,0,0:0:0:0:
320,192,19418,1,2,0:0:0:0:
448,192,19420,1,0,0:0:0:0:
64,192,19574,1,8,0:0:0:0:
192,192,19574,1,0,0:0:0:0:
448,192,19574,1,0,0:0:0:0:
64,192,19729,1,8,0:0:0:0:
448,192,19729,1,0,0:0:0:0:
192,192,19729,1,0,0:0:0:0:
192,192,19883,1,2,0:0:0:0:
320,192,19883,1,0,0:0:0:0:
64,192,20038,1,8,0:0:0:0:
320,192,20038,1,4,0:0:0:0:
448,192,20038,1,0,0:0:0:0:
64,192,20193,1,8,0:0:0:0:
192,192,20193,1,0,0:0:0:0:
320,192,20270,1,8,0:0:0:0:
448,192,20270,1,0,0:0:0:0:
64,192,20347,1,8,0:0:0:0:
192,192,20347,1,0,0:0:0:0:
320,192,20425,1,0,0:0:0:100:Tom & Jerry 1.wav
448,192,20425,1,0,0:0:0:0:
192,192,20502,1,0,0:0:0:100:Tom & Jerry 1.wav
320,192,20579,1,0,0:0:0:100:Tom & Jerry 2.wav
64,192,20657,1,2,0:0:0:0:
192,192,20657,1,4,0:0:0:0:
448,192,20657,1,0,0:0:0:0:
320,192,20811,128,0,20966:0:0:0:0:
64,192,20966,1,2,0:0:0:0:
192,192,20966,128,0,21121:0:0:0:0:
448,192,21121,128,0,21275:0:0:0:0:
64,192,21275,1,2,0:0:0:0:
320,192,21275,1,0,0:0:0:0:
192,192,21430,128,0,21584:0:0:0:0:
320,192,21584,128,2,21739:0:0:0:0:
448,192,21584,1,0,0:0:0:0:
64,192,21739,128,0,21894:0:0:0:70:hit-hat.wav
192,192,21894,128,2,22048:0:0:0:0:
448,192,21894,1,0,0:0:0:0:
320,192,22048,1,0,0:0:0:0:
448,192,22126,1,0,0:0:0:0:
64,192,22203,1,2,0:0:0:0:
192,192,22203,1,0,0:0:0:0:
320,192,22358,128,0,22512:0:0:0:0:
64,192,22512,1,2,0:0:0:0:
448,192,22512,1,0,0:0:0:0:
192,192,22667,128,0,22822:0:0:0:0:
320,192,22822,128,2,22976:0:0:0:0:
448,192,22822,1,0,0:0:0:0:
64,192,22976,128,0,23131:0:0:0:0:
192,192,23131,1,2,0:0:0:0:
448,192,23131,128,0,23285:0:0:0:0:
320,192,23285,128,0,23440:0:0:0:0:
64,192,23440,1,2,0:0:0:0:
192,192,23440,128,0,23595:0:0:0:0:
448,192,23595,128,0,23749:0:0:0:0:
64,192,23749,1,2,0:0:0:0:
320,192,23749,1,0,0:0:0:0:
192,192,23827,1,0,0:0:0:0:
320,192,23904,128,0,24059:0:0:0:0:
64,192,24059,128,2,24213:0:0:0:0:
448,192,24059,1,0,0:0:0:0:
192,192,24213,128,0,24368:0:0:0:70:hit-hat.wav
320,192,24368,1,2,0:0:0:0:
448,192,24368,1,0,0:0:0:0:
64,192,24445,1,0,0:0:0:0:
192,192,24523,1,0,0:0:0:0:
320,192,24600,1,0,0:0:0:0:
64,192,24677,1,2,0:0:0:0:
448,192,24677,128,0,24832:0:0:0:0:
192,192,24832,128,0,24987:0:0:0:0:
64,192,24987,1,2,0:0:0:0:
320,192,24987,1,0,0:0:0:0:
448,192,25141,128,0,25296:0:0:0:0:
192,192,25296,1,2,0:0:0:0:
320,192,25296,128,0,25450:0:0:0:0:
64,192,25450,128,0,25605:0:0:0:0:
192,192,25605,1,2,0:0:0:0:
448,192,25605,1,0,0:0:0:0:
64,192,25760,128,0,25914:0:0:0:0:
320,192,25914,1,2,0:0:0:0:
448,192,25914,128,0,26069:0:0:0:0:
192,192,26069,128,0,26224:0:0:0:0:
64,192,26224,1,2,0:0:0:0:
448,192,26224,1,0,0:0:0:0:
320,192,26378,128,0,26533:0:0:0:0:
64,192,26533,1,2,0:0:0:0:
192,192,26533,128,0,26688:0:0:0:0:
320,192,26688,128,0,26842:0:0:0:70:hit-hat.wav
192,192,26842,1,2,0:0:0:0:
448,192,26842,128,0,26997:0:0:0:0:
64,192,26997,128,0,27151:0:0:0:0:
320,192,27151,128,2,27306:0:0:0:0:
448,192,27151,1,0,0:0:0:0:
192,192,27306,128,0,27461:0:0:0:0:
64,192,27461,1,2,0:0:0:0:
320,192,27461,1,0,0:0:0:0:
192,192,27615,128,0,27770:0:0:0:0:
64,192,27770,128,2,27925:0:0:0:0:
448,192,27770,1,0,0:0:0:0:
320,192,27925,128,0,28079:0:0:0:0:
64,192,28079,128,2,28466:0:0:0:0:
192,192,28079,128,4,28466:0:0:0:0:
448,192,28079,128,0,28466:0:0:0:0:
320,192,28543,1,0,0:0:0:100:Tom & Jerry 2.wav
448,192,28543,1,0,0:0:0:0:
192,192,28621,1,0,0:0:0:100:Tom & Jerry 2.wav
64,192,28698,128,2,29239:0:0:0:0:
320,192,28698,128,4,29239:0:0:0:0:
448,192,28698,128,0,29239:0:0:0:0:
64,192,29316,128,2,29858:0:0:0:0:
192,192,29316,128,4,29858:0:0:0:0:
448,192,29316,128,0,29858:0:0:0:0:
448,192,29935,1,0,0:0:0:100:Tom & Jerry 1.wav
64,192,29935,1,0,0:0:0:0:
320,192,30012,1,0,0:0:0:70:Tom & Jerry 1.wav
192,192,30090,1,8,0:0:0:0:
320,192,30167,1,8,0:0:0:0:
448,192,30167,1,0,0:0:0:0:
64,192,30244,1,8,0:0:0:0:
192,192,30244,1,0,0:0:0:0:
64,192,30399,1,2,0:0:0:0:
320,192,30399,1,4,0:0:0:0:
448,192,30399,1,0,0:0:0:0:
320,192,30708,1,2,0:0:0:0:
448,192,30708,1,0,0:0:0:0:
64,192,30863,1,8,0:0:0:0:
192,192,30863,1,0,0:0:0:0:
448,192,30863,1,0,0:0:0:0:
64,192,31172,1,2,0:0:0:0:
320,192,31172,1,0,0:0:0:0:
192,192,31327,1,2,0:0:0:0:
320,192,31327,1,0,0:0:0:0:
64,192,31481,1,8,0:0:0:0:
192,192,31481,1,0,0:0:0:0:
448,192,31481,1,0,0:0:0:0:
320,192,31636,1,2,0:0:0:0:
448,192,31636,1,0,0:0:0:0:
192,192,31791,1,0,0:0:0:0:
64,192,31945,1,2,0:0:0:0:
320,192,31945,1,0,0:0:0:0:
64,192,32100,1,8,0:0:0:0:
192,192,32100,1,0,0:0:0:0:
448,192,32100,1,0,0:0:0:0:
192,192,32409,1,2,0:0:0:0:
448,192,32409,1,0,0:0:0:0:
192,192,32564,1,2,0:0:0:0:
320,192,32564,1,0,0:0:0:0:
64,192,32718,1,8,0:0:0:0:
320,192,32718,1,0,0:0:0:0:
448,192,32718,1,0,0:0:0:0:
192,192,33028,1,2,0:0:0:0:
448,192,33028,1,0,0:0:0:0:
64,192,33337,1,8,0:0:0:0:
192,192,33337,1,0,0:0:0:0:
320,192,33337,1,0,0:0:0:0:
64,192,33646,1,2,0:0:0:0:
192,192,33646,1,0,0:0:0:0:
192,192,33801,1,2,0:0:0:0:
448,192,33801,1,0,0:0:0:0:
64,192,33956,1,8,0:0:0:0:
320,192,33956,1,0,0:0:0:0:
448,192,33956,1,0,0:0:0:0:
192,192,34110,1,2,0:0:0:0:
320,192,34110,1,0,0:0:0:0:
448,192,34265,1,0,0:0:0:0:
64,192,34420,1,2,0:0:0:0:
320,192,34420,1,0,0:0:0:0:
192,192,34574,1,8,0:0:0:0:
320,192,34574,1,0,0:0:0:0:
448,192,34574,1,0,0:0:0:0:
320,192,34883,1,2,0:0:0:0:
448,192,34883,1,0,0:0:0:0:
64,192,35038,1,2,0:0:0:0:
320,192,35038,1,0,0:0:0:0:
64,192,35193,1,8,0:0:0:0:
192,192,35193,1,0,0:0:0:0:
448,192,35193,1,0,0:0:0:0:
64,192,35502,1,2,0:0:0:0:
320,192,35502,1,4,0:0:0:0:
448,192,35502,1,0,0:0:0:0:
64,192,35811,1,8,0:0:0:0:
192,192,35811,1,0,0:0:0:0:
448,192,35811,1,0,0:0:0:0:
192,192,36121,1,2,0:0:0:0:
320,192,36121,1,0,0:0:0:0:
320,192,36275,1,2,0:0:0:0:
448,192,36275,1,0,0:0:0:0:
64,192,36430,1,8,0:0:0:0:
192,192,36430,1,0,0:0:0:0:
448,192,36430,1,0,0:0:0:0:
192,192,36584,1,2,0:0:0:0:
320,192,36584,1,0,0:0:0:0:
448,192,36739,1,0,0:0:0:0:
64,192,36894,1,2,0:0:0:0:
192,192,36894,1,0,0:0:0:0:
64,192,37048,1,8,0:0:0:0:
320,192,37048,1,0,0:0:0:0:
448,192,37048,1,0,0:0:0:0:
192,192,37358,1,2,0:0:0:0:
320,192,37358,1,0,0:0:0:0:
64,192,37512,1,2,0:0:0:0:
192,192,37512,1,0,0:0:0:0:
64,192,37667,1,8,0:0:0:0:
320,192,37667,1,0,0:0:0:70:hit-hat.wav
448,192,37667,1,0,0:0:0:0:
64,192,37976,1,2,0:0:0:0:
192,192,37976,1,4,0:0:0:0:
448,192,37976,1,0,0:0:0:0:
192,192,38131,1,2,0:0:0:0:
320,192,38131,1,0,0:0:0:0:
64,192,38285,1,8,0:0:0:0:
320,192,38285,1,0,0:0:0:0:
448,192,38285,1,0,0:0:0:0:
192,192,38440,1,2,0:0:0:0:
448,192,38440,1,0,0:0:0:0:
64,192,38595,1,8,0:0:0:0:
320,192,38595,1,0,0:0:0:0:
192,192,38595,1,0,0:0:0:0:
64,192,38749,1,2,0:0:0:0:
448,192,38749,1,0,0:0:0:0:
192,192,38904,1,8,0:0:0:0:
320,192,38904,1,0,0:0:0:0:
448,192,38904,1,0,0:0:0:0:
64,192,39059,1,2,0:0:0:0:
192,192,39059,1,4,0:0:0:0:
320,192,39059,1,0,0:0:0:0:
192,192,39368,1,2,0:0:0:0:
448,192,39368,1,0,0:0:0:0:
64,192,39523,1,8,0:0:0:0:
320,192,39523,1,0,0:0:0:0:
448,192,39523,1,0,0:0:0:0:
192,192,39677,1,0,0:0:0:0:
320,192,39832,1,8,0:0:0:0:
448,192,39832,1,0,0:0:0:100:Tom & Jerry 1.wav
64,192,39909,1,0,0:0:0:70:Tom & Jerry 1.wav
192,192,39987,1,0,0:0:0:70:Tom & Jerry 1.wav
320,192,40064,1,8,0:0:0:0:
448,192,40064,1,0,0:0:0:0:
64,192,40141,1,8,0:0:0:0:
192,192,40141,1,0,0:0:0:0:
64,192,40296,1,2,0:0:0:0:
320,192,40296,1,0,0:0:0:0:
192,192,40450,1,2,0:0:0:0:
320,192,40450,1,4,0:0:0:0:
448,192,40450,128,0,41069:0:0:0:0:
64,192,40760,1,2,0:0:0:0:
192,192,40760,1,0,0:0:0:0:
64,192,41069,128,2,41688:0:0:0:0:
320,192,41069,1,0,0:0:0:0:
192,192,41378,1,2,0:0:0:0:
448,192,41378,1,0,0:0:0:0:
320,192,41533,1,0,0:0:0:70:hit-hat.wav
192,192,41688,128,2,42306:0:0:0:0:
448,192,41688,1,0,0:0:0:0:
64,192,41997,1,2,0:0:0:0:
320,192,41997,1,0,0:0:0:0:
320,192,42306,128,2,42925:0:0:0:0:
448,192,42306,1,0,0:0:0:0:
64,192,42615,1,2,0:0:0:0:
448,192,42615,1,0,0:0:0:0:
64,192,42925,128,2,43543:0:0:0:0:
192,192,42925,1,0,0:0:0:0:
320,192,43234,1,2,0:0:0:0:
448,192,43234,1,0,0:0:0:70:hit-hat.wav
192,192,43543,128,2,44162:0:0:0:0:
320,192,43543,1,0,0:0:0:0:
64,192,43852,1,2,0:0:0:0:
448,192,43852,1,0,0:0:0:0:
320,192,44007,1,0,0:0:0:70:hit-hat.wav
64,192,44162,1,2,0:0:0:0:
448,192,44162,1,0,0:0:0:0:
64,192,44316,1,0,0:0:0:100:Tom & Jerry 1.wav
320,192,44316,1,0,0:0:0:0:
192,192,44471,1,2,0:0:0:0:
320,192,44471,1,0,0:0:0:100:Tom & Jerry 2.wav
64,192,44626,1,0,0:0:0:70:Tom & Jerry 1.wav
192,192,44703,1,0,0:0:0:70:Tom & Jerry 1.wav
320,192,44780,1,2,0:0:0:0:
448,192,44780,1,0,0:0:0:100:Tom & Jerry 1.wav
448,192,44935,1,0,0:0:0:70:Tom & Jerry 2.wav
320,192,45012,1,0,0:0:0:70:Tom & Jerry 2.wav
64,192,45090,1,2,0:0:0:0:
192,192,45090,1,0,0:0:0:100:Tom & Jerry 2.wav
64,192,45244,1,0,0:0:0:100:Tom & Jerry 3.wav
448,192,45244,1,0,0:0:0:0:
192,192,45399,1,2,0:0:0:0:
320,192,45399,1,4,0:0:0:0:
448,192,45399,1,0,0:0:0:0:
64,192,45708,1,2,0:0:0:0:
192,192,45708,1,8,0:0:0:20:
64,192,45863,1,8,0:0:0:25:
192,192,45863,1,0,0:0:0:0:
192,192,46017,1,2,0:0:0:0:
320,192,46017,1,8,0:0:0:30:
192,192,46172,1,8,0:0:0:40:
320,192,46172,1,0,0:0:0:0:
320,192,46327,1,2,0:0:0:0:
448,192,46327,1,8,0:0:0:50:
64,192,46481,1,4,0:0:0:0:
320,192,46481,1,8,0:0:0:0:
448,192,46481,1,0,0:0:0:0:
192,192,46636,1,2,0:0:0:0:
64,192,46636,1,0,0:0:0:0:
448,192,46791,1,8,0:0:0:20:
64,192,46945,1,2,0:0:0:0:
320,192,46945,1,8,0:0:0:20:
64,192,47100,1,8,0:0:0:25:
320,192,47100,1,0,0:0:0:0:
192,192,47255,1,2,0:0:0:0:
320,192,47255,1,8,0:0:0:30:
192,192,47409,1,8,0:0:0:40:
320,192,47409,1,0,0:0:0:0:
192,192,47564,1,2,0:0:0:0:
448,192,47564,1,8,0:0:0:50:
192,192,47718,1,8,0:0:0:0:
448,192,47718,1,0,0:0:0:0:
64,192,47873,1,2,0:0:0:0:
320,192,47873,1,4,0:0:0:0:
448,192,47873,1,0,0:0:0:0:
192,192,48028,1,2,0:0:0:0:
320,192,48028,1,0,0:0:0:0:
64,192,48182,1,8,0:0:0:0:
192,192,48182,1,0,0:0:0:0:
448,192,48182,1,0,0:0:0:0:
64,192,48337,1,2,0:0:0:0:
320,192,48337,1,4,0:0:0:0:
448,192,48337,128,0,48646:0:0:0:0:
192,192,48646,1,2,0:0:0:0:
320,192,48646,1,0,0:0:0:0:
64,192,48801,1,8,0:0:0:0:
320,192,48801,1,0,0:0:0:0:
448,192,48801,1,0,0:0:0:0:
64,192,48956,128,2,49265:0:0:0:0:
192,192,48956,1,4,0:0:0:0:
448,192,48956,1,0,0:0:0:0:
192,192,49265,1,2,0:0:0:0:
320,192,49265,1,0,0:0:0:0:
64,192,49420,1,8,0:0:0:0:
320,192,49420,1,0,0:0:0:70:hit-hat.wav
448,192,49420,1,0,0:0:0:0:
192,192,49574,1,0,0:0:0:0:
448,192,49729,1,0,0:0:0:100:Tom & Jerry 1.wav
64,192,49729,1,0,0:0:0:0:
320,192,49806,1,0,0:0:0:100:Tom & Jerry 2.wav
192,192,49883,1,0,0:0:0:100:Tom & Jerry 2.wav
320,192,49961,1,8,0:0:0:0:
448,192,49961,1,0,0:0:0:0:
64,192,50038,1,8,0:0:0:0:
192,192,50038,1,0,0:0:0:0:
320,192,50193,1,8,0:0:0:0:
448,192,50193,1,0,0:0:0:0:
192,192,50270,1,8,0:0:0:0:
64,192,50347,1,2,0:0:0:0:
320,192,50347,128,4,50657:0:0:0:0:
448,192,50347,1,0,0:0:0:0:
64,192,50657,1,8,0:0:0:0:
192,192,50657,128,0,50811:0:0:0:70:hit-hat.wav
448,192,50657,1,0,0:0:0:0:
64,192,50811,1,2,0:0:0:0:
320,192,50811,1,0,0:0:0:0:
192,192,50966,1,8,0:0:0:0:
320,192,50966,128,0,51121:0:0:0:70:hit-hat.wav
448,192,50966,1,0,0:0:0:0:
64,192,51121,1,2,0:0:0:0:
448,192,51121,1,0,0:0:0:0:
64,192,51275,128,8,51430:0:0:0:0:
192,192,51275,1,0,0:0:0:70:hit-hat.wav
320,192,51275,1,0,0:0:0:0:
448,192,51430,1,2,0:0:0:0:
320,192,51507,1,2,0:0:0:0:
64,192,51584,1,8,0:0:0:0:
192,192,51584,1,0,0:0:0:70:hit-hat.wav
448,192,51584,128,0,51739:0:0:0:0:
192,192,51739,1,2,0:0:0:0:
320,192,51739,1,0,0:0:0:0:
64,192,51894,128,8,52048:0:0:0:0:
320,192,51894,1,0,0:0:0:70:hit-hat.wav
448,192,51894,1,0,0:0:0:0:
192,192,52048,1,2,0:0:0:0:
320,192,52126,1,2,0:0:0:0:
64,192,52203,1,8,0:0:0:0:
192,192,52203,128,0,52358:0:0:0:70:hit-hat.wav
448,192,52203,1,0,0:0:0:0:
64,192,52358,1,2,0:0:0:0:
320,192,52358,1,0,0:0:0:0:
192,192,52512,1,8,0:0:0:0:
320,192,52512,128,0,52667:0:0:0:70:hit-hat.wav
448,192,52512,1,0,0:0:0:0:
64,192,52667,1,2,0:0:0:0:
448,192,52667,1,0,0:0:0:0:
64,192,52822,1,8,0:0:0:0:
192,192,52822,128,4,53131:0:0:0:0:
320,192,52822,1,0,0:0:0:0:
320,192,53131,1,2,0:0:0:0:
448,192,53131,1,8,0:0:0:30:
320,192,53285,1,8,0:0:0:40:
448,192,53285,1,0,0:0:0:0:
64,192,53440,1,8,0:0:0:40:
448,192,53440,1,2,0:0:0:0:
64,192,53595,1,8,0:0:0:50:
448,192,53595,1,0,0:0:0:0:
64,192,53749,1,8,0:0:0:50:
192,192,53749,1,2,0:0:0:0:
64,192,53904,1,8,0:0:0:0:
192,192,53904,1,0,0:0:0:100:Tom & Jerry 3.wav
448,192,53904,1,0,0:0:0:0:
64,192,54213,1,8,0:0:0:0:
320,192,54213,1,0,0:0:0:100:Tom & Jerry 3.wav
448,192,54213,1,0,0:0:0:0:
64,192,54368,1,8,0:0:0:0:
448,192,54368,1,0,0:0:0:100:Tom & Jerry 3.wav
192,192,54368,1,0,0:0:0:0:
320,192,54523,128,0,54677:0:0:0:0:
448,192,54677,128,0,54832:0:0:0:0:
64,192,54832,128,0,54987:0:0:0:0:
192,192,54987,128,0,55141:0:0:0:0:
320,192,55141,128,0,55296:0:0:0:0:
64,192,55296,128,2,55605:0:0:0:0:
192,192,55296,1,4,0:0:0:0:
448,192,55296,1,0,0:0:0:0:
192,192,55605,1,8,0:0:0:0:
320,192,55605,1,0,0:0:0:70:hit-hat.wav
448,192,55605,1,0,0:0:0:0:
448,192,55760,1,0,0:0:0:0:
64,192,55914,128,2,56224:0:0:0:0:
192,192,55914,1,0,0:0:0:70:hit-hat.wav
320,192,56069,1,2,0:0:0:0:
448,192,56069,1,0,0:0:0:0:
192,192,56224,1,8,0:0:0:0:
320,192,56224,1,0,0:0:0:70:hit-hat.wav
448,192,56224,128,0,56533:0:0:0:0:
64,192,56378,1,0,0:0:0:0:
64,192,56533,1,2,0:0:0:0:
320,192,56533,128,0,56842:0:0:0:70:hit-hat.wav
192,192,56688,1,0,0:0:0:0:
64,192,56842,128,8,57151:0:0:0:0:
192,192,56842,1,0,0:0:0:70:hit-hat.wav
448,192,56842,1,0,0:0:0:0:
320,192,56997,1,0,0:0:0:0:
320,192,57151,1,2,0:0:0:0:
448,192,57151,128,0,57461:0:0:0:70:hit-hat.wav
64,192,57306,1,2,0:0:0:0:
192,192,57306,1,0,0:0:0:0:
64,192,57461,1,8,0:0:0:0:
192,192,57461,128,0,57770:0:0:0:70:hit-hat.wav
320,192,57461,1,0,0:0:0:0:
448,192,57615,1,0,0:0:0:0:
320,192,57770,128,2,58079:0:0:0:0:
448,192,57770,1,0,0:0:0:70:hit-hat.wav
64,192,57925,1,0,0:0:0:0:
64,192,58079,1,8,0:0:0:0:
192,192,58079,1,0,0:0:0:70:hit-hat.wav
448,192,58079,128,0,59007:0:0:0:0:
320,192,58234,1,0,0:0:0:0:
64,192,58389,1,2,0:0:0:0:
192,192,58389,1,0,0:0:0:70:hit-hat.wav
64,192,58543,1,2,0:0:0:0:
320,192,58543,1,0,0:0:0:0:
64,192,58698,1,8,0:0:0:0:
192,192,58698,1,0,0:0:0:70:hit-hat.wav
320,192,58698,1,0,0:0:0:0:
192,192,58852,1,0,0:0:0:0:
64,192,59007,1,2,0:0:0:0:
320,192,59007,1,0,0:0:0:70:hit-hat.wav
320,192,59162,1,0,0:0:0:0:
64,192,59316,1,8,0:0:0:0:
192,192,59316,1,0,0:0:0:70:hit-hat.wav
448,192,59316,1,0,0:0:0:0:
64,192,59471,128,0,59626:0:0:0:0:
320,192,59626,1,2,0:0:0:0:
448,192,59626,128,0,59780:0:0:0:70:hit-hat.wav
64,192,59780,1,2,0:0:0:0:
320,192,59780,128,0,59935:0:0:0:0:
192,192,59935,1,8,0:0:0:0:
448,192,59935,1,0,0:0:0:70:hit-hat.wav
64,192,59935,128,0,60090:0:0:0:0:
192,192,60090,128,0,60244:0:0:0:0:
64,192,60244,1,2,0:0:0:0:
320,192,60244,1,4,0:0:0:0:
448,192,60244,128,0,60554:0:0:0:0:
64,192,60554,1,8,0:0:0:0:
192,192,60554,1,0,0:0:0:70:hit-hat.wav
320,192,60554,1,0,0:0:0:0:
320,192,60708,1,0,0:0:0:0:
64,192,60863,1,2,0:0:0:0:
192,192,60863,128,0,61172:0:0:0:70:hit-hat.wav
320,192,61017,1,2,0:0:0:0:
448,192,61017,1,0,0:0:0:0:
64,192,61172,1,8,0:0:0:0:
320,192,61172,1,0,0:0:0:70:hit-hat.wav
448,192,61172,128,0,61481:0:0:0:0:
192,192,61327,1,0,0:0:0:0:
64,192,61481,128,2,61791:0:0:0:0:
192,192,61481,1,0,0:0:0:70:hit-hat.wav
320,192,61636,1,0,0:0:0:0:
192,192,61791,1,8,0:0:0:0:
320,192,61791,128,0,62100:0:0:0:70:hit-hat.wav
448,192,61791,1,0,0:0:0:0:
64,192,61945,1,0,0:0:0:0:
64,192,62100,1,2,0:0:0:0:
448,192,62100,128,0,62409:0:0:0:70:hit-hat.wav
192,192,62255,1,2,0:0:0:0:
320,192,62255,1,0,0:0:0:0:
64,192,62409,128,8,62718:0:0:0:0:
192,192,62409,1,0,0:0:0:70:hit-hat.wav
320,192,62409,1,0,0:0:0:0:
448,192,62564,1,0,0:0:0:0:
192,192,62718,1,2,0:0:0:0:
320,192,62718,1,4,0:0:0:0:
448,192,62718,1,0,0:0:0:0:
64,192,62873,1,2,0:0:0:0:
320,192,62873,1,0,0:0:0:0:
64,192,63028,1,8,0:0:0:0:
192,192,63028,1,0,0:0:0:0:
448,192,63028,1,0,0:0:0:0:
320,192,63182,1,2,0:0:0:0:
192,192,63260,1,2,0:0:0:0:
320,192,63337,1,8,0:0:0:0:
448,192,63337,1,0,0:0:0:0:
64,192,63337,1,0,0:0:0:0:
192,192,63492,1,2,0:0:0:0:
320,192,63569,1,2,0:0:0:0:
64,192,63646,1,8,0:0:0:0:
192,192,63646,1,0,0:0:0:0:
448,192,63646,1,0,0:0:0:0:
64,192,63801,128,2,64110:0:0:0:0:
320,192,63801,1,4,0:0:0:0:
448,192,63801,1,0,0:0:0:0:
192,192,64110,1,2,0:0:0:0:
320,192,64110,1,0,0:0:0:0:
64,192,64265,1,8,0:0:0:0:
192,192,64265,1,0,0:0:0:0:
448,192,64265,1,0,0:0:0:0:
320,192,64420,1,0,0:0:0:0:
64,192,64574,1,2,0:0:0:0:
192,192,64574,1,0,0:0:0:0:
320,192,64729,1,8,0:0:0:0:
448,192,64729,1,0,0:0:0:0:
64,192,64806,1,8,0:0:0:0:
192,192,64806,1,0,0:0:0:0:
320,192,64883,1,8,0:0:0:0:
448,192,64883,1,0,0:0:0:0:
64,192,64961,1,8,0:0:0:0:
192,192,64961,1,0,0:0:0:0:
320,192,65038,1,8,0:0:0:0:
448,192,65038,1,0,0:0:0:0:
192,192,65115,1,8,0:0:0:0:
64,192,65193,1,2,0:0:0:0:
320,192,65193,128,4,65502:0:0:0:0:
448,192,65193,1,0,0:0:0:0:
64,192,65502,1,8,0:0:0:0:
192,192,65502,1,0,0:0:0:70:hit-hat.wav
448,192,65502,1,0,0:0:0:0:
448,192,65657,1,0,0:0:0:0:
64,192,65811,1,2,0:0:0:0:
192,192,65811,128,0,66121:0:0:0:70:hit-hat.wav
320,192,65966,1,2,0:0:0:0:
448,192,65966,1,0,0:0:0:0:
64,192,66121,1,8,0:0:0:0:
320,192,66121,1,0,0:0:0:70:hit-hat.wav
448,192,66121,128,0,66430:0:0:0:0:
192,192,66275,1,0,0:0:0:0:
64,192,66430,1,2,0:0:0:0:
192,192,66430,128,0,66739:0:0:0:70:hit-hat.wav
320,192,66584,1,0,0:0:0:0:
64,192,66739,1,8,0:0:0:0:
320,192,66739,128,0,67048:0:0:0:70:hit-hat.wav
448,192,66739,1,0,0:0:0:0:
192,192,66894,1,0,0:0:0:0:
64,192,67048,1,2,0:0:0:0:
448,192,67048,128,0,67358:0:0:0:70:hit-hat.wav
192,192,67203,1,2,0:0:0:0:
320,192,67203,1,0,0:0:0:0:
64,192,67358,1,8,0:0:0:0:
192,192,67358,1,0,0:0:0:70:hit-hat.wav
320,192,67358,1,0,0:0:0:0:
448,192,67512,1,0,0:0:0:0:
64,192,67667,128,2,67976:0:0:0:0:
192,192,67667,1,4,0:0:0:0:
320,192,67667,1,0,0:0:0:0:
320,192,67822,1,2,0:0:0:0:
448,192,67822,1,0,0:0:0:0:
192,192,67976,1,8,0:0:0:0:
320,192,67976,1,0,0:0:0:0:
448,192,67976,1,0,0:0:0:0:
64,192,68131,1,2,0:0:0:0:
192,192,68131,1,4,0:0:0:0:
448,192,68131,128,0,68440:0:0:0:0:
192,192,68440,1,2,0:0:0:0:
320,192,68440,1,0,0:0:0:0:
64,192,68595,1,8,0:0:0:0:
192,192,68595,1,0,0:0:0:0:
448,192,68595,1,0,0:0:0:0:
64,192,68749,128,2,69059:0:0:0:0:
320,192,68749,1,4,0:0:0:0:
448,192,68749,1,0,0:0:0:0:
192,192,69059,1,2,0:0:0:0:
320,192,69059,1,0,0:0:0:0:
64,192,69213,1,8,0:0:0:0:
192,192,69213,1,0,0:0:0:70:hit-hat.wav
448,192,69213,1,0,0:0:0:0:
320,192,69368,1,0,0:0:0:0:
192,192,69523,1,0,0:0:0:100:Tom & Jerry 1.wav
448,192,69523,1,0,0:0:0:0:
64,192,69677,1,0,0:0:0:100:Tom & Jerry 2.wav
192,192,69755,1,0,0:0:0:100:Tom & Jerry 2.wav
320,192,69832,1,8,0:0:0:0:
448,192,69832,1,0,0:0:0:0:
192,192,69909,1,0,0:0:0:100:Tom & Jerry 2.wav
64,192,69987,1,0,0:0:0:100:Tom & Jerry 2.wav
320,192,70064,1,0,0:0:0:100:Tom & Jerry 3.wav
64,192,70141,1,2,0:0:0:0:
448,192,70141,1,0,0:0:0:0:
192,192,70141,1,0,0:0:0:0:
320,192,70296,1,0,0:0:0:0:
64,192,70450,1,0,0:0:0:0:
192,192,70528,1,0,0:0:0:0:
448,192,70605,1,0,0:0:0:0:
64,192,70760,1,0,0:0:0:0:
320,192,70914,1,0,0:0:0:0:
448,192,70992,1,0,0:0:0:0:
64,192,71069,1,0,0:0:0:0:
192,192,71146,1,0,0:0:0:0:
64,192,71224,1,8,0:0:0:0:
320,192,71224,1,0,0:0:0:70:hit-hat.wav
448,192,71224,1,0,0:0:0:0:
192,192,71378,1,0,0:0:0:0:
320,192,71456,1,0,0:0:0:0:
448,192,71533,128,0,71688:0:0:0:0:
64,192,71688,1,0,0:0:0:0:
448,192,71842,1,0,0:0:0:0:
192,192,71920,1,0,0:0:0:0:
64,192,71997,128,0,72151:0:0:0:0:
320,192,72151,1,0,0:0:0:0:
64,192,72306,1,0,0:0:0:0:
192,192,72383,1,0,0:0:0:0:
448,192,72461,1,0,0:0:0:0:
320,192,72538,1,0,0:0:0:0:
64,192,72615,1,2,0:0:0:0:
192,192,72615,128,4,72925:0:0:0:0:
448,192,72615,1,0,0:0:0:0:
64,192,72925,1,8,0:0:0:0:
320,192,72925,1,0,0:0:0:0:
448,192,72925,1,0,0:0:0:0:
64,192,73079,1,2,0:0:0:0:
192,192,73079,1,0,0:0:0:0:
320,192,73157,1,2,0:0:0:0:
448,192,73157,1,0,0:0:0:0:
64,192,73234,1,8,0:0:0:0:
192,192,73234,1,0,0:0:0:0:
320,192,73389,1,2,0:0:0:0:
448,192,73389,1,0,0:0:0:0:
64,192,73543,1,8,0:0:0:0:
192,192,73543,1,0,0:0:0:0:
320,192,73543,1,0,0:0:0:0:
64,192,73698,128,2,74007:0:0:0:0:
192,192,73698,1,4,0:0:0:0:
448,192,73698,1,0,0:0:0:0:
320,192,74007,1,8,0:0:0:25:
448,192,74007,1,0,0:0:0:0:
320,192,74162,1,2,0:0:0:0:
448,192,74162,1,8,0:0:0:30:
192,192,74316,1,8,0:0:0:30:
320,192,74316,1,0,0:0:0:0:
192,192,74471,1,2,0:0:0:0:
320,192,74471,1,8,0:0:0:40:
64,192,74626,1,8,0:0:0:40:
192,192,74626,1,0,0:0:0:0:
64,192,74780,1,2,0:0:0:0:
192,192,74780,1,8,0:0:0:50:
64,192,74935,1,8,0:0:0:50:
448,192,74935,1,0,0:0:0:0:
64,192,75090,1,4,0:0:0:0:
320,192,75090,1,8,0:0:0:0:
448,192,75090,128,0,75554:0:0:0:0:
64,192,75554,1,0,0:0:0:100:Tom & Jerry 1.wav
192,192,75631,1,0,0:0:0:100:Tom & Jerry 1.wav
320,192,75708,1,0,0:0:0:100:Tom & Jerry 1.wav
448,192,75708,1,0,0:0:0:0:
64,192,75863,1,0,0:0:0:100:Tom & Jerry 2.wav
448,192,75863,1,0,0:0:0:0:
64,192,76017,1,0,0:0:0:100:Tom & Jerry 3.wav
320,192,76017,1,0,0:0:0:0:
192,192,76172,1,2,0:0:0:0:
320,192,76172,1,0,0:0:0:70:hit-hat.wav
448,192,76172,1,0,0:0:0:0:
448,192,76481,1,0,0:0:0:0:
64,192,76791,1,2,0:0:0:0:
192,192,76791,1,0,0:0:0:0:
320,192,76868,1,2,0:0:0:0:
64,192,76945,128,8,77100:0:0:0:0:
192,192,76945,128,4,77100:0:0:0:0:
448,192,76945,128,0,77100:0:0:0:0:
64,192,77177,128,8,77332:0:0:0:0:
320,192,77177,128,4,77332:0:0:0:0:
448,192,77177,128,0,77332:0:0:0:0:
64,192,77409,1,8,0:0:0:0:
192,192,77409,1,4,0:0:0:0:
448,192,77409,1,0,0:0:0:0:
64,192,77564,1,4,0:0:0:0:
320,192,77564,128,2,77873:0:0:0:0:
448,192,77564,1,0,0:0:0:0:
64,192,77873,1,2,0:0:0:0:
192,192,77873,1,8,0:0:0:0:
448,192,77873,1,0,0:0:0:0:
192,192,78028,128,0,78337:0:0:0:70:hit-hat.wav
320,192,78182,1,2,0:0:0:0:
448,192,78182,1,0,0:0:0:0:
320,192,78337,1,0,0:0:0:70:hit-hat.wav
64,192,78492,1,8,0:0:0:0:
192,192,78492,1,2,0:0:0:0:
448,192,78492,128,0,78801:0:0:0:0:
192,192,78646,1,0,0:0:0:70:hit-hat.wav
64,192,78801,1,2,0:0:0:0:
320,192,78801,1,0,0:0:0:0:
64,192,78956,128,0,79265:0:0:0:70:hit-hat.wav
192,192,79110,1,2,0:0:0:0:
320,192,79110,1,8,0:0:0:0:
448,192,79110,1,0,0:0:0:0:
448,192,79265,1,0,0:0:0:70:hit-hat.wav
64,192,79420,1,2,0:0:0:0:
192,192,79420,128,0,79729:0:0:0:0:
320,192,79574,1,0,0:0:0:70:hit-hat.wav
64,192,79729,1,2,0:0:0:0:
320,192,79729,128,8,80038:0:0:0:0:
448,192,79729,1,0,0:0:0:0:
192,192,79883,1,0,0:0:0:70:hit-hat.wav
192,192,80038,1,2,0:0:0:0:
448,192,80038,128,0,80347:0:0:0:0:
64,192,80193,1,0,0:0:0:70:hit-hat.wav
64,192,80347,1,8,0:0:0:0:
192,192,80347,1,2,0:0:0:0:
320,192,80347,1,0,0:0:0:0:
320,192,80502,128,0,80811:0:0:0:70:hit-hat.wav
64,192,80657,1,2,0:0:0:0:
192,192,80657,1,0,0:0:0:0:
192,192,80811,1,0,0:0:0:70:hit-hat.wav
64,192,80966,128,8,81275:0:0:0:0:
320,192,80966,1,2,0:0:0:0:
448,192,80966,1,0,0:0:0:0:
320,192,81121,1,0,0:0:0:70:hit-hat.wav
192,192,81275,1,2,0:0:0:0:
448,192,81275,1,0,0:0:0:0:
320,192,81430,128,0,81739:0:0:0:70:hit-hat.wav
64,192,81584,1,2,0:0:0:0:
192,192,81584,1,8,0:0:0:0:
448,192,81584,1,0,0:0:0:0:
192,192,81739,1,0,0:0:0:70:hit-hat.wav
320,192,81894,1,2,0:0:0:0:
448,192,81894,128,0,82203:0:0:0:0:
320,192,82048,1,0,0:0:0:70:hit-hat.wav
64,192,82203,1,8,0:0:0:0:
192,192,82203,1,0,0:0:0:0:
320,192,82280,1,8,0:0:0:0:
448,192,82280,1,0,0:0:0:0:
64,192,82358,1,8,0:0:0:0:
192,192,82358,1,0,0:0:0:0:
320,192,82435,1,8,0:0:0:0:
64,192,82512,128,4,82822:0:0:0:0:
192,192,82512,1,2,0:0:0:0:
448,192,82512,1,0,0:0:0:0:
192,192,82822,1,8,0:0:0:0:
320,192,82822,1,2,0:0:0:0:
448,192,82822,1,0,0:0:0:0:
320,192,82976,128,0,83285:0:0:0:70:hit-hat.wav
64,192,83131,1,2,0:0:0:0:
448,192,83131,1,0,0:0:0:0:
64,192,83285,1,0,0:0:0:70:hit-hat.wav
192,192,83440,128,8,83749:0:0:0:0:
320,192,83440,1,2,0:0:0:0:
448,192,83440,1,0,0:0:0:0:
448,192,83595,1,0,0:0:0:70:hit-hat.wav
64,192,83749,1,2,0:0:0:0:
320,192,83749,1,0,0:0:0:0:
64,192,83904,128,0,84213:0:0:0:70:hit-hat.wav
192,192,84059,1,8,0:0:0:0:
320,192,84059,1,2,0:0:0:0:
448,192,84059,1,0,0:0:0:0:
320,192,84213,1,0,0:0:0:70:hit-hat.wav
64,192,84362,1,2,0:0:0:0:
192,192,84362,1,0,0:0:0:0:
192,192,84504,1,0,0:0:0:100:Tom & Jerry 1.wav
320,192,84504,1,0,0:0:0:0:
320,192,84658,1,8,0:0:0:0:
448,192,84658,1,0,0:0:0:100:Tom & Jerry 2.wav
192,192,84735,1,0,0:0:0:100:Tom & Jerry 2.wav
64,192,84813,1,0,0:0:0:100:Tom & Jerry 3.wav
320,192,84890,1,0,0:0:0:100:Tom & Jerry 3.wav
64,192,84968,1,8,0:0:0:0:
192,192,84968,1,4,0:0:0:0:
448,192,84968,1,0,0:0:0:0:
192,192,85122,1,2,0:0:0:0:
64,192,85122,1,0,0:0:0:0:
320,192,85309,1,2,0:0:0:0:
192,192,85309,1,0,0:0:0:0:
64,192,85450,1,8,0:0:0:0:
448,192,85450,1,0,0:0:0:0:
320,192,85450,1,4,0:0:0:0:
320,192,85604,1,2,0:0:0:0:
448,192,85604,1,0,0:0:0:0:
64,192,85759,1,2,0:0:0:0:
192,192,85759,1,0,0:0:0:0:
64,192,85913,1,8,0:0:0:0:
320,192,85913,1,4,0:0:0:0:
448,192,85913,1,0,0:0:0:0:
64,192,86068,1,2,0:0:0:0:
320,192,86068,1,0,0:0:0:0:
192,192,86223,1,2,0:0:0:0:
448,192,86223,1,0,0:0:0:0:
320,192,86360,1,4,0:0:0:0:
448,192,86360,1,0,0:0:0:0:
64,192,86360,1,8,0:0:0:0:
448,192,86514,1,2,0:0:0:0:
320,192,86514,1,0,0:0:0:0:
64,192,86669,1,2,0:0:0:0:
192,192,86669,1,0,0:0:0:0:
64,192,86823,1,8,0:0:0:0:
448,192,86823,1,0,0:0:0:0:
320,192,86823,1,0,0:0:0:0:
192,192,86978,1,2,0:0:0:0:
320,192,86978,1,0,0:0:0:70:hit-hat.wav
64,192,87461,1,2,0:0:0:0:
192,192,87461,1,4,0:0:0:0:
448,192,87461,1,0,0:0:0:0:
192,192,87770,1,0,0:0:0:0:
320,192,87924,1,2,0:0:0:0:
448,192,87924,1,0,0:0:0:0:
64,192,88079,1,8,0:0:0:0:
192,192,88079,1,0,0:0:0:0:
448,192,88079,1,0,0:0:0:0:
320,192,88388,1,2,0:0:0:0:
448,192,88388,1,0,0:0:0:0:
64,192,88543,1,2,0:0:0:0:
320,192,88543,1,0,0:0:0:0:
192,192,88698,1,0,0:0:0:0:
64,192,88852,1,8,0:0:0:0:
320,192,88852,1,0,0:0:0:0:
448,192,88852,1,0,0:0:0:0:
192,192,89007,1,2,0:0:0:0:
448,192,89007,1,0,0:0:0:0:
64,192,89316,1,8,0:0:0:0:
192,192,89316,1,0,0:0:0:0:
448,192,89316,1,0,0:0:0:0:
192,192,89471,1,2,0:0:0:0:
320,192,89471,1,0,0:0:0:0:
64,192,89625,1,0,0:0:0:0:
448,192,89780,1,8,0:0:0:30:
320,192,89857,1,8,0:0:0:30:
64,192,89935,1,2,0:0:0:0:
192,192,89935,1,0,0:0:0:0:
192,192,90244,1,0,0:0:0:0:
64,192,90399,1,2,0:0:0:0:
320,192,90399,1,0,0:0:0:0:
192,192,90553,1,8,0:0:0:0:
320,192,90553,1,0,0:0:0:0:
448,192,90553,1,0,0:0:0:0:
64,192,90863,1,0,0:0:0:0:
192,192,91017,1,2,0:0:0:0:
320,192,91017,1,0,0:0:0:0:
448,192,91172,1,0,0:0:0:0:
64,192,91326,1,8,0:0:0:0:
192,192,91326,1,0,0:0:0:0:
320,192,91326,1,0,0:0:0:0:
192,192,91481,1,2,0:0:0:0:
448,192,91481,1,0,0:0:0:0:
64,192,91790,1,8,0:0:0:0:
320,192,91790,1,0,0:0:0:0:
448,192,91790,1,0,0:0:0:0:
192,192,91945,1,2,0:0:0:0:
320,192,91945,1,0,0:0:0:0:
448,192,92100,1,0,0:0:0:0:
64,192,92254,1,8,0:0:0:30:
192,192,92332,1,8,0:0:0:30:
320,192,92409,1,2,0:0:0:0:
448,192,92409,1,0,0:0:0:0:
320,192,92718,1,0,0:0:0:0:
192,192,92873,1,2,0:0:0:0:
448,192,92873,1,0,0:0:0:0:
64,192,93028,1,8,0:0:0:0:
320,192,93028,1,0,0:0:0:0:
448,192,93028,1,0,0:0:0:0:
64,192,93337,1,8,0:0:0:0:
320,192,93337,1,0,0:0:0:0:
192,192,93337,1,0,0:0:0:0:
448,192,93491,1,2,0:0:0:0:
64,192,93491,1,0,0:0:0:0:
320,192,93646,1,0,0:0:0:0:
64,192,93801,1,8,0:0:0:0:
192,192,93801,1,0,0:0:0:0:
448,192,93801,1,0,0:0:0:0:
320,192,93955,1,2,0:0:0:0:
448,192,93955,1,0,0:0:0:0:
64,192,94110,1,8,0:0:0:0:
192,192,94110,1,0,0:0:0:0:
320,192,94187,1,8,0:0:0:0:
448,192,94187,1,0,0:0:0:0:
64,192,94265,1,8,0:0:0:0:
192,192,94265,1,2,0:0:0:0:
192,192,94419,1,8,0:0:0:0:
320,192,94419,1,0,0:0:0:0:
448,192,94419,1,0,0:0:0:0:
64,192,94574,1,8,0:0:0:0:
320,192,94574,1,0,0:0:0:0:
448,192,94574,1,0,0:0:0:0:
192,192,94729,1,2,0:0:0:0:
64,192,94729,1,0,0:0:0:70:hit-hat.wav
320,192,94883,128,0,95192:0:0:0:0:
64,192,95192,128,0,95502:0:0:0:0:
192,192,95347,128,0,95502:0:0:0:0:
320,192,95502,128,0,95656:0:0:0:0:
448,192,95656,128,0,95966:0:0:0:0:
64,192,95811,128,0,96120:0:0:0:0:
320,192,95966,128,0,96275:0:0:0:0:
192,192,96120,128,0,96275:0:0:0:0:
448,192,96275,128,0,96584:0:0:0:0:
64,192,96430,128,0,96584:0:0:0:0:
320,192,96584,1,0,0:0:0:0:
192,192,96662,1,0,0:0:0:0:
64,192,96739,1,0,0:0:0:100:Tom & Jerry 1.wav
320,192,96739,1,0,0:0:0:0:
448,192,96816,1,0,0:0:0:0:
192,192,96893,1,0,0:0:0:0:
320,192,96971,1,0,0:0:0:0:
64,192,97048,1,8,0:0:0:0:
192,192,97048,1,0,0:0:0:0:
448,192,97048,1,0,0:0:0:0:
64,192,97203,1,2,0:0:0:0:
448,192,97203,1,4,0:0:0:0:
320,192,97203,1,0,0:0:0:0:
320,192,97512,1,2,0:0:0:0:
448,192,97512,1,0,0:0:0:0:
64,192,97667,1,8,0:0:0:0:
192,192,97667,1,0,0:0:0:70:hit-hat.wav
448,192,97667,1,0,0:0:0:0:
64,192,97976,1,2,0:0:0:0:
320,192,97976,1,0,0:0:0:70:hit-hat.wav
192,192,98131,1,2,0:0:0:0:
320,192,98131,1,0,0:0:0:0:
64,192,98285,1,8,0:0:0:0:
192,192,98285,1,0,0:0:0:70:hit-hat.wav
448,192,98285,1,0,0:0:0:0:
320,192,98440,1,2,0:0:0:0:
448,192,98440,1,0,0:0:0:0:
192,192,98595,1,0,0:0:0:70:hit-hat.wav
64,192,98749,1,2,0:0:0:0:
320,192,98749,1,0,0:0:0:0:
192,192,98904,1,8,0:0:0:0:
320,192,98904,1,0,0:0:0:70:hit-hat.wav
448,192,98904,1,0,0:0:0:0:
64,192,99213,1,2,0:0:0:0:
448,192,99213,1,0,0:0:0:70:hit-hat.wav
64,192,99368,1,2,0:0:0:0:
320,192,99368,1,0,0:0:0:0:
192,192,99522,1,8,0:0:0:0:
320,192,99522,1,0,0:0:0:70:hit-hat.wav
448,192,99522,1,0,0:0:0:0:
64,192,99677,1,8,0:0:0:0:
192,192,99677,1,0,0:0:0:0:
320,192,99754,1,8,0:0:0:0:
64,192,99832,1,2,0:0:0:0:
192,192,99832,1,4,0:0:0:0:
448,192,99832,1,0,0:0:0:0:
320,192,99986,1,2,0:0:0:0:
448,192,99986,1,0,0:0:0:0:
64,192,100141,1,8,0:0:0:0:
192,192,100141,1,0,0:0:0:0:
320,192,100141,1,0,0:0:0:0:
64,192,100296,1,2,0:0:0:0:
192,192,100296,1,4,0:0:0:0:
448,192,100296,128,0,100605:0:0:0:0:
192,192,100605,1,2,0:0:0:0:
320,192,100605,1,0,0:0:0:0:
64,192,100759,1,8,0:0:0:0:
320,192,100759,1,0,0:0:0:0:
448,192,100759,1,0,0:0:0:0:
64,192,100914,128,2,101223:0:0:0:0:
192,192,100914,1,4,0:0:0:0:
448,192,100914,1,0,0:0:0:0:
320,192,101223,1,2,0:0:0:0:
448,192,101223,1,0,0:0:0:0:
64,192,101378,1,8,0:0:0:0:
192,192,101378,1,0,0:0:0:70:hit-hat.wav
448,192,101378,1,0,0:0:0:0:
320,192,101533,1,0,0:0:0:0:
192,192,101687,1,0,0:0:0:100:Tom & Jerry 1.wav
448,192,101687,1,0,0:0:0:0:
320,192,101765,1,0,0:0:0:60:Tom & Jerry 1.wav
64,192,101842,1,0,0:0:0:60:Tom & Jerry 1.wav
192,192,101919,1,0,0:0:0:60:Tom & Jerry 1.wav
64,192,101997,1,8,0:0:0:0:
320,192,101997,1,0,0:0:0:0:
448,192,101997,1,0,0:0:0:0:
192,192,102074,1,0,0:0:0:0:
320,192,102151,1,2,0:0:0:0:
448,192,102151,1,0,0:0:0:70:hit-hat.wav
64,192,102229,1,0,0:0:0:0:
192,192,102306,1,0,0:0:0:0:
448,192,102383,1,0,0:0:0:0:
320,192,102461,1,0,0:0:0:0:
64,192,102461,1,2,0:0:0:0:
192,192,102538,1,2,0:0:0:0:
64,192,102615,1,8,0:0:0:0:
320,192,102615,1,4,0:0:0:0:
448,192,102615,128,0,102924:0:0:0:0:
64,192,102924,1,2,0:0:0:0:
320,192,102924,1,0,0:0:0:0:
192,192,103079,1,2,0:0:0:0:
320,192,103079,1,0,0:0:0:0:
64,192,103234,1,8,0:0:0:0:
192,192,103234,1,0,0:0:0:0:
448,192,103234,1,0,0:0:0:0:
64,192,103388,1,2,0:0:0:0:
320,192,103388,128,4,103698:0:0:0:0:
448,192,103388,1,0,0:0:0:0:
64,192,103698,1,2,0:0:0:0:
192,192,103698,1,0,0:0:0:0:
64,192,103852,1,8,0:0:0:0:
320,192,103852,1,0,0:0:0:0:
448,192,103852,1,0,0:0:0:0:
64,192,104007,1,8,0:0:0:0:
192,192,104007,1,0,0:0:0:0:
320,192,104084,1,8,0:0:0:0:
448,192,104084,1,0,0:0:0:0:
64,192,104162,1,8,0:0:0:0:
192,192,104162,1,0,0:0:0:0:
192,192,104316,1,8,0:0:0:0:
320,192,104316,1,0,0:0:0:0:
448,192,104316,1,0,0:0:0:0:
64,192,104471,1,8,0:0:0:0:
320,192,104471,1,0,0:0:0:0:
448,192,104471,1,0,0:0:0:0:
64,192,104625,1,8,0:0:0:0:
192,192,104625,1,0,0:0:0:0:
448,192,104625,1,0,0:0:0:0:
64,192,104780,128,2,105089:0:0:0:0:
192,192,104780,1,4,0:0:0:0:
320,192,104780,1,0,0:0:0:0:
192,192,105089,1,0,0:0:0:70:hit-hat.wav
64,192,105244,1,2,0:0:0:0:
320,192,105244,1,0,0:0:0:0:
64,192,105399,1,8,0:0:0:0:
192,192,105399,1,0,0:0:0:0:
448,192,105399,1,0,0:0:0:0:
192,192,105553,1,0,0:0:0:100:Tom & Jerry 1.wav
320,192,105553,1,0,0:0:0:0:
320,192,105708,1,0,0:0:0:100:Tom & Jerry 2.wav
448,192,105708,1,0,0:0:0:0:
64,192,105863,1,2,0:0:0:0:
192,192,105863,1,4,0:0:0:0:
448,192,105863,128,0,106172:0:0:0:0:
64,192,106172,1,0,0:0:0:100:Tom & Jerry 2.wav
320,192,106172,1,0,0:0:0:0:
64,192,106326,1,0,0:0:0:100:Tom & Jerry 3.wav
192,192,106326,1,0,0:0:0:0:
320,192,106481,1,8,0:0:0:0:
448,192,106481,1,0,0:0:0:0:
64,192,106558,1,8,0:0:0:0:
192,192,106558,1,0,0:0:0:0:
320,192,106636,1,8,0:0:0:0:
448,192,106636,1,0,0:0:0:0:
64,192,106790,1,8,0:0:0:0:
192,192,106790,1,0,0:0:0:0:
320,192,106790,1,0,0:0:0:0:
64,192,106945,1,8,0:0:0:0:
192,192,106945,1,0,0:0:0:0:
448,192,106945,1,0,0:0:0:0:
192,192,107100,1,8,0:0:0:0:
320,192,107100,1,0,0:0:0:0:
448,192,107100,1,0,0:0:0:0:
64,192,107254,128,2,107718:0:0:0:0:
320,192,107254,1,4,0:0:0:0:
448,192,107254,1,0,0:0:0:0:
192,192,107564,1,0,0:0:0:70:Ride.wav
320,192,107718,1,2,0:0:0:0:
448,192,107718,1,0,0:0:0:0:
64,192,107873,1,8,0:0:0:0:
192,192,107873,128,0,108337:0:0:0:70:Ride.wav
448,192,107873,1,0,0:0:0:0:
320,192,108182,1,0,0:0:0:70:Ride.wav
64,192,108337,1,2,0:0:0:0:
448,192,108337,1,0,0:0:0:70:hit-hat.wav
320,192,108337,1,0,0:0:0:0:
192,192,108646,1,0,0:0:0:0:
64,192,108955,128,0,109265:0:0:0:0:
192,192,109265,1,0,0:0:0:100:Tom & Jerry 2.wav
320,192,109265,1,0,0:0:0:0:
64,192,109419,1,8,0:0:0:0:
320,192,109419,1,0,0:0:0:100:Tom & Jerry 3.wav
448,192,109419,128,0,109729:0:0:0:0:
192,192,109574,1,0,0:0:0:0:
64,192,109729,1,2,0:0:0:0:
192,192,109729,1,4,0:0:0:0:
320,192,109729,128,0,110192:0:0:0:0:
448,192,109883,1,0,0:0:0:0:
192,192,110038,1,0,0:0:0:70:Ride.wav
64,192,110192,1,2,0:0:0:0:
448,192,110192,1,0,0:0:0:0:
192,192,110347,128,8,110656:0:0:0:0:
320,192,110347,1,0,0:0:0:100:Tom & Jerry 1.wav
448,192,110347,1,0,0:0:0:0:
320,192,110502,1,0,0:0:0:0:
448,192,110656,1,0,0:0:0:0:
64,192,110656,1,0,0:0:0:100:Tom & Jerry 2.wav
64,192,110811,128,2,111120:0:0:0:0:
320,192,110811,1,4,0:0:0:0:
448,192,110811,1,0,0:0:0:0:
192,192,111120,1,2,0:0:0:0:
320,192,111120,1,0,0:0:0:0:
64,192,111275,1,8,0:0:0:0:
320,192,111275,1,0,0:0:0:0:
448,192,111275,1,0,0:0:0:0:
192,192,111430,1,0,0:0:0:0:
64,192,111584,1,0,0:0:0:100:Tom & Jerry 1.wav
448,192,111584,1,0,0:0:0:0:
320,192,111739,1,8,0:0:0:0:
448,192,111739,1,0,0:0:0:0:
64,192,111816,1,8,0:0:0:0:
192,192,111816,1,0,0:0:0:0:
320,192,111893,1,8,0:0:0:0:
448,192,111893,1,0,0:0:0:0:
64,192,112048,1,0,0:0:0:100:Tom & Jerry 2.wav
192,192,112048,1,0,0:0:0:0:
64,192,112203,1,2,0:0:0:0:
320,192,112203,1,4,0:0:0:0:
448,192,112203,1,0,0:0:0:0:
320,192,112512,1,2,0:0:0:0:
448,192,112512,1,8,0:0:0:20:
320,192,112667,1,8,0:0:0:25:
448,192,112667,1,0,0:0:0:0:
192,192,112821,1,2,0:0:0:0:
320,192,112821,1,8,0:0:0:30:
192,192,112976,1,8,0:0:0:40:
320,192,112976,1,0,0:0:0:0:
64,192,113131,1,2,0:0:0:0:
192,192,113131,1,8,0:0:0:50:
64,192,113285,1,4,0:0:0:0:
192,192,113285,1,8,0:0:0:0:
448,192,113285,1,0,0:0:0:0:
320,192,113440,1,2,0:0:0:0:
448,192,113440,1,0,0:0:0:0:
192,192,113595,1,8,0:0:0:20:
64,192,113749,1,2,0:0:0:0:
448,192,113749,1,8,0:0:0:20:
64,192,113904,1,8,0:0:0:25:
448,192,113904,1,0,0:0:0:0:
192,192,114058,1,2,0:0:0:0:
448,192,114058,1,8,0:0:0:0:
192,192,114213,1,8,0:0:0:0:
448,192,114213,1,0,0:0:0:0:
192,192,114368,1,2,0:0:0:0:
320,192,114368,1,8,0:0:0:0:
192,192,114522,1,8,0:0:0:0:
320,192,114522,1,0,0:0:0:0:
64,192,114677,128,0,115141:0:0:0:0:
448,192,114677,1,0,0:0:0:0:
192,192,114832,1,0,0:0:0:0:
320,192,114986,1,0,0:0:0:0:
192,192,115141,1,0,0:0:0:0:
448,192,115141,128,0,115759:0:0:0:0:
320,192,115450,1,0,0:0:0:0:
192,192,115605,1,0,0:0:0:0:
64,192,115759,128,0,116378:0:0:0:0:
320,192,115759,1,0,0:0:0:0:
448,192,115914,1,0,0:0:0:0:
192,192,116069,1,0,0:0:0:0:
320,192,116223,1,0,0:0:0:0:
448,192,116378,1,0,0:0:0:0:
64,192,116533,1,0,0:0:0:0:
192,192,116610,1,0,0:0:0:0:
320,192,116687,1,0,0:0:0:0:
448,192,116765,1,0,0:0:0:0:
320,192,116842,1,0,0:0:0:0:
192,192,116919,1,0,0:0:0:0:
64,192,116997,1,0,0:0:0:0:
320,192,117074,1,0,0:0:0:0:
64,192,117151,1,2,0:0:0:0:
192,192,117151,1,4,0:0:0:0:
448,192,117151,128,0,117461:0:0:0:0:
64,192,117461,1,8,0:0:0:0:
192,192,117461,1,0,0:0:0:70:hit-hat.wav
320,192,117461,128,0,117615:0:0:0:0:
64,192,117615,1,2,0:0:0:0:
448,192,117615,1,0,0:0:0:0:
192,192,117770,1,8,0:0:0:0:
320,192,117770,1,0,0:0:0:70:hit-hat.wav
448,192,117770,128,0,117924:0:0:0:0:
64,192,117924,1,2,0:0:0:0:
192,192,117924,1,0,0:0:0:0:
64,192,118079,128,8,118234:0:0:0:0:
320,192,118079,1,0,0:0:0:70:hit-hat.wav
448,192,118079,1,0,0:0:0:0:
192,192,118234,1,2,0:0:0:0:
320,192,118311,1,2,0:0:0:0:
64,192,118388,1,8,0:0:0:0:
192,192,118388,1,0,0:0:0:70:hit-hat.wav
448,192,118388,128,0,118543:0:0:0:0:
192,192,118543,1,2,0:0:0:0:
320,192,118543,1,0,0:0:0:0:
64,192,118698,1,8,0:0:0:0:
320,192,118698,128,0,118852:0:0:0:70:hit-hat.wav
448,192,118698,1,0,0:0:0:0:
64,192,118852,1,2,0:0:0:0:
192,192,118852,1,0,0:0:0:0:
192,192,119007,128,8,119162:0:0:0:0:
320,192,119007,1,0,0:0:0:70:hit-hat.wav
448,192,119007,1,0,0:0:0:0:
64,192,119162,1,2,0:0:0:0:
320,192,119162,1,0,0:0:0:0:
64,192,119316,128,8,119625:0:0:0:0:
192,192,119316,1,0,0:0:0:70:hit-hat.wav
448,192,119316,1,0,0:0:0:0:
192,192,119625,1,2,0:0:0:0:
320,192,119625,1,4,0:0:0:0:
448,192,119625,1,0,0:0:0:0:
64,192,119780,1,8,0:0:0:0:
192,192,119780,1,0,0:0:0:0:
320,192,119857,1,8,0:0:0:0:
448,192,119857,1,0,0:0:0:0:
64,192,119935,1,8,0:0:0:0:
192,192,119935,1,2,0:0:0:0:
320,192,120012,1,8,0:0:0:0:
448,192,120012,1,0,0:0:0:0:
64,192,120089,1,0,0:0:0:100:Tom & Jerry 1.wav
192,192,120089,1,0,0:0:0:0:
448,192,120167,1,0,0:0:0:100:Tom & Jerry 1.wav
64,192,120244,1,2,0:0:0:0:
320,192,120244,1,0,0:0:0:100:Tom & Jerry 1.wav
192,192,120321,1,0,0:0:0:100:Tom & Jerry 2.wav
320,192,120399,1,0,0:0:0:100:Tom & Jerry 2.wav
448,192,120399,1,0,0:0:0:0:
64,192,120476,1,0,0:0:0:100:Tom & Jerry 2.wav
192,192,120553,1,0,0:0:0:100:Tom & Jerry 3.wav
448,192,120553,1,0,0:0:0:0:
320,192,120631,1,0,0:0:0:100:Tom & Jerry 3.wav
64,192,120708,1,2,0:0:0:0:
192,192,120708,1,0,0:0:0:70:hit-hat.wav
64,192,121017,1,8,0:0:0:0:
320,192,121017,1,0,0:0:0:100:Tom & Jerry 3.wav
448,192,121017,1,0,0:0:0:0:
64,192,121172,1,8,0:0:0:0:
192,192,121172,1,0,0:0:0:100:Tom & Jerry 3.wav
448,192,121172,1,0,0:0:0:0:
320,192,121326,128,0,121481:0:0:0:0:
64,192,121481,128,0,121636:0:0:0:0:
448,192,121636,128,0,121790:0:0:0:0:
64,192,121790,1,0,0:0:0:100:Tom & Jerry 1.wav
320,192,121790,128,0,121945:0:0:0:100:Tom & Jerry 2.wav
192,192,121945,128,0,122100:0:0:0:0:
64,192,122100,1,2,0:0:0:0:
320,192,122100,1,4,0:0:0:0:
448,192,122100,128,0,122409:0:0:0:0:
64,192,122409,1,8,0:0:0:0:
192,192,122409,1,0,0:0:0:70:hit-hat.wav
320,192,122409,1,0,0:0:0:0:
64,192,122564,1,0,0:0:0:0:
320,192,122718,1,2,0:0:0:0:
448,192,122718,128,0,123028:0:0:0:70:hit-hat.wav
64,192,122873,1,2,0:0:0:0:
192,192,122873,1,0,0:0:0:0:
64,192,123028,128,8,123337:0:0:0:0:
192,192,123028,1,0,0:0:0:70:hit-hat.wav
320,192,123028,1,0,0:0:0:0:
448,192,123182,1,0,0:0:0:0:
192,192,123337,128,2,123646:0:0:0:0:
448,192,123337,1,0,0:0:0:70:hit-hat.wav
320,192,123491,1,0,0:0:0:0:
64,192,123646,1,8,0:0:0:0:
320,192,123646,1,0,0:0:0:70:hit-hat.wav
448,192,123646,128,0,123955:0:0:0:0:
192,192,123801,1,0,0:0:0:0:
64,192,123955,128,2,124265:0:0:0:0:
192,192,123955,1,0,0:0:0:70:hit-hat.wav
320,192,124110,1,2,0:0:0:0:
448,192,124110,1,0,0:0:0:0:
192,192,124265,1,8,0:0:0:0:
320,192,124265,128,0,124574:0:0:0:70:hit-hat.wav
448,192,124265,1,0,0:0:0:0:
64,192,124419,1,0,0:0:0:0:
64,192,124574,1,2,0:0:0:0:
192,192,124574,128,0,124883:0:0:0:70:hit-hat.wav
448,192,124729,1,0,0:0:0:0:
64,192,124883,128,8,125811:0:0:0:0:
320,192,124883,1,0,0:0:0:70:hit-hat.wav
448,192,124883,1,0,0:0:0:0:
192,192,125038,1,0,0:0:0:0:
320,192,125192,1,2,0:0:0:0:
448,192,125192,1,0,0:0:0:70:hit-hat.wav
192,192,125347,1,2,0:0:0:0:
448,192,125347,1,0,0:0:0:0:
192,192,125502,1,8,0:0:0:0:
320,192,125502,1,0,0:0:0:70:hit-hat.wav
448,192,125502,1,0,0:0:0:0:
320,192,125656,1,0,0:0:0:0:
192,192,125811,1,2,0:0:0:0:
448,192,125811,1,0,0:0:0:70:hit-hat.wav
192,192,125966,1,0,0:0:0:0:
64,192,126120,1,8,0:0:0:0:
320,192,126120,1,0,0:0:0:70:hit-hat.wav
448,192,126120,1,0,0:0:0:0:
448,192,126275,128,0,126430:0:0:0:0:
64,192,126430,128,2,126584:0:0:0:0:
320,192,126430,1,0,0:0:0:70:hit-hat.wav
192,192,126584,1,2,0:0:0:0:
320,192,126584,128,0,126739:0:0:0:0:
64,192,126739,1,8,0:0:0:0:
192,192,126739,128,0,126893:0:0:0:70:hit-hat.wav
448,192,126739,1,0,0:0:0:0:
448,192,126893,128,0,127048:0:0:0:0:
64,192,127048,128,2,127357:0:0:0:0:
192,192,127048,1,4,0:0:0:0:
320,192,127048,1,0,0:0:0:0:
192,192,127357,1,8,0:0:0:0:
320,192,127357,1,0,0:0:0:70:hit-hat.wav
448,192,127357,1,0,0:0:0:0:
192,192,127512,1,0,0:0:0:0:
320,192,127667,128,2,127976:0:0:0:0:
448,192,127667,1,0,0:0:0:70:hit-hat.wav
64,192,127821,1,2,0:0:0:0:
192,192,127821,1,0,0:0:0:0:
64,192,127976,128,8,128285:0:0:0:0:
192,192,127976,1,0,0:0:0:70:hit-hat.wav
448,192,127976,1,0,0:0:0:0:
320,192,128131,1,0,0:0:0:0:
320,192,128285,1,2,0:0:0:0:
448,192,128285,128,0,128595:0:0:0:70:hit-hat.wav
192,192,128440,1,0,0:0:0:0:
64,192,128595,1,8,0:0:0:0:
192,192,128595,128,0,128904:0:0:0:70:hit-hat.wav
320,192,128595,1,0,0:0:0:0:
448,192,128749,1,0,0:0:0:0:
64,192,128904,128,2,129213:0:0:0:0:
448,192,128904,1,0,0:0:0:70:hit-hat.wav
192,192,129058,1,2,0:0:0:0:
320,192,129058,1,0,0:0:0:0:
192,192,129213,1,8,0:0:0:0:
320,192,129213,1,0,0:0:0:70:hit-hat.wav
448,192,129213,128,0,129522:0:0:0:0:
64,192,129368,1,0,0:0:0:0:
64,192,129522,1,2,0:0:0:0:
192,192,129522,1,4,0:0:0:0:
320,192,129522,1,0,0:0:0:0:
192,192,129677,1,2,0:0:0:0:
448,192,129677,1,0,0:0:0:0:
64,192,129832,1,8,0:0:0:0:
320,192,129832,1,0,0:0:0:0:
448,192,129832,1,0,0:0:0:0:
192,192,129986,1,2,0:0:0:0:
320,192,130064,1,2,0:0:0:0:
64,192,130141,1,8,0:0:0:0:
448,192,130141,1,0,0:0:0:0:
192,192,130141,1,0,0:0:0:0:
192,192,130296,1,2,0:0:0:0:
320,192,130296,1,0,0:0:0:0:
64,192,130450,1,8,0:0:0:0:
320,192,130450,1,0,0:0:0:0:
448,192,130450,1,0,0:0:0:0:
64,192,130605,1,2,0:0:0:0:
192,192,130605,1,4,0:0:0:0:
448,192,130605,128,0,130914:0:0:0:0:
192,192,130914,1,2,0:0:0:0:
320,192,130914,1,0,0:0:0:0:
64,192,131069,1,8,0:0:0:0:
320,192,131069,1,0,0:0:0:0:
448,192,131069,1,0,0:0:0:0:
192,192,131223,1,0,0:0:0:0:
320,192,131378,1,2,0:0:0:0:
448,192,131378,1,0,0:0:0:0:
192,192,131455,1,0,0:0:0:0:
64,192,131533,1,8,0:0:0:0:
448,192,131533,1,0,0:0:0:0:
320,192,131610,1,8,0:0:0:0:
192,192,131610,1,0,0:0:0:0:
64,192,131687,1,8,0:0:0:0:
448,192,131687,1,0,0:0:0:0:
320,192,131765,1,0,0:0:0:0:
64,192,131842,1,8,0:0:0:0:
192,192,131842,1,0,0:0:0:0:
320,192,131919,1,8,0:0:0:0:
64,192,131997,1,2,0:0:0:0:
192,192,131997,1,4,0:0:0:0:
448,192,131997,128,0,132306:0:0:0:0:
64,192,132306,1,8,0:0:0:0:
192,192,132306,1,0,0:0:0:70:hit-hat.wav
320,192,132306,1,0,0:0:0:0:
64,192,132461,1,0,0:0:0:0:
320,192,132615,128,2,132924:0:0:0:0:
448,192,132615,1,0,0:0:0:70:hit-hat.wav
64,192,132770,1,2,0:0:0:0:
192,192,132770,1,0,0:0:0:0:
64,192,132924,128,8,133234:0:0:0:0:
192,192,132924,1,0,0:0:0:70:hit-hat.wav
448,192,132924,1,0,0:0:0:0:
320,192,133079,1,0,0:0:0:0:
320,192,133234,128,2,133543:0:0:0:0:
448,192,133234,1,0,0:0:0:70:hit-hat.wav
192,192,133388,1,0,0:0:0:0:
64,192,133543,1,8,0:0:0:0:
192,192,133543,128,0,133852:0:0:0:70:hit-hat.wav
448,192,133543,1,0,0:0:0:0:
320,192,133698,1,0,0:0:0:0:
64,192,133852,128,2,134162:0:0:0:0:
448,192,133852,1,0,0:0:0:70:hit-hat.wav
192,192,134007,1,2,0:0:0:0:
320,192,134007,1,0,0:0:0:0:
192,192,134162,1,8,0:0:0:0:
320,192,134162,1,0,0:0:0:70:hit-hat.wav
448,192,134162,1,0,0:0:0:0:
448,192,134316,1,0,0:0:0:0:
64,192,134471,128,2,134780:0:0:0:0:
192,192,134471,1,4,0:0:0:0:
320,192,134471,1,0,0:0:0:0:
320,192,134625,1,2,0:0:0:0:
448,192,134625,1,0,0:0:0:0:
192,192,134780,1,8,0:0:0:0:
320,192,134780,1,0,0:0:0:0:
448,192,134780,1,0,0:0:0:0:
64,192,134935,1,2,0:0:0:0:
192,192,134935,1,4,0:0:0:0:
448,192,134935,128,0,135244:0:0:0:0:
192,192,135244,1,2,0:0:0:0:
320,192,135244,1,0,0:0:0:0:
64,192,135399,1,8,0:0:0:0:
320,192,135399,1,0,0:0:0:0:
448,192,135399,1,0,0:0:0:0:
64,192,135553,128,2,135863:0:0:0:0:
192,192,135553,1,4,0:0:0:0:
448,192,135553,1,0,0:0:0:0:
192,192,135863,1,2,0:0:0:0:
320,192,135863,1,0,0:0:0:0:
64,192,136017,1,8,0:0:0:0:
320,192,136017,1,0,0:0:0:70:hit-hat.wav
448,192,136017,1,0,0:0:0:0:
192,192,136172,1,0,0:0:0:0:
64,192,136326,1,0,0:0:0:100:Tom & Jerry 1.wav
320,192,136326,1,0,0:0:0:0:
448,192,136481,1,0,0:0:0:100:Tom & Jerry 2.wav
320,192,136558,1,0,0:0:0:100:Tom & Jerry 2.wav
64,192,136636,1,8,0:0:0:0:
192,192,136636,1,0,0:0:0:0:
320,192,136713,1,0,0:0:0:100:Tom & Jerry 2.wav
448,192,136790,1,0,0:0:0:100:Tom & Jerry 2.wav
192,192,136868,1,0,0:0:0:100:Tom & Jerry 3.wav
64,192,136945,1,2,0:0:0:0:
448,192,136945,1,0,0:0:0:0:
320,192,136945,1,0,0:0:0:0:
192,192,137100,1,0,0:0:0:0:
448,192,137254,1,0,0:0:0:0:
320,192,137332,1,0,0:0:0:0:
64,192,137409,1,0,0:0:0:0:
448,192,137564,1,0,0:0:0:0:
192,192,137718,1,0,0:0:0:0:
64,192,137796,1,0,0:0:0:0:
448,192,137873,1,0,0:0:0:0:
320,192,137950,1,0,0:0:0:0:
64,192,138028,1,8,0:0:0:0:
192,192,138028,1,0,0:0:0:70:hit-hat.wav
448,192,138028,1,0,0:0:0:0:
448,192,138801,128,0,139419:0:0:0:0:
64,192,139419,128,0,141893:0:0:0:0:
320,192,139419,1,0,0:0:0:0:
448,192,139729,1,0,0:0:0:0:
192,192,139883,1,0,0:0:0:0:
320,192,140192,1,0,0:0:0:0:
192,192,140347,1,0,0:0:0:0:
448,192,140656,1,0,0:0:0:0:
192,192,140811,1,0,0:0:0:0:
320,192,141120,1,0,0:0:0:0:
192,192,141275,1,0,0:0:0:0:
448,192,141584,1,0,0:0:0:0:
192,192,141893,1,0,0:0:0:0:
320,192,141893,128,0,143595:0:0:0:0:
64,192,142203,1,0,0:0:0:0:
448,192,142357,1,0,0:0:0:0:
192,192,142667,1,0,0:0:0:0:
448,192,142821,1,0,0:0:0:0:
64,192,143131,1,0,0:0:0:0:
448,192,143285,1,0,0:0:0:0:
64,192,143595,1,2,0:0:0:0:
192,192,143595,1,0,0:0:0:0:
320,192,143672,1,2,0:0:0:0:
64,192,143749,1,8,0:0:0:0:
192,192,143749,1,0,0:0:0:0:
448,192,143749,1,0,0:0:0:0:
192,192,143904,1,2,0:0:0:0:
320,192,143904,1,0,0:0:0:0:
64,192,144058,1,8,0:0:0:0:
320,192,144058,1,4,0:0:0:0:
448,192,144058,128,0,144368:0:0:0:0:
64,192,144368,128,2,144522:0:0:0:0:
192,192,144368,1,4,0:0:0:0:
320,192,144368,1,0,0:0:0:0:
320,192,144522,128,0,144677:0:0:0:0:
64,192,144677,1,8,0:0:0:0:
192,192,144677,128,2,144832:0:0:0:0:
448,192,144677,1,0,0:0:0:0:
448,192,144832,128,0,145141:0:0:0:70:Ride.wav
192,192,144986,1,2,0:0:0:0:
320,192,144986,1,0,0:0:0:0:
64,192,145141,128,0,145296:0:0:0:70:Ride.wav
192,192,145296,1,2,0:0:0:0:
320,192,145296,128,8,145450:0:0:0:0:
448,192,145296,1,0,0:0:0:0:
64,192,145450,128,0,145759:0:0:0:70:Ride.wav
320,192,145605,1,2,0:0:0:0:
448,192,145605,1,0,0:0:0:0:
192,192,145759,1,0,0:0:0:70:Ride.wav
320,192,145837,1,0,0:0:0:0:
64,192,145914,1,8,0:0:0:0:
192,192,145914,1,2,0:0:0:0:
448,192,145914,1,0,0:0:0:0:
320,192,145991,1,0,0:0:0:0:
448,192,146069,1,0,0:0:0:70:Ride.wav
192,192,146146,1,0,0:0:0:0:
64,192,146223,128,2,146533:0:0:0:0:
320,192,146223,1,0,0:0:0:0:
448,192,146378,1,0,0:0:0:70:Ride.wav
192,192,146533,1,8,0:0:0:0:
320,192,146533,1,2,0:0:0:0:
448,192,146533,128,0,146687:0:0:0:0:
192,192,146687,1,0,0:0:0:70:Ride.wav
320,192,146765,1,0,0:0:0:0:
64,192,146842,1,2,0:0:0:0:
448,192,146842,128,0,146997:0:0:0:0:
320,192,146997,1,0,0:0:0:70:Ride.wav
192,192,147074,1,0,0:0:0:0:
64,192,147151,1,2,0:0:0:0:
320,192,147151,1,8,0:0:0:0:
448,192,147151,1,0,0:0:0:0:
192,192,147229,1,0,0:0:0:0:
64,192,147306,128,0,147615:0:0:0:70:Ride.wav
320,192,147461,1,2,0:0:0:0:
448,192,147461,1,0,0:0:0:0:
448,192,147615,128,0,147924:0:0:0:70:Ride.wav
64,192,147770,1,2,0:0:0:0:
192,192,147770,1,8,0:0:0:0:
320,192,147770,1,0,0:0:0:0:
192,192,147924,128,0,148079:0:0:0:70:Ride.wav
320,192,148079,1,2,0:0:0:0:
448,192,148079,1,0,0:0:0:0:
192,192,148156,1,0,0:0:0:0:
64,192,148234,128,0,148543:0:0:0:70:Ride.wav
320,192,148388,1,8,0:0:0:0:
192,192,148388,1,0,0:0:0:0:
448,192,148388,1,2,0:0:0:0:
448,192,148543,1,0,0:0:0:70:Ride.wav
192,192,148698,128,2,149007:0:0:0:0:
320,192,148698,1,0,0:0:0:0:
448,192,148852,1,0,0:0:0:70:Ride.wav
64,192,149007,1,8,0:0:0:0:
320,192,149007,1,2,0:0:0:0:
448,192,149007,128,0,149162:0:0:0:0:
192,192,149162,1,0,0:0:0:70:Ride.wav
320,192,149239,1,0,0:0:0:0:
64,192,149316,1,2,0:0:0:0:
192,192,149316,128,4,149625:0:0:0:0:
448,192,149316,1,0,0:0:0:0:
320,192,149471,1,0,0:0:0:70:Ride.wav
320,192,149625,1,8,0:0:0:0:
448,192,149625,1,0,0:0:0:0:
64,192,149625,128,2,149780:0:0:0:0:
448,192,149780,128,0,150089:0:0:0:70:Ride.wav
64,192,149935,1,2,0:0:0:0:
192,192,149935,1,0,0:0:0:0:
320,192,150089,128,0,150399:0:0:0:70:Ride.wav
64,192,150244,1,2,0:0:0:0:
192,192,150244,1,8,0:0:0:0:
448,192,150244,1,0,0:0:0:0:
64,192,150399,128,0,150708:0:0:0:70:Ride.wav
320,192,150553,1,2,0:0:0:0:
448,192,150553,1,0,0:0:0:0:
192,192,150708,128,0,151017:0:0:0:70:Ride.wav
64,192,150863,1,2,0:0:0:0:
320,192,150863,1,8,0:0:0:0:
448,192,150863,1,0,0:0:0:0:
448,192,151017,1,0,0:0:0:70:Ride.wav
320,192,151095,1,0,0:0:0:0:
64,192,151172,128,2,151326:0:0:0:0:
192,192,151172,1,0,0:0:0:0:
320,192,151326,1,0,0:0:0:70:Ride.wav
192,192,151404,1,0,0:0:0:0:
64,192,151481,1,2,0:0:0:0:
320,192,151481,1,8,0:0:0:0:
448,192,151481,1,0,0:0:0:0:
192,192,151558,1,0,0:0:0:0:
64,192,151636,1,0,0:0:0:70:Ride.wav
448,192,151713,1,0,0:0:0:0:
192,192,151790,1,2,0:0:0:0:
320,192,151790,128,0,152100:0:0:0:0:
64,192,151945,1,0,0:0:0:70:Ride.wav
64,192,152100,1,2,0:0:0:0:
192,192,152100,128,8,152254:0:0:0:0:
448,192,152100,1,0,0:0:0:0:
448,192,152254,128,0,152564:0:0:0:70:Ride.wav
64,192,152409,1,0,0:0:0:100:Tom & Jerry 1.wav
320,192,152409,1,0,0:0:0:0:
192,192,152564,1,0,0:0:0:0:
320,192,152641,1,8,0:0:0:0:
448,192,152641,1,0,0:0:0:0:
64,192,152718,1,8,0:0:0:0:
192,192,152718,1,0,0:0:0:0:
64,192,152873,128,2,153028:0:0:0:0:
320,192,152873,1,4,0:0:0:0:
448,192,152873,1,0,0:0:0:0:
192,192,153028,1,0,0:0:0:0:
320,192,153105,1,0,0:0:0:0:
192,192,153182,128,2,153337:0:0:0:0:
448,192,153182,1,0,0:0:0:0:
64,192,153337,1,8,0:0:0:0:
320,192,153337,1,0,0:0:0:70:hit-hat.wav
448,192,153337,1,0,0:0:0:0:
192,192,153414,1,0,0:0:0:0:
320,192,153491,1,0,0:0:0:0:
64,192,153646,1,0,0:0:0:100:Tom & Jerry 1.wav
448,192,153646,1,0,0:0:0:0:
320,192,153723,1,8,0:0:0:40:
192,192,153801,1,0,0:0:0:0:
448,192,153878,1,8,0:0:0:40:
320,192,153878,1,0,0:0:0:0:
64,192,153955,1,8,0:0:0:0:
192,192,153955,1,0,0:0:0:0:
448,192,154033,1,0,0:0:0:100:Tom & Jerry 1.wav
320,192,154110,1,0,0:0:0:100:Tom & Jerry 1.wav
64,192,154110,1,0,0:0:0:0:
192,192,154187,1,0,0:0:0:100:Tom & Jerry 2.wav
64,192,154265,128,2,154729:0:0:0:0:
320,192,154265,1,0,0:0:0:70:hit-hat.wav
448,192,154265,1,0,0:0:0:0:
192,192,154729,1,0,0:0:0:0:
320,192,154806,1,0,0:0:0:0:
448,192,154883,128,0,155038:0:0:0:0:
192,192,155038,128,0,155192:0:0:0:0:
448,192,155192,1,0,0:0:0:0:
320,192,155270,1,0,0:0:0:0:
64,192,155347,128,8,155656:0:0:0:0:
192,192,155347,1,0,0:0:0:70:hit-hat.wav
448,192,155347,1,0,0:0:0:0:
320,192,155656,128,0,155811:0:0:0:0:
448,192,155811,128,0,156120:0:0:0:0:
192,192,155966,128,0,156120:0:0:0:0:
64,192,156120,1,0,0:0:0:100:Tom & Jerry 1.wav
320,192,156120,1,0,0:0:0:0:
192,192,156275,1,0,0:0:0:100:Tom & Jerry 2.wav
448,192,156352,1,0,0:0:0:100:Tom & Jerry 2.wav
64,192,156430,1,0,0:0:0:100:Tom & Jerry 1.wav
320,192,156430,1,0,0:0:0:0:
192,192,156507,1,0,0:0:0:100:Tom & Jerry 1.wav
448,192,156584,1,2,0:0:0:0:
320,192,156662,1,2,0:0:0:0:
64,192,156739,128,8,157048:0:0:0:0:
192,192,156739,1,4,0:0:0:0:
448,192,156739,1,0,0:0:0:0:
192,192,156893,1,2,0:0:0:0:
320,192,156893,1,0,0:0:0:0:
320,192,157048,1,2,0:0:0:0:
448,192,157048,1,0,0:0:0:0:
64,192,157203,1,8,0:0:0:0:
192,192,157203,128,4,157512:0:0:0:0:
448,192,157203,1,0,0:0:0:0:
64,192,157357,1,2,0:0:0:0:
320,192,157357,1,0,0:0:0:0:
320,192,157512,1,2,0:0:0:0:
448,192,157512,1,0,0:0:0:0:
64,192,157667,1,8,0:0:0:0:
192,192,157667,1,4,0:0:0:0:
448,192,157667,128,0,157976:0:0:0:0:
192,192,157821,1,2,0:0:0:0:
320,192,157821,1,0,0:0:0:0:
64,192,157976,1,2,0:0:0:0:
320,192,157976,1,0,0:0:0:0:
64,192,158131,1,8,0:0:0:0:
192,192,158131,1,0,0:0:0:70:hit-hat.wav
448,192,158131,1,0,0:0:0:0:
320,192,158208,1,0,0:0:0:0:
192,192,158285,1,0,0:0:0:0:
64,192,158363,1,0,0:0:0:0:
448,192,158440,1,0,0:0:0:0:
320,192,158517,1,0,0:0:0:0:
192,192,158595,1,0,0:0:0:0:
320,192,158672,1,0,0:0:0:0:
64,192,158726,1,0,0:0:0:100:Tom & Jerry 1.wav
448,192,158726,1,0,0:0:0:0:
64,192,158880,1,0,0:0:0:100:Tom & Jerry 2.wav
192,192,158880,1,0,0:0:0:0:
320,192,158880,1,0,0:0:0:0:
448,192,159058,128,0,159212:0:0:0:0:
64,192,159213,128,2,159522:0:0:0:0:
192,192,159213,1,4,0:0:0:0:
320,192,159213,1,0,0:0:0:0:
192,192,159522,1,2,0:0:0:0:
320,192,159522,128,0,159676:0:0:0:40:Tom & Jerry 3.wav
64,192,159676,1,0,0:0:0:40:Tom & Jerry 3.wav
448,192,159676,128,0,159986:0:0:0:0:
192,192,159831,1,2,0:0:0:0:
320,192,159831,1,0,0:0:0:50:Tom & Jerry 3.wav
64,192,159986,128,0,160140:0:0:0:50:Tom & Jerry 3.wav
192,192,159986,1,0,0:0:0:0:
320,192,160140,1,2,0:0:0:0:
448,192,160140,128,0,160295:0:0:0:60:Tom & Jerry 3.wav
64,192,160295,1,0,0:0:0:60:Tom & Jerry 3.wav
320,192,160295,128,0,160604:0:0:0:0:
64,192,160450,1,2,0:0:0:0:
192,192,160450,1,0,0:0:0:70:Tom & Jerry 3.wav
192,192,160604,128,0,160759:0:0:0:70:Tom & Jerry 3.wav
448,192,160604,1,0,0:0:0:0:
64,192,160759,1,2,0:0:0:0:
448,192,160759,128,0,160914:0:0:0:80:Tom & Jerry 3.wav
64,192,160914,128,0,161223:0:0:0:80:Tom & Jerry 3.wav
320,192,160914,1,0,0:0:0:0:
320,192,161068,1,2,0:0:0:0:
448,192,161068,1,0,0:0:0:90:Tom & Jerry 3.wav
192,192,161223,1,0,0:0:0:90:Tom & Jerry 3.wav
448,192,161223,1,0,0:0:0:0:
320,192,161300,1,0,0:0:0:0:
64,192,161377,1,2,0:0:0:0:
192,192,161377,1,0,0:0:0:100:Tom & Jerry 3.wav
448,192,161455,1,0,0:0:0:0:
64,192,161532,1,0,0:0:0:100:Tom & Jerry 3.wav
320,192,161532,1,0,0:0:0:0:
192,192,161609,1,0,0:0:0:0:
64,192,161687,1,2,0:0:0:0:
320,192,161687,1,4,0:0:0:0:
448,192,161687,128,0,161841:0:0:0:0:
192,192,161841,128,0,161996:0:0:0:0:
320,192,161996,128,2,162151:0:0:0:0:
448,192,161996,1,0,0:0:0:0:
64,192,162151,128,0,162305:0:0:0:0:
320,192,162305,1,2,0:0:0:0:
448,192,162305,1,8,0:0:0:30:
192,192,162383,1,8,0:0:0:30:
64,192,162460,1,8,0:0:0:35:
320,192,162537,1,8,0:0:0:35:
192,192,162615,1,2,0:0:0:0:
448,192,162615,1,8,0:0:0:35:
64,192,162692,1,8,0:0:0:40:
320,192,162769,1,8,0:0:0:40:
448,192,162847,1,8,0:0:0:40:
64,192,162924,1,2,0:0:0:0:
192,192,162924,1,8,0:0:0:45:
320,192,163001,1,8,0:0:0:45:
448,192,163001,1,0,0:0:0:0:
64,192,163078,1,8,0:0:0:45:
192,192,163078,1,0,0:0:0:0:
320,192,163156,1,8,0:0:0:50:
448,192,163156,1,0,0:0:0:0:
64,192,163233,1,2,0:0:0:0:
192,192,163233,1,8,0:0:0:50:
320,192,163308,1,8,0:0:0:50:
448,192,163308,1,0,0:0:0:0:
64,192,163383,1,8,0:0:0:0:
192,192,163383,1,0,0:0:0:0:
320,192,163458,1,8,0:0:0:0:
448,192,163458,1,0,0:0:0:0:
64,192,163533,1,8,0:0:0:0:
192,192,163533,1,2,0:0:0:0:
320,192,163604,1,0,0:0:0:100:Tom & Jerry 1.wav
192,192,163675,1,0,0:0:0:100:Tom & Jerry 1.wav
448,192,163675,1,0,0:0:0:0:
64,192,163747,1,0,0:0:0:100:Tom & Jerry 1.wav
320,192,163818,1,2,0:0:0:0:
448,192,163818,1,0,0:0:0:100:Tom & Jerry 2.wav
192,192,163890,1,0,0:0:0:100:Tom & Jerry 2.wav
320,192,163997,1,4,0:0:0:0:
448,192,163997,1,0,0:0:0:0:
64,192,163997,1,2,0:0:0:0:
192,192,164313,1,2,0:0:0:0:
320,192,164313,1,0,0:0:0:0:
64,192,164468,1,8,0:0:0:0:
320,192,164468,1,0,0:0:0:70:Ride.wav
448,192,164468,1,0,0:0:0:0:
64,192,164622,1,0,0:0:0:0:
192,192,164700,1,0,0:0:0:100:Tom & Jerry 1.wav
320,192,164777,1,0,0:0:0:100:Tom & Jerry 2.wav
448,192,164777,1,0,0:0:0:70:Ride.wav
192,192,164932,1,2,0:0:0:0:
320,192,164932,1,0,0:0:0:0:
64,192,165086,1,8,0:0:0:0:
192,192,165086,1,0,0:0:0:70:Ride.wav
448,192,165086,1,0,0:0:0:0:
64,192,165241,1,2,0:0:0:0:
320,192,165241,1,4,0:0:0:0:
448,192,165241,1,0,0:0:0:0:
192,192,165550,1,2,0:0:0:0:
320,192,165550,1,0,0:0:0:0:
64,192,165705,1,8,0:0:0:0:
192,192,165705,1,0,0:0:0:70:Ride.wav
448,192,165705,1,0,0:0:0:0:
448,192,165860,1,0,0:0:0:0:
320,192,165937,1,0,0:0:0:100:Tom & Jerry 1.wav
64,192,166014,1,0,0:0:0:100:Tom & Jerry 2.wav
192,192,166014,1,0,0:0:0:70:Ride.wav
192,192,166169,1,2,0:0:0:0:
320,192,166169,1,0,0:0:0:0:
64,192,166323,1,8,0:0:0:0:
320,192,166323,1,0,0:0:0:70:Ride.wav
448,192,166323,1,0,0:0:0:0:
192,192,166401,1,0,0:0:0:0:
64,192,166478,1,2,0:0:0:0:
448,192,166478,1,0,0:0:0:0:
320,192,166555,1,0,0:0:0:0:
64,192,166633,128,8,166787:0:0:0:0:
192,192,166633,1,4,0:0:0:0:
448,192,166633,1,0,0:0:0:0:
192,192,166787,128,2,166942:0:0:0:0:
320,192,166787,1,0,0:0:0:0:
64,192,166942,1,8,0:0:0:0:
320,192,166942,128,0,167097:0:0:0:0:
448,192,166942,1,0,0:0:0:0:
192,192,167097,1,2,0:0:0:0:
448,192,167097,1,0,0:0:0:0:
320,192,167174,1,2,0:0:0:0:
64,192,167251,1,8,0:0:0:0:
192,192,167251,1,0,0:0:0:0:
448,192,167251,128,0,167406:0:0:0:0:
64,192,167406,1,2,0:0:0:0:
320,192,167406,128,0,167561:0:0:0:0:
64,192,167561,128,8,167715:0:0:0:0:
192,192,167561,1,0,0:0:0:0:
448,192,167561,1,0,0:0:0:0:
192,192,167715,128,2,168024:0:0:0:0:
320,192,167715,1,4,0:0:0:0:
448,192,167715,1,0,0:0:0:0:
320,192,168024,1,0,0:0:0:100:Tom & Jerry 1.wav
448,192,168024,1,0,0:0:0:0:
320,192,168179,1,0,0:0:0:100:Tom & Jerry 1.wav
448,192,168179,1,0,0:0:0:0:
192,192,168334,1,0,0:0:0:100:Tom & Jerry 2.wav
320,192,168334,1,0,0:0:0:0:
192,192,168488,1,0,0:0:0:100:Tom & Jerry 2.wav
320,192,168488,1,0,0:0:0:0:
64,192,168643,1,0,0:0:0:100:Tom & Jerry 3.wav
192,192,168643,1,0,0:0:0:0:
64,192,168798,1,0,0:0:0:100:Tom & Jerry 3.wav
192,192,168798,1,0,0:0:0:0:
64,192,168952,1,8,0:0:0:0:
320,192,168952,1,0,0:0:0:70:hit-hat.wav
448,192,168952,1,0,0:0:0:0:
192,192,169107,128,0,170344:0:0:0:0:
320,192,169107,128,0,169416:0:0:0:0:
448,192,169726,128,0,170035:0:0:0:0:
64,192,170035,128,0,170344:0:0:0:0:
320,192,170344,128,0,170653:0:0:0:0:
448,192,170344,128,0,171581:0:0:0:0:
64,192,170653,128,0,170963:0:0:0:0:
192,192,170963,128,0,171272:0:0:0:0:
320,192,171272,128,0,171581:0:0:0:0:
64,192,171581,128,0,171736:0:0:0:0:
192,192,171581,128,0,171890:0:0:0:0:
320,192,171890,128,0,172818:0:0:0:0:
448,192,172818,128,0,173901:0:0:0:0:
320,192,173282,128,0,173437:0:0:0:0:
64,192,173437,128,0,173591:0:0:0:0:
192,192,173591,128,0,173746:0:0:0:0:
320,192,173746,128,0,173901:0:0:0:0:
64,192,173901,128,0,174055:0:0:0:0:
192,192,174055,128,4,174365:0:0:0:0:
320,192,174055,1,2,0:0:0:0:
448,192,174055,1,0,0:0:0:0:
64,192,174365,1,8,0:0:0:0:
320,192,174365,1,0,0:0:0:70:hit-hat.wav
448,192,174365,1,0,0:0:0:0:
64,192,174519,1,0,0:0:0:0:
320,192,174674,128,2,174983:0:0:0:0:
448,192,174674,1,0,0:0:0:70:hit-hat.wav
64,192,174829,1,2,0:0:0:0:
192,192,174829,1,0,0:0:0:0:
64,192,174983,1,8,0:0:0:0:
192,192,174983,1,0,0:0:0:70:hit-hat.wav
448,192,174983,128,0,175293:0:0:0:0:
320,192,175138,1,0,0:0:0:0:
64,192,175293,128,2,175602:0:0:0:0:
192,192,175293,1,0,0:0:0:70:hit-hat.wav
448,192,175447,1,0,0:0:0:0:
192,192,175602,128,8,175911:0:0:0:0:
320,192,175602,1,0,0:0:0:70:hit-hat.wav
448,192,175602,1,0,0:0:0:0:
320,192,175756,1,0,0:0:0:0:
64,192,175911,1,2,0:0:0:0:
448,192,175911,128,0,176220:0:0:0:70:hit-hat.wav
192,192,176066,1,2,0:0:0:0:
320,192,176066,1,0,0:0:0:0:
64,192,176220,128,8,176530:0:0:0:0:
192,192,176220,1,0,0:0:0:70:hit-hat.wav
320,192,176220,1,0,0:0:0:0:
448,192,176375,1,0,0:0:0:0:
192,192,176530,1,4,0:0:0:0:
320,192,176530,1,2,0:0:0:0:
448,192,176530,1,0,0:0:0:0:
64,192,176684,1,2,0:0:0:0:
192,192,176684,1,0,0:0:0:0:
64,192,176839,1,8,0:0:0:0:
320,192,176839,1,0,0:0:0:0:
448,192,176839,1,0,0:0:0:0:
192,192,176994,1,2,0:0:0:0:
320,192,177071,1,2,0:0:0:0:
64,192,177148,1,8,0:0:0:0:
448,192,177148,1,0,0:0:0:0:
192,192,177148,1,0,0:0:0:0:
64,192,177303,1,2,0:0:0:0:
320,192,177303,1,0,0:0:0:0:
192,192,177457,1,8,0:0:0:0:
320,192,177457,1,0,0:0:0:0:
448,192,177457,1,0,0:0:0:0:
64,192,177612,1,4,0:0:0:0:
192,192,177612,128,2,177921:0:0:0:0:
448,192,177612,1,0,0:0:0:0:
320,192,177921,1,2,0:0:0:0:
448,192,177921,1,0,0:0:0:0:
64,192,178076,1,8,0:0:0:0:
192,192,178076,1,0,0:0:0:0:
448,192,178076,1,0,0:0:0:0:
320,192,178231,1,0,0:0:0:0:
64,192,178385,1,2,0:0:0:0:
192,192,178385,1,0,0:0:0:0:
320,192,178540,1,8,0:0:0:0:
448,192,178540,1,0,0:0:0:0:
64,192,178617,1,8,0:0:0:0:
192,192,178617,1,0,0:0:0:0:
320,192,178695,1,8,0:0:0:0:
448,192,178695,1,0,0:0:0:0:
64,192,178849,1,8,0:0:0:0:
192,192,178849,1,0,0:0:0:0:
320,192,178927,1,8,0:0:0:0:
64,192,179004,1,2,0:0:0:0:
192,192,179004,1,4,0:0:0:0:
448,192,179004,128,0,179313:0:0:0:0:
64,192,179313,1,8,0:0:0:0:
192,192,179313,1,0,0:0:0:70:hit-hat.wav
320,192,179313,1,0,0:0:0:0:
320,192,179468,1,0,0:0:0:0:
64,192,179622,1,2,0:0:0:0:
448,192,179622,128,0,179932:0:0:0:70:hit-hat.wav
192,192,179777,1,2,0:0:0:0:
320,192,179777,1,0,0:0:0:0:
64,192,179932,128,8,180241:0:0:0:0:
192,192,179932,1,0,0:0:0:70:hit-hat.wav
320,192,179932,1,0,0:0:0:0:
448,192,180086,1,0,0:0:0:0:
320,192,180241,128,2,180550:0:0:0:0:
448,192,180241,1,0,0:0:0:70:hit-hat.wav
64,192,180396,1,2,0:0:0:0:
192,192,180396,1,0,0:0:0:0:
64,192,180550,1,8,0:0:0:0:
192,192,180550,128,0,180860:0:0:0:70:hit-hat.wav
448,192,180550,1,0,0:0:0:0:
320,192,180705,1,0,0:0:0:0:
64,192,180860,128,2,181169:0:0:0:0:
320,192,180860,1,0,0:0:0:70:hit-hat.wav
192,192,181014,1,2,0:0:0:0:
448,192,181014,1,0,0:0:0:0:
192,192,181169,1,8,0:0:0:0:
320,192,181169,1,0,0:0:0:70:hit-hat.wav
448,192,181169,1,0,0:0:0:0:
320,192,181323,1,0,0:0:0:0:
64,192,181478,1,2,0:0:0:0:
192,192,181478,1,4,0:0:0:0:
448,192,181478,1,0,0:0:0:0:
192,192,181633,1,2,0:0:0:0:
320,192,181633,1,0,0:0:0:0:
64,192,181787,1,8,0:0:0:0:
320,192,181787,1,0,0:0:0:0:
448,192,181787,1,0,0:0:0:0:
64,192,181942,1,2,0:0:0:0:
192,192,181942,1,4,0:0:0:0:
448,192,181942,128,0,182251:0:0:0:0:
64,192,182251,1,2,0:0:0:0:
320,192,182251,1,0,0:0:0:0:
64,192,182406,1,8,0:0:0:0:
192,192,182406,1,0,0:0:0:0:
448,192,182406,1,0,0:0:0:0:
192,192,182561,128,2,182870:0:0:0:0:
320,192,182561,1,4,0:0:0:0:
448,192,182561,1,0,0:0:0:0:
64,192,182870,1,2,0:0:0:0:
448,192,182870,1,0,0:0:0:0:
64,192,183024,1,8,0:0:0:0:
192,192,183024,1,0,0:0:0:70:hit-hat.wav
320,192,183024,1,0,0:0:0:0:
448,192,183179,1,0,0:0:0:0:
320,192,183256,1,0,0:0:0:0:
64,192,183334,1,0,0:0:0:100:Tom & Jerry 1.wav
192,192,183334,1,0,0:0:0:0:
320,192,183411,1,0,0:0:0:100:Tom & Jerry 1.wav
448,192,183488,1,0,0:0:0:100:Tom & Jerry 2.wav
64,192,183566,1,0,0:0:0:100:Tom & Jerry 2.wav
192,192,183643,1,8,0:0:0:0:
320,192,183643,1,0,0:0:0:0:
448,192,183720,1,0,0:0:0:100:Tom & Jerry 2.wav
64,192,183798,1,0,0:0:0:100:Tom & Jerry 2.wav
192,192,183875,1,0,0:0:0:100:Tom & Jerry 3.wav
64,192,183952,1,2,0:0:0:0:
320,192,183952,1,4,0:0:0:0:
448,192,183952,1,0,0:0:0:0:
64,192,184262,1,8,0:0:0:0:
192,192,184262,1,0,0:0:0:0:
448,192,184262,1,0,0:0:0:0:
320,192,184416,1,2,0:0:0:0:
192,192,184494,1,2,0:0:0:0:
320,192,184571,1,2,0:0:0:0:
448,192,184571,1,8,0:0:0:0:
64,192,184571,1,0,0:0:0:0:
64,192,184726,1,2,0:0:0:0:
192,192,184726,1,0,0:0:0:0:
192,192,184880,1,8,0:0:0:0:
320,192,184880,1,0,0:0:0:0:
448,192,184880,1,0,0:0:0:0:
64,192,185035,128,2,185344:0:0:0:0:
320,192,185035,1,4,0:0:0:0:
448,192,185035,1,0,0:0:0:0:
320,192,185344,1,8,0:0:0:0:
448,192,185344,1,0,0:0:0:100:Tom & Jerry 3.wav
320,192,185499,1,8,0:0:0:0:
448,192,185499,1,0,0:0:0:100:Tom & Jerry 3.wav
192,192,185653,1,8,0:0:0:0:
320,192,185653,1,0,0:0:0:100:Tom & Jerry 3.wav
192,192,185808,1,8,0:0:0:0:
320,192,185808,1,0,0:0:0:100:Tom & Jerry 3.wav
64,192,185963,1,8,0:0:0:0:
192,192,185963,1,0,0:0:0:0:
320,192,186040,1,8,0:0:0:0:
448,192,186040,1,0,0:0:0:0:
64,192,186117,1,8,0:0:0:0:
192,192,186117,1,0,0:0:0:0:
320,192,186272,1,8,0:0:0:0:
448,192,186272,1,0,0:0:0:0:
192,192,186349,1,8,0:0:0:0:
64,192,186427,128,2,186736:0:0:0:0:
320,192,186427,1,4,0:0:0:0:
448,192,186427,1,0,0:0:0:0:
192,192,186736,1,2,0:0:0:0:
320,192,186736,1,8,0:0:0:0:
448,192,186736,128,0,187045:0:0:0:0:
64,192,187045,1,2,0:0:0:0:
192,192,187045,128,0,187354:0:0:0:0:
64,192,187354,1,2,0:0:0:0:
320,192,187354,128,8,187664:0:0:0:0:
448,192,187354,1,0,0:0:0:0:
64,192,187664,128,2,187973:0:0:0:0:
192,192,187664,1,0,0:0:0:0:
192,192,187973,128,2,188282:0:0:0:0:
320,192,187973,1,8,0:0:0:0:
448,192,187973,1,0,0:0:0:0:
64,192,188282,1,2,0:0:0:0:
320,192,188282,128,0,188591:0:0:0:0:
64,192,188591,1,2,0:0:0:0:
192,192,188591,1,8,0:0:0:0:
448,192,188591,128,0,188901:0:0:0:0:
64,192,188901,128,2,189210:0:0:0:0:
320,192,188901,1,0,0:0:0:0:
192,192,189210,128,8,190138:0:0:0:0:
320,192,189210,1,2,0:0:0:0:
448,192,189210,1,0,0:0:0:0:
64,192,189519,1,2,0:0:0:0:
448,192,189519,1,0,0:0:0:0:
64,192,189829,1,8,0:0:0:0:
320,192,189829,1,2,0:0:0:0:
448,192,189829,1,0,0:0:0:0:
64,192,190138,1,2,0:0:0:0:
320,192,190138,1,0,0:0:0:0:
192,192,190447,1,2,0:0:0:0:
320,192,190447,1,8,0:0:0:0:
448,192,190447,1,0,0:0:0:0:
64,192,190602,128,0,190756:0:0:0:0:
192,192,190756,1,2,0:0:0:0:
448,192,190756,128,0,191066:0:0:0:0:
64,192,191066,1,2,0:0:0:0:
192,192,191066,1,8,0:0:0:0:
320,192,191066,128,0,191220:0:0:0:0:
192,192,191220,128,0,191375:0:0:0:0:
64,192,191375,1,2,0:0:0:0:
320,192,191375,1,4,0:0:0:0:
448,192,191375,128,0,191684:0:0:0:0:
64,192,191684,128,8,191994:0:0:0:0:
192,192,191684,1,2,0:0:0:0:
320,192,191684,1,0,0:0:0:0:
192,192,191994,128,2,192303:0:0:0:0:
448,192,191994,1,0,0:0:0:0:
64,192,192303,1,8,0:0:0:0:
320,192,192303,128,2,192612:0:0:0:0:
448,192,192303,1,0,0:0:0:0:
192,192,192612,1,2,0:0:0:0:
448,192,192612,128,0,192921:0:0:0:0:
64,192,192921,1,2,0:0:0:0:
192,192,192921,128,8,193231:0:0:0:0:
320,192,192921,1,0,0:0:0:0:
320,192,193231,128,2,193540:0:0:0:0:
448,192,193231,1,0,0:0:0:0:
64,192,193540,1,2,0:0:0:0:
192,192,193540,128,8,193849:0:0:0:0:
448,192,193540,1,0,0:0:0:0:
64,192,193849,1,2,0:0:0:0:
320,192,193849,1,4,0:0:0:0:
448,192,193849,1,0,0:0:0:0:
192,192,194004,1,2,0:0:0:0:
64,192,194004,1,0,0:0:0:0:
64,192,194159,1,8,0:0:0:0:
448,192,194159,1,0,0:0:0:0:
320,192,194159,1,0,0:0:0:0:
192,192,194313,1,2,0:0:0:0:
320,192,194390,1,2,0:0:0:0:
64,192,194468,1,0,0:0:0:0:
448,192,194468,1,8,0:0:0:0:
192,192,194468,1,0,0:0:0:0:
64,192,194622,1,2,0:0:0:0:
320,192,194622,1,0,0:0:0:0:
192,192,194777,1,8,0:0:0:0:
320,192,194777,1,0,0:0:0:0:
448,192,194777,1,0,0:0:0:0:
64,192,194932,128,2,195241:0:0:0:0:
192,192,194932,1,4,0:0:0:0:
448,192,194932,1,0,0:0:0:0:
320,192,195241,1,0,0:0:0:100:Tom & Jerry 1.wav
448,192,195241,1,0,0:0:0:0:
64,192,195396,1,0,0:0:0:100:Tom & Jerry 2.wav
192,192,195396,1,0,0:0:0:0:
320,192,195550,1,8,0:0:0:40:
448,192,195550,1,0,0:0:0:0:
64,192,195628,1,8,0:0:0:40:
192,192,195628,1,0,0:0:0:0:
320,192,195705,1,2,0:0:0:0:
448,192,195705,1,8,0:0:0:40:
192,192,195782,1,8,0:0:0:40:
64,192,195860,1,8,0:0:0:40:
448,192,195860,1,0,0:0:0:0:
192,192,195937,1,8,0:0:0:40:
320,192,195937,1,0,0:0:0:0:
64,192,196014,1,2,0:0:0:0:
448,192,196014,1,8,0:0:0:40:
320,192,196091,1,8,0:0:0:40:
64,192,196169,1,8,0:0:0:40:
192,192,196169,1,0,0:0:0:0:
320,192,196246,1,8,0:0:0:40:
64,192,196323,1,2,0:0:0:0:
192,192,196323,128,4,196633:0:0:0:0:
448,192,196323,1,0,0:0:0:0:
64,192,196633,128,8,196942:0:0:0:0:
320,192,196633,1,2,0:0:0:0:
448,192,196633,1,0,0:0:0:0:
320,192,196942,1,2,0:0:0:0:
448,192,196942,128,0,197251:0:0:0:0:
64,192,197251,1,8,0:0:0:0:
192,192,197251,1,2,0:0:0:0:
320,192,197251,128,0,197561:0:0:0:0:
64,192,197561,128,2,197870:0:0:0:0:
192,192,197561,1,4,0:0:0:0:
448,192,197561,1,0,0:0:0:0:
320,192,197870,1,2,0:0:0:0:
448,192,197870,1,8,0:0:0:0:
64,192,197947,1,8,0:0:0:0:
192,192,197947,1,0,0:0:0:0:
320,192,198024,1,8,0:0:0:0:
448,192,198024,1,0,0:0:0:0:
64,192,198102,1,8,0:0:0:0:
192,192,198102,1,0,0:0:0:0:
320,192,198179,1,2,0:0:0:0:
448,192,198179,1,8,0:0:0:0:
64,192,198256,1,8,0:0:0:0:
192,192,198256,1,0,0:0:0:0:
320,192,198334,1,8,0:0:0:0:
448,192,198334,1,0,0:0:0:0:
192,192,198411,1,8,0:0:0:0:
64,192,198488,1,2,0:0:0:0:
320,192,198488,1,0,0:0:0:100:Tom & Jerry 1.wav
448,192,198566,1,0,0:0:0:100:Tom & Jerry 1.wav
64,192,198643,1,0,0:0:0:100:Tom & Jerry 2.wav
192,192,198643,1,0,0:0:0:0:
320,192,198720,1,0,0:0:0:100:Tom & Jerry 2.wav
64,192,198798,1,2,0:0:0:0:
192,192,198798,1,4,0:0:0:0:
448,192,198798,1,0,0:0:0:0:
320,192,198952,1,2,0:0:0:0:
448,192,198952,1,0,0:0:0:0:
64,192,199107,1,8,0:0:0:0:
192,192,199107,1,0,0:0:0:0:
320,192,199107,1,0,0:0:0:0:
64,192,199262,1,2,0:0:0:0:
192,192,199262,128,4,199571:0:0:0:0:
448,192,199262,1,0,0:0:0:0:
320,192,199571,1,2,0:0:0:0:
448,192,199571,1,0,0:0:0:0:
64,192,199726,1,8,0:0:0:0:
192,192,199726,1,0,0:0:0:0:
448,192,199726,1,0,0:0:0:0:
64,192,199880,1,2,0:0:0:0:
192,192,199880,1,4,0:0:0:0:
320,192,199880,128,0,200189:0:0:0:0:
64,192,200189,1,2,0:0:0:0:
192,192,200189,1,0,0:0:0:0:
64,192,200344,1,8,0:0:0:0:
320,192,200344,1,0,0:0:0:70:hit-hat.wav
448,192,200344,1,0,0:0:0:0:
320,192,200499,1,8,0:0:0:0:
448,192,200499,1,0,0:0:0:0:
64,192,200576,1,8,0:0:0:0:
192,192,200576,1,0,0:0:0:0:
320,192,200653,1,8,0:0:0:0:
448,192,200653,1,0,0:0:0:0:
64,192,200808,1,8,0:0:0:0:
192,192,200808,1,0,0:0:0:0:
448,192,200808,1,0,0:0:0:0:
64,192,200963,1,8,0:0:0:0:
192,192,200963,1,0,0:0:0:0:
320,192,200963,1,0,0:0:0:0:
192,192,201117,1,8,0:0:0:0:
320,192,201117,1,0,0:0:0:0:
448,192,201117,1,0,0:0:0:0:
64,192,201272,1,2,0:0:0:0:
320,192,201272,1,4,0:0:0:0:
448,192,201272,1,0,0:0:0:0:
64,192,201427,1,0,0:0:0:0:
320,192,201581,1,0,0:0:0:70:Ride.wav
320,192,201736,1,2,0:0:0:0:
448,192,201736,1,0,0:0:0:0:
64,192,201890,1,8,0:0:0:0:
192,192,201890,1,0,0:0:0:70:Ride.wav
448,192,201890,1,0,0:0:0:0:
192,192,202045,1,0,0:0:0:0:
320,192,202200,1,0,0:0:0:70:Ride.wav
64,192,202354,1,2,0:0:0:0:
320,192,202354,1,4,0:0:0:0:
448,192,202354,128,0,202664:0:0:0:0:
64,192,202664,1,8,0:0:0:0:
192,192,202664,1,0,0:0:0:100:Tom & Jerry 3.wav
320,192,202664,1,0,0:0:0:0:
192,192,202818,1,8,0:0:0:0:
320,192,202818,1,0,0:0:0:100:Tom & Jerry 3.wav
448,192,202818,1,0,0:0:0:0:
320,192,203437,128,0,203591:0:0:0:0:
64,192,203591,128,0,203746:0:0:0:0:
192,192,203746,1,2,0:0:0:0:
320,192,203746,1,4,0:0:0:0:
448,192,203746,128,0,204055:0:0:0:0:
64,192,204055,1,8,0:0:0:0:
192,192,204055,1,0,0:0:0:0:
320,192,204055,1,0,0:0:0:0:
320,192,204210,1,2,0:0:0:0:
448,192,204210,1,0,0:0:0:0:
64,192,204287,1,2,0:0:0:0:
192,192,204287,1,0,0:0:0:0:
320,192,204365,1,8,0:0:0:0:
448,192,204365,1,0,0:0:0:0:
64,192,204519,1,2,0:0:0:0:
192,192,204519,1,0,0:0:0:0:
192,192,204674,1,8,0:0:0:0:
320,192,204674,1,0,0:0:0:0:
448,192,204674,1,0,0:0:0:0:
64,192,204829,128,2,205138:0:0:0:0:
320,192,204829,1,4,0:0:0:0:
448,192,204829,1,0,0:0:0:0:
192,192,205138,1,8,0:0:0:25:
448,192,205138,1,0,0:0:0:0:
192,192,205293,1,2,0:0:0:0:
448,192,205293,1,8,0:0:0:30:
64,192,205447,1,8,0:0:0:30:
448,192,205447,1,0,0:0:0:0:
64,192,205602,1,2,0:0:0:0:
448,192,205602,1,8,0:0:0:40:
64,192,205756,1,8,0:0:0:40:
320,192,205756,1,0,0:0:0:0:
64,192,205911,1,2,0:0:0:0:
320,192,205911,1,8,0:0:0:50:
192,192,206066,1,8,0:0:0:50:
320,192,206066,1,0,0:0:0:0:
448,192,206066,1,0,0:0:0:0:
64,192,206220,128,8,206684:0:0:0:0:
192,192,206220,1,4,0:0:0:0:
448,192,206220,1,0,0:0:0:0:
448,192,206684,1,0,0:0:0:100:Tom & Jerry 1.wav
320,192,206762,1,0,0:0:0:100:Tom & Jerry 1.wav
64,192,206839,1,0,0:0:0:100:Tom & Jerry 1.wav
192,192,206839,1,0,0:0:0:0:
64,192,206994,1,0,0:0:0:100:Tom & Jerry 2.wav
448,192,206994,1,0,0:0:0:0:
192,192,207148,1,0,0:0:0:100:Tom & Jerry 3.wav
448,192,207148,1,0,0:0:0:0:
64,192,207303,1,2,0:0:0:0:
192,192,207303,1,0,0:0:0:70:hit-hat.wav
320,192,207303,1,0,0:0:0:0:
64,192,207612,1,0,0:0:0:0:
320,192,207921,1,2,0:0:0:0:
448,192,207921,1,0,0:0:0:0:
192,192,207999,1,2,0:0:0:0:
64,192,208076,128,4,208231:0:0:0:0:
320,192,208076,128,8,208231:0:0:0:0:
448,192,208076,128,0,208231:0:0:0:0:
64,192,208308,128,4,208463:0:0:0:0:
192,192,208308,128,8,208463:0:0:0:0:
448,192,208308,128,0,208463:0:0:0:0:
64,192,208540,1,4,0:0:0:0:
320,192,208540,1,8,0:0:0:0:
448,192,208540,1,0,0:0:0:0:
64,192,208695,128,2,209004:0:0:0:0:
192,192,208695,1,4,0:0:0:0:
448,192,208695,1,0,0:0:0:0:
192,192,209004,1,8,0:0:0:0:
320,192,209004,1,2,0:0:0:0:
448,192,209004,1,0,0:0:0:0:
320,192,209159,128,0,209468:0:0:0:70:hit-hat.wav
64,192,209313,1,2,0:0:0:0:
192,192,209313,1,0,0:0:0:0:
192,192,209468,1,0,0:0:0:70:hit-hat.wav
64,192,209622,128,2,209932:0:0:0:0:
320,192,209622,1,8,0:0:0:0:
448,192,209622,1,0,0:0:0:0:
320,192,209777,1,0,0:0:0:70:hit-hat.wav
192,192,209932,1,2,0:0:0:0:
448,192,209932,1,0,0:0:0:0:
448,192,210086,128,0,210396:0:0:0:70:hit-hat.wav
64,192,210241,1,8,0:0:0:0:
192,192,210241,1,2,0:0:0:0:
320,192,210241,1,0,0:0:0:0:
64,192,210396,1,0,0:0:0:70:hit-hat.wav
320,192,210550,128,2,210860:0:0:0:0:
448,192,210550,1,0,0:0:0:0:
192,192,210705,1,0,0:0:0:70:hit-hat.wav
64,192,210860,1,8,0:0:0:0:
192,192,210860,128,2,211169:0:0:0:0:
448,192,210860,1,0,0:0:0:0:
320,192,211014,1,0,0:0:0:70:hit-hat.wav
64,192,211169,128,2,211478:0:0:0:0:
320,192,211169,1,0,0:0:0:0:
448,192,211323,1,0,0:0:0:70:hit-hat.wav
192,192,211478,1,2,0:0:0:0:
320,192,211478,1,8,0:0:0:0:
448,192,211478,1,0,0:0:0:0:
192,192,211633,128,0,211942:0:0:0:70:hit-hat.wav
320,192,211787,1,2,0:0:0:0:
448,192,211787,1,0,0:0:0:0:
320,192,211942,1,0,0:0:0:70:hit-hat.wav
64,192,212097,1,2,0:0:0:0:
192,192,212097,1,8,0:0:0:0:
448,192,212097,128,0,212406:0:0:0:0:
192,192,212251,1,0,0:0:0:70:hit-hat.wav
64,192,212406,1,2,0:0:0:0:
320,192,212406,1,0,0:0:0:0:
64,192,212561,128,0,212870:0:0:0:70:hit-hat.wav
192,192,212715,1,8,0:0:0:0:
320,192,212715,1,2,0:0:0:0:
448,192,212715,1,0,0:0:0:0:
448,192,212870,1,0,0:0:0:70:hit-hat.wav
64,192,213024,1,2,0:0:0:0:
320,192,213024,128,0,213334:0:0:0:0:
448,192,213179,1,0,0:0:0:70:hit-hat.wav
64,192,213334,1,8,0:0:0:0:
192,192,213334,1,0,0:0:0:0:
320,192,213411,1,8,0:0:0:0:
448,192,213411,1,0,0:0:0:0:
64,192,213488,1,8,0:0:0:0:
192,192,213488,1,0,0:0:0:0:
320,192,213566,1,8,0:0:0:0:
64,192,213643,1,2,0:0:0:0:
192,192,213643,1,4,0:0:0:0:
448,192,213643,128,0,213952:0:0:0:0:
64,192,213952,1,2,0:0:0:0:
192,192,213952,1,8,0:0:0:0:
320,192,213952,1,0,0:0:0:0:
192,192,214107,128,0,214416:0:0:0:70:hit-hat.wav
64,192,214262,1,2,0:0:0:0:
448,192,214262,1,0,0:0:0:0:
448,192,214416,1,0,0:0:0:70:hit-hat.wav
64,192,214571,1,2,0:0:0:0:
192,192,214571,1,8,0:0:0:0:
320,192,214571,128,0,214880:0:0:0:0:
64,192,214726,1,0,0:0:0:70:hit-hat.wav
192,192,214880,1,2,0:0:0:0:
448,192,214880,1,0,0:0:0:0:
448,192,215035,128,0,215344:0:0:0:70:hit-hat.wav
64,192,215189,1,2,0:0:0:0:
192,192,215189,1,8,0:0:0:0:
320,192,215189,1,0,0:0:0:0:
192,192,215344,1,0,0:0:0:70:hit-hat.wav
64,192,215499,128,2,215808:0:0:0:0:
448,192,215499,1,0,0:0:0:0:
320,192,215653,1,0,0:0:0:70:hit-hat.wav
192,192,215808,1,2,0:0:0:0:
320,192,215808,128,8,216117:0:0:0:0:
448,192,215808,1,0,0:0:0:0:
64,192,215963,1,0,0:0:0:70:hit-hat.wav
64,192,216117,1,2,0:0:0:0:
448,192,216117,128,0,216427:0:0:0:0:
192,192,216272,1,0,0:0:0:70:hit-hat.wav
64,192,216427,1,2,0:0:0:0:
192,192,216427,1,8,0:0:0:0:
320,192,216427,1,0,0:0:0:0:
320,192,216581,128,0,216890:0:0:0:70:hit-hat.wav
64,192,216736,1,2,0:0:0:0:
192,192,216736,1,0,0:0:0:0:
64,192,216890,1,0,0:0:0:70:hit-hat.wav
192,192,217045,128,2,217354:0:0:0:0:
320,192,217045,1,8,0:0:0:0:
448,192,217045,1,0,0:0:0:0:
320,192,217200,1,0,0:0:0:70:hit-hat.wav
64,192,217354,1,2,0:0:0:0:
448,192,217354,1,0,0:0:0:0:
64,192,217509,128,0,217818:0:0:0:70:hit-hat.wav
192,192,217664,1,2,0:0:0:0:
448,192,217664,1,0,0:0:0:0:
320,192,217818,1,8,0:0:0:0:
448,192,217818,1,0,0:0:0:0:
64,192,217896,1,8,0:0:0:0:
192,192,217896,1,0,0:0:0:0:
320,192,217973,1,2,0:0:0:0:
448,192,217973,1,8,0:0:0:0:
64,192,218050,1,8,0:0:0:0:
192,192,218050,1,0,0:0:0:0:
320,192,218128,1,0,0:0:0:100:Tom & Jerry 1.wav
448,192,218128,1,0,0:0:0:0:
192,192,218205,1,0,0:0:0:100:Tom & Jerry 1.wav
64,192,218282,1,2,0:0:0:0:
320,192,218282,1,0,0:0:0:100:Tom & Jerry 2.wav
448,192,218360,1,0,0:0:0:100:Tom & Jerry 2.wav
64,192,218437,1,0,0:0:0:100:Tom & Jerry 3.wav
192,192,218437,1,0,0:0:0:0:
320,192,218514,1,0,0:0:0:100:Tom & Jerry 3.wav
64,192,218591,1,2,0:0:0:0:
192,192,218591,1,4,0:0:0:0:
448,192,218591,1,0,0:0:0:0:
320,192,218746,1,0,0:0:0:0:
192,192,218823,1,0,0:0:0:0:
64,192,218901,1,2,0:0:0:0:
320,192,218901,1,8,0:0:0:0:
448,192,218901,1,0,0:0:0:0:
64,192,219055,128,0,219365:0:0:0:70:hit-hat.wav
192,192,219210,1,2,0:0:0:0:
448,192,219210,1,0,0:0:0:0:
448,192,219365,1,0,0:0:0:70:hit-hat.wav
64,192,219519,1,8,0:0:0:0:
192,192,219519,1,2,0:0:0:0:
320,192,219519,1,0,0:0:0:0:
448,192,219674,1,0,0:0:0:70:hit-hat.wav
320,192,219751,1,0,0:0:0:0:
64,192,219829,1,2,0:0:0:0:
192,192,219829,1,0,0:0:0:0:
64,192,219983,128,0,220293:0:0:0:70:hit-hat.wav
192,192,220138,1,8,0:0:0:0:
320,192,220138,1,2,0:0:0:0:
448,192,220138,1,0,0:0:0:0:
320,192,220293,128,0,220447:0:0:0:70:hit-hat.wav
64,192,220447,1,2,0:0:0:0:
192,192,220447,128,0,220602:0:0:0:0:
320,192,220602,128,0,220756:0:0:0:70:hit-hat.wav
64,192,220756,128,8,221066:0:0:0:0:
192,192,220756,1,2,0:0:0:0:
448,192,220756,1,0,0:0:0:0:
448,192,220911,1,0,0:0:0:70:hit-hat.wav
192,192,221066,1,2,0:0:0:0:
320,192,221066,1,0,0:0:0:0:
64,192,221220,1,0,0:0:0:70:hit-hat.wav
192,192,221298,1,0,0:0:0:0:
64,192,221375,1,2,0:0:0:0:
320,192,221375,1,8,0:0:0:0:
448,192,221375,1,0,0:0:0:0:
448,192,221530,128,0,221839:0:0:0:70:hit-hat.wav
64,192,221684,1,2,0:0:0:0:
192,192,221684,1,0,0:0:0:0:
64,192,221839,1,0,0:0:0:70:hit-hat.wav
192,192,221994,1,2,0:0:0:0:
320,192,221994,1,8,0:0:0:0:
448,192,221994,1,0,0:0:0:0:
64,192,222148,1,0,0:0:0:70:hit-hat.wav
192,192,222226,1,0,0:0:0:0:
320,192,222303,1,2,0:0:0:0:
448,192,222303,1,0,0:0:0:0:
448,192,222457,128,0,222767:0:0:0:70:hit-hat.wav
64,192,222612,1,2,0:0:0:0:
192,192,222612,1,8,0:0:0:0:
320,192,222612,1,0,0:0:0:0:
192,192,222767,1,0,0:0:0:70:hit-hat.wav
64,192,222921,1,2,0:0:0:0:
320,192,222921,1,4,0:0:0:0:
448,192,222921,1,0,0:0:0:0:
320,192,223076,1,8,0:0:0:0:
448,192,223076,1,0,0:0:0:0:
64,192,223153,1,8,0:0:0:0:
192,192,223153,1,0,0:0:0:0:
320,192,223231,1,8,0:0:0:0:
448,192,223231,1,0,0:0:0:0:
64,192,223385,1,8,0:0:0:0:
192,192,223385,1,0,0:0:0:0:
320,192,223463,1,8,0:0:0:0:
64,192,223540,1,2,0:0:0:0:
192,192,223540,1,4,0:0:0:0:
448,192,223540,1,0,0:0:0:0:
320,192,223695,1,0,0:0:0:0:
192,192,223772,1,0,0:0:0:0:
64,192,223849,1,8,0:0:0:0:
320,192,223849,1,0,0:0:0:70:hit-hat.wav
448,192,223849,1,0,0:0:0:0:
192,192,224004,1,2,0:0:0:0:
448,192,224004,1,0,0:0:0:0:
64,192,224159,1,8,0:0:0:0:
192,192,224159,1,0,0:0:0:70:hit-hat.wav
320,192,224159,1,0,0:0:0:0:
64,192,224313,1,2,0:0:0:0:
448,192,224313,1,0,0:0:0:0:
192,192,224468,1,8,0:0:0:0:
320,192,224468,1,0,0:0:0:70:hit-hat.wav
448,192,224468,1,0,0:0:0:0:
64,192,224622,1,2,0:0:0:0:
192,192,224622,1,0,0:0:0:0:
320,192,224700,1,2,0:0:0:0:
64,192,224777,1,8,0:0:0:0:
192,192,224777,1,4,0:0:0:0:
448,192,224777,1,0,0:0:0:0:
320,192,224932,1,0,0:0:0:0:
64,192,225086,1,2,0:0:0:0:
192,192,225086,1,0,0:0:0:0:
64,192,225241,1,8,0:0:0:40:
448,192,225241,1,0,0:0:0:0:
192,192,225318,1,8,0:0:0:40:
320,192,225396,1,8,0:0:0:0:
448,192,225396,1,0,0:0:0:0:
64,192,225473,1,8,0:0:0:0:
192,192,225473,1,0,0:0:0:0:
320,192,225550,1,8,0:0:0:0:
448,192,225550,1,0,0:0:0:0:
64,192,225628,1,8,0:0:0:0:
192,192,225628,1,0,0:0:0:0:
320,192,225705,1,8,0:0:0:0:
448,192,225705,1,0,0:0:0:0:
192,192,225782,1,0,0:0:0:100:Tom & Jerry 1.wav
64,192,225860,1,0,0:0:0:100:Tom & Jerry 1.wav
448,192,225860,1,0,0:0:0:0:
320,192,225937,1,0,0:0:0:100:Tom & Jerry 2.wav
64,192,226014,128,8,226323:0:0:0:0:
192,192,226014,1,4,0:0:0:0:
448,192,226014,1,0,0:0:0:0:
192,192,226169,1,2,0:0:0:0:
320,192,226169,1,0,0:0:0:0:
320,192,226323,1,2,0:0:0:0:
448,192,226323,1,0,0:0:0:0:
64,192,226478,1,8,0:0:0:0:
192,192,226478,1,4,0:0:0:0:
448,192,226478,128,0,226787:0:0:0:0:
192,192,226633,1,2,0:0:0:0:
320,192,226633,1,0,0:0:0:0:
64,192,226787,1,2,0:0:0:0:
320,192,226787,1,0,0:0:0:0:
64,192,226942,1,8,0:0:0:0:
192,192,226942,128,4,227251:0:0:0:0:
448,192,226942,1,0,0:0:0:0:
320,192,227097,1,2,0:0:0:0:
448,192,227097,1,0,0:0:0:0:
64,192,227251,1,2,0:0:0:0:
320,192,227251,1,0,0:0:0:0:
64,192,227406,128,8,227715:0:0:0:0:
192,192,227406,1,4,0:0:0:0:
448,192,227406,1,0,0:0:0:0:
320,192,227561,1,2,0:0:0:0:
448,192,227561,1,0,0:0:0:0:
192,192,227715,1,2,0:0:0:0:
320,192,227715,1,0,0:0:0:0:
64,192,227870,1,8,0:0:0:0:
192,192,227870,1,0,0:0:0:0:
448,192,227870,1,0,0:0:0:0:
64,192,228024,128,2,228334:0:0:0:0:
320,192,228024,128,0,228334:0:0:0:70:hit-hat.wav
448,192,228024,128,0,228334:0:0:0:0:
