osu file format v14

[General]
AudioFilename: audio.mp3
AudioLeadIn: 0
PreviewTime: 70894
Countdown: 0
SampleSet: Soft
StackLeniency: 0.4
Mode: 0
LetterboxInBreaks: 0
EpilepsyWarning: 1
WidescreenStoryboard: 1

[Editor]
DistanceSpacing: 0.6
BeatDivisor: 4
GridSize: 32
TimelineZoom: 2.599999

[Metadata]
Title:Orion wa Sora ni
TitleUnicode:オリオンは空に
Artist:ShinRa-Bansho
ArtistUnicode:森羅万象
Creator:UberFazz
Version:Winter Sky
Source:東方幻想郷 ~ Lotus Land Story
Tags:japanese pop j-pop jpop video game marisa kirisame 霧雨 魔理沙 touhou 4 th4 2hu lls 東方Project ayo あよ kaztora vessel of stars 星の器 ~ casket of star 東方 Compilation CD-BOOK 萃星霜 参 -ametori
BeatmapID:2691157
BeatmapSetID:1297192

[Difficulty]
HPDrainRate:5
CircleSize:4.2
OverallDifficulty:8
ApproachRate:8.5
SliderMultiplier:2.8
SliderTickRate:1

[Events]
//Background and Video events
0,0,"marisa.jpg",0,0
//Break Periods
2,95613,103519
2,221267,232299
//Storyboard Layer 0 (Background)
//Storyboard Layer 1 (Fail)
//Storyboard Layer 2 (Pass)
//Storyboard Layer 3 (Foreground)
//Storyboard Layer 4 (Overlay)
//Storyboard Sound Samples

[TimingPoints]
1748,731.707317073171,4,2,1,40,1,0
1748,-166.666666666667,4,2,1,40,0,0
7602,-125,4,2,1,40,0,0
8684,731.707317073171,4,2,1,40,1,0
8684,-125,4,2,1,40,0,0
9049,731.707317073171,4,2,1,40,1,0
9049,-125,4,2,1,40,0,0
10528,731.707317073171,4,2,1,40,1,0
10528,-125,4,2,1,40,0,0
28096,731.707317073171,4,2,1,50,1,0
28096,-100,4,2,1,50,0,0
57365,-90.9090909090909,4,2,1,50,0,0
66145,-76.9230769230769,4,2,1,55,0,0
71084,-125,4,2,1,55,0,0
71998,-71.4285714285714,4,2,2,75,0,1
76389,-55.5555555555556,4,2,2,75,0,1
76755,-58.8235294117647,4,2,2,75,0,1
77121,-62.5,4,2,2,75,0,1
77487,-66.6666666666667,4,2,2,75,0,1
77852,-71.4285714285714,4,2,2,75,0,1
93949,-125,4,2,1,75,0,0
94041,-125,4,2,1,60,0,0
95413,-125,4,2,1,45,0,0
115901,-100,4,2,1,55,0,0
127609,-83.3333333333333,4,2,1,60,0,0
136389,-83.3333333333333,4,2,1,65,0,0
145170,-76.9230769230769,4,2,1,70,0,0
151022,-71.4285714285714,4,2,2,75,0,1
155413,-55.5555555555556,4,2,2,75,0,1
155779,-58.8235294117647,4,2,2,75,0,1
156145,-62.5,4,2,2,75,0,1
156511,-66.6666666666667,4,2,2,75,0,1
156876,-71.4285714285714,4,2,2,75,0,1
172974,-125,4,2,1,75,0,0
173157,-125,4,2,1,60,0,0
174437,-55.5555555555556,4,2,1,80,0,1
185048,-58.8235294117647,4,2,1,80,0,1
185413,-62.5,4,2,1,75,0,1
185779,-66.6666666666667,4,2,1,75,0,1
186145,-71.4285714285714,4,2,1,75,0,1
193462,-55.5555555555556,4,2,1,85,0,1
194925,-76.9230769230769,4,2,1,80,0,0
217791,-76.9230769230769,4,2,1,70,0,0
219804,-76.9230769230769,4,2,1,30,0,0
232974,-125,4,2,1,45,0,0
243217,-71.4285714285714,4,2,2,75,0,1
247609,-55.5555555555556,4,2,2,75,0,1
247974,-58.8235294117647,4,2,2,75,0,1
248340,-62.5,4,2,2,75,0,1
248705,-66.6666666666667,4,2,2,75,0,1
249072,-71.4285714285714,4,2,2,75,0,1
265169,-125,4,2,1,75,0,0
265352,-125,4,2,1,60,0,0
269560,-166.666666666667,4,2,1,40,0,0
278172,731.707317073171,4,2,1,40,1,0
278408,902.255639097744,4,2,1,40,1,0
278408,-166.666666666667,4,2,1,40,0,0
279392,1034.48275862069,4,2,1,40,1,0
279392,-194.174757281553,4,2,1,40,0,0
279692,875.912408759124,4,2,1,40,1,0
279692,-166.666666666667,4,2,1,40,0,0
281005,1000,4,2,1,40,1,0
281005,-166.666666666667,4,2,1,40,0,0
281505,731.707317073171,4,2,1,40,1,0
281505,-166.666666666667,4,2,1,40,0,0
281827,731.707317073171,4,2,1,40,1,0
281827,-158.730158730159,4,2,1,40,0,0
282117,731.707317073171,4,2,1,40,1,0
282117,-166.666666666667,4,2,1,40,0,0
282487,875.912408759124,4,2,1,40,1,0
282487,-166.666666666667,4,2,1,40,0,0
282919,1081.08108108108,4,2,1,40,1,0
282919,-166.666666666667,4,2,1,40,0,0
283459,1333.33333333333,4,2,1,40,1,0
283459,-166.666666666667,4,2,1,40,0,0
285137,1071.42857142857,4,2,1,40,1,0
285137,-100,4,2,1,40,0,0

[Colours]
Combo1 : 230,214,11
Combo2 : 255,128,64
Combo3 : 255,172,89
Combo4 : 206,103,0

[HitObjects]
118,49,1748,6,0,L|115:186,1,125.999996154785,2|0,1:0|0:0,0:0:0:0:
115,174,2663,1,2,0:0:0:0:
204,202,2845,1,2,0:0:0:0:
298,183,3028,2,0,P|287:137|281:83,2,83.9999974365235,2|2|2,0:0|0:0|0:0,0:0:0:0:
298,183,4126,1,0,0:0:0:0:
292,12,4492,1,0,0:0:0:0:
292,12,4675,6,0,L|351:15,2,41.9999987182618,2|0|2,1:0|0:0|0:0,0:0:0:0:
417,90,5406,2,0,L|376:93,2,41.9999987182618,2|0|2,0:0|0:0|0:0,0:0:0:0:
417,90,5955,1,2,0:0:0:0:
510,104,6138,2,0,L|505:231,1,125.999996154785,2|0,1:0|0:0,0:0:0:0:
494,329,6870,2,0,P|458:306|365:290,1,125.999996154785,2|0,0:0|0:0,0:0:0:0:
270,300,7602,6,0,B|282:279|282:279|263:167,1,112,2|0,1:0|0:0,0:0:0:0:
336,376,8150,2,0,L|214:385,1,112,2|2,0:0|0:0,0:0:0:0:
224,384,8684,1,2,0:0:0:0:
156,268,8866,2,0,P|149:335|138:390,2,112,2|2|2,0:0|0:0|0:0,0:0:0:0:
156,268,9964,1,0,0:0:0:0:
156,268,10330,1,0,0:0:0:0:
45,270,10528,6,0,L|49:388,1,112,2|0,1:2|0:0,0:0:0:0:
156,268,11077,2,0,L|159:156,1,112,2|0,0:0|0:0,0:0:0:0:
159,156,11626,1,2,0:0:0:0:
172,42,11992,1,2,1:0:0:0:
63,93,12724,1,2,0:0:0:0:
75,265,13455,5,2,1:0:0:0:
297,378,14919,2,0,L|310:137,1,224,2|2,1:0|0:0,0:0:0:0:
309,154,15833,1,2,0:0:0:0:
392,121,16016,1,2,0:0:0:0:
477,122,16199,1,2,0:0:0:0:
317,66,16382,6,0,L|196:60,1,112,6|0,1:0|0:0,0:0:0:0:
205,60,16931,1,2,0:0:0:0:
106,24,17297,1,0,0:0:0:0:
106,24,17480,1,2,0:0:0:0:
14,315,18577,1,10,0:1:0:0:
149,374,19309,6,0,P|156:323|179:253,1,112,2|0,1:0|0:0,0:0:0:0:
249,217,19858,2,0,P|242:166|219:96,1,112,2|0,0:0|0:0,0:0:0:0:
184,34,20406,1,2,0:0:0:0:
184,34,21138,1,2,0:0:0:0:
277,12,21504,1,2,0:0:0:0:
277,12,21687,2,0,L|274:74,2,56,2|2|2,0:0|0:0|0:0,0:0:0:0:
381,48,22236,6,0,P|385:103|415:169,1,112,2|0,1:0|0:0,0:0:0:0:
460,220,22784,1,2,0:0:0:0:
359,363,23150,1,0,0:0:0:0:
359,363,23333,2,0,L|361:132,1,224,2|2,0:0|0:0,0:0:0:0:
361,5,24431,1,10,0:1:0:0:
361,5,24797,2,0,L|294:7,1,56,2|2,0:0|0:0,0:0:0:0:
174,3,25163,6,0,P|191:35|209:127,1,112,2|0,1:0|0:0,0:0:0:0:
108,142,25711,2,0,P|91:110|73:18,1,112,2|0,0:0|0:0,0:0:0:0:
73,36,26260,1,2,0:0:0:0:
80,238,26809,5,2,0:0:0:0:
161,229,26992,1,2,0:0:0:0:
169,311,27175,1,2,0:0:0:0:
88,319,27358,1,2,0:0:0:0:
88,319,27540,2,0,L|94:380,2,56,2|2|2,0:0|0:0|0:0,0:0:0:0:
269,376,28096,6,0,B|287:332|287:332|278:220,1,140,6|0,1:0|0:0,0:0:0:0:
232,172,28645,2,0,B|214:128|214:128|223:16,1,140,2|0,0:0|0:0,0:0:0:0:
325,3,29194,2,0,P|334:55|499:211,1,280,2|2,1:0|0:0,0:0:0:0:
488,208,30109,1,2,0:0:0:0:
484,293,30291,1,10,0:1:0:0:
383,372,30474,5,2,0:0:0:0:
299,336,30657,1,2,1:0:0:0:
299,336,30840,2,0,L|218:331,1,70,2|0,0:0|1:0,0:0:0:0:
369,263,31206,5,2,0:0:0:0:
282,234,31389,1,2,0:0:0:0:
282,234,31572,2,0,L|200:236,1,70,2|0,0:0|0:0,0:0:0:0:
125,92,31938,5,2,0:0:0:0:
228,89,32121,1,2,1:0:0:0:
112,79,32304,1,2,1:0:0:0:
112,79,32670,2,0,P|81:125|11:179,1,140,2|0,0:0|0:0,0:0:0:0:
228,89,33218,1,2,1:0:0:0:
228,89,33401,2,0,P|259:135|329:189,1,140,2|0,0:0|0:0,0:0:0:0:
437,228,33950,6,0,L|449:368,1,140,2|2,1:0|0:0,0:0:0:0:
279,384,34499,2,0,L|267:244,1,140,2|2,0:0|0:0,0:0:0:0:
115,195,35048,2,0,P|104:260|21:376,1,210,2|0,1:0|0:0,0:0:0:0:
44,107,35779,2,0,L|189:109,1,140,2|10,0:0|0:1,0:0:0:0:
183,108,36511,1,2,1:0:0:0:
183,108,36694,1,2,0:0:0:0:
294,11,36877,6,0,P|278:82|281:159,1,140,2|0,1:0|0:0,0:0:0:0:
398,157,37426,2,0,P|414:86|411:9,1,140,2|0,1:0|0:0,0:0:0:0:
335,216,37974,1,2,1:0:0:0:
335,216,38523,5,2,0:0:0:0:
397,278,38705,1,2,1:0:0:0:
357,356,38889,1,2,0:0:0:0:
271,343,39072,1,10,0:1:0:0:
257,256,39255,1,2,0:0:0:0:
257,256,39438,2,0,L|176:259,1,70,2|2,0:0|0:0,0:0:0:0:
5,175,39804,6,0,L|51:178,1,35,6|0,1:2|0:0,0:0:0:0:
496,81,40352,6,0,L|450:84,1,35,6|0,1:2|0:0,0:0:0:0:
158,6,40901,6,0,P|205:70|232:202,1,210,6|0,1:0|0:0,0:0:0:0:
232,195,41633,2,0,L|310:199,1,70,2|2,0:0|0:0,0:0:0:0:
359,285,41999,2,0,L|281:288,1,70,10|2,0:0|0:0,0:0:0:0:
204,288,42365,1,2,1:0:0:0:
204,288,42548,1,2,0:0:0:0:
89,377,42731,6,0,L|93:331,1,35,6|0,1:2|0:0,0:0:0:0:
220,13,43279,6,0,L|223:56,1,35,6|0,1:2|0:0,0:0:0:0:
502,271,43828,6,0,B|467:234|467:234|278:249|278:249|240:205,1,280,6|2,1:0|0:0,0:0:0:0:
252,219,44926,1,10,0:0:0:0:
251,128,45109,2,0,L|324:132,1,70,2|2,0:0|1:0,0:0:0:0:
403,135,45474,1,2,0:0:0:0:
171,177,45657,6,0,L|164:258,1,70,2|2,1:0|0:0,0:0:0:0:
153,331,46023,1,2,0:0:0:0:
58,111,46206,2,0,L|65:192,1,70,2|2,1:0|0:0,0:0:0:0:
76,265,46572,1,2,0:0:0:0:
153,22,46755,6,0,L|146:103,2,70,2|2|2,1:0|0:0|0:0,0:0:0:0:
251,68,47304,1,2,0:0:0:0:
251,68,47487,1,2,0:0:0:0:
251,68,47670,2,0,L|324:65,2,70,2|0|0,0:0|0:0|0:0,0:0:0:0:
309,173,48218,1,2,0:0:0:0:
309,173,48401,1,2,0:0:0:0:
455,267,48584,6,0,L|458:214,1,35,6|0,1:2|0:0,0:0:0:0:
463,154,48950,1,2,0:0:0:0:
379,350,49133,6,0,L|376:297,1,35,6|0,1:2|0:0,0:0:0:0:
371,237,49499,1,2,0:0:0:0:
221,376,49682,6,0,P|242:342|278:174,1,210,6|0,1:0|0:0,0:0:0:0:
278,178,50413,1,2,0:0:0:0:
187,189,50596,1,2,0:0:0:0:
95,199,50779,1,10,0:0:0:0:
185,174,50962,1,2,0:0:0:0:
273,148,51145,1,2,0:0:0:0:
467,5,51511,6,0,P|456:47|448:163,1,140,6|0,1:0|0:0,0:0:0:0:
365,222,52060,2,0,P|376:264|384:380,1,140,6|0,1:0|0:0,0:0:0:0:
171,383,52609,2,0,L|187:141,1,210,6|2,1:0|0:0,0:0:0:0:
184,173,53340,1,2,0:0:0:0:
146,84,53523,1,2,0:0:0:0:
70,26,53706,1,10,0:0:0:0:
223,30,53889,2,0,L|300:32,2,70,2|2|2,0:0|0:0|0:0,0:0:0:0:
8,227,54438,6,0,P|57:207|132:154,1,140,14|0,1:0|0:0,0:0:0:0:
382,194,54987,2,0,P|333:174|258:121,1,140,14|0,1:0|0:0,0:0:0:0:
439,383,55535,2,0,B|481:359|481:359|472:127,1,280,14|2,1:0|0:0,0:0:0:0:
473,129,56633,1,10,0:1:0:0:
473,129,56999,1,2,0:0:0:0:
248,8,57365,6,0,P|270:57|280:173,1,154.000004699707,6|0,1:0|0:0,0:0:0:0:
281,155,57913,2,0,L|187:152,1,77.0000023498536,2|0,1:0|0:0,0:0:0:0:
115,149,58279,1,2,0:0:0:0:
95,237,58462,1,2,0:0:0:0:
124,369,58645,2,0,L|281:372,2,154.000004699707,2|2|2,1:0|0:0|1:0,0:0:0:0:
36,363,59560,1,8,0:1:0:0:
36,363,59743,1,2,0:0:0:0:
9,273,59926,1,2,0:0:0:0:
9,273,60109,1,0,0:0:0:0:
28,140,60291,6,0,P|58:93|80:-7,1,154.000004699707,6|0,1:0|0:0,0:0:0:0:
79,0,60840,2,0,L|172:3,1,77.0000023498536,2|0,1:0|0:0,0:0:0:0:
252,9,61206,1,2,0:0:0:0:
287,83,61389,1,2,0:0:0:0:
281,209,61572,2,0,P|336:187|446:170,2,154.000004699707,2|2|2,1:0|0:0|1:0,0:0:0:0:
182,273,62487,1,8,0:1:0:0:
155,192,62670,1,2,0:0:0:0:
101,300,62852,1,2,0:0:0:0:
74,219,63035,1,2,0:0:0:0:
76,82,63218,6,0,P|145:62|221:10,1,154.000004699707,6|2,1:0|0:0,0:0:0:0:
281,209,63767,2,0,P|298:139|291:47,1,154.000004699707,6|2,1:0|0:0,0:0:0:0:
511,166,64316,2,0,P|441:44|358:4,1,231.000007049561,6|0,1:0|0:0,0:0:0:0:
363,5,65048,2,0,L|369:101,1,77.0000023498536,2|0,1:0|0:0,0:0:0:0:
375,178,65413,1,10,0:0:0:0:
360,287,65596,1,2,0:0:0:0:
272,381,65779,2,0,L|185:377,1,77.0000023498536,2|0,0:0|0:0,0:0:0:0:
5,287,66145,6,0,P|110:268|293:78,3,363.999983337403,6|6|6|6,1:0|1:0|1:0|1:0,0:0:0:0:
287,93,68523,1,2,0:0:0:0:
287,93,68706,1,2,0:0:0:0:
458,330,69072,6,0,L|446:135,1,181.999991668702,2|2,1:0|0:0,0:0:0:0:
430,31,69621,2,0,L|418:212,1,181.999991668702,2|2,1:0|0:0,0:0:0:0:
306,356,70170,2,0,L|210:359,1,90.9999958343508,2|0,1:0|0:0,0:0:0:0:
66,361,70535,1,2,1:0:0:0:
66,361,71084,6,0,L|69:294,2,56,2|2|2,0:0|0:0|0:0,0:0:0:0:
66,361,71633,1,2,0:0:0:0:
203,7,71999,6,0,P|206:66|260:202,1,195.999994018555,6|0,1:0|0:0,0:0:0:0:
366,286,72548,1,2,1:0:0:0:
488,129,72731,2,0,L|495:235,1,97.9999970092774,8|2,0:0|0:0,0:0:0:0:
507,329,73005,1,0,0:0:0:0:
507,329,73096,1,2,1:0:0:0:
293,353,73279,1,2,0:0:0:0:
79,377,73462,5,2,1:0:0:0:
79,377,73645,2,0,P|98:328|106:273,1,97.9999970092774,2|0,0:0|1:0,0:0:0:0:
60,134,74011,2,0,P|41:85|33:30,1,97.9999970092774,2|8,0:0|0:0,0:0:0:0:
169,108,74377,5,2,0:0:0:0:
165,122,74468,1,0,0:0:0:0:
191,141,74560,1,2,0:0:0:0:
187,156,74651,1,0,0:0:0:0:
209,176,74743,1,0,0:0:0:0:
205,190,74834,1,0,0:0:0:0:
247,253,74926,6,0,L|352:258,2,97.9999970092774,2|2|2,1:0|0:0|0:0,0:0:0:0:
150,244,75474,1,0,1:0:0:0:
430,210,75657,2,0,P|424:262|425:331,1,97.9999970092774,10|2,0:0|0:0,0:0:0:0:
502,340,75932,1,0,0:0:0:0:
502,340,76023,1,2,1:0:0:0:
370,137,76206,1,2,0:0:0:0:
386,88,76298,1,0,0:0:0:0:
407,48,76389,6,0,P|333:55|213:24,1,188.999994232178,2|0,1:3|0:0,0:0:0:0:
101,145,76755,2,0,P|175:152|295:121,1,178.500003404617,2|0,1:3|0:0,0:0:0:0:
381,240,77121,2,0,P|307:247|187:216,1,168,10|0,0:3|0:0,0:0:0:0:
130,228,77487,1,2,1:3:0:0:
56,357,77670,1,2,0:0:0:0:
12,142,77852,6,0,B|42:197|42:197|43:344,1,195.999994018555,4|2,1:2|0:0,0:0:0:0:
42,330,78401,1,2,1:0:0:0:
117,141,78584,2,0,P|128:88|133:39,1,97.9999970092774,8|0,0:0|0:0,0:0:0:0:
63,7,78859,1,0,0:0:0:0:
63,7,78950,1,0,1:0:0:0:
238,9,79133,1,2,0:0:0:0:
413,11,79316,6,0,P|419:67|475:207,1,195.999994018555,2|2,1:0|1:0,0:0:0:0:
500,379,79865,2,0,L|494:270,1,97.9999970092774,2|8,0:0|0:0,0:0:0:0:
348,150,80231,1,2,0:0:0:0:
348,150,80322,1,0,0:0:0:0:
348,150,80413,1,0,0:0:0:0:
210,132,80596,1,2,0:0:0:0:
41,217,80779,6,0,P|73:154|98:27,1,195.999994018555,6|0,1:2|0:0,0:0:0:0:
97,31,81328,1,2,0:0:0:0:
169,322,81511,2,0,P|137:259|112:132,1,195.999994018555,8|0,0:0|1:0,0:0:0:0:
112,136,82060,1,2,0:0:0:0:
302,73,82243,5,2,1:3:0:0:
274,247,82426,1,0,0:0:0:0:
476,100,82609,1,2,1:3:0:0:
449,274,82791,1,0,0:0:0:0:
347,350,82974,5,10,0:3:0:0:
365,238,83157,1,0,0:0:0:0:
383,126,83340,1,2,1:3:0:0:
401,15,83523,1,0,0:0:0:0:
174,2,83706,6,0,B|200:47|200:47|203:210,1,195.999994018555,6|0,1:2|0:0,0:0:0:0:
198,311,84255,1,2,1:0:0:0:
79,212,84438,1,8,0:0:0:0:
60,65,84621,1,2,0:0:0:0:
60,65,84712,1,0,0:0:0:0:
60,65,84804,1,2,1:0:0:0:
79,212,84987,6,0,P|71:267|53:315,1,97.9999970092774,2|0,0:0|1:0,0:0:0:0:
259,262,85352,2,0,P|267:317|285:365,1,97.9999970092774,2|0,0:0|1:0,0:0:0:0:
459,193,85718,2,0,P|451:248|433:296,1,97.9999970092774,2|8,0:0|0:0,0:0:0:0:
410,55,86084,5,2,0:0:0:0:
398,65,86175,1,0,0:0:0:0:
374,51,86267,1,2,0:0:0:0:
363,62,86358,1,0,0:0:0:0:
327,48,86450,1,2,0:0:0:0:
316,58,86541,1,0,0:0:0:0:
248,29,86633,6,0,L|128:21,1,97.9999970092774,2|0,1:0|0:0,0:0:0:0:
51,94,86999,1,0,0:0:0:0:
140,208,87182,1,0,1:0:0:0:
274,251,87365,2,0,L|371:257,1,97.9999970092774,10|2,0:0|0:0,0:0:0:0:
371,257,87731,1,2,1:0:0:0:
65,378,87913,1,2,0:0:0:0:
96,344,88005,1,0,0:0:0:0:
106,298,88096,5,2,1:0:0:0:
266,340,88279,1,2,0:0:0:0:
287,166,88462,1,2,1:0:0:0:
447,208,88645,1,2,0:0:0:0:
406,76,88828,5,10,0:0:0:0:
406,76,89011,1,2,0:0:0:0:
222,54,89194,1,2,1:0:0:0:
222,54,89377,1,2,0:0:0:0:
2,129,89559,6,0,P|65:138|193:200,1,195.999994018555,6|2,1:2|0:0,0:0:0:0:
256,283,90109,1,2,0:0:0:0:
320,64,90291,2,0,L|317:178,1,97.9999970092774,8|0,0:0|0:0,0:0:0:0:
322,190,90566,1,0,0:0:0:0:
322,190,90656,1,0,1:0:0:0:
334,37,90840,1,2,0:0:0:0:
506,121,91023,6,0,L|397:124,1,97.9999970092774,2|0,1:0|0:0,0:0:0:0:
262,288,91389,2,0,L|359:290,1,97.9999970092774,2|0,1:0|0:0,0:0:0:0:
135,285,91755,1,10,0:0:0:0:
225,138,91938,1,0,0:0:0:0:
225,138,92029,1,0,0:0:0:0:
225,138,92121,2,0,P|161:128|116:110,1,97.9999970092774,2|0,1:0|0:0,0:0:0:0:
20,47,92487,5,6,1:2:0:0:
48,196,92670,1,2,0:0:0:0:
92,351,92852,2,0,P|107:299|130:247,1,97.9999970092774,2|0,0:0|0:0,0:0:0:0:
363,348,93218,5,10,0:0:0:0:
327,225,93401,1,2,0:0:0:0:
349,87,93584,1,2,1:0:0:0:
457,25,93767,1,2,0:0:0:0:
270,142,93949,5,4,1:0:0:0:
256,192,94041,12,2,95413,0:0:0:0:
74,46,104194,5,6,1:0:0:0:
88,178,104560,1,0,0:0:0:0:
105,188,104743,2,0,P|149:172|219:162,1,112,2|0,0:0|0:0,0:0:0:0:
213,162,105291,1,2,0:0:0:0:
320,123,105840,5,2,0:0:0:0:
310,106,106023,1,2,0:0:0:0:
327,97,106206,1,2,0:0:0:0:
335,113,106389,1,2,0:0:0:0:
335,113,107121,6,0,L|466:101,1,112,2|0,1:0|0:0,0:0:0:0:
511,199,107670,2,0,L|399:188,1,112,2|0,0:0|0:0,0:0:0:0:
399,188,108218,1,2,0:0:0:0:
309,282,108767,5,2,0:0:0:0:
301,363,108950,1,2,0:0:0:0:
228,274,109133,1,2,0:0:0:0:
220,355,109316,1,2,0:0:0:0:
220,355,109499,2,0,L|143:360,2,56,2|2|2,0:0|0:0|0:0,0:0:0:0:
41,378,110048,6,0,P|39:329|28:259,1,112,2|0,1:0|0:0,0:0:0:0:
29,266,110596,1,2,0:0:0:0:
131,195,110962,1,0,0:0:0:0:
131,195,111145,2,0,P|133:146|144:76,2,112,2|0|2,0:0|0:0|0:0,0:0:0:0:
131,195,112243,1,2,0:0:0:0:
16,7,112609,2,0,L|83:10,1,56,2|0,0:0|0:0,0:0:0:0:
215,11,112974,6,0,P|219:56|241:125,1,112,2|0,1:0|0:0,0:0:0:0:
297,190,113523,2,0,P|293:235|271:304,1,112,2|0,1:0|0:0,0:0:0:0:
224,368,114072,1,2,0:0:0:0:
377,378,114621,5,2,0:0:0:0:
384,301,114804,1,2,0:0:0:0:
439,246,114987,1,2,0:0:0:0:
432,169,115170,1,2,0:0:0:0:
432,169,115352,2,0,L|499:165,2,56,2|2|2,0:0|0:0|0:0,0:0:0:0:
505,34,115901,6,0,P|462:47|357:58,1,140,6|0,1:0|0:0,0:0:0:0:
285,57,116450,2,0,L|281:144,1,70,2|8,0:0|0:0,0:0:0:0:
280,215,116816,1,2,0:0:0:0:
280,215,116999,2,0,L|56:222,1,210,2|2,1:0|0:0,0:0:0:0:
70,221,117731,1,2,0:0:0:0:
68,134,117913,1,2,0:0:0:0:
65,46,118096,1,2,0:0:0:0:
154,92,118279,5,2,0:0:0:0:
154,92,118462,1,2,1:0:0:0:
154,92,118645,2,0,L|237:93,1,70,2|0,0:0|1:0,0:0:0:0:
278,184,119011,1,2,0:0:0:0:
278,184,119194,1,2,0:0:0:0:
278,184,119377,2,0,L|195:185,1,70,2|8,1:0|0:0,0:0:0:0:
351,121,119743,1,2,0:0:0:0:
367,212,119926,1,2,1:0:0:0:
365,114,120109,1,2,0:0:0:0:
365,114,120474,6,0,P|325:55|261:10,1,140,2|0,1:0|0:0,0:0:0:0:
392,237,121023,1,2,1:0:0:0:
392,237,121206,2,0,P|430:179|486:137,1,140,2|0,0:0|0:0,0:0:0:0:
506,342,121755,6,0,L|353:335,1,140,2|2,1:0|0:0,0:0:0:0:
296,378,122304,2,0,L|156:384,1,140,2|2,0:0|0:0,0:0:0:0:
77,187,122852,2,0,P|72:279|12:398,1,210,2|0,1:0|0:0,0:0:0:0:
22,384,123584,1,2,0:0:0:0:
10,112,123950,1,2,0:0:0:0:
10,112,124316,2,0,L|86:114,1,70,2|2,1:0|0:0,0:0:0:0:
152,9,124682,6,0,P|155:53|193:159,1,140,2|2,1:0|0:0,0:0:0:0:
284,174,125230,2,0,P|281:218|243:324,1,140,2|2,1:0|0:0,0:0:0:0:
424,384,125779,2,0,L|415:166,1,210,2|10,1:0|0:0,0:0:0:0:
415,174,126511,1,2,1:0:0:0:
510,172,126694,1,2,0:0:0:0:
508,78,126877,1,10,0:0:0:0:
414,81,127060,1,2,0:0:0:0:
414,81,127243,2,0,L|417:2,1,70,2|2,0:0|0:0,0:0:0:0:
198,5,127609,6,0,L|148:10,1,41.9999987182618,6|0,1:2|0:0,0:0:0:0:
10,315,128157,6,0,L|60:320,1,41.9999987182618,6|0,1:2|0:0,0:0:0:0:
511,344,128706,6,0,P|444:345|262:278,1,251.999992309571,6|2,1:0|0:0,0:0:0:0:
207,227,129438,1,2,0:0:0:0:
219,144,129621,1,2,0:0:0:0:
119,92,129804,1,10,0:0:0:0:
107,9,129987,1,2,0:0:0:0:
15,110,130170,2,0,L|114:111,1,83.9999974365235,2|2,1:0|0:0,0:0:0:0:
333,6,130535,6,0,L|330:57,1,41.9999987182618,6|0,1:2|0:0,0:0:0:0:
287,380,131084,6,0,L|284:338,1,41.9999987182618,6|0,1:2|0:0,0:0:0:0:
2,230,131633,6,0,B|92:201|185:200|185:200|158:220|152:267,1,251.999992309571,6|2,1:0|0:0,0:0:0:0:
236,267,132365,1,2,0:0:0:0:
317,259,132548,1,2,0:0:0:0:
367,153,132731,1,10,0:0:0:0:
448,145,132914,1,2,0:0:0:0:
472,225,133096,1,2,1:0:0:0:
465,308,133279,1,2,0:0:0:0:
507,57,133462,6,0,L|459:55,1,41.9999987182618,6|0,1:0|0:0,0:0:0:0:
4,116,134011,6,0,L|52:114,1,41.9999987182618,6|0,1:0|0:0,0:0:0:0:
390,383,134559,6,0,B|361:345|323:326|323:326|238:323|151:264,1,251.999992309571,6|0,1:0|0:0,0:0:0:0:
34,377,135291,2,0,L|38:288,1,83.9999974365235,2|0,0:0|0:0,0:0:0:0:
102,211,135657,2,0,L|98:122,1,83.9999974365235,10|0,0:1|0:0,0:0:0:0:
98,127,136023,1,2,0:0:0:0:
422,8,136389,6,0,P|411:55|401:192,1,167.999994873047,6|0,1:0|0:0,0:0:0:0:
400,174,136938,2,0,L|305:169,1,83.9999974365235,2|0,0:0|0:0,0:0:0:0:
219,161,137304,1,2,0:0:0:0:
192,77,137487,1,10,0:1:0:0:
186,242,137670,2,0,P|230:255|346:323,2,167.999994873047,6|2|2,0:0|0:0|0:0,0:0:0:0:
96,227,138584,1,8,0:1:0:0:
11,236,138767,1,2,0:0:0:0:
11,236,138950,2,0,L|17:140,1,83.9999974365235,2|0,0:0|0:0,0:0:0:0:
28,6,139316,6,0,L|207:5,1,167.999994873047,6|0,1:0|0:0,0:0:0:0:
195,5,139865,2,0,P|189:47|186:93,1,83.9999974365235,2|0,1:0|0:0,0:0:0:0:
185,184,140231,1,2,0:0:0:0:
275,166,140413,1,10,0:1:0:0:
339,29,140596,2,0,P|356:92|420:178,2,167.999994873047,2|2|2,1:0|1:0|1:0,0:0:0:0:
440,17,141511,1,8,0:1:0:0:
440,17,141694,1,2,0:0:0:0:
491,101,141877,1,0,0:0:0:0:
491,101,142060,1,0,0:0:0:0:
504,285,142243,6,0,B|472:256|472:256|334:254,1,167.999994873047,6|0,1:0|0:0,0:0:0:0:
278,207,142791,2,0,B|310:178|310:178|434:176,1,167.999994873047,2|0,1:0|0:0,0:0:0:0:
445,352,143340,6,0,L|178:348,1,251.999992309571,4|0,1:0|0:0,0:0:0:0:
112,350,144072,2,0,L|110:253,1,83.9999974365235,2|0,1:0|0:0,0:0:0:0:
107,153,144438,1,10,0:1:0:0:
10,225,144621,1,2,0:0:0:0:
206,213,144804,2,0,P|210:171|222:131,1,83.9999974365235,2|0,0:0|0:0,0:0:0:0:
304,15,145170,6,0,P|212:108|63:127,1,272.999987503052,6|0,1:0|0:0,0:0:0:0:
418,242,145901,2,0,P|325:150|306:1,1,272.999987503052,6|0,1:0|0:0,0:0:0:0:
190,356,146633,2,0,P|282:263|431:244,1,272.999987503052,6|0,1:0|0:0,0:0:0:0:
75,128,147365,2,0,P|168:220|186:369,1,272.999987503052,6|0,1:0|0:0,0:0:0:0:
345,373,148096,6,0,L|336:187,1,181.999991668702,6|2,1:0|0:0,0:0:0:0:
479,265,148645,2,0,L|488:79,1,181.999991668702,6|2,1:0|0:0,0:0:0:0:
487,83,149194,1,6,1:0:0:0:
107,70,149560,1,6,1:0:0:0:
256,192,150109,5,2,0:0:0:0:
256,192,150200,1,0,0:0:0:0:
256,192,150291,1,2,0:0:0:0:
16,358,151022,6,0,B|55:327|55:327|211:330,1,195.999994018555,6|0,1:0|0:0,0:0:0:0:
400,331,151572,1,2,1:0:0:0:
249,212,151755,1,8,0:0:0:0:
310,369,151938,1,2,0:0:0:0:
310,369,152029,1,0,0:0:0:0:
310,369,152121,1,2,1:0:0:0:
375,205,152304,6,0,L|372:103,1,97.9999970092774,2|2,0:0|1:0,0:0:0:0:
189,10,152670,2,0,L|186:107,1,97.9999970092774,2|0,0:0|1:0,0:0:0:0:
177,248,153035,1,2,0:0:0:0:
51,105,153218,2,0,P|72:153|78:206,1,97.9999970092774,8|2,0:0|0:0,0:0:0:0:
63,278,153493,1,0,0:0:0:0:
63,278,153584,2,0,L|60:341,1,48.9999985046387,2|0,0:0|0:0,0:0:0:0:
179,296,153767,2,0,L|176:247,1,48.9999985046387
297,355,153950,6,0,P|355:341|410:334,2,97.9999970092774,2|2|2,1:0|0:0|0:0,0:0:0:0:
210,384,154499,1,0,1:0:0:0:
328,260,154682,2,0,P|311:205|303:159,1,97.9999970092774,10|2,0:0|0:0,0:0:0:0:
298,70,155048,1,2,1:0:0:0:
509,5,155231,1,2,0:0:0:0:
485,44,155322,1,0,0:0:0:0:
473,92,155413,6,0,L|484:291,1,188.999994232178,2|0,1:3|0:0,0:0:0:0:
362,162,155779,2,0,L|351:350,1,178.500003404617,2|0,1:3|0:0,0:0:0:0:
228,214,156145,2,0,L|238:402,1,168,10|0,0:3|0:0,0:0:0:0:
107,285,156511,2,0,L|115:127,1,157.500006008148,2|0,1:3|0:0,0:0:0:0:
128,3,156877,6,0,P|187:26|326:41,1,195.999994018555,4|2,1:2|0:0,0:0:0:0:
400,32,157426,1,2,1:0:0:0:
404,199,157609,1,8,0:0:0:0:
408,366,157791,1,0,0:0:0:0:
408,366,157883,1,0,0:0:0:0:
408,366,157974,1,0,1:0:0:0:
322,280,158157,1,2,0:0:0:0:
159,364,158340,6,0,P|185:293|178:167,1,195.999994018555,2|2,1:0|1:0,0:0:0:0:
135,58,158889,2,0,L|234:60,1,97.9999970092774,2|8,0:0|0:0,0:0:0:0:
48,1,159255,5,2,0:0:0:0:
56,116,159438,1,2,0:0:0:0:
64,231,159621,1,2,0:0:0:0:
110,375,159804,6,0,L|-20:369,2,97.9999970092774,6|2|0,1:2|0:0|0:0,0:0:0:0:
256,382,160352,1,2,0:0:0:0:
64,231,160535,2,0,L|177:236,1,97.9999970092774,8|2,0:0|0:0,0:0:0:0:
301,189,160901,2,0,L|398:184,1,97.9999970092774,0|2,1:0|0:0,0:0:0:0:
499,46,161267,5,2,1:3:0:0:
357,27,161450,1,0,0:0:0:0:
216,46,161633,1,2,1:3:0:0:
75,27,161816,1,0,0:0:0:0:
216,46,161999,5,10,0:3:0:0:
216,46,162182,1,0,0:0:0:0:
357,27,162365,1,2,1:3:0:0:
357,27,162548,1,0,0:0:0:0:
481,239,162731,6,0,P|484:150|508:35,1,195.999994018555,6|0,1:2|0:0,0:0:0:0:
382,128,163279,1,2,1:0:0:0:
373,249,163462,2,0,L|377:361,1,97.9999970092774,8|2,0:0|0:0,0:0:0:0:
452,384,163737,1,0,0:0:0:0:
452,384,163828,1,2,1:0:0:0:
263,360,164011,1,2,0:0:0:0:
74,336,164194,5,0,1:0:0:0:
74,336,164377,2,0,L|66:227,1,97.9999970092774,2|0,0:0|1:0,0:0:0:0:
270,262,164743,2,0,L|262:359,1,97.9999970092774,2|8,0:0|0:0,0:0:0:0:
171,229,165109,5,2,0:0:0:0:
181,217,165200,1,0,0:0:0:0:
167,193,165292,1,2,0:0:0:0:
178,182,165383,1,0,0:0:0:0:
164,146,165475,1,2,0:0:0:0:
174,135,165566,1,0,0:0:0:0:
134,76,165657,6,0,P|85:66|25:42,2,97.9999970092774,2|2|2,1:0|0:0|0:0,0:0:0:0:
217,62,166206,1,0,1:0:0:0:
413,52,166389,2,0,L|405:164,1,97.9999970092774,10|2,0:0|0:0,0:0:0:0:
399,232,166755,1,2,1:0:0:0:
299,372,166938,1,2,0:0:0:0:
345,372,167029,1,0,0:0:0:0:
395,368,167121,5,2,1:0:0:0:
177,350,167304,1,2,0:0:0:0:
124,275,167487,5,2,1:0:0:0:
321,292,167670,1,2,0:0:0:0:
399,232,167852,5,10,0:0:0:0:
221,216,168035,1,2,0:0:0:0:
316,148,168218,1,2,1:0:0:0:
316,148,168401,1,2,0:0:0:0:
149,74,168584,6,0,P|146:133|95:271,1,195.999994018555,6|2,1:2|0:0,0:0:0:0:
27,310,169133,1,2,0:0:0:0:
4,135,169316,2,0,L|8:37,1,97.9999970092774,8|0,0:0|0:0,0:0:0:0:
81,1,169590,1,0,0:0:0:0:
81,1,169682,1,0,1:0:0:0:
233,11,169865,1,2,0:0:0:0:
385,21,170048,6,0,P|394:74|410:122,1,97.9999970092774,2|0,1:0|0:0,0:0:0:0:
496,266,170413,2,0,P|487:319|471:367,1,97.9999970092774,2|0,1:0|0:0,0:0:0:0:
483,173,170779,1,10,0:0:0:0:
285,179,170962,1,0,0:0:0:0:
285,179,171054,1,0,0:0:0:0:
285,179,171145,2,0,L|182:176,1,97.9999970092774,2|0,1:0|0:0,0:0:0:0:
41,173,171511,5,6,1:2:0:0:
205,65,171694,1,2,0:0:0:0:
111,6,171877,2,0,L|112:103,1,97.9999970092774,2|0,0:0|1:0,0:0:0:0:
175,351,172243,1,10,0:0:0:0:
221,150,172426,1,2,0:0:0:0:
301,339,172609,1,2,1:0:0:0:
125,233,172791,1,2,0:0:0:0:
329,215,172974,6,0,L|332:153,3,56,6|0|2|0,1:0|0:0|0:0|0:0,0:0:0:0:
431,282,173706,2,0,L|428:220,3,56,2|0|2|0,0:0|0:0|0:0|0:0,0:0:0:0:
500,2,174438,6,0,P|483:65|477:130,1,125.999996154785,6|0,1:0|0:0,0:0:0:0:
329,215,174804,2,0,P|346:278|352:343,1,125.999996154785,2|0,0:0|1:0,0:0:0:0:
238,122,175170,2,0,P|311:117|377:96,1,125.999996154785,12|0,0:1|0:0,0:0:0:0:
140,275,175535,2,0,P|67:270|1:249,1,125.999996154785,2|0,1:0|0:0,0:0:0:0:
6,93,175901,5,4,1:0:0:0:
6,93,176084,1,0,0:0:0:0:
154,36,176267,2,0,L|141:175,1,125.999996154785,2|0,1:0|0:0,0:0:0:0:
259,353,176633,2,0,L|247:227,1,125.999996154785,14|0,0:1|0:0,0:0:0:0:
238,122,176999,1,2,1:0:0:0:
238,122,177182,1,2,0:0:0:0:
390,55,177365,6,0,B|371:121|371:121|415:232|415:232|396:303,1,251.999992309571,6|2,1:0|0:0,0:0:0:0:
372,371,177913,1,2,1:0:0:0:
127,367,178096,2,0,P|199:355|256:329,1,125.999996154785,12|0,0:1|0:0,0:0:0:0:
326,233,178462,2,0,P|254:221|197:195,1,125.999996154785,2|0,1:0|0:0,0:0:0:0:
10,122,178828,6,0,L|19:376,3,251.999992309571,4|2|14|2,1:0|1:0|0:1|1:0,0:0:0:0:
18,373,180109,1,0,0:0:0:0:
112,288,180291,6,0,P|144:227|160:166,1,125.999996154785,4|0,1:0|0:0,0:0:0:0:
166,73,180657,1,2,0:0:0:0:
319,236,180840,2,0,P|282:177|237:133,1,125.999996154785,2|12,1:0|0:1,0:0:0:0:
152,68,181206,1,0,0:0:0:0:
374,17,181389,2,0,P|305:19|244:36,1,125.999996154785,2|0,1:0|0:0,0:0:0:0:
497,6,181755,6,0,P|475:78|465:267,1,251.999992309571,6|2,1:0|1:0,0:0:0:0:
474,370,182304,2,0,L|343:363,2,125.999996154785,2|12|0,0:0|0:1|0:0,0:0:0:0:
222,382,182852,2,0,P|252:320|264:255,1,125.999996154785,2|0,1:0|0:0,0:0:0:0:
289,56,183218,6,0,B|241:83|241:83|30:62,1,251.999992309571,6|2,1:0|0:0,0:0:0:0:
45,63,183767,1,2,1:0:0:0:
9,319,183950,1,14,0:1:0:0:
9,319,184316,6,0,P|56:226|320:315,1,440.999986541748,6|0,1:0|0:0,0:0:0:0:
324,332,185048,2,0,L|449:335,1,119.000002269745,2|0,1:0|0:0,0:0:0:0:
510,206,185413,2,0,L|385:209,1,112,14|0,0:1|0:0,0:0:0:0:
344,95,185779,2,0,L|469:98,1,105.000004005432,2|2,1:0|0:0,0:0:0:0:
224,14,186145,6,0,P|235:87|206:206,1,195.999994018555,6|2,1:0|0:0,0:0:0:0:
163,269,186694,1,2,1:0:0:0:
67,73,186877,1,8,0:1:0:0:
67,73,187243,2,0,L|62:184,2,97.9999970092774,2|0|0,1:0|0:0|1:0,0:0:0:0:
140,377,187974,6,0,P|139:325|151:258,1,97.9999970092774,2|0,1:0|0:0,0:0:0:0:
356,287,188340,2,0,P|357:339|345:406,1,97.9999970092774,10|0,0:1|0:0,0:0:0:0:
244,383,188706,1,2,0:0:0:0:
254,263,188889,1,2,0:0:0:0:
268,91,189072,6,0,L|471:100,1,195.999994018555,2|0,1:0|0:0,0:0:0:0:
499,5,189621,1,2,1:0:0:0:
499,5,189804,1,8,0:1:0:0:
490,380,190170,6,0,P|467:259|386:91,1,293.999991027832,6|0,1:0|0:0,0:0:0:0:
290,78,190901,2,0,L|283:187,1,97.9999970092774,2|0,1:0|0:0,0:0:0:0:
175,254,191267,2,0,L|168:156,1,97.9999970092774,10|0,0:1|0:0,0:0:0:0:
38,53,191633,2,0,L|31:162,1,97.9999970092774,2|0,1:0|0:0,0:0:0:0:
18,327,191999,6,0,P|68:332|131:346,1,97.9999970092774,6|0,1:0|0:0,0:0:0:0:
219,359,192365,1,2,0:0:0:0:
336,330,192548,1,2,1:0:0:0:
512,352,192731,1,8,0:1:0:0:
512,352,193096,2,0,L|509:301,3,48.9999985046387,2|0|2|0,1:0|0:0|0:0|0:0,0:0:0:0:
503,170,193462,6,0,L|435:164,1,62.9999980773926,6|0,1:0|0:0,0:0:0:0:
8,68,194011,6,0,L|76:62,1,62.9999980773926,6|0,1:0|0:0,0:0:0:0:
223,377,194560,6,0,L|228:307,1,62.9999980773926,4|0,1:0|0:0,0:0:0:0:
239,167,194743,1,8,0:1:0:0:
194,137,194834,1,8,0:1:0:0:
145,124,194925,6,0,P|132:203|80:301,1,181.999991668702,6|0,1:0|0:0,0:0:0:0:
86,293,195474,1,2,1:0:0:0:
324,341,195657,1,8,0:1:0:0:
324,341,196023,6,0,L|320:137,2,181.999991668702,2|0|2,1:0|0:0|1:0,0:0:0:0:
413,384,196938,1,0,0:0:0:0:
492,238,197121,2,0,P|480:182|476:132,1,90.9999958343508,10|0,0:1|0:0,0:0:0:0:
341,128,197487,2,0,P|353:72|357:22,1,90.9999958343508,2|0,1:0|0:0,0:0:0:0:
162,11,197852,6,0,L|171:114,2,90.9999958343508,2|0|0,1:0|0:0|0:0,0:0:0:0:
74,167,198401,2,0,L|65:270,2,90.9999958343508,2|8|2,1:0|0:1|0:0,0:0:0:0:
70,345,198950,1,2,1:0:0:0:
181,306,199133,1,2,0:0:0:0:
356,353,199316,6,0,L|352:250,1,90.9999958343508,2|0,1:0|0:0,0:0:0:0:
352,175,199682,1,2,1:0:0:0:
248,35,199865,2,0,P|258:84|262:139,2,90.9999958343508,2|8|0,0:0|0:1|0:0,0:0:0:0:
433,112,200413,2,0,P|423:63|419:8,1,90.9999958343508,2|0,1:0|0:0,0:0:0:0:
135,0,200779,6,0,B|156:52|156:52|140:201,1,181.999991668702,2|2,1:0|0:0,0:0:0:0:
142,177,201328,1,2,1:0:0:0:
8,24,201511,1,8,0:1:0:0:
8,24,201877,6,0,L|20:311,1,272.999987503052,2|0,1:0|0:0,0:0:0:0:
25,375,202609,2,0,L|119:383,1,90.9999958343508,2|0,1:0|0:0,0:0:0:0:
177,296,202974,2,0,L|267:288,1,90.9999958343508,10|0,0:1|0:0,0:0:0:0:
354,353,203340,2,0,L|448:361,1,90.9999958343508,2|0,1:0|0:0,0:0:0:0:
479,266,203706,5,2,1:0:0:0:
458,180,203889,1,0,0:0:0:0:
486,101,204072,1,0,0:0:0:0:
340,178,204255,5,2,1:0:0:0:
403,116,204438,1,8,0:1:0:0:
486,101,204621,1,0,0:0:0:0:
347,14,204804,5,2,1:0:0:0:
212,90,204987,2,0,L|201:-2,2,90.9999958343508,2|0|0,0:0|1:0|0:0,0:0:0:0:
0,168,205535,5,2,1:0:0:0:
135,244,205718,2,0,P|137:195|146:152,2,90.9999958343508,2|8|2,0:0|0:1|0:0,0:0:0:0:
148,371,206267,1,2,1:0:0:0:
148,371,206450,1,0,0:0:0:0:
325,367,206633,6,0,L|511:359,2,181.999991668702,6|0|8,1:0|0:0|0:1,0:0:0:0:
236,372,207548,1,2,0:0:0:0:
246,275,207731,1,2,1:0:0:0:
207,171,207913,1,2,0:0:0:0:
218,13,208096,6,0,L|276:17,1,45.4999979171754,6|0,1:0|0:0,0:0:0:0:
507,228,208645,6,0,L|408:234,1,90.9999958343508,6|8,1:0|0:1,0:0:0:0:
2,352,209194,6,0,P|73:353|199:378,2,181.999991668702,6|0|0,1:0|0:0|1:0,0:0:0:0:
2,352,210109,1,0,0:0:0:0:
52,226,210291,2,0,P|68:169|86:39,1,181.999991668702,10|2,0:1|1:0,0:0:0:0:
85,47,210840,1,2,0:0:0:0:
206,6,211023,6,0,L|392:12,1,181.999991668702,2|2,1:0|1:0,0:0:0:0:
481,148,211572,2,0,L|376:151,2,90.9999958343508,2|8|2,0:0|0:1|0:0,0:0:0:0:
255,94,212121,2,0,P|272:162|260:250,1,136.499993751526,2|0,1:0|0:0,0:0:0:0:
267,253,212487,6,0,L|463:265,1,181.999991668702,2|0,1:0|0:0,0:0:0:0:
448,264,213035,1,0,1:0:0:0:
290,378,213218,1,8,0:1:0:0:
290,378,213584,6,0,B|257:358|233:338|233:338|7:333,1,272.999987503052,6|0,1:0|0:0,0:0:0:0:
29,333,214315,2,0,L|28:237,1,90.9999958343508,2|0,1:0|0:0,0:0:0:0:
129,197,214682,2,0,L|130:100,1,90.9999958343508,10|0,0:1|0:0,0:0:0:0:
30,4,215048,2,0,L|31:94,1,90.9999958343508,2|0,1:0|0:0,0:0:0:0:
147,185,215413,6,2,P|334:46|314:261,2,545.999975006105,6|2|10,1:0|0:0|0:1,0:1:0:0:
224,294,217791,2,0,L|219:392,2,90.9999958343508,2|0|2,0:0|0:0|0:0,0:0:0:0:
256,192,218340,5,2,0:0:0:0:
256,192,218432,12,2,219804,0:0:0:0:
401,327,232974,6,0,L|276:323,1,112,2|0,1:0|0:0,0:0:0:0:
289,323,233523,2,0,L|285:259,1,56,2|0,0:0|0:0,0:0:0:0:
282,182,233889,1,2,0:0:0:0:
282,182,234072,1,2,0:0:0:0:
282,182,234255,2,0,L|156:181,2,112,2|2|2,0:0|0:0|0:0,0:0:0:0:
372,185,235352,1,2,0:0:0:0:
372,185,235535,6,0,L|377:49,1,112,2|2,0:0|0:0,0:0:0:0:
299,25,236084,1,2,0:0:0:0:
299,25,236267,2,0,P|233:53|175:64,1,112,2|2,0:0|0:0,0:0:0:0:
112,41,236816,2,0,L|116:111,1,56,2|0,0:0|0:0,0:0:0:0:
10,163,237182,1,2,0:0:0:0:
10,163,237365,6,0,P|62:173|218:259,2,224,2|2|2,1:0|0:0|0:0,0:0:0:0:
5,255,239194,1,2,0:0:0:0:
5,255,239377,1,2,0:0:0:0:
173,376,240108,1,2,0:0:0:0:
173,376,240291,2,0,L|242:373,2,56,2|2|2,0:0|0:0|0:0,0:0:0:0:
84,382,240840,1,2,0:0:0:0:
84,382,241023,2,0,L|15:385,2,56,2|2|2,0:0|0:0|0:0,0:0:0:0:
256,192,241755,12,2,242486,0:0:0:0:
85,7,243217,6,0,P|108:63|119:208,1,195.999994018555,6|0,1:0|0:0,0:0:0:0:
62,336,243767,1,2,1:0:0:0:
313,278,243950,2,0,L|203:279,1,97.9999970092774,8|2,0:0|0:0,0:0:0:0:
128,282,244224,1,0,0:0:0:0:
128,282,244316,1,2,1:0:0:0:
280,155,244499,6,0,P|343:170|393:173,1,97.9999970092774,2|2,0:0|1:0,0:0:0:0:
459,40,244865,2,0,P|396:55|346:58,1,97.9999970092774,2|0,0:0|1:0,0:0:0:0:
479,241,245231,2,0,L|472:133,1,97.9999970092774,2|8,0:0|0:0,0:0:0:0:
268,35,245596,1,2,0:0:0:0:
252,30,245688,1,0,0:0:0:0:
225,46,245779,1,2,0:0:0:0:
209,41,245871,1,0,0:0:0:0:
182,57,245962,1,0,0:0:0:0:
166,52,246054,1,0,0:0:0:0:
89,31,246145,6,0,P|83:80|61:137,2,97.9999970092774,2|2|2,1:0|0:0|0:0,0:0:0:0:
20,213,246694,1,0,1:0:0:0:
20,213,246877,2,0,L|140:217,1,97.9999970092774,10|2,0:0|0:0,0:0:0:0:
231,219,247243,1,2,1:0:0:0:
70,348,247426,1,2,0:0:0:0:
112,330,247517,1,0,0:0:0:0:
142,301,247609,6,0,B|183:339|183:339|325:341,1,188.999994232178,2|0,1:3|0:0,0:0:0:0:
394,258,247974,2,0,B|353:220|353:220|211:218,1,178.500003404617,2|0,1:3|0:0,0:0:0:0:
239,87,248340,2,0,B|280:125|280:125|422:127,1,168,10|0,0:3|0:0,0:0:0:0:
486,56,248706,2,0,B|453:25|453:25|339:24,1,157.500006008148,2|0,1:3|0:0,0:0:0:0:
191,12,249072,6,0,P|208:67|191:217,1,195.999994018555,4|2,1:2|0:0,0:0:0:0:
147,276,249621,1,2,1:0:0:0:
91,115,249804,2,0,L|97:6,1,97.9999970092774,8|0,0:0|0:0,0:0:0:0:
13,16,250078,1,0,0:0:0:0:
13,16,250170,1,0,1:0:0:0:
19,164,250352,1,2,0:0:0:0:
25,312,250535,6,0,P|102:306|233:323,1,195.999994018555,2|2,1:0|1:0,0:0:0:0:
366,358,251084,2,0,L|363:251,1,97.9999970092774,2|8,0:0|0:0,0:0:0:0:
363,88,251450,1,2,0:0:0:0:
363,88,251541,1,0,0:0:0:0:
363,88,251633,2,0,P|414:99|468:101,1,97.9999970092774,2|0,0:0|0:0,0:0:0:0:
261,30,251999,6,0,L|263:149,2,97.9999970092774,6|2|0,1:2|0:0|0:0,0:0:0:0:
71,61,252548,2,0,P|123:69|173:90,1,97.9999970092774,2|8,0:0|0:0,0:0:0:0:
123,254,252913,2,0,P|71:246|21:225,1,97.9999970092774,2|0,0:0|1:0,0:0:0:0:
28,229,253279,1,2,0:0:0:0:
186,363,253462,5,2,1:3:0:0:
273,204,253645,1,0,0:0:0:0:
338,366,253828,5,2,1:3:0:0:
286,191,254011,1,0,0:0:0:0:
460,265,254194,5,10,0:3:0:0:
299,178,254377,1,0,0:0:0:0:
116,171,254560,5,2,1:3:0:0:
277,84,254743,1,0,0:0:0:0:
375,280,254926,6,0,P|386:205|433:82,1,195.999994018555,6|0,1:2|0:0,0:0:0:0:
481,6,255474,1,2,1:0:0:0:
486,170,255657,2,0,L|490:279,1,97.9999970092774,8|2,0:0|0:0,0:0:0:0:
495,359,255932,1,0,0:0:0:0:
495,359,256023,1,2,1:0:0:0:
314,348,256206,1,2,0:0:0:0:
133,337,256389,6,0,P|123:264|108:216,2,97.9999970092774,0|2|0,1:0|0:0|1:0,0:0:0:0:
23,171,256938,2,0,L|16:277,1,97.9999970092774,2|8,0:0|0:0,0:0:0:0:
14,48,257304,1,2,0:0:0:0:
28,58,257395,1,0,0:0:0:0:
59,51,257487,1,2,0:0:0:0:
73,61,257578,1,0,0:0:0:0:
104,54,257670,1,2,0:0:0:0:
118,64,257761,1,0,0:0:0:0:
184,104,257852,6,0,P|231:84|290:70,2,97.9999970092774,2|2|2,1:0|0:0|0:0,0:0:0:0:
113,158,258401,1,0,1:0:0:0:
372,23,258584,2,0,L|367:144,2,97.9999970092774,10|2|2,0:0|0:0|1:0,0:0:0:0:
503,36,259133,1,2,0:0:0:0:
488,68,259224,1,0,0:0:0:0:
486,101,259316,5,2,1:0:0:0:
473,259,259499,1,2,0:0:0:0:
369,149,259682,5,2,1:0:0:0:
380,291,259865,1,2,0:0:0:0:
270,202,260048,5,10,0:0:0:0:
260,329,260231,1,2,0:0:0:0:
152,256,260413,5,2,1:0:0:0:
152,256,260596,1,2,0:0:0:0:
44,135,260779,6,0,P|44:197|10:325,1,195.999994018555,6|2,1:2|0:0,0:0:0:0:
9,325,261328,1,2,0:0:0:0:
161,365,261511,2,0,L|274:360,1,97.9999970092774,8|0,0:0|0:0,0:0:0:0:
340,382,261785,1,0,0:0:0:0:
340,382,261877,1,0,1:0:0:0:
370,256,262060,1,2,0:0:0:0:
278,90,262243,6,0,P|335:104|386:107,1,97.9999970092774,2|0,1:0|0:0,0:0:0:0:
136,216,262609,2,0,P|79:230|28:233,1,97.9999970092774,2|0,1:0|0:0,0:0:0:0:
184,57,262974,1,10,0:0:0:0:
232,187,263157,1,0,0:0:0:0:
232,187,263249,1,0,0:0:0:0:
232,187,263340,2,0,L|229:301,1,97.9999970092774,2|0,1:0|0:0,0:0:0:0:
369,81,263706,5,6,1:2:0:0:
399,236,263889,1,2,0:0:0:0:
492,38,264072,2,0,P|482:92|481:146,1,97.9999970092774,2|0,0:0|1:0,0:0:0:0:
486,315,264438,5,10,0:0:0:0:
335,299,264621,1,2,0:0:0:0:
215,347,264804,1,2,1:0:0:0:
64,363,264987,1,2,0:0:0:0:
67,253,265169,6,0,L|-12:255,3,56,6|0|2|0,1:0|0:0|0:0|0:0,0:0:0:0:
76,350,265901,2,0,L|155:352,3,56,2|0|2|0,0:0|0:0|0:0|0:0,0:0:0:0:
150,261,266633,5,2,0:0:0:0:
161,246,267365,1,2,0:0:0:0:
174,232,269560,6,0,P|132:171|89:132,1,125.999996154785,2|2,0:0|0:0,0:0:0:0:
94,135,270474,1,2,0:0:0:0:
28,54,270657,1,2,0:0:0:0:
152,55,270840,2,0,L|243:58,2,83.9999974365235,2|2|2,0:0|0:0|0:0,0:0:0:0:
152,55,271938,1,0,0:0:0:0:
337,61,272304,1,0,0:0:0:0:
337,61,272487,6,0,L|339:109,2,41.9999987182618,2|0|2,0:0|0:0|0:0,0:0:0:0:
507,113,273218,2,0,L|505:161,2,41.9999987182618,2|0|2,0:0|0:0|0:0,0:0:0:0:
507,113,273767,1,2,0:0:0:0:
511,335,274133,5,2,0:0:0:0:
434,313,274316,1,0,0:0:0:0:
375,359,274499,1,2,0:0:0:0:
333,348,274682,1,0,0:0:0:0:
303,360,274865,1,2,0:0:0:0:
287,354,275048,1,2,0:0:0:0:
275,357,275231,1,2,0:0:0:0:
267,354,275413,6,0,L|125:361,1,125.999996154785,2|0,0:0|0:0,0:0:0:0:
39,354,276328,1,2,0:0:0:0:
0,284,276511,1,2,0:0:0:0:
0,181,276694,2,0,L|99:177,1,83.9999974365235,2|0,0:0|0:0,0:0:0:0:
181,197,277426,2,0,L|264:200,1,83.9999974365235,2|0,0:0|0:0,0:0:0:0:
264,200,278172,1,0,0:0:0:0:
378,258,278408,6,0,L|374:197,2,41.9999987182618,2|0|2,0:0|0:0|0:0,0:0:0:0:
297,383,279392,2,0,L|240:381,1,41.9999987182618,2|0,0:0|0:0,0:0:0:0:
152,373,280129,1,2,0:0:0:0:
59,343,280841,6,0,L|58:330,3,10.4999996795654,2|0|0|2,0:0|0:0|0:0|0:0,0:0:0:0:
56,212,281505,1,2,0:0:0:0:
56,212,281827,2,0,L|128:215,1,69.9999978637696,2|0,0:0|0:0,0:0:0:0:
227,222,282487,5,2,0:0:0:0:
338,121,282919,1,2,0:0:0:0:
188,137,283459,1,2,0:0:0:0:
318,212,284125,1,2,0:0:0:0:
257,75,285137,1,2,0:0:0:0:
257,75,285270,2,0,L|258:50,1,17.5,2|0,0:0|0:0,0:0:0:0:
229,57,285404,2,0,L|227:31,1,23.3333333333333,2|2,0:0|0:0,0:0:0:0:
