osu file format v14

[General]
AudioFilename: audio.mp3
AudioLeadIn: 0
PreviewTime: 101224
Countdown: 0
SampleSet: Soft
StackLeniency: 0.7
Mode: 2
LetterboxInBreaks: 0
WidescreenStoryboard: 0

[Editor]
Bookmarks: 171837
DistanceSpacing: 1
BeatDivisor: 8
GridSize: 8
TimelineZoom: 4.899996

[Metadata]
Title:Netaminity Theatre "666"
TitleUnicode:無間嫉妬劇場『666』
Artist:ShinRa-Bansho
ArtistUnicode:森羅万象
Creator:Spectator
Version:Eternal Jealousy Theatre
Source:東方地霊殿 ~ Subterranean Animism.
Tags:ajamez jemzuu Mugen Shitto Gekijou 渡る者の途絶えた橋 the bridge people no longer cross 水橋 パルスィ parsee mizuhashi 夜好ころろ kororo yakoh kaztora シロいの ネタミニティ c94 東方project chireiden touhou project japanese pop jpop j-pop video game female vocal あやぽんず*あよ ayaponzu* ayaponzu ayo zun team shanghai alice 上海アリス幻樂団
BeatmapID:2536126
BeatmapSetID:1218948

[Difficulty]
HPDrainRate:6
CircleSize:4.1
OverallDifficulty:9.3
ApproachRate:9.3
SliderMultiplier:2
SliderTickRate:2

[Events]
//Background and Video events
0,0,"BG.jpg",0,0
//Break Periods
//Storyboard Layer 0 (Background)
//Storyboard Layer 1 (Fail)
//Storyboard Layer 2 (Pass)
//Storyboard Layer 3 (Foreground)
//Storyboard Layer 4 (Overlay)
//Storyboard Sound Samples

[TimingPoints]
15659,405.405405405405,4,2,1,80,1,0
17280,-100,4,2,20,60,0,0
17483,-100,4,2,1,80,0,0
23767,-100,4,2,20,60,0,0
23969,-100,4,2,1,80,0,0
27213,-55.5555555555556,4,2,1,80,0,0
28023,-100,4,2,1,80,0,0
28631,-100,4,2,1,60,0,0
37652,-62.5,4,2,1,60,0,0
37956,-100,4,2,1,60,0,0
41199,-68.9655172413793,4,2,1,60,0,0
41604,-90.9090909090909,4,2,1,60,0,0
52145,-83.3333333333333,4,2,1,60,0,0
52550,-90.9090909090909,4,2,1,60,0,0
53158,-76.9230769230769,4,2,1,60,0,0
53564,-90.9090909090909,4,2,1,60,0,0
54577,404.040404040404,4,2,2,45,1,0
54577,-111.111111111111,4,2,2,45,0,0
56192,400,4,2,2,45,1,0
57792,415.22491349481,4,2,2,45,1,0
58622,422.535211267606,4,2,2,45,1,0
58622,-83.3333333333333,4,2,2,45,0,0
59467,-100,4,2,2,45,0,0
60312,329.67032967033,4,2,2,45,1,0
60642,419.58041958042,4,2,2,45,1,0
61062,400,4,2,2,50,1,0
62662,408.163265306122,4,2,2,50,1,0
65927,405.405405405405,4,2,1,50,1,0
65927,-100,4,2,1,55,0,0
67548,-100,4,2,1,60,0,0
67954,431.654676258993,4,2,1,63,1,0
68385,454.545454545455,4,2,1,65,1,0
68839,491.803278688525,4,2,1,65,1,0
69330,526.315789473684,4,2,1,65,1,0
69593,563.380281690141,4,2,1,65,1,0
69875,612.244897959184,4,2,1,70,1,0
72155,661.521499448732,4,2,1,35,1,0
74140,352.941176470588,4,2,1,85,1,1
81198,-76.9230769230769,4,2,1,85,0,1
82610,-100,4,2,1,85,0,1
85434,-83.3333333333333,4,2,1,85,0,1
93198,-74.0740740740741,4,2,1,85,0,1
93904,-83.3333333333333,4,2,1,75,0,0
97669,-83.3333333333333,4,2,1,35,0,0
98139,-83.3333333333333,4,2,1,65,0,0
100147,-83.3333333333333,4,2,1,22,0,0
100169,-83.3333333333333,4,2,1,65,0,0
100787,437.956204379562,4,2,1,80,1,0
100787,-33.3333333333333,4,2,1,80,0,0
101349,352.941176470588,4,2,1,80,1,0
102760,-100,4,2,20,60,0,0
102937,-100,4,2,1,80,0,0
103819,-68.9655172413793,4,2,30,80,0,0
103907,-68.9655172413793,4,2,1,80,0,0
104172,-100,4,2,1,80,0,0
106643,-83.3333333333333,4,2,1,80,0,0
106996,-100,4,2,1,80,0,0
112290,-30.03003003003,4,2,31,80,0,0
112378,-30.03003003003,4,2,1,80,0,0
112643,-100,4,2,1,55,0,0
122525,-66.6666666666667,4,2,1,60,0,0
123054,-62.5,4,2,1,65,0,0
123584,-33.3333333333333,4,2,1,65,0,0
125348,-66.6666666666667,4,2,1,65,0,0
127996,-66.6666666666667,4,2,1,75,0,0
129407,-66.6666666666667,4,2,1,70,0,0
129584,-100,4,2,1,70,0,0
130996,-100,4,2,20,60,0,0
131172,-100,4,2,1,70,0,0
132407,-83.3333333333333,4,2,1,70,0,0
133819,-83.3333333333333,4,2,1,75,0,0
134878,-83.3333333333333,4,2,1,55,0,0
135231,-100,4,2,1,50,0,0
136643,-33.3333333333333,4,2,1,65,0,0
137348,352.941176470588,4,2,1,70,1,0
141231,370.37037037037,4,2,1,70,1,0
141601,375,4,2,1,60,1,0
141976,461.538461538462,4,2,1,55,1,0
142437,382.165605095541,4,2,1,70,1,0
142790,451.807228915663,4,2,1,70,1,0
144174,352.941176470588,4,2,1,85,1,1
151232,-66.6666666666667,4,2,1,85,0,1
152644,-100,4,2,1,85,0,1
155468,-83.3333333333333,4,2,1,85,0,1
165174,-83.3333333333333,4,2,1,70,0,1
165350,-83.3333333333333,4,2,1,75,0,1
167468,-83.3333333333333,4,2,1,13,0,1
168179,365.853658536585,4,2,1,35,1,0
171837,-76.9230769230769,4,2,1,35,0,0
172569,-100,4,2,1,35,0,0
174032,-90.9090909090909,4,2,1,35,0,0
174764,-71.4285714285714,4,2,1,35,0,0
175496,-90.9090909090909,4,2,1,35,0,0
178422,-100,4,2,1,35,0,0
178788,-100,4,2,1,43,0,0
179154,-100,4,2,1,47,0,0
179520,-100,4,2,1,50,0,0
179886,428.571428571429,3,2,1,60,1,0
180314,379.746835443038,3,2,1,60,1,0
181073,363.636363636364,3,2,1,60,1,0
181800,346.820809248555,3,2,1,60,1,0
182146,346.820809248555,3,2,1,60,1,0
182839,333.333333333333,3,2,1,60,1,0
183172,324.324324324324,3,2,1,60,1,0
183516,-100,3,2,1,15,0,0
183820,-83.3333333333333,3,2,1,60,0,0
184144,320.855614973262,3,2,1,70,1,0
185106,310.880829015544,3,2,1,70,1,0
186038,304.568527918782,3,2,1,65,1,0
186951,309.278350515464,3,2,1,70,1,0
187260,-100,3,2,1,45,0,0
187279,-100,3,2,1,15,0,0
187569,-100,3,2,1,50,0,0
187588,-100,3,2,1,15,0,0
187878,312.5,3,2,1,70,1,0
188815,319.829424307036,3,2,1,65,1,0
189774,327.868852459016,3,2,1,60,1,0
190757,352.941176470588,3,2,1,60,1,0
191132,-100,3,2,1,15,0,0
191462,-100,3,2,1,60,0,0
191484,-100,3,2,1,15,0,0
191815,375,3,2,1,60,1,0
192940,428.571428571429,3,2,1,60,1,0
193368,500,3,2,1,60,1,0
193868,734.843845682792,3,2,1,60,1,0
194602,352.941176470588,4,2,1,70,1,0
197072,-76.9230769230769,4,2,1,70,0,0
197249,-76.9230769230769,4,2,1,75,0,0
205190,-81.9672131147541,4,2,1,55,0,0
205543,-81.9672131147541,4,2,1,58,0,0
205896,-74.0740740740741,4,2,1,65,0,0
208366,-74.0740740740741,4,2,1,50,0,0
208719,372.670807453416,4,2,1,70,1,0
209464,387.096774193548,4,2,1,70,1,0
209851,422.535211267606,4,2,1,70,1,0
210484,560.747663551402,4,2,1,70,1,0
210764,600,4,2,1,70,1,0
211064,674.157303370787,4,2,1,70,1,0
211401,722.89156626506,4,2,1,70,1,0
211762,750,4,2,1,70,1,0
212137,869.565217391304,4,2,1,70,1,0
213006,975.609756097561,4,2,1,70,1,0
214957,1271.18644067797,4,2,1,40,1,0
216228,-100,4,2,1,50,0,0
217499,352.941176470588,4,2,1,85,1,1
224557,-66.6666666666667,4,2,1,85,0,1
226322,-100,4,2,1,85,0,1
228087,-83.3333333333333,4,2,1,85,0,1
238675,-90.9090909090909,4,2,1,70,0,1
239381,-83.3333333333333,4,2,1,80,0,1
239734,-83.3333333333333,4,2,1,90,0,1
239999,-83.3333333333333,4,2,1,90,0,0
240087,-83.3333333333333,4,1,1,70,0,1
241499,-90.9090909090909,4,1,1,70,0,1
242204,-55.5555555555556,4,1,1,70,0,1
242910,-83.3333333333333,4,1,1,70,0,1
244322,-40.8163265306122,4,1,1,70,0,1
245028,-58.8235294117647,4,1,1,70,0,1
245734,-76.9230769230769,4,1,1,70,0,1
246793,-62.5,4,1,1,70,0,1
247146,-33.3333333333333,4,1,1,70,0,1
248557,-76.9230769230769,4,1,1,70,0,1
248910,-38.4615384615385,4,1,1,70,0,1
249263,-35.7142857142857,4,1,1,70,0,1
249969,-76.9230769230769,4,1,1,70,0,1
250322,-76.9230769230769,4,2,1,65,0,1
254204,-66.6666666666667,4,2,1,65,0,1
255087,-72.992700729927,4,2,1,65,0,1
257028,-83.3333333333333,4,2,1,65,0,1
258440,-33.3333333333333,4,2,1,70,0,1
259146,-60.2409638554217,4,2,1,70,0,1
259851,-76.9230769230769,4,2,1,65,0,1
262675,-76.9230769230769,4,2,1,60,0,1
263204,-83.3333333333333,4,2,1,60,0,1
263910,-76.9230769230769,4,2,1,60,0,1
266910,-15.0111111111111,4,2,1,60,0,1
268362,705.882352941176,4,2,1,70,1,0
269067,800,4,2,1,60,1,0
269267,869.565217391304,4,2,1,55,1,0
269484,521.739130434783,4,2,1,50,1,0
269747,571.428571428571,4,2,1,45,1,0
270032,779.220779220779,4,2,1,40,1,0
270811,857.142857142857,4,2,1,35,1,0
271239,1034.48275862069,4,2,1,30,1,0
271756,-15.0111111111111,4,2,1,25,0,0
272790,-15.0111111111111,4,2,1,20,0,0
275376,-15.0111111111111,4,2,1,17,0,0
276411,-15.0111111111111,4,2,1,15,0,0
277187,-15.0111111111111,4,2,1,13,0,0

[Colours]
Combo1 : 128,141,151
Combo2 : 182,48,57
Combo3 : 186,97,58

[HitObjects]
145,315,15659,6,0,L|265:309,1,100,0|2,1:0|0:0,0:0:0:0:
455,165,16064,2,0,L|335:159,1,100,8|2,1:0|0:0,0:0:0:0:
189,84,16469,1,0,1:0:0:0:
376,219,16672,2,0,L|385:276,1,50,2|0,0:0|0:0,0:0:0:0:
291,323,16875,1,8,1:0:0:0:
33,259,17077,6,0,L|241:245,1,200,2|2,0:0|0:0,0:0:0:0:
46,246,17686,2,0,L|32:360,1,100,8|2,1:0|0:0,0:0:0:0:
207,245,18091,1,0,1:0:0:0:
400,200,18294,2,0,L|386:110,1,50,4|0,3:0|3:0,3:0:0:0:
296,104,18496,1,8,1:0:0:0:
478,67,18699,1,0,0:0:0:0:
186,120,18902,6,0,L|64:111,1,100,4|2,1:2|0:0,0:0:0:0:
298,319,19307,2,0,L|420:310,1,100,8|2,1:1|0:0,0:0:0:0:
229,256,19713,1,0,1:0:0:0:
68,232,19915,2,0,L|81:150,1,50,2|0,0:0|0:0,0:0:0:0:
173,142,20118,1,8,1:0:0:0:
437,146,20321,2,0,L|424:64,1,50,2|0,0:0|0:0,0:0:0:0:
332,56,20524,5,4,3:0:0:0:
147,55,20726,1,0,1:0:0:0:
432,118,20929,1,8,1:3:0:0:
284,239,21131,2,0,L|293:164,1,50,8|0,3:0|3:0,0:0:0:0:
387,153,21334,1,0,1:0:0:0:
190,177,21537,2,0,L|199:102,1,50,0|0,3:0|3:0,0:0:0:0:
465,214,21740,1,8,1:0:0:0:
296,214,21942,1,0,0:0:0:0:
33,348,22145,6,0,L|40:234,1,100,4|2,0:0|0:0,0:0:0:0:
260,205,22550,2,0,L|253:91,1,100,8|2,1:0|0:0,0:0:0:0:
96,112,22956,1,0,1:0:0:0:
325,167,23158,1,2,0:0:0:0:
389,169,23260,1,0,0:0:0:0:
314,151,23361,1,8,1:0:0:0:
36,235,23564,6,0,L|270:211,1,200,2|2,0:0|2:0,0:0:0:0:
40,80,24172,2,0,L|185:96,1,100,8|2,1:0|0:0,0:0:0:0:
328,39,24577,1,0,1:0:0:0:
145,210,24780,2,0,L|227:193,1,50,2|0,0:0|0:0,0:0:0:0:
288,232,24983,1,8,1:0:0:0:
95,296,25186,1,0,2:0:0:0:
405,303,25388,6,0,L|422:164,1,100,4|2,1:2|0:0,0:0:0:0:
340,164,25692,1,0,0:0:0:0:
134,157,25794,2,0,L|26:171,1,100,8|4,1:1|3:0,0:0:0:0:
345,254,26199,1,0,1:0:0:0:
41,289,26402,2,0,L|117:298,1,50,4|4,3:0|3:0,3:0:0:0:
369,226,26604,1,8,1:2:0:0:
48,160,26807,5,2,1:2:0:0:
312,152,27213,2,0,L|91:134,2,179.999994506836,2|8|4,1:2|1:1|3:0,0:0:0:0:
152,240,27821,1,4,1:3:0:0:
339,189,28023,2,0,L|347:262,1,50,0|0,1:0|3:0,0:0:0:0:
67,242,28226,1,8,1:0:0:0:
214,282,28429,1,4,1:3:0:0:
480,75,28631,6,0,L|357:66,2,100,4|0|8,1:2|0:0|0:0,0:0:0:0:
280,138,29240,2,0,P|214:210|287:250,1,200,0|0,1:0|1:0,2:0:0:0:
466,290,29848,2,0,L|346:312,1,100,8|0,1:0|0:0,0:0:0:0:
105,142,30253,6,0,L|95:274,1,100,0|0,1:0|0:0,0:0:0:0:
262,223,30658,1,8,0:0:0:0:
74,331,30861,2,0,L|287:307,1,200,0|0,1:0|1:0,1:0:0:0:
181,290,31368,1,4,3:0:0:0:
89,299,31469,2,0,L|72:169,1,100,8|4,1:0|3:0,0:0:0:0:
425,248,31875,6,0,P|489:219|414:148,1,200,4|8,1:2|0:0,0:0:0:0:
270,114,32483,2,0,L|255:259,1,100,0|0,1:0|0:0,0:0:0:0:
434,169,32888,1,0,3:0:0:0:
346,218,32990,1,4,3:0:0:0:
258,280,33091,2,0,L|131:258,1,100,8|4,1:0|1:3,0:0:0:0:
464,327,33496,5,2,1:2:0:0:
262,342,33699,2,0,L|254:248,1,50,4|0,3:0|3:0,0:0:0:0:
328,270,33902,1,8,1:2:0:0:
125,320,34104,2,0,L|114:189,1,100,2|0,1:2|0:0,0:0:0:0:
285,204,34510,1,0,3:0:0:0:
213,205,34577,1,0,3:0:0:0:
138,208,34645,1,0,3:0:0:0:
66,212,34713,1,8,0:0:0:0:
49,117,34915,1,4,3:0:0:0:
384,95,35118,6,0,P|457:134|475:210,1,150,4|0,1:2|0:0,0:0:0:0:
381,196,35523,1,8,1:0:0:0:
207,206,35726,2,0,L|223:323,1,100,0|0,1:3|0:0,0:0:0:0:
413,256,36131,1,0,3:0:0:0:
239,131,36334,2,0,L|373:122,1,100,8|0,1:0|0:0,0:0:0:0:
72,271,36740,5,0,1:0:0:0:
253,320,36942,1,2,0:0:0:0:
262,243,37044,1,0,0:0:0:0:
272,165,37145,1,8,1:0:0:0:
452,208,37348,2,0,L|352:200,1,100,0|0,1:0|0:0,0:0:0:0:
195,119,37753,2,0,L|308:119,1,80,0|0,3:0|3:0,0:0:0:0:
363,105,37956,2,0,L|376:-41,1,100,8|4,1:0|1:3,0:0:0:0:
98,318,38361,6,0,P|54:268|122:218,1,150,4|0,1:2|0:0,0:0:0:0:
324,218,38767,1,8,1:0:0:0:
160,131,38969,2,0,L|144:232,1,100,4|0,1:3|0:0,0:0:0:0:
353,250,39375,1,0,1:0:0:0:
142,245,39577,1,8,1:0:0:0:
475,239,39780,5,6,1:2:0:0:
172,88,40996,2,0,L|158:180,1,50,2|0,1:2|0:0,0:0:0:0:
359,244,41199,2,0,L|123:233,1,217.500006637573,4|0,1:2|0:0,0:0:0:0:
410,345,41604,5,4,1:2:0:0:
243,293,41807,1,2,0:0:0:0:
396,250,42010,1,8,1:0:0:0:
230,192,42213,1,0,1:0:0:0:
388,167,42415,2,0,L|396:97,1,55.0000016784668,2|0,0:0|0:0,0:0:0:0:
316,87,42618,1,4,1:3:0:0:
129,128,42821,1,8,1:2:0:0:
449,281,43023,6,0,L|326:268,1,110.000003356934,2|4,0:0|1:3,0:0:0:0:
68,308,43429,2,0,L|62:233,1,55.0000016784668,2|0,0:0|0:0,0:0:0:0:
181,347,43631,2,0,L|304:334,1,110.000003356934,8|4,1:0|1:3,0:0:0:0:
92,262,44037,1,0,1:0:0:0:
273,208,44240,2,0,L|264:115,1,55.0000016784668,2|0,0:0|0:0,0:0:0:0:
142,159,44442,2,0,L|-12:138,1,110.000003356934,8|4,1:0|1:3,0:0:0:0:
396,287,44848,6,0,P|312:255|314:165,1,165.000005035401,4|0,1:2|0:0,0:0:0:0:
390,158,45253,1,8,1:0:0:0:
193,214,45456,2,0,L|331:195,1,110.000003356934,2|0,2:2|0:0,0:0:0:0:
96,115,45861,2,0,L|234:96,1,110.000003356934,2|8,1:2|1:0,0:0:0:0:
487,144,46267,5,2,2:0:0:0:
330,141,46469,1,0,1:0:0:0:
34,143,46672,1,2,2:0:0:0:
191,140,46874,1,8,1:0:0:0:
484,370,47077,1,2,2:0:0:0:
221,265,47280,6,0,L|133:252,1,55.0000016784668,2|0,0:0|0:0,0:0:0:0:
362,328,47483,2,0,L|416:335,1,55.0000016784668,4|0,3:3|0:0,0:0:0:0:
215,177,47686,2,0,L|127:164,1,55.0000016784668,8|0,1:0|0:0,0:0:0:0:
215,177,47888,1,2,0:0:0:0:
387,115,47990,1,4,1:3:0:0:
126,289,48091,6,0,P|81:214|139:198,1,165.000005035401,4|0,1:2|0:0,0:0:0:0:
354,271,48496,1,8,1:0:0:0:
201,268,48699,1,4,2:3:0:0:
475,249,48902,2,0,L|488:94,1,110.000003356934,0|0,1:0|0:0,0:0:0:0:
296,100,49307,2,0,L|207:90,1,55.0000016784668,8|0,1:0|0:0,0:0:0:0:
348,183,49510,2,0,L|435:199,1,55.0000016784668,2|4,0:0|3:0,0:0:0:0:
146,270,49713,6,0,L|303:297,1,110.000003356934,4|2,1:2|0:0,0:0:0:0:
56,354,50118,1,8,1:0:0:0:
366,346,50321,2,0,L|209:344,1,110.000003356934,6|0,1:3|0:0,0:0:0:0:
94,340,50726,2,0,L|173:341,1,55.0000016784668,4|0,3:0|3:0,3:0:0:0:
357,139,50929,2,0,L|208:119,1,110.000003356934,8|4,1:2|3:0,0:0:0:0:
167,144,51233,1,4,3:0:0:0:
372,349,51334,6,0,P|429:306|362:269,1,165.000005035401,4|0,1:2|0:0,0:0:0:0:
154,179,51740,2,0,L|289:161,1,110.000003356934,8|2,1:0|0:0,0:0:0:0:
353,183,52044,1,8,1:3:0:0:
120,259,52145,6,0,L|356:296,1,179.999994506836,4|0,1:2|0:0,0:0:0:0:
483,342,52551,2,0,L|348:324,1,110.000003356934,8|0,1:0|1:3,0:0:0:0:
284,357,52854,1,4,1:3:0:0:
85,272,52956,6,0,L|85:182,1,55.0000016784668,4|0,0:0|0:0,0:0:0:0:
247,153,53158,2,0,L|162:153,1,64.9999970245363,2|0,3:0|0:0,0:0:0:0:
347,242,53361,2,0,L|432:242,1,64.9999970245363,2|4,1:3|3:3,0:0:0:0:
197,240,53564,2,0,L|71:236,1,110.000003356934,2|0,1:2|0:0,0:0:0:0:
279,149,53969,1,2,1:2:0:0:
72,212,54172,1,8,1:0:0:0:
386,227,54375,1,4,3:0:0:0:
463,228,54476,1,4,3:0:0:0:
224,348,54577,6,0,P|36:261|257:5,1,629.999980773926,4|0,0:0|0:0,0:0:0:0:
76,71,56192,6,0,L|65:185,1,100,2|0,0:0|0:0,0:0:0:0:
268,150,56592,1,2,0:0:0:0:
117,270,56792,2,0,L|264:270,1,100,2|0,0:0|0:0,0:0:0:0:
421,241,57192,1,2,0:0:0:0:
270,361,57392,2,0,L|417:361,1,100,2|0,0:0|0:0,0:0:0:0:
190,358,57792,6,0,P|220:250|390:177,1,300,2|0,0:0|0:0,0:0:0:0:
80,156,58622,2,0,L|458:156,1,359.999989013672,2|0,0:0|0:0,0:0:0:0:
63,325,59467,6,0,P|162:286|49:83,1,400,2|0,0:0|0:0,0:0:0:0:
358,78,60642,1,2,0:0:0:0:
45,159,61062,6,0,P|64:246|250:352,1,300,2|0,0:0|0:0,0:0:0:0:
55,350,61862,2,0,L|288:353,1,200,2|0,0:0|0:0,0:0:0:0:
472,160,62662,6,0,P|453:247|269:353,1,300,2|0,0:0|0:0,0:0:0:0:
462,351,63478,2,0,L|229:354,1,200,2|0,0:0|0:0,0:0:0:0:
72,342,64294,6,0,L|58:201,1,100,0|0,1:0|0:0,0:0:0:0:
336,239,64702,1,0,1:0:0:0:
168,197,64906,1,0,0:0:0:0:
336,239,65110,1,0,1:0:0:0:
168,197,65315,1,0,0:0:0:0:
336,239,65519,1,0,1:0:0:0:
168,197,65724,1,0,0:0:0:0:
440,342,65927,6,0,L|454:201,1,100,0|0,1:0|0:0,0:0:0:0:
141,265,66332,1,0,1:0:0:0:
350,213,66536,1,0,0:0:0:0:
141,265,66737,1,0,1:0:0:0:
350,213,66940,1,0,0:0:0:0:
141,265,67143,1,0,1:0:0:0:
350,213,67345,1,0,0:0:0:0:
30,233,67548,5,2,1:2:0:0:
202,203,67751,1,4,1:3:0:0:
482,233,67954,1,2,1:2:0:0:
310,203,68169,1,4,1:3:0:0:
477,309,68385,5,2,1:2:0:0:
258,260,68612,1,4,1:3:0:0:
41,308,68839,1,2,1:2:0:0:
358,33,69084,5,4,1:3:0:0:
133,102,69330,1,4,1:0:0:0:
359,226,69593,1,0,1:0:0:0:
96,346,69874,5,4,1:3:0:0:
387,330,70181,1,0,1:0:0:0:
488,320,70334,1,4,1:3:0:0:
165,161,70487,5,4,1:2:0:0:
256,192,72155,12,0,73808,0:0:0:0:
73,188,74140,6,0,L|208:183,1,100,4|2,1:2|0:0,0:0:0:0:
255,225,74404,1,0,0:0:0:0:
415,311,74492,2,0,L|416:177,1,100,8|2,1:0|0:0,0:0:0:0:
335,178,74757,1,0,0:0:0:0:
104,203,74845,2,0,L|103:69,1,100,4|2,1:3|0:0,0:0:0:0:
184,70,75110,1,0,0:0:0:0:
450,128,75198,1,8,1:0:0:0:
292,128,75375,1,2,0:0:0:0:
43,307,75551,5,4,1:3:0:0:
213,272,75728,2,0,L|204:193,1,50,2|0,0:0|0:0,0:0:0:0:
126,197,75904,1,8,1:0:0:0:
317,181,76081,2,0,L|269:112,1,50,2|0,2:0|2:0,3:0:0:0:
199,129,76257,1,4,1:3:0:0:
418,84,76434,2,4,L|337:83,1,50,2|0,2:0|2:0,2:0:0:0:
274,81,76610,1,8,1:2:0:0:
91,73,76787,1,4,1:3:0:0:
364,178,76963,6,0,L|503:168,1,100,4|2,1:2|0:0,0:0:0:0:
388,175,77228,1,0,0:0:0:0:
197,324,77316,2,0,L|336:314,1,100,8|2,1:2|0:0,0:0:0:0:
222,282,77581,1,0,0:0:0:0:
73,282,77669,2,0,L|69:182,1,100,4|2,1:3|0:0,0:0:0:0:
146,152,77934,1,0,0:0:0:0:
346,182,78022,2,0,L|351:82,1,100,8|2,1:2|0:0,0:0:0:0:
273,52,78287,1,0,0:0:0:0:
463,177,78375,5,4,1:3:0:0:
313,131,78551,2,0,L|302:194,1,50,2|0,0:0|0:0,0:0:0:0:
379,241,78728,1,8,1:0:0:0:
136,301,78904,2,0,L|219:287,1,50,2|0,0:0|0:0,0:0:0:0:
281,339,79081,1,4,1:3:0:0:
44,217,79257,2,0,L|32:142,1,50,2|0,0:0|0:0,0:0:0:0:
249,114,79434,1,8,1:0:0:0:
96,112,79610,1,4,1:3:0:0:
431,315,79787,6,0,L|312:298,1,100,4|2,1:2|0:0,0:0:0:0:
404,268,80051,1,0,0:0:0:0:
200,169,80140,2,0,L|311:175,1,100,8|2,1:0|0:0,0:0:0:0:
122,219,80492,2,0,L|116:333,1,100,4|2,1:3|0:0,0:0:0:0:
390,296,80845,1,8,1:0:0:0:
93,294,81022,1,2,0:0:0:0:
328,160,81198,6,0,L|496:144,1,129.999994049073,6|0,1:2|0:0,0:0:0:0:
178,231,81551,2,0,L|10:215,1,129.999994049073,8|0,1:0|0:0,0:0:0:0:
334,313,81904,1,4,1:3:0:0:
187,201,82081,2,0,L|282:190,1,64.9999970245363,2|0,0:0|0:0,0:0:0:0:
466,198,82257,1,8,1:0:0:0:
306,187,82434,1,4,1:3:0:0:
64,56,82610,6,0,L|48:184,1,100,4|2,1:2|0:0,0:0:0:0:
128,194,82875,1,0,0:0:0:0:
292,277,82963,2,0,L|166:292,1,100,8|2,1:0|0:0,0:0:0:0:
370,344,83316,1,4,1:3:0:0:
183,181,83492,2,0,L|175:251,1,50,2|0,0:0|0:0,0:0:0:0:
282,266,83669,2,0,L|422:244,1,100,8|2,1:0|0:0,0:0:0:0:
82,310,84022,5,4,1:3:0:0:
247,308,84198,2,0,L|241:234,1,50,8|0,3:0|3:0,0:0:0:0:
68,199,84375,1,8,1:2:0:0:
219,259,84551,2,0,L|285:256,1,50,8|0,3:0|2:0,2:0:0:0:
466,215,84728,1,4,1:3:0:0:
318,205,84904,1,4,1:3:0:0:
46,215,85081,1,8,1:0:0:0:
194,205,85257,1,4,3:3:0:0:
472,328,85434,6,0,L|462:188,1,119.999996337891,4|2,1:2|0:0,0:0:0:0:
366,211,85698,1,0,0:0:0:0:
169,123,85787,2,0,L|305:122,1,119.999996337891,8|4,1:0|3:0,0:0:0:0:
206,121,86051,1,0,0:0:0:0:
40,328,86140,6,0,L|50:188,1,119.999996337891,4|2,1:2|0:0,0:0:0:0:
146,211,86404,1,0,0:0:0:0:
343,123,86492,2,0,L|207:122,1,119.999996337891,8|4,1:0|3:0,0:0:0:0:
306,121,86757,1,0,0:0:0:0:
464,232,86845,6,0,L|336:232,1,119.999996337891,4|2,1:2|0:0,0:0:0:0:
256,232,87110,1,0,0:0:0:0:
48,232,87198,2,0,L|176:232,1,119.999996337891,8|4,1:2|3:0,0:0:0:0:
256,232,87463,1,0,0:0:0:0:
44,131,87551,1,2,2:0:0:0:
215,131,87728,1,4,3:0:0:0:
468,131,87904,1,8,1:0:0:0:
290,134,88081,1,4,1:3:0:0:
40,280,88257,6,0,L|32:160,1,119.999996337891,4|2,1:2|0:0,0:0:0:0:
124,158,88522,1,0,0:0:0:0:
318,261,88610,2,0,L|161:251,1,119.999996337891,8|4,1:0|3:0,0:0:0:0:
286,257,88875,1,0,0:0:0:0:
36,80,88963,6,0,L|193:70,1,119.999996337891,4|2,1:2|0:0,0:0:0:0:
68,76,89228,1,0,0:0:0:0:
280,241,89316,2,0,L|288:110,1,119.999996337891,8|4,1:0|3:0,0:0:0:0:
190,94,89581,1,0,0:0:0:0:
448,160,89669,5,4,1:2:0:0:
298,161,89845,1,2,0:0:0:0:
448,160,90022,1,8,1:0:0:0:
298,161,90198,1,4,3:0:0:0:
29,109,90375,1,0,1:0:0:0:
190,94,90551,1,2,0:0:0:0:
458,213,90728,1,8,1:0:0:0:
471,360,90904,1,4,1:3:0:0:
209,170,91081,6,0,L|368:144,1,119.999996337891,4|2,1:2|0:0,0:0:0:0:
250,159,91345,1,0,0:0:0:0:
49,91,91434,2,0,L|44:232,1,119.999996337891,8|2,1:0|0:0,0:0:0:0:
133,218,91698,1,0,0:0:0:0:
344,251,91787,1,4,1:3:0:0:
483,220,91963,1,2,2:2:0:0:
160,160,92139,1,8,1:2:0:0:
342,122,92315,1,2,2:2:0:0:
55,296,92492,6,0,L|196:290,1,119.999996337891,4|0,1:1|0:0,0:0:0:0:
268,330,92757,1,0,0:0:0:0:
452,237,92845,2,0,L|290:243,1,119.999996337891,8|0,1:0|3:0,0:0:0:0:
174,110,93198,6,0,L|242:108,1,67.5000002574921,4|0,0:1|0:0,0:0:0:0:
421,273,93375,2,0,L|310:280,1,67.5000002574921,4|0,3:0|0:0,0:0:0:0:
135,340,93551,2,0,L|147:242,1,67.5000002574921,8|0,1:0|0:0,0:0:0:0:
373,161,93728,2,0,L|387:74,1,67.5000002574921,2|0,2:0|0:0,0:0:0:0:
56,31,93904,6,0,L|46:121,1,59.9999981689454,4|0,0:0|0:0,0:0:0:0:
108,176,94081,2,0,L|98:266,1,59.9999981689454,2|0,0:0|0:0,0:0:0:0:
159,35,94257,6,0,L|149:125,1,59.9999981689454,2|0,0:0|0:0,0:0:0:0:
211,180,94434,2,0,L|201:270,1,59.9999981689454,2|0,0:0|0:0,0:0:0:0:
263,37,94610,6,0,L|253:127,1,59.9999981689454,2|0,0:0|0:0,0:0:0:0:
315,182,94787,2,0,L|305:272,1,59.9999981689454,2|0,0:0|0:0,0:0:0:0:
367,41,94963,6,0,L|357:131,1,59.9999981689454,2|0,0:0|0:0,0:0:0:0:
419,186,95140,2,0,L|409:276,1,59.9999981689454,2|0,0:0|0:0,0:0:0:0:
489,295,95316,6,0,L|357:313,1,119.999996337891,2|0,0:0|0:0,0:0:0:0:
207,233,95669,2,0,L|64:255,1,119.999996337891,2|0,0:0|0:0,0:0:0:0:
256,319,96022,5,0,1:0:0:0:
75,199,96198,1,4,3:0:0:0:
151,184,96287,1,4,3:0:0:0:
347,246,96375,2,0,L|357:109,1,119.999996337891,8|0,1:0|1:0,1:0:0:0:
289,84,96639,1,4,1:3:0:0:
74,123,96728,5,4,1:2:0:0:
379,124,96963,1,4,1:2:0:0:
74,123,97198,1,4,1:2:0:0:
322,263,97698,1,8,3:0:0:0:
216,261,97787,1,0,1:0:0:0:
424,183,98139,5,4,1:2:0:0:
254,186,98404,1,4,1:2:0:0:
89,183,98669,1,4,1:2:0:0:
103,174,100147,5,0,0:0:0:0:
45,173,100169,1,2,0:0:0:0:
60,54,100787,6,0,L|59:272,1,150.000005722046,4|0,1:3|1:0,1:0:0:0:
185,167,101005,2,0,L|494:76,1,300.000011444092,4|0,1:2|0:0,0:0:0:0:
194,273,101349,6,0,L|73:263,1,100,0|2,1:0|0:0,0:0:0:0:
276,186,101701,2,0,L|397:176,1,100,8|2,1:0|0:0,0:0:0:0:
72,226,102054,1,4,1:3:0:0:
221,300,102231,2,0,L|153:293,1,50,2|0,0:0|0:0,0:0:0:0:
67,328,102407,1,8,1:0:0:0:
344,280,102584,6,0,P|414:226|323:217,1,200,2|2,0:0|0:0,0:0:0:0:
168,170,103113,2,0,L|288:159,1,100,8|2,1:0|0:0,0:0:0:0:
415,268,103466,1,4,1:3:0:0:
255,207,103643,2,0,L|249:120,1,50,2|0,0:0|0:0,0:0:0:0:
446,121,103819,2,0,L|180:122,1,217.500006637573,10|0,1:0|0:0,0:0:0:0:
469,225,104172,6,0,L|330:239,1,100,0|2,1:0|0:0,0:0:0:0:
188,304,104525,2,0,L|327:318,1,100,8|2,1:0|0:0,0:0:0:0:
47,205,104878,1,0,1:0:0:0:
199,146,105054,2,0,L|207:231,1,50,2|0,0:0|0:0,0:0:0:0:
121,226,105231,1,8,1:0:0:0:
408,328,105407,6,0,L|416:192,1,100,2|0,0:0|1:0,0:0:0:0:
233,221,105760,1,2,1:2:0:0:
414,228,105937,1,8,1:0:0:0:
112,200,106113,2,0,L|192:184,1,50,2|0,0:0|0:0,0:0:0:0:
383,322,106290,2,0,L|398:182,1,100,2|4,1:3|3:0,0:0:0:0:
317,193,106554,1,0,3:0:0:0:
63,142,106643,2,0,L|198:107,1,119.999996337891,8|4,1:0|1:3,0:0:0:0:
262,146,106907,1,4,1:3:0:0:
461,303,106996,6,0,L|322:283,1,100,4|2,0:0|0:0,0:0:0:0:
183,242,107349,2,0,L|307:226,1,100,8|2,1:0|0:0,0:0:0:0:
123,161,107701,1,0,1:0:0:0:
324,152,107878,2,0,L|318:80,1,50,2|0,0:2|0:0,0:0:0:0:
227,80,108054,1,8,1:0:0:0:
465,260,108231,6,0,L|340:251,1,100,2|0,0:0|1:0,0:0:0:0:
195,312,108584,1,2,0:0:0:0:
370,260,108760,2,0,L|386:371,1,100,8|2,1:0|0:0,0:0:0:0:
200,288,109113,1,0,1:0:0:0:
42,141,109290,2,0,L|35:222,1,50,2|0,0:0|0:0,0:0:0:0:
124,210,109466,1,8,1:0:0:0:
292,159,109643,1,4,1:3:0:0:
48,66,109819,6,0,L|169:54,1,100,4|2,1:2|0:0,0:0:0:0:
322,155,110172,2,0,L|197:168,1,100,8|2,1:0|0:0,0:0:0:0:
412,261,110525,1,0,1:0:0:0:
148,226,110701,1,4,3:0:0:0:
93,236,110790,1,0,0:0:0:0:
148,226,110878,1,8,1:2:0:0:
486,183,111054,6,0,L|351:195,1,100,4|0,1:2|0:0,0:0:0:0:
231,99,111407,1,0,1:0:0:0:
219,175,111496,1,0,0:0:0:0:
299,238,111584,1,0,1:0:0:0:
287,318,111672,1,0,3:0:0:0:
190,345,111760,1,4,3:0:0:0:
361,312,111937,1,0,1:0:0:0:
162,254,112113,2,0,L|245:239,1,50,2|4,0:0|3:0,0:0:0:0:
464,184,112290,2,0,L|64:146,1,333.000008129883,10|2,1:0|0:0,0:0:0:0:
264,211,112643,6,0,L|370:203,2,100,4|2|8,0:0|0:0|0:0,0:0:0:0:
93,163,113172,1,2,2:2:0:0:
93,163,113260,1,8,0:3:0:0:
93,163,113349,1,0,3:0:0:0:
265,109,113525,1,8,3:0:0:0:
93,163,113701,2,0,L|214:174,1,100,8|0,1:0|0:0,0:0:0:0:
459,270,114054,5,0,1:0:0:0:
331,204,114231,2,0,L|318:318,1,100,8|8,0:3|1:0,0:0:0:0:
476,342,114584,1,8,3:0:0:0:
421,338,114672,1,8,0:3:0:0:
366,334,114760,1,2,0:0:0:0:
230,180,114937,1,8,0:3:0:0:
378,168,115113,1,8,1:0:0:0:
384,118,115201,1,0,3:3:0:0:
389,67,115290,1,4,3:0:0:0:
81,218,115466,5,4,3:0:0:0:
241,205,115643,2,0,L|250:292,1,50,8|0,0:3|0:0,0:0:0:0:
159,278,115819,2,0,L|168:345,1,50,8|0,1:0|0:0,0:0:0:0:
272,354,115996,2,0,L|389:369,1,100,0|0,1:0|0:0,0:0:0:0:
181,197,116348,2,0,L|64:212,1,100,8|8,3:3|1:0,0:0:0:0:
217,106,116701,6,0,L|231:242,1,100,2|0,0:0|1:0,0:0:0:0:
60,267,117054,2,0,L|196:277,1,100,8|8,3:0|1:0,0:0:0:0:
318,317,117407,2,0,L|323:245,1,50,8|0,3:3|3:0,3:0:0:0:
253,222,117584,1,2,2:0:0:0:
89,267,117760,1,8,3:0:0:0:
259,70,117937,1,8,1:0:0:0:
324,64,118025,1,0,0:0:0:0:
160,164,118113,1,8,3:0:0:0:
95,158,118201,1,0,3:0:0:0:
332,142,118290,6,0,L|435:163,1,100,2|8,1:2|0:3,0:0:0:0:
255,222,118643,1,8,1:0:0:0:
435,253,118819,2,0,L|439:370,1,100,2|0,1:2|0:0,0:0:0:0:
249,284,119172,2,0,L|245:401,1,100,8|8,1:3|1:0,0:0:0:0:
377,289,119525,1,2,0:0:0:0:
312,283,119613,1,0,3:0:0:0:
122,104,119701,6,0,L|16:114,1,100,2|8,1:2|3:0,0:0:0:0:
198,188,120054,1,8,1:0:0:0:
25,286,120231,2,0,L|148:271,1,100,2|0,1:2|0:0,0:0:0:0:
283,328,120584,1,4,3:0:0:0:
80,228,120760,2,0,L|65:369,1,100,8|4,1:0|1:3,1:0:0:0:
442,174,121113,5,4,1:2:0:0:
356,286,122701,2,0,L|180:271,1,150.000005722046,4|0,1:2|0:0,0:0:0:0:
47,215,123054,2,0,L|231:192,2,160,2|2|4,1:0|1:0|1:0,1:0:0:0:
395,96,123584,2,0,L|97:67,1,300.000011444092,4|0,1:2|0:0,0:0:0:0:
482,30,123937,5,6,1:0:0:0:
403,91,125525,2,0,L|240:109,1,150.000005722046,4|0,1:0|0:0,0:0:0:0:
437,178,125878,1,0,0:0:0:0:
42,323,126054,2,0,L|211:297,1,150.000005722046,6|0,1:0|0:0,0:0:0:0:
466,156,126407,2,0,L|297:130,1,150.000005722046,6|0,1:0|0:0,0:0:0:0:
49,180,126760,5,4,1:2:0:0:
381,292,127996,2,0,L|59:275,1,300.000011444092,6|0,1:0|1:0,0:0:0:0:
323,200,128525,2,0,L|147:191,1,150.000005722046,2|0,1:1|0:0,0:0:0:0:
477,88,128878,1,6,1:0:0:0:
303,127,129054,1,4,1:3:0:0:
35,191,129231,2,0,L|212:194,1,150.000005722046,2|4,1:1|3:0,0:0:0:0:
268,197,129496,1,4,3:3:0:0:
454,164,129584,6,0,L|467:291,1,100,4|0,1:0|0:0,0:0:0:0:
288,250,129937,2,0,L|275:377,1,100,8|2,1:0|0:0,0:0:0:0:
112,224,130290,2,0,L|256:208,1,100,0|2,1:0|0:0,0:0:0:0:
55,161,130643,1,8,1:0:0:0:
330,218,130819,6,0,P|396:176|313:119,1,200,2|0,0:0|0:0,0:0:0:0:
168,122,131348,2,0,L|304:106,1,100,8|2,1:0|0:0,0:0:0:0:
427,283,131701,2,0,L|435:180,1,100,0|0,1:0|0:0,0:0:0:0:
275,132,132054,1,8,1:0:0:0:
39,186,132231,1,4,3:0:0:0:
113,183,132319,1,4,3:0:0:0:
423,261,132407,6,0,L|258:249,2,119.999996337891,4|2|8,1:2|0:0|1:0,0:0:0:0:
157,153,132937,2,0,L|417:166,1,239.999992675781,4|4,1:2|1:3,0:0:0:0:
248,260,133466,2,0,L|104:253,1,119.999996337891,8|4,1:0|3:0,0:0:0:0:
212,243,133731,1,4,3:0:0:0:
443,72,133819,6,0,L|456:218,1,119.999996337891,4|0,1:2|0:0,0:0:0:0:
157,152,134172,1,8,1:1:0:0:
456,346,134348,2,0,L|192:328,1,239.999992675781,4|0,1:2|0:0,0:0:0:0:
64,352,134878,2,0,L|48:224,1,119.999996337891,8|2,1:0|2:0,1:0:0:0:
114,199,135143,1,2,2:0:0:0:
321,69,135231,6,0,L|438:57,1,100,0|2,1:0|0:0,0:0:0:0:
287,155,135584,2,0,L|170:143,1,100,8|0,1:0|0:0,0:0:0:0:
358,341,135937,2,0,L|259:351,1,100,4|2,1:3|0:0,0:0:0:0:
126,254,136290,2,0,L|226:264,1,100,8|2,1:0|0:0,0:0:0:0:
368,240,136643,6,0,L|24:272,1,300.000011444092,6|0,1:0|0:0,0:0:0:0:
176,246,136996,2,0,L|520:278,1,300.000011444092,6|0,1:0|0:0,0:0:0:0:
177,336,137348,6,0,L|44:329,1,100,4|0,1:0|0:0,0:0:0:0:
223,226,137700,2,0,L|90:219,1,100,8|0,1:0|0:0,0:0:0:0:
277,129,138053,2,0,L|144:122,1,100,4|0,1:3|0:0,0:0:0:0:
340,13,138406,2,0,L|207:6,1,100,8|0,1:2|3:0,0:0:0:0:
217,92,138671,1,0,3:0:0:0:
459,113,138759,6,0,L|478:247,1,100,4|0,1:0|0:0,0:0:0:0:
329,226,139112,2,0,L|310:360,1,100,8|0,1:0|0:0,0:0:0:0:
181,119,139465,2,0,L|200:253,1,100,4|0,1:3|0:0,0:0:0:0:
51,232,139818,2,0,L|32:366,1,100,8|6,1:0|3:3,0:0:0:0:
120,328,140083,1,0,3:0:0:0:
320,282,140171,5,4,1:0:0:0:
480,234,140348,1,0,1:0:0:0:
162,128,140524,1,0,1:0:0:0:
321,182,140700,1,0,1:0:0:0:
162,238,140877,5,0,1:0:0:0:
58,278,141053,1,0,1:0:0:0:
249,328,141230,1,0,1:0:0:0:
138,363,141416,1,0,1:0:0:0:
442,295,141601,5,0,1:0:0:0:
286,215,141788,2,4,L|292:137,1,50,4|4,3:0|3:0,3:0:0:0:
455,169,141976,5,4,1:1:0:0:
256,135,142206,2,8,L|262:57,1,50,8|8,3:0|3:0,3:0:0:0:
472,94,142437,5,4,3:3:0:0:
256,192,142790,12,0,144032,0:0:0:0:
90,318,144174,6,0,L|75:185,1,100,4|2,1:2|0:0,0:0:0:0:
154,198,144438,1,0,0:0:0:0:
337,131,144526,2,0,L|216:115,1,100,8|2,1:0|0:0,0:0:0:0:
166,148,144791,1,0,0:0:0:0:
422,318,144879,6,0,L|437:185,1,100,4|2,1:3|0:0,0:0:0:0:
358,198,145143,1,0,0:0:0:0:
175,131,145232,2,0,L|296:115,1,100,8|2,1:0|0:0,0:0:0:0:
351,162,145496,1,0,0:0:0:0:
117,275,145585,5,4,1:3:0:0:
250,247,145762,2,0,L|242:173,1,50,2|0,0:0|0:0,0:0:0:0:
165,177,145938,1,8,1:0:0:0:
324,168,146115,2,0,L|332:94,1,50,2|0,0:0|0:0,0:0:0:0:
409,98,146291,1,4,1:3:0:0:
237,115,146468,2,0,L|229:41,1,50,2|0,0:0|0:0,0:0:0:0:
152,45,146644,1,8,1:2:0:0:
321,42,146821,1,4,1:3:0:0:
52,282,146997,6,0,L|41:152,1,100,4|2,1:2|0:0,0:0:0:0:
121,145,147262,1,0,0:0:0:0:
286,214,147350,2,0,L|413:193,1,100,8|2,1:0|0:0,0:0:0:0:
315,160,147615,1,0,0:0:0:0:
56,178,147703,6,0,L|40:49,1,100,4|2,1:3|0:0,0:0:0:0:
117,52,147968,1,0,0:0:0:0:
315,122,148056,2,0,L|179:107,1,100,8|2,1:0|0:0,0:0:0:0:
468,220,148409,5,4,1:3:0:0:
304,226,148585,2,0,L|310:141,1,50,2|0,0:0|0:0,0:0:0:0:
401,172,148762,1,8,1:0:0:0:
222,226,148938,2,0,L|228:141,1,50,2|0,0:0|0:0,0:0:0:0:
319,172,149115,1,4,1:3:0:0:
136,224,149291,2,0,L|142:139,1,50,2|0,0:0|0:0,0:0:0:0:
233,170,149468,1,8,1:2:0:0:
58,174,149644,1,4,1:3:0:0:
347,243,149821,6,0,L|485:229,1,100,4|2,1:2|0:0,0:0:0:0:
381,219,150085,1,0,0:0:0:0:
178,134,150174,2,0,L|302:120,1,100,8|2,1:0|0:0,0:0:0:0:
117,240,150526,2,0,L|0:255,1,100,4|2,1:3|0:0,0:0:0:0:
380,298,150879,1,8,1:0:0:0:
123,231,151056,1,2,0:0:0:0:
463,200,151232,6,0,L|286:199,1,150.000005722046,4|2,1:2|0:0,0:0:0:0:
49,200,151585,2,0,L|226:199,1,150.000005722046,8|2,1:2|0:0,0:0:0:0:
286,196,151850,1,0,3:0:0:0:
469,312,151938,6,0,L|290:315,1,150.000005722046,4|2,1:3|0:0,0:0:0:0:
53,328,152291,1,8,1:0:0:0:
336,316,152468,1,4,1:3:0:0:
64,56,152644,6,0,L|48:184,1,100,4|2,1:2|0:0,0:0:0:0:
128,194,152909,1,0,0:0:0:0:
292,277,152997,2,0,L|166:292,1,100,8|2,1:0|0:0,0:0:0:0:
370,344,153350,5,4,1:3:0:0:
183,181,153526,2,0,L|280:193,1,50,2|0,0:0|0:0,0:0:0:0:
339,121,153703,2,0,L|201:103,1,100,8|2,1:0|0:0,0:0:0:0:
480,193,154056,5,4,1:3:0:0:
329,269,154232,2,0,L|319:190,1,50,0|0,3:0|3:0,3:0:0:0:
405,195,154409,1,8,1:0:0:0:
451,75,154585,2,0,L|367:64,1,50,4|0,3:0|3:0,3:0:0:0:
172,125,154762,1,0,1:0:0:0:
328,124,154938,1,2,0:0:0:0:
39,227,155115,1,8,1:0:0:0:
195,226,155291,1,8,3:3:0:0:
441,117,155468,6,0,L|459:250,1,119.999996337891,4|2,1:2|0:0,0:0:0:0:
370,237,155732,1,0,0:0:0:0:
163,166,155821,2,0,L|322:158,1,119.999996337891,8|4,1:0|1:3,0:0:0:0:
206,163,156085,1,0,0:0:0:0:
33,64,156174,6,0,L|174:55,1,119.999996337891,4|2,1:2|0:0,0:0:0:0:
231,47,156438,1,0,0:0:0:0:
418,195,156526,2,0,L|275:182,1,119.999996337891,8|4,1:0|1:3,0:0:0:0:
380,167,156791,1,0,0:0:0:0:
38,302,156879,6,0,L|44:143,1,119.999996337891,4|2,1:2|0:0,0:0:0:0:
124,183,157144,1,0,0:0:0:0:
350,273,157232,2,0,L|344:114,1,119.999996337891,8|4,1:0|1:3,0:0:0:0:
264,154,157497,1,0,0:0:0:0:
468,131,157585,5,6,1:2:0:0:
297,131,157762,1,4,3:0:0:0:
44,131,157938,1,8,1:0:0:0:
222,134,158115,1,4,1:3:0:0:
464,326,158291,6,0,L|469:184,1,119.999996337891,4|2,1:2|0:0,0:0:0:0:
388,187,158556,1,0,0:0:0:0:
190,98,158644,2,0,L|316:81,1,119.999996337891,8|4,1:0|1:3,0:0:0:0:
44,226,158997,6,0,L|189:205,1,119.999996337891,4|2,1:2|0:0,0:0:0:0:
87,204,159262,1,0,0:0:0:0:
284,335,159350,2,0,L|294:197,1,119.999996337891,8|4,1:0|1:3,0:0:0:0:
216,191,159615,1,0,3:0:0:0:
40,278,159703,5,4,1:2:0:0:
347,155,159879,1,2,2:0:0:0:
194,158,160056,1,8,1:0:0:0:
43,157,160232,1,4,1:3:0:0:
472,278,160409,1,4,1:2:0:0:
165,155,160585,1,2,2:0:0:0:
318,158,160762,1,8,1:0:0:0:
469,157,160938,1,4,1:3:0:0:
191,316,161115,6,0,L|45:307,1,119.999996337891,4|2,1:2|0:0,0:0:0:0:
151,296,161379,1,0,0:0:0:0:
321,316,161468,2,0,L|467:307,1,119.999996337891,8|4,1:0|1:3,0:0:0:0:
361,296,161732,1,0,0:0:0:0:
92,156,161821,6,0,L|252:142,1,119.999996337891,4|2,1:2|0:0,0:0:0:0:
482,284,162174,1,8,1:0:0:0:
306,283,162350,1,4,1:3:0:0:
55,212,162526,6,0,L|136:207,1,59.9999981689454,4|0,0:0|0:0,0:0:0:0:
198,255,162703,2,0,L|280:251,1,59.9999981689454,2|0,0:0|0:0,0:0:0:0:
174,340,162879,6,0,L|255:335,1,59.9999981689454,4|0,0:0|0:0,0:0:0:0:
317,383,163056,2,0,L|399:379,1,59.9999981689454,2|0,0:0|0:0,0:0:0:0:
480,280,163232,6,0,L|399:275,1,59.9999981689454,4|0,0:0|0:0,0:0:0:0:
337,323,163409,2,0,L|255:319,1,59.9999981689454,2|0,0:0|0:0,0:0:0:0:
360,204,163585,6,0,L|279:199,1,59.9999981689454,4|0,0:0|0:0,0:0:0:0:
217,247,163762,2,0,L|135:243,1,59.9999981689454,2|0,0:0|0:0,0:0:0:0:
398,82,163938,6,0,L|471:77,1,59.9999981689454,4|0,0:0|0:0,0:0:0:0:
356,158,164115,2,0,L|262:166,1,59.9999981689454,2|0,0:0|0:0,0:0:0:0:
195,106,164291,2,0,L|272:100,1,59.9999981689454,0|0,1:0|0:0,0:0:0:0:
153,183,164468,2,0,L|84:188,1,59.9999981689454,2|0,1:2|0:0,0:0:0:0:
195,271,164644,2,0,L|275:263,1,59.9999981689454,2|0,0:0|0:0,0:0:0:0:
339,315,164821,2,0,L|415:308,1,59.9999981689454,4|0,1:3|0:0,0:0:0:0:
287,242,164997,2,0,L|201:253,1,59.9999981689454,2|0,2:0|0:0,0:0:0:0:
161,326,165174,2,0,L|75:337,1,59.9999981689454,0|0,1:0|1:0,1:0:0:0:
320,224,165350,6,0,L|462:239,1,119.999996337891,2|4,1:2|1:3,0:0:0:0:
267,322,165703,1,2,1:2:0:0:
433,334,165791,1,2,1:2:0:0:
267,322,165879,1,2,1:2:0:0:
116,361,166056,6,0,L|103:215,1,119.999996337891,4|2,1:2|1:2,0:0:0:0:
277,178,166321,1,4,3:0:0:0:
88,126,166409,2,0,L|178:97,1,59.9999981689454,2|0,1:2|0:0,0:0:0:0:
362,104,166585,1,0,1:0:0:0:
194,101,166674,1,2,2:2:0:0:
26,88,166762,1,2,0:0:0:0:
262,247,167468,5,2,0:0:0:0:
251,247,167490,1,0,0:0:0:0:
273,221,167512,1,0,0:0:0:0:
240,221,167534,1,0,0:0:0:0:
280,193,167556,1,0,0:0:0:0:
233,193,167578,1,0,0:0:0:0:
284,163,167600,1,0,0:0:0:0:
229,163,167622,1,0,0:0:0:0:
285,133,167644,1,0,0:0:0:0:
228,133,167666,1,0,0:0:0:0:
282,104,167688,1,0,0:0:0:0:
231,104,167710,1,0,0:0:0:0:
276,75,167732,1,0,0:0:0:0:
237,75,167754,1,0,0:0:0:0:
267,48,167776,1,0,0:0:0:0:
246,48,167798,1,0,0:0:0:0:
255,32,167821,1,0,0:0:0:0:
31,86,168179,5,2,0:0:0:0:
256,192,168270,12,2,170739,0:0:0:0:
157,158,171105,6,0,L|397:158,1,200,2|0,0:0|0:0,0:0:0:0:
385,243,171837,2,0,L|98:242,1,259.999988098145,2|0,0:0|0:0,0:0:0:0:
157,158,172569,2,0,L|397:158,1,200,2|0,0:0|0:0,0:0:0:0:
227,270,173118,2,0,P|164:235|242:57,1,300,2|0,0:0|0:0,0:0:0:0:
365,159,174032,6,0,L|125:159,1,220.000006713867,2|0,0:0|0:0,0:0:0:0:
115,243,174764,2,0,L|402:242,1,279.999991455078,2|0,0:0|0:0,0:0:0:0:
365,158,175496,2,0,L|125:158,1,220.000006713867,2|0,0:0|0:0,0:0:0:0:
328,270,176045,2,0,P|391:235|298:36,1,330.000010070801,2|0,0:0|0:0,0:0:0:0:
44,41,176959,5,2,0:0:0:0:
256,192,178422,12,2,179520,0:0:0:0:
76,47,179886,6,0,L|61:161,1,100,4|0,1:2|0:0,0:0:0:0:
237,117,180314,2,0,L|352:126,1,100,8|2,1:1|0:0,0:0:0:0:
174,290,180693,2,0,L|59:299,1,100,8|2,1:2|0:0,0:0:0:0:
448,55,181073,6,0,L|463:169,1,100,4|0,1:2|0:0,0:0:0:0:
269,120,181436,2,0,L|154:129,1,100,8|2,1:2|0:0,0:0:0:0:
338,290,181800,2,0,L|453:299,1,100,8|2,1:2|0:0,0:0:0:0:
69,328,182146,6,0,L|173:307,1,100,4|0,1:2|0:0,0:0:0:0:
338,217,182492,2,0,L|236:200,1,100,8|2,1:0|3:2,0:0:0:0:
59,200,182839,2,0,L|53:91,1,100,8|2,1:0|0:0,0:0:0:0:
350,282,183172,6,0,L|474:268,1,100,4|0,0:0|0:0,0:0:0:0:
283,174,183496,5,2,0:0:0:0:
258,171,183536,1,0,0:0:0:0:
237,158,183577,1,0,0:0:0:0:
224,137,183617,1,0,0:0:0:0:
221,113,183658,1,0,0:0:0:0:
230,90,183698,1,0,0:0:0:0:
249,73,183739,1,0,0:0:0:0:
273,67,183779,1,0,0:0:0:0:
332,66,183820,2,0,L|460:83,1,119.999996337891,8|0,1:0|0:0,0:0:0:0:
93,98,184144,6,0,L|84:197,1,100,4|0,1:2|0:0,0:0:0:0:
245,177,184464,2,0,L|378:188,1,100,8|2,1:0|0:0,0:0:0:0:
166,291,184785,2,0,L|159:403,1,100,8|2,1:2|0:0,0:0:0:0:
419,98,185106,6,0,L|428:197,1,100,4|0,1:2|0:0,0:0:0:0:
285,179,185416,2,0,L|152:190,1,100,8|2,1:0|0:0,0:0:0:0:
339,255,185727,1,8,1:0:0:0:
183,215,185883,1,2,0:0:0:0:
442,57,186038,6,0,L|454:185,1,100,4|0,1:2|0:0,0:0:0:0:
288,210,186342,2,0,L|276:338,1,100,8|2,1:2|0:0,0:0:0:0:
456,299,186647,2,0,L|336:295,1,100,8|2,1:0|0:0,0:0:0:0:
73,216,186951,6,0,L|207:206,1,100,4|0,0:0|0:0,0:0:0:0:
316,264,187260,1,2,0:0:0:0:
340,258,187298,1,0,0:0:0:0:
359,242,187337,1,0,0:0:0:0:
370,220,187375,1,0,0:0:0:0:
370,195,187414,1,0,0:0:0:0:
359,173,187453,1,0,0:0:0:0:
340,157,187491,1,0,0:0:0:0:
316,152,187530,1,0,0:0:0:0:
145,150,187569,5,2,0:0:0:0:
118,143,187607,1,0,0:0:0:0:
98,126,187646,1,0,0:0:0:0:
86,103,187684,1,0,0:0:0:0:
86,76,187723,1,0,0:0:0:0:
98,52,187762,1,0,0:0:0:0:
118,35,187800,1,0,0:0:0:0:
144,30,187839,1,0,0:0:0:0:
384,50,187878,6,0,P|440:87|361:159,1,200,4|8,1:2|0:0,0:0:0:0:
205,272,188346,2,0,L|308:261,1,100,2|8,0:0|1:0,0:0:0:0:
461,302,188659,1,0,0:0:0:0:
159,124,188815,6,0,L|145:232,1,100,4|0,1:2|0:0,0:0:0:0:
321,248,189134,2,0,L|335:356,1,100,8|2,1:2|0:0,0:0:0:0:
186,331,189454,1,8,1:0:0:0:
355,357,189614,1,2,0:0:0:0:
128,232,189774,6,0,L|16:256,1,100,4|0,1:2|0:0,0:0:0:0:
192,297,190101,1,8,1:0:0:0:
273,223,190265,1,2,0:0:0:0:
260,113,190429,1,8,1:0:0:0:
160,65,190593,1,0,0:0:0:0:
456,152,190757,5,4,1:2:0:0:
302,191,190933,1,0,0:0:0:0:
53,327,191109,5,2,0:0:0:0:
57,298,191153,1,0,0:0:0:0:
67,270,191197,1,0,0:0:0:0:
80,245,191241,1,0,0:0:0:0:
99,223,191285,1,0,0:0:0:0:
122,207,191329,1,0,0:0:0:0:
148,197,191373,1,0,0:0:0:0:
177,191,191417,1,0,0:0:0:0:
336,188,191461,5,2,0:0:0:0:
365,185,191506,1,0,0:0:0:0:
393,177,191550,1,0,0:0:0:0:
417,164,191594,1,0,0:0:0:0:
437,143,191638,1,0,0:0:0:0:
454,119,191682,1,0,0:0:0:0:
465,92,191726,1,0,0:0:0:0:
473,65,191770,1,0,0:0:0:0:
255,61,191815,6,0,L|144:56,1,100,4|2,1:2|0:0,0:0:0:0:
314,208,192190,2,0,L|425:203,1,100,2|0,2:2|0:0,0:0:0:0:
230,349,192565,2,0,L|119:344,1,100,2|0,2:2|0:0,0:0:0:0:
432,302,192940,5,4,1:0:0:0:
96,144,193368,1,2,0:0:0:0:
472,64,193868,1,2,0:0:0:0:
85,54,194602,6,0,L|72:171,1,100,4|0,1:0|0:0,0:0:0:0:
231,204,194954,2,0,L|110:221,1,100,8|2,1:0|0:0,0:0:0:0:
326,188,195307,2,0,L|339:305,1,100,2|0,1:2|0:0,0:0:0:0:
180,338,195660,2,0,L|301:355,1,100,8|4,1:0|0:3,0:0:0:0:
35,184,196013,5,4,1:2:0:0:
197,182,196190,1,0,0:0:0:0:
459,115,196366,2,0,L|366:100,1,50,8|0,1:0|0:0,0:0:0:0:
314,148,196543,2,0,L|254:145,1,50,2|0,0:0|0:0,0:0:0:0:
170,193,196719,1,4,1:3:0:0:
324,255,196896,2,0,L|407:262,1,50,2|0,0:0|0:0,0:0:0:0:
172,348,197072,2,0,L|332:336,1,129.999994049073,8|4,1:0|1:3,0:0:0:0:
43,44,197425,6,0,L|28:185,1,129.999994049073,4|0,1:2|0:0,0:0:0:0:
204,153,197778,1,8,1:0:0:0:
27,184,197954,1,0,0:0:0:0:
414,229,198131,2,0,L|262:215,1,129.999994049073,4|0,1:3|0:0,0:0:0:0:
98,229,198484,2,0,L|250:215,1,129.999994049073,8|0,1:0|0:0,0:0:0:0:
469,44,198837,6,0,L|484:185,1,129.999994049073,4|0,1:2|0:0,0:0:0:0:
308,153,199190,1,8,1:0:0:0:
485,184,199366,1,2,0:0:0:0:
160,248,199543,1,4,1:3:0:0:
337,279,199719,1,2,0:0:0:0:
160,248,199896,2,0,L|11:273,1,129.999994049073,8|0,1:0|0:0,0:0:0:0:
327,37,200249,6,0,L|333:187,1,129.999994049073,6|0,1:2|0:0,0:0:0:0:
141,191,200602,2,0,L|135:341,1,129.999994049073,8|0,1:0|0:0,0:0:0:0:
469,177,200954,2,0,L|320:167,1,129.999994049073,6|0,1:2|0:0,0:0:0:0:
147,293,201307,2,0,L|296:283,1,129.999994049073,8|0,1:0|2:2,0:0:0:0:
42,92,201660,5,4,1:2:0:0:
214,144,201837,1,0,0:0:0:0:
470,92,202013,1,8,1:1:0:0:
298,144,202190,1,4,1:3:0:0:
61,326,202366,2,0,L|54:187,1,129.999994049073,4|0,1:3|0:0,0:0:0:0:
356,217,202719,1,8,1:0:0:0:
193,239,202896,1,2,0:0:0:0:
401,88,205190,6,0,L|310:78,1,60.9999974868775,2|0,0:0|0:0,0:0:0:0:
256,137,205366,2,0,L|177:133,1,60.9999974868775
277,229,205543,2,0,L|368:219,1,60.9999974868775,2|0,0:0|0:0,0:0:0:0:
422,278,205719,2,0,L|501:274,1,60.9999974868775
170,45,205896,5,4,1:0:0:0:
18,70,206072,1,0,1:0:0:0:
263,122,206249,5,0,1:0:0:0:
111,147,206425,1,0,1:0:0:0:
359,197,206602,5,0,1:0:0:0:
207,222,206778,1,0,1:0:0:0:
453,268,206955,5,0,1:0:0:0:
301,293,207131,1,0,1:0:0:0:
43,155,207307,5,0,1:0:0:0:
216,171,207484,1,0,1:0:0:0:
469,155,207660,5,0,1:0:0:0:
296,171,207837,1,0,1:0:0:0:
43,155,208013,5,0,1:0:0:0:
216,171,208190,1,0,1:0:0:0:
466,164,208366,2,4,L|389:179,1,67.5000002574921,4|4,3:0|3:0,3:0:0:0:
305,148,208543,2,4,L|217:133,1,67.5000002574921,4|4,3:0|3:0,3:0:0:0:
48,288,208719,5,4,1:1:0:0:
228,257,208905,2,4,L|216:168,1,50,4|4,3:0|3:0,3:0:0:0:
60,156,209091,1,4,1:0:0:0:
346,192,209278,2,4,L|337:111,1,50,4|4,3:0|3:0,3:0:0:0:
166,79,209464,1,4,1:2:0:0:
452,298,209657,6,0,L|374:288,1,50,0|0,3:0|3:0,3:0:0:0:
205,334,209851,1,4,1:2:0:0:
57,156,210062,2,0,L|135:146,1,50,0|4,3:0|3:0,3:0:0:0:
304,192,210273,1,4,1:0:0:0:
423,117,210484,5,4,1:0:0:0:
246,162,210624,1,4,3:0:0:0:
69,206,210764,1,4,1:2:0:0:
42,66,211064,5,4,1:0:0:0:
231,115,211232,1,4,3:0:0:0:
421,162,211401,1,4,1:2:0:0:
158,228,211762,6,0,L|106:232,1,50,4|0,1:2|0:0,0:0:0:0:
449,200,212137,1,4,1:2:0:0:
119,77,213006,5,2,1:3:0:0:
463,197,213127,1,4,1:1:0:0:
256,192,214957,12,0,217181,0:0:0:0:
264,311,217499,6,0,L|381:302,1,100,4|2,1:0|0:0,0:0:0:0:
296,290,217763,1,0,0:0:0:0:
98,330,217851,2,0,L|93:195,1,100,8|2,1:0|0:0,0:0:0:0:
163,224,218116,1,0,0:0:0:0:
336,147,218204,6,0,L|196:130,1,100,4|2,1:3|0:0,0:0:0:0:
305,119,218469,1,0,0:0:0:0:
480,137,218557,1,8,1:0:0:0:
322,119,218734,1,2,0:0:0:0:
81,318,218910,5,4,1:3:0:0:
242,284,219087,2,0,L|233:205,1,50,2|0,0:0|0:0,0:0:0:0:
155,209,219263,1,8,1:0:0:0:
341,192,219440,2,0,L|398:182,1,50,2|0,2:0|2:0,3:0:0:0:
289,131,219616,1,4,1:3:0:0:
125,183,219793,2,4,L|48:163,1,50,2|0,2:0|2:0,2:0:0:0:
180,124,219969,1,8,1:2:0:0:
22,120,220146,1,4,1:3:0:0:
381,343,220322,6,0,L|393:208,1,100,4|2,1:2|2:2,0:0:0:0:
318,221,220587,1,0,0:0:0:0:
164,181,220675,2,0,L|24:158,1,100,8|2,1:0|0:0,0:0:0:0:
136,140,220940,1,0,0:0:0:0:
402,94,221028,6,0,L|268:72,1,100,4|2,1:3|0:0,0:0:0:0:
374,50,221293,1,0,0:0:0:0:
95,63,221381,1,8,1:0:0:0:
81,197,221558,1,2,0:0:0:0:
441,211,221734,5,4,1:3:0:0:
314,89,221910,2,0,L|304:171,1,50,2|0,0:0|0:0,0:0:0:0:
391,144,222087,1,8,1:0:0:0:
212,211,222263,2,0,L|202:293,1,50,2|0,0:0|0:0,0:0:0:0:
289,266,222440,1,4,1:3:0:0:
112,313,222616,2,0,L|102:395,1,50,2|0,0:0|0:0,0:0:0:0:
291,229,222793,1,8,1:0:0:0:
468,231,222969,1,4,1:3:0:0:
176,64,223146,6,0,L|56:56,1,100,4|2,0:0|0:0,0:0:0:0:
138,61,223410,1,0,0:0:0:0:
368,146,223499,1,8,1:0:0:0:
236,189,223675,1,2,0:0:0:0:
50,296,223851,1,4,1:3:0:0:
182,339,224027,1,2,0:0:0:0:
476,242,224204,1,8,1:0:0:0:
165,342,224381,1,4,1:3:0:0:
476,156,224557,6,0,L|310:157,1,150.000005722046,4|0,1:2|0:0,0:0:0:0:
88,210,224910,1,8,1:0:0:0:
450,319,225087,1,2,0:0:0:0:
165,313,225263,1,4,1:2:0:0:
324,243,225440,1,2,0:0:0:0:
25,154,225616,1,8,1:0:0:0:
176,83,225793,1,2,0:0:0:0:
471,64,225969,6,0,L|471:216,1,150.000005722046,4|2,1:0|0:0,0:0:0:0:
396,214,226234,1,0,0:0:0:0:
203,261,226322,2,0,L|76:249,1,100,8|2,1:0|0:0,0:0:0:0:
259,337,226675,6,0,L|400:323,1,100,4|2,1:3|0:0,0:0:0:0:
290,302,226940,1,0,0:0:0:0:
110,150,227028,2,0,L|96:289,1,100,8|2,1:0|0:0,0:0:0:0:
171,251,227293,1,0,0:0:0:0:
460,113,227381,5,4,1:3:0:0:
322,181,227557,2,0,L|252:170,1,50,0|0,3:0|3:0,3:0:0:0:
94,258,227734,1,8,1:0:0:0:
259,335,227910,2,0,L|266:269,1,50,0|0,3:0|3:0,3:0:0:0:
52,165,228087,1,6,1:3:0:0:
212,164,228263,1,2,0:0:0:0:
460,165,228440,1,10,1:2:0:0:
300,164,228616,1,4,1:3:0:0:
48,328,228793,6,0,L|51:183,1,119.999996337891,4|2,1:2|0:0,0:0:0:0:
131,176,229057,1,0,0:0:0:0:
326,101,229146,2,0,L|188:97,1,119.999996337891,8|4,1:0|1:3,0:0:0:0:
122,94,229410,1,0,0:0:0:0:
351,204,229499,6,0,L|499:206,1,119.999996337891,4|2,1:2|0:0,0:0:0:0:
394,223,229763,1,0,0:0:0:0:
186,340,229851,2,0,L|324:336,1,119.999996337891,8|4,1:2|1:3,0:0:0:0:
393,335,230115,1,0,0:0:0:0:
57,351,230204,6,0,L|49:184,1,119.999996337891,4|2,1:2|2:2,0:0:0:0:
129,215,230469,1,0,0:0:0:0:
356,182,230557,2,0,L|364:15,1,119.999996337891,8|4,1:2|1:3,0:0:0:0:
281,53,230822,1,0,0:0:0:0:
58,59,230910,1,4,1:2:0:0:
210,57,231087,1,2,0:0:0:0:
464,58,231263,1,8,1:0:0:0:
328,56,231440,1,4,1:3:0:0:
49,336,231616,6,0,L|33:184,1,119.999996337891,4|2,1:2|0:0,0:0:0:0:
112,193,231881,1,0,0:0:0:0:
352,128,231969,2,0,L|208:120,1,119.999996337891,8|4,1:0|1:3,0:0:0:0:
312,120,232234,1,0,0:0:0:0:
50,57,232322,6,0,L|194:49,1,119.999996337891,4|2,1:2|2:2,0:0:0:0:
90,49,232587,1,0,0:0:0:0:
308,220,232675,2,0,L|467:211,1,119.999996337891,8|4,1:0|1:3,0:0:0:0:
59,240,233028,5,4,1:2:0:0:
216,188,233204,2,0,L|139:175,1,59.9999981689454,2|0,0:0|0:0,0:0:0:0:
252,110,233381,1,8,1:0:0:0:
103,114,233557,2,0,L|97:54,1,59.9999981689454,4|0,1:3|0:0,0:0:0:0:
180,35,233734,1,4,1:2:0:0:
335,109,233910,2,4,L|255:93,1,59.9999981689454,4|4,3:0|3:0,3:0:0:0:
48,81,234087,1,8,1:1:0:0:
206,80,234263,1,4,1:3:0:0:
469,81,234440,6,0,L|481:223,1,119.999996337891,4|2,1:2|0:0,0:0:0:0:
404,201,234704,1,0,0:0:0:0:
198,195,234792,2,0,L|352:193,1,119.999996337891,8|4,1:0|1:3,0:0:0:0:
240,195,235057,1,0,0:0:0:0:
54,281,235146,6,0,L|216:281,1,119.999996337891,4|2,1:2|2:2,0:0:0:0:
468,289,235499,1,8,1:0:0:0:
309,287,235675,1,4,1:3:0:0:
69,85,235851,6,0,L|54:204,1,119.999996337891,4|2,1:2|0:0,0:0:0:0:
131,220,236116,1,0,0:0:0:0:
450,85,236204,2,0,L|465:204,1,119.999996337891,8|4,1:1|1:3,0:0:0:0:
388,220,236469,1,0,0:0:0:0:
187,337,236557,1,4,1:2:0:0:
332,304,236734,1,2,0:0:0:0:
91,181,236910,1,8,1:0:0:0:
421,181,237087,1,4,1:3:0:0:
162,270,237263,5,4,1:2:0:0:
114,232,237352,1,0,0:0:0:0:
104,172,237440,1,2,0:0:0:0:
134,120,237528,1,0,0:0:0:0:
207,111,237616,2,0,L|285:118,1,59.9999981689454,8|0,1:0|0:0,0:0:0:0:
151,189,237793,2,0,L|49:182,1,59.9999981689454,4|0,1:3|2:0,2:0:0:0:
328,280,237969,5,4,1:2:0:0:
338,221,238057,1,0,0:0:0:0:
308,168,238146,1,0,0:0:0:0:
251,148,238234,1,0,0:0:0:0:
143,169,238322,1,8,1:2:0:0:
133,110,238410,1,0,3:0:0:0:
163,57,238499,1,0,3:0:0:0:
220,37,238587,1,0,3:0:0:0:
322,80,238675,6,0,L|254:75,1,55.0000016784668,4|0,3:3|3:0,3:0:0:0:
340,158,238851,2,0,L|281:154,1,55.0000016784668,4|0,3:3|3:0,3:0:0:0:
362,236,239028,2,4,L|294:229,1,55.0000016784668,4|0,3:3|3:0,3:0:0:0:
380,314,239204,2,0,L|321:310,1,55.0000016784668,4|0,3:3|3:0,3:0:0:0:
95,337,239381,6,0,L|185:344,1,59.9999981689454,0|0,1:3|1:3,1:3:0:0:
400,368,239557,2,0,L|329:361,1,59.9999981689454,0|0,1:3|1:3,1:3:0:0:
141,244,239734,2,0,L|81:239,1,59.9999981689454,0|0,1:3|1:3,1:3:0:0:
375,271,239910,2,0,L|434:276,1,59.9999981689454,0|0,1:3|1:3,1:3:0:0:
160,110,240087,6,0,L|5:103,1,119.999996337891,4|0,1:0|1:0,1:0:0:0:
177,220,240440,2,0,L|22:213,1,119.999996337891,10|0,1:0|1:0,1:0:0:0:
359,178,240793,6,0,L|514:171,1,119.999996337891,4|0,1:0|1:0,1:0:0:0:
342,288,241146,2,0,L|497:281,1,119.999996337891,10|0,1:0|1:0,1:0:0:0:
164,238,241499,6,0,L|9:231,1,110.000003356934,4|0,1:0|1:0,1:0:0:0:
181,348,241851,2,0,L|26:341,1,110.000003356934,10|0,1:0|1:0,1:0:0:0:
363,170,242204,6,4,L|166:164,1,179.999994506836,6|4,1:1|1:3,1:3:0:0:
372,69,242557,2,0,L|179:65,1,179.999994506836,10|4,1:0|1:3,0:0:0:0:
465,221,242910,6,0,L|289:213,1,119.999996337891,4|0,1:2|1:0,1:0:0:0:
482,349,243263,2,0,L|333:342,1,119.999996337891,10|0,1:0|1:0,1:0:0:0:
93,90,243616,6,0,L|269:82,1,119.999996337891,4|0,1:0|1:0,1:0:0:0:
76,218,243969,2,0,L|225:211,1,119.999996337891,10|0,1:0|1:0,1:0:0:0:
482,351,244322,6,4,L|202:336,1,245.000002336502,4|4,1:3|1:3,1:3:0:0:
496,255,244675,2,0,L|216:240,1,245.000002336502,10|4,1:0|1:3,1:0:0:0:
15,47,245028,6,0,L|193:38,1,170.000003242493,6|0,1:0|0:0,0:0:0:0:
19,160,245381,2,0,L|197:151,1,170.000003242493,10|4,1:0|1:3,0:0:0:0:
477,64,245734,6,0,L|310:56,1,129.999994049073,4|0,1:2|0:0,0:0:0:0:
492,175,246087,2,0,L|325:167,1,129.999994049073,10|4,1:0|1:3,0:0:0:0:
510,307,246440,2,0,L|343:299,1,129.999994049073,4|0,1:3|0:0,0:0:0:0:
190,205,246793,2,0,L|378:213,1,160,2|4,1:0|1:3,0:0:0:0:
44,203,247146,6,0,L|402:169,1,300.000011444092,4|4,1:2|0:3,0:0:0:0:
46,117,247498,2,0,L|358:90,1,300.000011444092,10|4,0:0|0:3,0:0:0:0:
468,203,247851,6,0,L|169:174,1,300.000011444092,4|4,1:2|0:3,0:0:0:0:
466,117,248204,2,0,L|167:91,1,300.000011444092,10|4,0:0|0:3,0:0:0:0:
295,136,248557,6,0,L|457:128,1,129.999994049073,4|4,1:2|1:3,0:0:0:0:
350,133,248822,1,0,3:0:0:0:
193,207,248910,2,0,P|328:244|480:205,1,259.999988098145,10|4,1:0|0:3,0:0:0:0:
328,193,249263,6,0,L|-21:177,1,279.999991455078,4|4,1:2|1:3,0:0:0:0:
202,138,249528,1,0,3:0:0:0:
364,106,249616,2,0,L|27:89,1,279.999991455078,10|4,1:1|1:3,0:0:0:0:
443,334,249969,6,0,L|458:187,1,129.999994049073,4|4,1:2|3:0,0:0:0:0:
378,174,250234,1,0,3:0:0:0:
192,243,250322,2,0,L|297:228,1,64.9999970245363,10|0,1:0|0:0,0:0:0:0:
44,141,250498,2,0,L|124:127,1,64.9999970245363,4|0,1:3|0:0,0:0:0:0:
275,323,250675,6,0,L|279:229,1,64.9999970245363,4|0,1:2|0:0,0:0:0:0:
458,165,250851,2,0,L|466:47,1,64.9999970245363,4|0,1:3|0:0,0:0:0:0:
194,217,251028,2,0,L|268:209,1,64.9999970245363,10|0,1:0|0:0,0:0:0:0:
445,82,251204,2,0,L|361:93,1,64.9999970245363,8|0,1:3|1:0,0:0:0:0:
54,238,251381,6,0,P|75:161|203:113,1,194.999991073609,4|4,1:2|3:0,0:0:0:0:
459,95,251734,1,10,1:0:0:0:
303,96,251910,1,2,0:0:0:0:
52,102,252087,1,4,1:2:0:0:
204,99,252263,1,4,1:3:0:0:
52,102,252440,1,10,1:0:0:0:
299,314,252616,2,0,L|307:221,1,64.9999970245363,2|0,0:0|0:0,0:0:0:0:
43,187,252793,5,4,1:0:0:0:
185,187,252969,1,2,0:0:0:0:
43,187,253146,1,10,1:0:0:0:
219,271,253322,2,0,L|312:271,1,64.9999970245363
470,342,253498,2,0,L|470:203,1,129.999994049073,4|4,1:3|3:0,0:0:0:0:
322,165,253763,1,4,3:0:0:0:
155,106,253851,2,0,L|323:105,1,129.999994049073,10|4,1:0|1:3,0:0:0:0:
44,281,254204,6,0,P|50:187|191:121,1,225.000008583069,4|0,1:2|0:0,0:0:0:0:
455,128,254557,1,10,1:0:0:0:
167,119,254734,1,4,1:3:0:0:
455,128,254910,1,4,1:2:0:0:
149,202,255087,2,0,L|226:204,1,68.5000019336701,2|0,0:0|0:0,0:0:0:0:
45,85,255263,2,0,L|202:91,1,137.00000386734,10|4,1:0|1:3,0:0:0:0:
441,347,255616,6,0,L|457:197,1,137.00000386734,4|4,1:2|1:3,0:0:0:0:
288,146,255881,1,0,0:0:0:0:
472,86,255969,2,0,L|320:91,1,137.00000386734,10|4,1:0|1:3,0:0:0:0:
172,163,256234,1,0,0:0:0:0:
344,215,256322,2,0,L|496:220,1,137.00000386734,4|4,1:2|1:3,0:0:0:0:
398,215,256587,1,0,3:0:0:0:
160,136,256675,1,10,1:0:0:0:
330,97,256851,1,4,3:0:0:0:
48,54,257028,6,0,L|208:69,1,119.999996337891,4|4,1:2|1:3,0:0:0:0:
29,143,257381,2,0,L|178:153,1,119.999996337891,10|4,1:0|1:3,0:0:0:0:
424,295,257734,2,0,L|275:305,1,119.999996337891,4|4,1:2|1:3,0:0:0:0:
38,211,258087,1,10,1:1:0:0:
192,177,258263,1,4,1:3:0:0:
472,340,258440,6,0,L|140:309,1,300.000011444092,4|4,1:2|1:3,0:0:0:0:
479,254,258793,2,0,L|156:223,1,300.000011444092,10|4,1:0|1:3,0:0:0:0:
444,150,259146,6,0,L|228:129,1,166.000002406311,4|4,1:2|1:3,0:0:0:0:
439,73,259499,2,0,L|224:55,1,166.000002406311,10|4,1:0|1:3,0:0:0:0:
30,54,259851,6,0,L|42:185,1,129.999994049073,4|0,1:2|0:0,0:0:0:0:
197,129,260204,1,10,1:0:0:0:
468,308,260381,2,0,L|320:308,1,129.999994049073,4|0,1:2|0:0,0:0:0:0:
180,228,260734,2,0,L|320:226,1,129.999994049073,2|8,1:0|1:0,0:0:0:0:
48,192,261087,6,0,P|128:144|32:48,1,259.999988098145,4|4,1:2|3:0,0:0:0:0:
323,342,261616,2,0,L|310:189,1,129.999994049073,10|4,1:0|3:0,0:0:0:0:
151,157,261881,1,4,3:0:0:0:
349,143,261969,2,0,L|218:130,1,129.999994049073,2|4,1:1|3:0,0:0:0:0:
68,215,262234,1,4,3:0:0:0:
256,251,262322,1,10,1:0:0:0:
139,309,262499,1,4,3:3:0:0:
85,286,262587,1,4,3:0:0:0:
327,119,262675,6,0,L|341:254,1,129.999994049073,4|0,0:2|0:0,0:0:0:0:
60,195,263028,1,4,1:3:0:0:
348,340,263204,2,0,L|515:340,1,119.999996337891,4|4,1:2|2:3,0:0:0:0:
171,177,263557,1,4,1:2:0:0:
349,111,263734,1,8,1:0:0:0:
46,229,263910,6,0,L|307:226,1,259.999988098145,4|4,1:2|1:3,0:0:0:0:
46,320,264440,2,0,L|186:317,1,129.999994049073,8|4,1:0|1:3,0:0:0:0:
354,237,264793,2,0,L|214:234,1,129.999994049073,8|4,1:0|1:3,0:0:0:0:
462,148,265146,1,10,1:0:0:0:
144,200,265322,1,8,1:3:0:0:
465,311,265499,6,0,L|314:281,1,129.999994049073,6|8,1:1|3:0,0:0:0:0:
62,335,265851,1,8,1:0:0:0:
390,232,266028,2,0,P|462:193|377:78,1,259.999988098145,6|4,1:0|1:3,0:0:0:0:
128,127,266557,1,10,1:0:0:0:
385,132,266734,1,4,1:3:0:0:
43,191,266910,1,4,1:2:0:0:
256,192,268362,12,2,272273,0:0:0:0:
256,192,272402,12,2,277963,0:0:0:0:
