osu file format v14

[General]
AudioFilename: audio.mp3
AudioLeadIn: 0
PreviewTime: 234294
Countdown: 0
SampleSet: Soft
StackLeniency: 0.7
Mode: 3
LetterboxInBreaks: 0
SpecialStyle: 0
WidescreenStoryboard: 1

[Editor]
Bookmarks: 93015,167475,236217
DistanceSpacing: 0.5
BeatDivisor: 4
GridSize: 32
TimelineZoom: 1.599999

[Metadata]
Title:Muishiki Requiem
TitleUnicode:無意識レクイエム
Artist:ShinRa-Bansho
ArtistUnicode:森羅万象
Creator:fvrex
Version:Grotesque Lullaby
Source:東方地靈殿 ~ Subterranean Animism.
Tags:東方project touhou project th11 SA reitasai15 ZUN 上海アリス幻樂団 team shanghai alice unconscious japanese video game xtrippin yukari_sama atian540 famoss あよ ayo kaztora シンクロ2 ハルトマンの妖怪少女 hartmann's youkai girl komeiji koishi extra stage pop j-pop jpop rock j-rock jrock SBCD-011
BeatmapID:2624441
BeatmapSetID:1262661

[Difficulty]
HPDrainRate:8.5
CircleSize:4
OverallDifficulty:8.5
ApproachRate:5
SliderMultiplier:1.4
SliderTickRate:1

[Events]
//Background and Video events
0,0,"bg.jpg",0,0
//Break Periods
//Storyboard Layer 0 (Background)
//Storyboard Layer 1 (Fail)
//Storyboard Layer 2 (Pass)
//Storyboard Layer 3 (Foreground)
//Storyboard Layer 4 (Overlay)
//Storyboard Sound Samples

[TimingPoints]
1748,655.737704918033,3,2,1,50,1,0
1748,-46.9483568075117,3,2,1,50,0,0
16502,983.606557377049,3,2,1,50,1,0
16502,-31.25,3,2,1,50,0,0
16993,441.176470588235,3,2,1,50,1,0
16993,-69.9300699300699,3,2,1,50,0,0
17434,487.80487804878,3,2,1,50,1,0
17434,-62.8930817610063,3,2,1,50,0,0
17677,631.578947368421,3,2,1,50,1,0
17677,-48.780487804878,3,2,1,50,0,0
18624,674.536256323777,4,2,1,50,1,0
18624,-45.662100456621,4,2,1,50,0,0
21343,307.692307692308,4,2,1,50,1,0
26255,307.692307692308,4,2,1,50,1,0
73338,307.692307692308,4,2,1,50,1,1
93015,307.692307692308,3,2,1,50,1,0
107784,307.692307692308,4,2,1,50,1,0
134860,-100,4,2,1,50,0,1
144091,-100,4,2,1,50,0,0
145322,307.692307692308,4,2,1,50,1,0
167475,317.460317460317,3,2,1,50,1,0
167475,-97.0873786407767,3,2,1,50,0,0
169379,310.880829015544,3,2,1,50,1,0
169379,-99.009900990099,3,2,1,50,0,0
171244,304.568527918782,3,2,1,50,1,0
171244,-101.010101010101,3,2,1,50,0,0
173071,301.507537688442,3,2,1,50,1,0
173071,-102.040816326531,3,2,1,50,0,0
174880,298.507462686567,3,2,1,50,1,0
174880,-103.092783505155,3,2,1,50,0,0
178462,289.855072463768,3,2,1,50,1,0
178462,-106.382978723404,3,2,1,50,0,0
179331,285.714285714286,3,2,1,50,1,0
179331,-107.52688172043,3,2,1,50,0,0
179759,338.983050847458,3,2,1,50,1,0
179759,-90.9090909090909,3,2,1,50,0,0
179928,285.714285714286,3,2,1,50,1,0
179928,-107.52688172043,3,2,1,50,0,0
180213,338.983050847458,3,2,1,50,1,0
180213,-90.9090909090909,3,2,1,50,0,0
180298,244.897959183673,3,2,1,50,1,0
180298,-125,3,2,1,50,0,0
180605,285.714285714286,3,2,1,50,1,0
180605,-107.52688172043,3,2,1,50,0,0
180748,309.278350515464,3,2,1,50,1,0
180748,-99.009900990099,3,2,1,50,0,0
181057,389.61038961039,3,2,1,50,1,0
181057,-78.740157480315,3,2,1,50,0,0
181154,295.566502463054,3,2,1,50,1,0
181154,-104.166666666667,3,2,1,50,0,0
181597,370.828182941904,3,2,1,50,1,0
181597,-82.6446280991736,3,2,1,50,0,0
181967,379.746835443038,3,2,1,50,1,0
181967,-81.3008130081301,3,2,1,50,0,0
182346,422.535211267606,3,2,1,50,1,0
182346,-72.992700729927,3,2,1,50,0,0
182769,395.256916996047,3,2,1,50,1,0
182769,-78.125,3,2,1,50,0,0
185141,307.692307692308,4,2,1,50,1,0
234987,307.692307692308,4,2,1,50,1,1
244525,-100,4,2,1,50,0,0
245140,-100,4,2,1,50,0,1
254525,-100,4,2,1,50,0,0

[HitObjects]
192,192,1666,5,0,0:0:0:0:
64,192,1747,1,0,0:0:0:0:
448,192,1747,1,0,0:0:0:0:
320,192,2075,1,0,0:0:0:0:
448,192,2075,1,0,0:0:0:0:
64,192,2403,1,0,0:0:0:0:
192,192,2403,1,0,0:0:0:0:
320,192,2567,1,0,0:0:0:0:
64,192,2731,1,0,0:0:0:0:
448,192,2731,1,0,0:0:0:0:
64,192,3059,1,0,0:0:0:0:
192,192,3059,1,0,0:0:0:0:
320,192,3387,1,0,0:0:0:0:
448,192,3387,1,0,0:0:0:0:
192,192,3551,1,0,0:0:0:0:
64,192,3715,1,0,0:0:0:0:
448,192,3715,1,0,0:0:0:0:
320,192,4043,1,0,0:0:0:0:
64,192,4370,1,0,0:0:0:0:
448,192,4370,1,0,0:0:0:0:
64,192,4698,1,0,0:0:0:0:
320,192,4698,1,0,0:0:0:0:
192,192,5026,1,0,0:0:0:0:
448,192,5354,1,0,0:0:0:0:
320,192,5354,1,0,0:0:0:0:
192,192,5682,1,0,0:0:0:0:
64,192,5682,1,0,0:0:0:0:
320,192,6010,1,0,0:0:0:0:
64,192,6010,1,0,0:0:0:0:
64,192,6338,1,0,0:0:0:0:
448,192,6338,1,0,0:0:0:0:
192,192,6502,1,0,0:0:0:0:
320,192,6666,1,0,0:0:0:0:
448,192,6666,1,0,0:0:0:0:
64,192,6993,1,0,0:0:0:0:
448,192,6993,1,0,0:0:0:0:
192,192,7321,1,0,0:0:0:0:
448,192,7321,1,0,0:0:0:0:
320,192,7485,1,0,0:0:0:0:
64,192,7649,1,0,0:0:0:0:
192,192,7649,1,0,0:0:0:0:
320,192,7977,1,0,0:0:0:0:
448,192,7977,1,0,0:0:0:0:
192,192,8305,1,0,0:0:0:0:
448,192,8305,1,0,0:0:0:0:
64,192,8633,1,0,0:0:0:0:
192,192,8633,1,0,0:0:0:0:
448,192,8961,1,0,0:0:0:0:
320,192,9288,1,0,0:0:0:0:
64,192,9616,1,0,0:0:0:0:
192,192,9616,1,0,0:0:0:0:
320,192,9944,1,0,0:0:0:0:
448,192,9944,1,0,0:0:0:0:
64,192,10272,1,0,0:0:0:0:
448,192,10272,1,0,0:0:0:0:
320,192,10436,1,0,0:0:0:0:
64,192,10600,1,0,0:0:0:0:
192,192,10600,1,0,0:0:0:0:
64,192,10928,1,0,0:0:0:0:
320,192,10928,1,0,0:0:0:0:
320,192,11256,1,0,0:0:0:0:
448,192,11256,1,0,0:0:0:0:
192,192,11420,1,0,0:0:0:0:
64,192,11584,1,0,0:0:0:0:
448,192,11584,1,0,0:0:0:0:
192,192,11911,1,0,0:0:0:0:
320,192,11911,1,0,0:0:0:0:
64,192,12239,1,0,0:0:0:0:
192,192,12239,1,0,0:0:0:0:
320,192,12403,1,0,0:0:0:0:
64,192,12567,1,0,0:0:0:0:
448,192,12567,1,0,0:0:0:0:
192,192,12895,1,0,0:0:0:0:
320,192,13223,1,0,0:0:0:0:
448,192,13223,1,0,0:0:0:0:
192,192,13551,1,0,0:0:0:0:
448,192,13551,1,0,0:0:0:0:
64,192,13879,1,0,0:0:0:0:
192,192,13879,1,0,0:0:0:0:
64,192,14207,1,0,0:0:0:0:
448,192,14207,1,0,0:0:0:0:
192,192,14370,1,0,0:0:0:0:
320,192,14534,1,0,0:0:0:0:
448,192,14534,1,0,0:0:0:0:
64,192,14862,1,0,0:0:0:0:
320,192,14862,1,0,0:0:0:0:
64,192,15190,1,0,0:0:0:0:
448,192,15190,1,0,0:0:0:0:
320,192,15354,1,0,0:0:0:0:
64,192,15518,1,0,0:0:0:0:
192,192,15518,1,0,0:0:0:0:
192,192,15846,1,0,0:0:0:0:
320,192,15846,1,0,0:0:0:0:
320,192,16174,1,0,0:0:0:0:
448,192,16174,1,0,0:0:0:0:
192,192,16338,1,0,0:0:0:0:
64,192,16502,128,0,17434:0:0:0:0:
448,192,16502,1,0,0:0:0:0:
192,192,16993,1,0,0:0:0:0:
448,192,17213,1,0,0:0:0:0:
320,192,17434,1,0,0:0:0:0:
192,192,17677,1,0,0:0:0:0:
64,192,17992,1,0,0:0:0:0:
448,192,18624,1,0,0:0:0:0:
64,192,21343,1,0,0:0:0:100:tick.wav
320,192,21343,1,0,0:0:0:0:
448,192,21343,1,0,0:0:0:0:
192,192,21496,1,0,0:0:0:0:
320,192,21650,1,0,0:0:0:100:tick.wav
64,192,21804,1,0,0:0:0:0:
192,192,21804,1,0,0:0:0:0:
64,192,22112,1,0,0:0:0:0:
448,192,22112,1,0,0:0:0:0:
192,192,22419,1,0,0:0:0:0:
320,192,22419,1,0,0:0:0:0:
64,192,22573,1,0,0:0:0:100:tick.wav
320,192,22573,1,0,0:0:0:0:
448,192,22573,1,0,0:0:0:0:
192,192,22727,1,0,0:0:0:0:
320,192,22881,1,0,0:0:0:100:tick.wav
64,192,23035,1,0,0:0:0:0:
192,192,23035,1,0,0:0:0:0:
448,192,23035,1,0,0:0:0:0:
320,192,23189,1,0,0:0:0:100:tick.wav
64,192,23343,1,0,0:0:0:0:
448,192,23343,1,0,0:0:0:0:
192,192,23496,1,0,0:0:0:100:tick.wav
320,192,23650,1,0,0:0:0:0:
64,192,23804,1,0,0:0:0:100:tick.wav
192,192,23804,1,0,0:0:0:0:
448,192,23804,1,0,0:0:0:0:
320,192,23958,1,0,0:0:0:0:
192,192,24112,1,0,0:0:0:100:tick.wav
320,192,24266,1,0,0:0:0:0:
448,192,24266,1,0,0:0:0:0:
64,192,24573,1,0,0:0:0:0:
448,192,24573,1,0,0:0:0:0:
192,192,24881,1,0,0:0:0:0:
320,192,24881,1,0,0:0:0:0:
64,192,25035,1,0,0:0:0:100:tick.wav
192,192,25035,1,0,0:0:0:0:
448,192,25035,1,0,0:0:0:0:
64,192,25496,1,0,0:0:0:0:
320,192,25496,1,0,0:0:0:0:
448,192,25496,1,0,0:0:0:0:
192,192,25919,1,0,0:0:0:0:
64,192,25958,128,0,26189:0:0:0:100:tick.wav
320,192,25958,128,0,26189:0:0:0:70:LR_Snare Clap Low_EDIT.wav
448,192,25958,128,0,26189:0:0:0:0:
64,192,26255,1,2,0:0:0:0:
192,192,26255,1,4,0:0:0:0:
320,192,26255,1,0,0:0:0:0:
448,192,26255,1,0,0:0:0:0:
192,192,26408,1,0,0:0:0:0:
448,192,26408,1,0,0:0:0:0:
64,192,26562,1,8,0:0:0:0:
320,192,26562,1,0,0:0:0:70:HHOpen.wav
448,192,26562,1,0,0:0:0:0:
320,192,26716,128,0,26870:0:0:0:0:
64,192,26870,1,2,0:0:0:0:
192,192,26870,1,0,0:0:0:0:
192,192,27024,128,2,27178:0:0:0:0:
448,192,27024,1,0,0:0:0:0:
64,192,27178,1,8,0:0:0:0:
320,192,27178,1,0,0:0:0:70:HHOpen.wav
448,192,27178,1,0,0:0:0:0:
192,192,27331,1,0,0:0:0:0:
320,192,27485,1,2,0:0:0:0:
448,192,27485,1,0,0:0:0:0:
192,192,27639,1,2,0:0:0:0:
320,192,27639,1,0,0:0:0:0:
64,192,27793,1,8,0:0:0:0:
192,192,27793,1,0,0:0:0:70:HHOpen.wav
448,192,27793,1,0,0:0:0:0:
320,192,27947,1,2,0:0:0:0:
448,192,27947,1,0,0:0:0:0:
192,192,28101,1,0,0:0:0:0:
320,192,28178,1,0,0:0:0:70:LR_Snare Drum.wav
64,192,28255,1,2,0:0:0:0:
192,192,28255,1,0,0:0:0:0:
64,192,28408,1,8,0:0:0:0:
320,192,28408,1,0,0:0:0:70:HHOpen.wav
448,192,28408,1,0,0:0:0:0:
320,192,28562,1,0,0:0:0:0:
192,192,28716,1,2,0:0:0:0:
448,192,28716,1,0,0:0:0:0:
64,192,28870,1,0,0:0:0:0:
320,192,28870,1,0,0:0:0:0:
64,192,29024,1,8,0:0:0:0:
192,192,29024,1,0,0:0:0:70:HHOpen.wav
448,192,29024,1,0,0:0:0:0:
192,192,29178,128,0,29331:0:0:0:0:
320,192,29331,1,2,0:0:0:0:
448,192,29331,1,0,0:0:0:0:
64,192,29485,1,2,0:0:0:0:
320,192,29485,128,0,29639:0:0:0:0:
64,192,29639,1,8,0:0:0:0:
192,192,29639,1,0,0:0:0:70:HHOpen.wav
448,192,29639,1,0,0:0:0:0:
320,192,29793,1,0,0:0:0:0:
64,192,29947,1,2,0:0:0:0:
192,192,29947,1,0,0:0:0:0:
192,192,30101,1,2,0:0:0:0:
320,192,30101,1,0,0:0:0:0:
64,192,30255,1,8,0:0:0:0:
320,192,30255,1,2,0:0:0:0:
448,192,30255,1,0,0:0:0:70:HHOpen.wav
64,192,30408,1,2,0:0:0:0:
192,192,30408,1,0,0:0:0:0:
320,192,30562,1,0,0:0:0:0:
192,192,30639,1,0,0:0:0:70:LR_Snare Drum.wav
320,192,30716,1,2,0:0:0:0:
448,192,30716,1,0,0:0:0:0:
64,192,30870,1,8,0:0:0:0:
192,192,30870,1,0,0:0:0:70:HHOpen.wav
448,192,30870,1,0,0:0:0:0:
320,192,31024,1,0,0:0:0:0:
64,192,31178,1,4,0:0:0:0:
192,192,31178,1,2,0:0:0:0:
320,192,31178,1,0,0:0:0:0:
448,192,31178,1,0,0:0:0:0:
192,192,31331,1,0,0:0:0:0:
448,192,31331,1,0,0:0:0:0:
64,192,31485,1,8,0:0:0:0:
320,192,31485,1,0,0:0:0:70:HHOpen.wav
448,192,31485,1,0,0:0:0:0:
320,192,31639,128,0,31793:0:0:0:0:
64,192,31793,1,2,0:0:0:0:
192,192,31793,1,0,0:0:0:0:
192,192,31947,128,2,32101:0:0:0:0:
448,192,31947,1,0,0:0:0:0:
64,192,32101,1,8,0:0:0:0:
320,192,32101,1,0,0:0:0:70:HHOpen.wav
448,192,32101,1,0,0:0:0:0:
192,192,32255,1,0,0:0:0:0:
320,192,32408,1,2,0:0:0:0:
448,192,32408,1,0,0:0:0:0:
320,192,32562,1,2,0:0:0:0:
448,192,32562,1,0,0:0:0:0:
64,192,32716,1,8,0:0:0:0:
192,192,32716,1,0,0:0:0:70:HHOpen.wav
448,192,32716,1,0,0:0:0:0:
64,192,32870,1,2,0:0:0:0:
320,192,32870,1,0,0:0:0:0:
192,192,33024,1,0,0:0:0:0:
320,192,33101,1,0,0:0:0:70:LR_Snare Drum.wav
64,192,33178,1,2,0:0:0:0:
192,192,33178,1,0,0:0:0:0:
64,192,33331,1,8,0:0:0:0:
320,192,33331,1,0,0:0:0:70:HHOpen.wav
448,192,33331,1,0,0:0:0:0:
320,192,33485,1,0,0:0:0:0:
64,192,33639,1,2,0:0:0:0:
448,192,33639,1,0,0:0:0:0:
320,192,33793,1,0,0:0:0:0:
64,192,33947,1,8,0:0:0:0:
320,192,33947,1,0,0:0:0:70:HHOpen.wav
448,192,33947,1,0,0:0:0:0:
192,192,34101,1,0,0:0:0:0:
320,192,34255,1,2,0:0:0:0:
448,192,34255,1,0,0:0:0:0:
320,192,34408,1,2,0:0:0:0:
448,192,34408,1,0,0:0:0:0:
64,192,34562,1,8,0:0:0:0:
192,192,34562,1,0,0:0:0:70:HHOpen.wav
448,192,34562,1,0,0:0:0:0:
64,192,34716,1,2,0:0:0:0:
192,192,34716,1,4,0:0:0:0:
320,192,34716,1,0,0:0:0:0:
448,192,34716,1,0,0:0:0:0:
64,192,35024,1,8,0:0:0:0:
320,192,35024,1,0,0:0:0:0:
448,192,35024,1,0,0:0:0:0:
64,192,35178,1,0,0:0:0:70:tom01.wav
192,192,35178,1,0,0:0:0:0:
320,192,35331,1,2,0:0:0:0:
448,192,35331,1,0,0:0:0:0:
64,192,35485,1,8,0:0:0:0:
320,192,35485,1,2,0:0:0:0:
448,192,35485,1,0,0:0:0:0:
320,192,35639,1,2,0:0:0:0:
448,192,35639,1,0,0:0:0:0:
64,192,35793,1,8,0:0:0:0:
192,192,35793,1,2,0:0:0:0:
448,192,35793,1,0,0:0:0:0:
64,192,35947,1,2,0:0:0:0:
192,192,35947,1,0,0:0:0:0:
64,192,36101,1,2,0:0:0:0:
192,192,36101,1,4,0:0:0:0:
320,192,36101,1,0,0:0:0:0:
448,192,36101,1,0,0:0:0:0:
320,192,36408,1,2,0:0:0:0:
448,192,36408,1,0,0:0:0:0:
320,192,36716,1,2,0:0:0:0:
448,192,36716,1,0,0:0:0:0:
320,192,37024,1,2,0:0:0:0:
448,192,37024,1,0,0:0:0:0:
320,192,37331,1,2,0:0:0:0:
448,192,37331,1,0,0:0:0:0:
320,192,37639,1,2,0:0:0:0:
448,192,37639,1,0,0:0:0:0:
320,192,37947,1,2,0:0:0:0:
448,192,37947,1,0,0:0:0:0:
320,192,38255,1,2,0:0:0:0:
448,192,38255,1,0,0:0:0:0:
64,192,38562,1,2,0:0:0:0:
192,192,38562,1,0,0:0:0:0:
64,192,38870,1,2,0:0:0:0:
192,192,38870,1,0,0:0:0:0:
64,192,39178,1,2,0:0:0:0:
192,192,39178,1,0,0:0:0:0:
64,192,39485,1,2,0:0:0:0:
192,192,39485,1,0,0:0:0:0:
64,192,39793,1,2,0:0:0:0:
192,192,39793,1,0,0:0:0:0:
64,192,40101,1,2,0:0:0:0:
192,192,40101,1,0,0:0:0:0:
64,192,40408,1,2,0:0:0:0:
192,192,40408,1,0,0:0:0:0:
64,192,40716,1,2,0:0:0:0:
192,192,40716,1,0,0:0:0:0:
320,192,41024,1,2,0:0:0:0:
448,192,41024,1,0,0:0:0:0:
320,192,41331,1,2,0:0:0:0:
448,192,41331,1,0,0:0:0:0:
320,192,41639,1,2,0:0:0:0:
448,192,41639,1,0,0:0:0:0:
320,192,41947,1,2,0:0:0:0:
448,192,41947,1,0,0:0:0:0:
320,192,42255,1,2,0:0:0:0:
448,192,42255,1,0,0:0:0:0:
320,192,42562,1,2,0:0:0:0:
448,192,42562,1,0,0:0:0:0:
320,192,42870,1,2,0:0:0:0:
448,192,42870,1,0,0:0:0:0:
64,192,43024,1,2,0:0:0:0:
192,192,43024,1,0,0:0:0:0:
64,192,43178,1,8,0:0:0:0:
320,192,43178,1,4,0:0:0:0:
448,192,43178,1,0,0:0:0:0:
64,192,43485,1,2,0:0:0:0:
192,192,43485,1,4,0:0:0:0:
320,192,43485,1,0,0:0:0:0:
448,192,43485,1,0,0:0:0:0:
64,192,43793,1,8,0:0:0:0:
192,192,43793,1,0,0:0:0:0:
448,192,43793,1,0,0:0:0:0:
320,192,43947,1,2,0:0:0:0:
448,192,43947,1,0,0:0:0:0:
192,192,44101,1,0,0:0:0:70:HHOpen.wav
64,192,44255,1,2,0:0:0:0:
192,192,44255,1,0,0:0:0:0:
64,192,44408,1,8,0:0:0:0:
320,192,44408,1,0,0:0:0:0:
448,192,44408,1,0,0:0:0:0:
64,192,44562,1,2,0:0:0:0:
192,192,44562,1,4,0:0:0:0:
320,192,44562,1,0,0:0:0:0:
448,192,44562,1,0,0:0:0:0:
192,192,44870,1,2,0:0:0:0:
320,192,44870,1,0,0:0:0:0:
64,192,45024,1,8,0:0:0:0:
320,192,45024,1,0,0:0:0:0:
448,192,45024,1,0,0:0:0:0:
192,192,45178,1,2,0:0:0:0:
320,192,45178,1,0,0:0:0:0:
64,192,45331,1,0,0:0:0:70:tom01.wav
448,192,45331,1,0,0:0:0:0:
320,192,45408,1,0,0:0:0:70:tom02.wav
64,192,45485,1,0,0:0:0:70:tom03.wav
192,192,45485,1,0,0:0:0:0:
320,192,45562,1,0,0:0:0:70:tom04.wav
64,192,45639,1,8,0:0:0:0:
192,192,45639,1,4,0:0:0:0:
448,192,45639,1,0,0:0:0:0:
64,192,45947,1,2,0:0:0:0:
192,192,45947,1,4,0:0:0:0:
320,192,45947,1,0,0:0:0:0:
448,192,45947,1,0,0:0:0:0:
320,192,46101,1,0,0:0:0:0:
64,192,46255,1,8,0:0:0:0:
192,192,46255,1,2,0:0:0:0:
448,192,46255,1,0,0:0:0:0:
192,192,46408,1,0,0:0:0:0:
320,192,46562,1,2,0:0:0:0:
448,192,46562,1,0,0:0:0:0:
192,192,46716,1,0,0:0:0:0:
64,192,46870,1,8,0:0:0:0:
320,192,46870,1,2,0:0:0:0:
448,192,46870,1,0,0:0:0:0:
320,192,47024,1,0,0:0:0:0:
64,192,47178,1,2,0:0:0:0:
448,192,47178,1,0,0:0:0:0:
192,192,47331,1,0,0:0:0:0:
64,192,47485,1,8,0:0:0:0:
320,192,47485,1,2,0:0:0:0:
448,192,47485,1,0,0:0:0:0:
448,192,47639,1,0,0:0:0:0:
64,192,47793,1,2,0:0:0:0:
192,192,47793,1,0,0:0:0:0:
320,192,47947,1,0,0:0:0:0:
64,192,48101,1,8,0:0:0:0:
192,192,48101,1,2,0:0:0:0:
448,192,48101,1,0,0:0:0:0:
64,192,48255,1,0,0:0:0:0:
320,192,48408,1,2,0:0:0:0:
448,192,48408,1,0,0:0:0:0:
192,192,48562,1,0,0:0:0:0:
64,192,48716,1,8,0:0:0:0:
320,192,48716,1,2,0:0:0:0:
448,192,48716,1,0,0:0:0:0:
320,192,48870,1,0,0:0:0:0:
448,192,48947,1,0,0:0:0:70:LR_Snare Drum.wav
64,192,49024,1,2,0:0:0:0:
192,192,49024,1,0,0:0:0:0:
448,192,49101,1,0,0:0:0:70:LR_Snare Drum.wav
320,192,49178,1,0,0:0:0:0:
64,192,49331,1,8,0:0:0:0:
192,192,49331,1,2,0:0:0:0:
448,192,49331,1,0,0:0:0:0:
192,192,49485,1,0,0:0:0:0:
64,192,49639,1,2,0:0:0:0:
448,192,49639,1,0,0:0:0:0:
320,192,49793,1,0,0:0:0:0:
64,192,49947,1,8,0:0:0:0:
192,192,49947,1,2,0:0:0:0:
448,192,49947,1,0,0:0:0:0:
64,192,50101,1,0,0:0:0:0:
320,192,50255,1,2,0:0:0:0:
448,192,50255,1,0,0:0:0:0:
64,192,50331,1,0,0:0:0:0:
192,192,50408,1,0,0:0:0:0:
64,192,50562,1,8,0:0:0:0:
320,192,50562,1,2,0:0:0:0:
448,192,50562,1,0,0:0:0:0:
448,192,50716,1,0,0:0:0:0:
64,192,50870,1,2,0:0:0:0:
192,192,50870,1,0,0:0:0:0:
320,192,51024,1,0,0:0:0:0:
64,192,51178,1,2,0:0:0:0:
192,192,51178,1,8,0:0:0:0:
448,192,51178,1,0,0:0:0:0:
192,192,51331,1,0,0:0:0:0:
64,192,51408,1,0,0:0:0:70:LR_Snare Drum.wav
320,192,51485,1,2,0:0:0:0:
448,192,51485,1,0,0:0:0:0:
64,192,51562,1,0,0:0:0:70:LR_Snare Drum.wav
192,192,51639,1,0,0:0:0:0:
64,192,51793,1,2,0:0:0:0:
320,192,51793,1,8,0:0:0:0:
448,192,51793,1,0,0:0:0:0:
320,192,51947,1,0,0:0:0:0:
64,192,52101,1,2,0:0:0:0:
448,192,52101,1,0,0:0:0:0:
192,192,52255,1,0,0:0:0:0:
64,192,52408,1,2,0:0:0:0:
320,192,52408,1,8,0:0:0:0:
448,192,52408,1,0,0:0:0:0:
448,192,52562,1,0,0:0:0:0:
64,192,52716,1,2,0:0:0:0:
192,192,52716,1,0,0:0:0:0:
320,192,52870,1,0,0:0:0:0:
64,192,53024,1,2,0:0:0:0:
192,192,53024,1,8,0:0:0:0:
448,192,53024,1,0,0:0:0:0:
64,192,53178,1,0,0:0:0:0:
320,192,53331,1,2,0:0:0:0:
448,192,53331,1,0,0:0:0:0:
192,192,53485,1,0,0:0:0:0:
64,192,53639,1,2,0:0:0:0:
320,192,53639,1,8,0:0:0:0:
448,192,53639,1,0,0:0:0:0:
320,192,53793,1,0,0:0:0:0:
64,192,53947,1,2,0:0:0:0:
448,192,53947,1,0,0:0:0:0:
192,192,54101,1,2,0:0:0:0:
320,192,54101,1,0,0:0:0:0:
64,192,54255,1,8,0:0:0:0:
320,192,54255,1,0,0:0:0:0:
448,192,54255,1,0,0:0:0:0:
64,192,54408,1,2,0:0:0:0:
192,192,54408,1,4,0:0:0:0:
320,192,54408,1,0,0:0:0:0:
448,192,54408,1,0,0:0:0:0:
320,192,54716,1,2,0:0:0:0:
448,192,54716,1,0,0:0:0:0:
64,192,54870,1,0,0:0:0:70:tom01.wav
320,192,54870,1,0,0:0:0:0:
448,192,54870,1,0,0:0:0:0:
64,192,55024,1,2,0:0:0:0:
192,192,55024,1,0,0:0:0:0:
64,192,55178,1,8,0:0:0:0:
192,192,55178,1,0,0:0:0:0:
448,192,55178,1,0,0:0:0:0:
320,192,55331,1,0,0:0:0:70:tom02.wav
448,192,55331,1,0,0:0:0:0:
192,192,55485,1,0,0:0:0:70:tom03.wav
448,192,55485,1,0,0:0:0:0:
64,192,55639,1,0,0:0:0:70:tom03.wav
192,192,55639,1,0,0:0:0:0:
64,192,55793,1,2,0:0:0:0:
320,192,55793,1,4,0:0:0:0:
448,192,55793,1,0,0:0:0:0:
192,192,56101,1,0,0:0:0:70:ride04.wav
320,192,56255,1,2,0:0:0:0:
448,192,56255,1,0,0:0:0:0:
64,192,56408,1,2,0:0:0:0:
192,192,56408,1,0,0:0:0:0:
64,192,56716,1,8,0:0:0:0:
320,192,56716,1,0,0:0:0:70:ride04.wav
448,192,56716,1,0,0:0:0:0:
64,192,57024,1,2,0:0:0:0:
448,192,57024,1,0,0:0:0:0:
320,192,57331,1,0,0:0:0:70:ride04.wav
64,192,57485,1,2,0:0:0:0:
192,192,57485,1,0,0:0:0:0:
320,192,57639,1,2,0:0:0:0:
448,192,57639,1,0,0:0:0:0:
64,192,57947,1,8,0:0:0:0:
192,192,57947,1,0,0:0:0:70:ride04.wav
448,192,57947,1,0,0:0:0:0:
320,192,58255,1,2,0:0:0:0:
448,192,58255,1,0,0:0:0:0:
192,192,58562,1,0,0:0:0:70:ride04.wav
320,192,58716,1,2,0:0:0:0:
448,192,58716,1,0,0:0:0:0:
64,192,58870,1,2,0:0:0:0:
448,192,58870,1,0,0:0:0:0:
64,192,59178,1,8,0:0:0:0:
320,192,59178,1,0,0:0:0:70:ride04.wav
448,192,59178,1,0,0:0:0:0:
64,192,59331,1,2,0:0:0:0:
192,192,59331,1,0,0:0:0:0:
64,192,59639,1,2,0:0:0:0:
192,192,59639,1,0,0:0:0:0:
320,192,59793,1,0,0:0:0:70:ride04.wav
64,192,59947,1,2,0:0:0:0:
192,192,59947,1,0,0:0:0:0:
64,192,60101,1,2,0:0:0:0:
448,192,60101,1,0,0:0:0:0:
64,192,60408,1,8,0:0:0:0:
192,192,60408,1,4,0:0:0:0:
448,192,60408,1,0,0:0:0:0:
64,192,60716,1,4,0:0:0:0:
320,192,60716,1,2,0:0:0:0:
448,192,60716,1,0,0:0:0:0:
320,192,61024,1,0,0:0:0:70:ride04.wav
64,192,61178,1,2,0:0:0:0:
192,192,61178,1,0,0:0:0:0:
320,192,61331,1,2,0:0:0:0:
448,192,61331,1,0,0:0:0:0:
64,192,61639,1,8,0:0:0:0:
192,192,61639,1,0,0:0:0:70:ride04.wav
448,192,61639,1,0,0:0:0:0:
320,192,61947,1,2,0:0:0:0:
448,192,61947,1,0,0:0:0:0:
192,192,62255,1,0,0:0:0:70:ride04.wav
320,192,62408,1,2,0:0:0:0:
448,192,62408,1,0,0:0:0:0:
64,192,62562,1,2,0:0:0:0:
192,192,62562,1,0,0:0:0:0:
64,192,62716,1,8,0:0:0:0:
320,192,62716,1,0,0:0:0:0:
448,192,62716,1,0,0:0:0:0:
320,192,62870,1,2,0:0:0:0:
448,192,62870,1,0,0:0:0:0:
64,192,63024,1,2,0:0:0:0:
192,192,63024,1,0,0:0:0:0:
64,192,63178,1,2,0:0:0:0:
320,192,63178,1,4,0:0:0:0:
448,192,63178,1,0,0:0:0:0:
192,192,64101,1,0,0:0:0:0:
320,192,64255,1,0,0:0:0:0:
64,192,64408,1,4,0:0:0:0:
192,192,64408,1,2,0:0:0:0:
448,192,64408,1,0,0:0:0:0:
320,192,65331,1,0,0:0:0:0:
192,192,65485,1,0,0:0:0:0:
64,192,65639,1,2,0:0:0:0:
320,192,65639,1,4,0:0:0:0:
448,192,65639,1,0,0:0:0:0:
64,192,66255,1,0,0:0:0:70:tom02.wav
192,192,66255,1,0,0:0:0:0:
192,192,66408,1,0,0:0:0:70:tom03.wav
448,192,66408,1,0,0:0:0:0:
64,192,66562,1,8,0:0:0:0:
320,192,66562,1,0,0:0:0:0:
448,192,66562,1,0,0:0:0:0:
64,192,66716,1,2,0:0:0:0:
192,192,66716,1,4,0:0:0:0:
320,192,66716,1,0,0:0:0:0:
448,192,66716,1,0,0:0:0:0:
64,192,67024,1,2,0:0:0:0:
320,192,67024,1,0,0:0:0:70:HHOpen.wav
64,192,67178,1,8,0:0:0:0:
192,192,67178,1,0,0:0:0:0:
448,192,67178,1,0,0:0:0:0:
64,192,67331,1,2,0:0:0:0:
192,192,67331,1,4,0:0:0:0:
320,192,67331,1,0,0:0:0:0:
448,192,67331,1,0,0:0:0:0:
192,192,67639,1,2,0:0:0:0:
448,192,67639,1,4,0:0:0:0:
64,192,67793,1,8,0:0:0:0:
320,192,67793,1,0,0:0:0:0:
448,192,67793,1,0,0:0:0:0:
64,192,67947,1,4,0:0:0:0:
192,192,67947,1,2,0:0:0:0:
320,192,67947,1,0,0:0:0:0:
448,192,67947,1,0,0:0:0:0:
192,192,68255,1,8,0:0:0:0:
320,192,68255,1,0,0:0:0:0:
64,192,68408,1,8,0:0:0:0:
192,192,68408,1,0,0:0:0:0:
448,192,68408,1,0,0:0:0:0:
64,192,68562,1,8,0:0:0:0:
320,192,68562,1,0,0:0:0:0:
448,192,68562,1,0,0:0:0:0:
192,192,68716,1,8,0:0:0:0:
320,192,68716,1,0,0:0:0:0:
448,192,68716,1,0,0:0:0:0:
192,192,69331,128,0,70485:0:0:0:0:
320,192,70485,128,0,70639:0:0:0:0:
320,192,73024,128,0,73338:0:0:0:0:
64,192,73338,1,4,0:0:0:0:
192,192,73338,1,8,0:0:0:0:
448,192,73338,1,2,0:0:0:0:
192,192,73491,1,0,0:0:0:0:
64,192,73645,1,8,0:0:0:0:
320,192,73645,1,0,0:0:0:70:HHOpen.wav
448,192,73645,1,0,0:0:0:0:
448,192,73799,1,0,0:0:0:0:
64,192,73953,1,8,0:0:0:0:
192,192,73953,1,0,0:0:0:70:HHOpen.wav
320,192,73953,1,0,0:0:0:0:
64,192,74107,1,2,0:0:0:0:
448,192,74107,1,0,0:0:0:0:
192,192,74261,1,8,0:0:0:0:
320,192,74261,1,0,0:0:0:70:HHOpen.wav
448,192,74261,1,0,0:0:0:0:
64,192,74414,1,2,0:0:0:0:
320,192,74414,1,0,0:0:0:0:
64,192,74568,128,8,74876:0:0:0:0:
320,192,74568,1,0,0:0:0:70:HHOpen.wav
448,192,74568,1,0,0:0:0:0:
192,192,74876,1,8,0:0:0:0:
448,192,74876,128,0,75184:0:0:0:70:HHOpen.wav
64,192,75184,1,8,0:0:0:0:
192,192,75184,128,0,75491:0:0:0:70:HHOpen.wav
320,192,75184,1,0,0:0:0:0:
64,192,75338,1,2,0:0:0:0:
448,192,75338,1,0,0:0:0:0:
320,192,75491,1,8,0:0:0:0:
448,192,75491,1,0,0:0:0:70:HHOpen.wav
64,192,75645,1,2,0:0:0:0:
192,192,75645,1,0,0:0:0:0:
64,192,75799,1,8,0:0:0:0:
320,192,75799,1,0,0:0:0:70:HHOpen.wav
448,192,75799,1,0,0:0:0:0:
320,192,75953,1,0,0:0:0:0:
64,192,76107,1,8,0:0:0:0:
192,192,76107,1,0,0:0:0:70:HHOpen.wav
448,192,76107,1,0,0:0:0:0:
64,192,76261,1,0,0:0:0:0:
192,192,76414,1,8,0:0:0:0:
320,192,76414,1,0,0:0:0:70:HHOpen.wav
448,192,76414,1,0,0:0:0:0:
64,192,76568,1,2,0:0:0:0:
448,192,76568,1,0,0:0:0:0:
64,192,76722,1,8,0:0:0:0:
192,192,76722,1,0,0:0:0:70:HHOpen.wav
320,192,76722,1,0,0:0:0:0:
192,192,76876,1,2,0:0:0:0:
448,192,76876,1,0,0:0:0:0:
64,192,77030,1,8,0:0:0:0:
320,192,77030,128,0,77338:0:0:0:70:HHOpen.wav
448,192,77030,1,0,0:0:0:0:
64,192,77338,1,8,0:0:0:0:
192,192,77338,128,0,77645:0:0:0:70:HHOpen.wav
448,192,77338,1,0,0:0:0:0:
64,192,77645,1,8,0:0:0:0:
320,192,77645,1,0,0:0:0:70:HHOpen.wav
448,192,77645,128,0,77953:0:0:0:0:
64,192,77799,1,2,0:0:0:0:
192,192,77799,1,0,0:0:0:0:
64,192,77953,1,8,0:0:0:0:
192,192,77953,1,4,0:0:0:0:
320,192,77953,1,0,0:0:0:0:
320,192,78107,1,2,0:0:0:0:
448,192,78107,1,0,0:0:0:0:
64,192,78261,1,4,0:0:0:0:
192,192,78261,1,8,0:0:0:0:
448,192,78261,1,0,0:0:0:0:
192,192,78414,1,0,0:0:0:0:
64,192,78568,1,8,0:0:0:0:
320,192,78568,1,0,0:0:0:70:HHOpen.wav
448,192,78568,1,0,0:0:0:0:
448,192,78722,1,0,0:0:0:0:
64,192,78876,1,8,0:0:0:0:
192,192,78876,1,0,0:0:0:70:HHOpen.wav
320,192,78876,1,0,0:0:0:0:
64,192,79030,1,2,0:0:0:0:
448,192,79030,1,0,0:0:0:0:
192,192,79184,1,8,0:0:0:0:
320,192,79184,1,0,0:0:0:70:HHOpen.wav
448,192,79184,1,0,0:0:0:0:
64,192,79338,1,2,0:0:0:0:
320,192,79338,1,0,0:0:0:0:
64,192,79491,1,8,0:0:0:0:
192,192,79491,1,0,0:0:0:70:HHOpen.wav
448,192,79491,1,0,0:0:0:0:
320,192,79645,1,0,0:0:0:0:
192,192,79722,1,0,0:0:0:70:tom03.wav
64,192,79799,1,0,0:0:0:70:tom01.wav
448,192,79799,1,0,0:0:0:0:
320,192,79953,1,0,0:0:0:70:tom01.wav
448,192,79953,1,0,0:0:0:0:
64,192,80107,1,0,0:0:0:70:tom02.wav
192,192,80107,1,0,0:0:0:0:
64,192,80261,1,0,0:0:0:70:tom02.wav
448,192,80261,1,0,0:0:0:0:
320,192,80414,1,0,0:0:0:70:tom03.wav
448,192,80414,1,0,0:0:0:0:
64,192,80568,1,0,0:0:0:70:tom04.wav
320,192,80568,1,0,0:0:0:0:
64,192,80722,1,2,0:0:0:0:
192,192,80722,1,4,0:0:0:0:
448,192,80722,1,0,0:0:0:0:
320,192,81030,1,0,0:0:0:0:
192,192,81184,1,0,0:0:0:0:
64,192,81338,1,2,0:0:0:0:
320,192,81338,1,4,0:0:0:0:
448,192,81338,1,0,0:0:0:0:
192,192,81645,1,0,0:0:0:0:
320,192,81799,1,0,0:0:0:0:
64,192,81953,1,4,0:0:0:0:
192,192,81953,1,2,0:0:0:0:
448,192,81953,1,0,0:0:0:0:
192,192,82261,1,2,0:0:0:0:
320,192,82261,1,4,0:0:0:0:
448,192,82261,1,0,0:0:0:0:
64,192,82568,1,4,0:0:0:0:
320,192,82568,128,2,82722:0:0:0:0:
448,192,82568,1,0,0:0:0:0:
192,192,82722,128,0,82876:0:0:0:0:
64,192,82876,1,8,0:0:0:0:
320,192,82876,1,4,0:0:0:0:
448,192,82876,1,0,0:0:0:0:
64,192,83184,1,4,0:0:0:0:
192,192,83184,1,2,0:0:0:0:
320,192,83184,1,0,0:0:0:0:
448,192,83184,1,0,0:0:0:0:
192,192,83338,1,2,0:0:0:0:
320,192,83338,1,0,0:0:0:0:
64,192,83491,1,8,0:0:0:0:
192,192,83491,1,0,0:0:0:70:HHOpen.wav
448,192,83491,1,0,0:0:0:0:
64,192,83645,1,2,0:0:0:0:
320,192,83645,128,4,83799:0:0:0:0:
192,192,83953,128,2,84107:0:0:0:0:
448,192,83953,1,0,0:0:0:0:
64,192,84107,1,8,0:0:0:0:
320,192,84107,1,0,0:0:0:70:HHOpen.wav
448,192,84107,1,0,0:0:0:0:
192,192,84261,1,2,0:0:0:0:
320,192,84261,1,0,0:0:0:0:
64,192,84414,1,2,0:0:0:0:
192,192,84414,1,4,0:0:0:0:
448,192,84414,1,0,0:0:0:0:
320,192,84568,1,2,0:0:0:0:
448,192,84568,1,0,0:0:0:0:
64,192,84722,1,8,0:0:0:0:
320,192,84722,1,0,0:0:0:70:HHOpen.wav
448,192,84722,1,0,0:0:0:0:
64,192,84876,1,2,0:0:0:0:
192,192,84876,1,0,0:0:0:0:
448,192,84953,1,0,0:0:0:0:
320,192,85030,1,0,0:0:0:0:
64,192,85107,1,0,0:0:0:70:LR_Snare Drum.wav
192,192,85107,1,0,0:0:0:0:
320,192,85184,1,2,0:0:0:0:
448,192,85184,1,0,0:0:0:0:
64,192,85338,1,8,0:0:0:0:
192,192,85338,1,0,0:0:0:70:HHOpen.wav
448,192,85338,1,0,0:0:0:0:
192,192,85491,1,0,0:0:0:70:ride04.wav
64,192,85645,1,2,0:0:0:0:
320,192,85645,1,4,0:0:0:0:
448,192,85645,1,0,0:0:0:0:
192,192,85799,1,2,0:0:0:0:
320,192,85799,1,0,0:0:0:0:
64,192,85953,1,8,0:0:0:0:
192,192,85953,1,0,0:0:0:70:HHOpen.wav
448,192,85953,1,0,0:0:0:0:
64,192,86107,1,4,0:0:0:0:
320,192,86107,128,2,86261:0:0:0:0:
192,192,86414,128,2,86568:0:0:0:0:
448,192,86414,1,0,0:0:0:0:
64,192,86568,1,8,0:0:0:0:
320,192,86568,1,0,0:0:0:70:HHOpen.wav
448,192,86568,1,0,0:0:0:0:
192,192,86722,1,2,0:0:0:0:
320,192,86722,1,0,0:0:0:0:
64,192,86876,1,4,0:0:0:0:
192,192,86876,1,2,0:0:0:0:
448,192,86876,1,0,0:0:0:0:
64,192,87030,1,2,0:0:0:0:
320,192,87030,1,0,0:0:0:0:
192,192,87107,1,0,0:0:0:0:
64,192,87184,1,8,0:0:0:0:
320,192,87184,1,0,0:0:0:70:HHOpen.wav
448,192,87184,1,0,0:0:0:0:
64,192,87338,1,2,0:0:0:0:
192,192,87338,1,0,0:0:0:0:
320,192,87414,1,0,0:0:0:0:
448,192,87491,1,0,0:0:0:0:
64,192,87568,1,0,0:0:0:70:LR_Snare Drum.wav
192,192,87568,1,0,0:0:0:0:
320,192,87645,1,2,0:0:0:0:
448,192,87645,1,0,0:0:0:0:
64,192,87799,1,8,0:0:0:0:
192,192,87799,1,0,0:0:0:70:HHOpen.wav
448,192,87799,1,0,0:0:0:0:
320,192,87953,1,0,0:0:0:70:ride04.wav
64,192,88107,1,4,0:0:0:0:
192,192,88107,1,2,0:0:0:0:
320,192,88107,1,0,0:0:0:0:
448,192,88107,1,0,0:0:0:0:
192,192,88261,1,2,0:0:0:0:
320,192,88261,1,0,0:0:0:0:
64,192,88414,1,8,0:0:0:0:
192,192,88414,1,0,0:0:0:70:HHOpen.wav
448,192,88414,1,0,0:0:0:0:
320,192,88568,128,2,88722:0:0:0:0:
64,192,88568,1,0,0:0:0:0:
448,192,88876,1,2,0:0:0:0:
192,192,88876,128,0,89030:0:0:0:0:
64,192,89030,1,8,0:0:0:0:
320,192,89030,1,0,0:0:0:70:HHOpen.wav
448,192,89030,1,0,0:0:0:0:
192,192,89184,1,2,0:0:0:0:
320,192,89184,1,0,0:0:0:0:
64,192,89338,1,2,0:0:0:0:
320,192,89338,1,4,0:0:0:0:
448,192,89338,1,0,0:0:0:0:
192,192,89491,1,0,0:0:0:70:tom01.wav
448,192,89568,1,0,0:0:0:70:tom01.wav
64,192,89645,1,0,0:0:0:70:tom02.wav
192,192,89722,1,0,0:0:0:70:tom02.wav
320,192,89799,1,2,0:0:0:0:
448,192,89799,1,0,0:0:0:0:
64,192,89876,1,2,0:0:0:0:
192,192,89876,1,0,0:0:0:0:
320,192,89953,1,0,0:0:0:70:tom03.wav
448,192,89953,1,0,0:0:0:0:
64,192,90030,1,0,0:0:0:70:tom02.wav
192,192,90107,1,2,0:0:0:0:
320,192,90107,1,0,0:0:0:0:
448,192,90184,1,2,0:0:0:0:
64,192,90261,1,8,0:0:0:0:
192,192,90261,1,4,0:0:0:0:
320,192,90261,1,0,0:0:0:0:
192,192,90414,1,0,0:0:0:0:
64,192,90568,1,4,0:0:0:0:
320,192,90568,1,2,0:0:0:0:
448,192,90568,1,0,0:0:0:0:
64,192,90876,1,0,0:0:0:70:tom02.wav
192,192,90876,1,0,0:0:0:0:
320,192,91030,1,0,0:0:0:0:
64,192,91184,1,2,0:0:0:0:
448,192,91184,1,0,0:0:0:0:
192,192,91338,1,0,0:0:0:0:
320,192,91491,1,2,0:0:0:0:
448,192,91491,1,0,0:0:0:0:
192,192,91645,1,0,0:0:0:0:
64,192,91799,1,2,0:0:0:0:
320,192,91799,1,4,0:0:0:0:
448,192,91799,1,0,0:0:0:0:
64,192,92107,1,2,0:0:0:0:
192,192,92107,1,4,0:0:0:0:
320,192,92107,1,0,0:0:0:0:
64,192,92414,1,4,0:0:0:0:
320,192,92414,1,2,0:0:0:0:
448,192,92414,1,0,0:0:0:0:
192,192,92722,1,0,0:0:0:70:tom03.wav
320,192,92722,1,0,0:0:0:0:
320,192,93015,1,4,0:0:0:0:
448,192,93015,128,0,93322:0:0:0:0:
64,192,93322,1,0,0:0:0:0:
320,192,93476,1,0,0:0:0:0:
192,192,93630,1,0,0:0:0:0:
64,192,93938,1,0,0:0:0:0:
320,192,93938,128,0,94245:0:0:0:0:
448,192,94245,1,0,0:0:0:0:
192,192,94399,1,0,0:0:0:0:
320,192,94553,1,0,0:0:0:0:
64,192,94861,1,0,0:0:0:0:
192,192,94861,128,0,95168:0:0:0:0:
320,192,95168,1,0,0:0:0:0:
448,192,95322,1,0,0:0:0:0:
192,192,95476,1,0,0:0:0:0:
64,192,95784,128,0,96091:0:0:0:0:
448,192,95784,1,0,0:0:0:0:
320,192,96091,1,0,0:0:0:0:
192,192,96245,1,0,0:0:0:0:
64,192,96399,1,0,0:0:0:0:
192,192,96707,1,0,0:0:0:0:
448,192,96707,128,0,97015:0:0:0:0:
64,192,96861,1,0,0:0:0:0:
320,192,97015,1,0,0:0:0:0:
192,192,97168,1,0,0:0:0:0:
64,192,97322,1,0,0:0:0:0:
192,192,97630,128,0,97938:0:0:0:0:
320,192,97630,1,0,0:0:0:0:
448,192,97784,1,0,0:0:0:0:
64,192,97938,1,0,0:0:0:0:
320,192,98091,1,0,0:0:0:0:
448,192,98245,1,0,0:0:0:0:
64,192,98553,128,0,98861:0:0:0:0:
448,192,98553,128,0,98861:0:0:0:0:
192,192,98861,1,0,0:0:0:0:
320,192,99015,1,0,0:0:0:0:
448,192,99168,1,0,0:0:0:0:
192,192,99476,128,0,100399:0:0:0:0:
320,192,99476,128,0,99784:0:0:0:0:
448,192,99784,1,0,0:0:0:0:
64,192,99938,1,0,0:0:0:0:
320,192,100091,1,0,0:0:0:0:
64,192,100399,1,0,0:0:0:0:
448,192,100399,128,0,100707:0:0:0:0:
320,192,100707,1,0,0:0:0:0:
192,192,100861,1,0,0:0:0:0:
448,192,101015,1,0,0:0:0:0:
64,192,101322,1,0,0:0:0:0:
320,192,101322,128,0,101630:0:0:0:0:
192,192,101630,1,0,0:0:0:0:
448,192,101784,1,0,0:0:0:0:
320,192,101938,1,0,0:0:0:0:
64,192,102245,128,0,102553:0:0:0:0:
448,192,102245,1,0,0:0:0:0:
192,192,102399,1,0,0:0:0:0:
320,192,102553,1,0,0:0:0:0:
192,192,102707,1,0,0:0:0:0:
448,192,102861,1,0,0:0:0:0:
64,192,103015,1,0,0:0:0:0:
192,192,103168,128,0,103476:0:0:0:0:
320,192,103168,128,0,104091:0:0:0:0:
448,192,103476,1,0,0:0:0:0:
64,192,103630,1,0,0:0:0:0:
192,192,103784,1,0,0:0:0:0:
64,192,104091,128,0,104399:0:0:0:0:
448,192,104091,1,0,0:0:0:0:
320,192,104399,1,0,0:0:0:0:
192,192,104553,1,0,0:0:0:0:
448,192,104707,1,0,0:0:0:0:
64,192,105015,128,0,105322:0:0:0:0:
192,192,105015,1,0,0:0:0:0:
320,192,105322,1,0,0:0:0:0:
448,192,105322,128,0,105630:0:0:0:0:
192,192,105476,1,0,0:0:0:0:
64,192,105630,1,0,0:0:0:0:
320,192,105630,128,0,105938:0:0:0:0:
192,192,105938,128,0,107476:0:0:0:0:
448,192,105938,128,0,106091:0:0:0:0:
448,192,106245,128,0,106399:0:0:0:0:
64,192,106399,1,0,0:0:0:0:
448,192,106553,128,0,106707:0:0:0:0:
64,192,106707,1,0,0:0:0:0:
320,192,106822,1,0,0:0:0:0:
448,192,106861,128,0,107476:0:0:0:0:
64,192,107476,128,0,107784:0:0:0:0:
192,192,107784,1,2,0:0:0:0:
320,192,107784,1,4,0:0:0:0:
448,192,107784,1,0,0:0:0:0:
448,192,107937,1,0,0:0:0:0:
64,192,108091,1,8,0:0:0:0:
192,192,108091,1,2,0:0:0:0:
320,192,108091,1,0,0:0:0:0:
192,192,108245,1,0,0:0:0:0:
64,192,108399,1,2,0:0:0:0:
448,192,108399,1,0,0:0:0:0:
320,192,108553,1,0,0:0:0:0:
64,192,108707,1,8,0:0:0:0:
192,192,108707,1,2,0:0:0:0:
448,192,108707,1,0,0:0:0:0:
64,192,108860,1,0,0:0:0:0:
320,192,109014,1,2,0:0:0:0:
448,192,109014,128,0,109168:0:0:0:0:
192,192,109168,128,0,109322:0:0:0:0:
64,192,109322,128,8,109476:0:0:0:0:
320,192,109322,1,2,0:0:0:0:
448,192,109322,1,0,0:0:0:0:
320,192,109476,128,0,109630:0:0:0:0:
64,192,109630,1,2,0:0:0:0:
192,192,109630,128,0,109784:0:0:0:0:
448,192,109784,128,0,109937:0:0:0:0:
64,192,109937,1,8,0:0:0:0:
192,192,109937,1,2,0:0:0:0:
320,192,109937,1,0,0:0:0:0:
192,192,110091,1,0,0:0:0:0:
320,192,110245,1,2,0:0:0:0:
448,192,110245,1,0,0:0:0:0:
64,192,110399,1,0,0:0:0:0:
192,192,110553,1,8,0:0:0:0:
320,192,110553,1,2,0:0:0:0:
448,192,110553,1,0,0:0:0:0:
64,192,110707,1,0,0:0:0:0:
192,192,110784,1,0,0:0:0:70:LR_Snare Drum.wav
320,192,110860,1,2,0:0:0:0:
448,192,110860,1,0,0:0:0:0:
64,192,110937,1,0,0:0:0:70:LR_Snare Drum.wav
192,192,110937,1,0,0:0:0:0:
320,192,111014,1,0,0:0:0:0:
448,192,111014,1,0,0:0:0:0:
64,192,111168,1,8,0:0:0:0:
192,192,111168,1,2,0:0:0:0:
448,192,111168,1,0,0:0:0:0:
320,192,111322,1,0,0:0:0:0:
64,192,111476,128,2,111630:0:0:0:0:
192,192,111476,1,0,0:0:0:0:
448,192,111630,128,0,111784:0:0:0:0:
64,192,111784,1,8,0:0:0:0:
192,192,111784,128,2,111937:0:0:0:0:
320,192,111784,1,0,0:0:0:0:
448,192,111937,128,0,112091:0:0:0:0:
192,192,112091,1,2,0:0:0:0:
320,192,112091,128,0,112245:0:0:0:0:
64,192,112245,1,8,0:0:0:0:
192,192,112245,1,0,0:0:0:0:
448,192,112245,1,0,0:0:0:0:
192,192,112399,128,2,112553:0:0:0:0:
320,192,112399,1,0,0:0:0:0:
64,192,112553,1,8,0:0:0:0:
448,192,112553,1,0,0:0:0:0:
64,192,112707,1,2,0:0:0:0:
192,192,112707,1,4,0:0:0:0:
448,192,112707,1,0,0:0:0:0:
192,192,112860,1,0,0:0:0:0:
64,192,113014,1,2,0:0:0:0:
320,192,113014,1,8,0:0:0:0:
448,192,113014,1,0,0:0:0:0:
192,192,113168,1,0,0:0:0:0:
320,192,113322,1,2,0:0:0:0:
448,192,113322,1,0,0:0:0:0:
64,192,113476,1,0,0:0:0:0:
192,192,113630,1,2,0:0:0:0:
320,192,113630,1,8,0:0:0:0:
448,192,113630,1,0,0:0:0:0:
448,192,113784,1,0,0:0:0:0:
64,192,113937,1,2,0:0:0:0:
192,192,113937,128,0,114091:0:0:0:0:
320,192,114091,128,0,114245:0:0:0:0:
64,192,114245,1,2,0:0:0:0:
192,192,114245,1,8,0:0:0:0:
448,192,114245,128,0,114399:0:0:0:0:
64,192,114399,128,0,114553:0:0:0:0:
192,192,114553,128,2,114707:0:0:0:0:
448,192,114553,1,0,0:0:0:0:
320,192,114707,128,0,114860:0:0:0:0:
64,192,114860,1,2,0:0:0:0:
192,192,114860,1,8,0:0:0:0:
448,192,114860,128,0,115014:0:0:0:0:
192,192,115014,1,0,0:0:0:0:
320,192,115168,1,2,0:0:0:0:
448,192,115168,1,0,0:0:0:0:
64,192,115322,1,0,0:0:0:0:
192,192,115476,1,2,0:0:0:0:
320,192,115476,1,8,0:0:0:0:
448,192,115476,1,0,0:0:0:0:
64,192,115630,1,0,0:0:0:0:
192,192,115784,1,2,0:0:0:0:
448,192,115784,1,0,0:0:0:0:
192,192,115937,1,2,0:0:0:0:
320,192,115937,1,0,0:0:0:0:
64,192,116091,1,8,0:0:0:0:
320,192,116091,1,0,0:0:0:0:
448,192,116091,1,0,0:0:0:0:
64,192,116245,1,2,0:0:0:0:
192,192,116245,128,4,116553:0:0:0:0:
448,192,116245,1,0,0:0:0:0:
320,192,116553,1,2,0:0:0:0:
448,192,116553,1,0,0:0:0:0:
192,192,116707,1,0,0:0:0:70:HHOpen.wav
448,192,116707,1,0,0:0:0:0:
64,192,116707,1,8,0:0:0:0:
320,192,117014,1,2,0:0:0:0:
448,192,117014,1,0,0:0:0:0:
192,192,117168,1,2,0:0:0:0:
320,192,117168,1,0,0:0:0:0:
64,192,117322,1,8,0:0:0:0:
192,192,117322,1,0,0:0:0:70:HHOpen.wav
448,192,117322,1,0,0:0:0:0:
64,192,117476,1,2,0:0:0:0:
320,192,117476,128,4,117784:0:0:0:0:
448,192,117476,1,0,0:0:0:0:
64,192,117784,1,2,0:0:0:0:
192,192,117784,1,0,0:0:0:0:
64,192,117937,1,8,0:0:0:0:
320,192,117937,1,0,0:0:0:70:HHOpen.wav
448,192,117937,1,0,0:0:0:0:
192,192,118091,1,0,0:0:0:0:
320,192,118168,1,0,0:0:0:0:
64,192,118245,1,0,0:0:0:70:tom01.wav
448,192,118245,1,0,0:0:0:0:
64,192,118399,1,0,0:0:0:70:tom01.wav
448,192,118399,1,0,0:0:0:0:
192,192,118553,1,2,0:0:0:0:
320,192,118553,1,0,0:0:0:0:
192,192,118707,1,2,0:0:0:0:
320,192,118707,1,0,0:0:0:0:
64,192,118860,1,2,0:0:0:0:
192,192,118860,1,4,0:0:0:0:
448,192,118860,128,0,119014:0:0:0:0:
64,192,119168,1,2,0:0:0:0:
192,192,119168,1,0,0:0:0:0:
64,192,119476,1,2,0:0:0:0:
192,192,119476,1,0,0:0:0:0:
64,192,119784,1,2,0:0:0:0:
192,192,119784,1,0,0:0:0:0:
448,192,119937,128,0,120091:0:0:0:0:
192,192,120091,1,2,0:0:0:0:
320,192,120091,1,0,0:0:0:0:
192,192,120399,1,2,0:0:0:0:
320,192,120399,1,0,0:0:0:0:
192,192,120707,1,2,0:0:0:0:
320,192,120707,1,0,0:0:0:0:
64,192,121014,1,2,0:0:0:0:
192,192,121014,1,8,0:0:0:0:
320,192,121091,1,8,0:0:0:0:
448,192,121091,1,0,0:0:0:0:
64,192,121168,1,8,0:0:0:0:
192,192,121168,1,0,0:0:0:0:
320,192,121245,1,8,0:0:0:0:
448,192,121245,1,0,0:0:0:0:
64,192,121322,128,2,121476:0:0:0:0:
192,192,121322,1,0,0:0:0:0:
192,192,121630,1,2,0:0:0:0:
448,192,121630,1,0,0:0:0:0:
192,192,121937,1,2,0:0:0:0:
448,192,121937,1,0,0:0:0:0:
192,192,122245,1,2,0:0:0:0:
448,192,122245,1,0,0:0:0:0:
64,192,122399,128,0,122553:0:0:0:0:
320,192,122553,1,2,0:0:0:0:
448,192,122553,1,0,0:0:0:0:
320,192,122860,1,2,0:0:0:0:
448,192,122860,1,0,0:0:0:0:
320,192,123168,1,2,0:0:0:0:
448,192,123168,1,0,0:0:0:0:
320,192,123476,1,2,0:0:0:0:
448,192,123476,1,8,0:0:0:0:
64,192,123553,1,8,0:0:0:0:
192,192,123553,1,0,0:0:0:0:
320,192,123630,1,8,0:0:0:0:
448,192,123630,1,0,0:0:0:0:
64,192,123707,1,8,0:0:0:0:
192,192,123707,1,0,0:0:0:0:
320,192,123784,128,2,123937:0:0:0:0:
448,192,123784,1,0,0:0:0:0:
64,192,124091,1,2,0:0:0:0:
448,192,124091,1,0,0:0:0:0:
64,192,124399,1,2,0:0:0:0:
448,192,124399,1,0,0:0:0:0:
64,192,124707,1,2,0:0:0:0:
448,192,124707,1,0,0:0:0:0:
320,192,124860,128,0,125014:0:0:0:0:
64,192,125014,1,2,0:0:0:0:
192,192,125014,1,0,0:0:0:0:
64,192,125322,1,2,0:0:0:0:
192,192,125322,1,0,0:0:0:0:
64,192,125630,1,2,0:0:0:0:
192,192,125630,1,0,0:0:0:0:
320,192,125937,1,2,0:0:0:0:
448,192,125937,1,0,0:0:0:0:
64,192,126245,1,2,0:0:0:0:
192,192,126245,1,4,0:0:0:0:
448,192,126245,1,0,0:0:0:0:
192,192,126399,1,2,0:0:0:0:
320,192,126399,1,0,0:0:0:0:
64,192,126553,1,8,0:0:0:0:
320,192,126553,1,0,0:0:0:70:HHOpen.wav
448,192,126553,1,0,0:0:0:0:
64,192,126707,1,2,0:0:0:0:
192,192,126707,128,0,127014:0:0:0:0:
448,192,126860,1,0,0:0:0:70:ride04.wav
64,192,127014,1,2,0:0:0:0:
320,192,127014,1,0,0:0:0:0:
192,192,127168,1,8,0:0:0:0:
320,192,127168,1,0,0:0:0:70:HHOpen.wav
448,192,127168,1,0,0:0:0:0:
64,192,127322,1,2,0:0:0:0:
192,192,127322,1,4,0:0:0:0:
448,192,127322,128,0,127630:0:0:0:0:
320,192,127476,1,0,0:0:0:0:
64,192,127630,1,2,0:0:0:0:
192,192,127630,1,0,0:0:0:0:
64,192,127784,1,8,0:0:0:0:
320,192,127784,1,0,0:0:0:70:HHOpen.wav
448,192,127784,1,0,0:0:0:0:
192,192,127937,128,2,128245:0:0:0:0:
320,192,127937,1,4,0:0:0:0:
448,192,127937,1,0,0:0:0:0:
64,192,128091,1,0,0:0:0:0:
320,192,128245,1,2,0:0:0:0:
448,192,128245,1,0,0:0:0:0:
64,192,128322,1,2,0:0:0:0:
192,192,128322,1,0,0:0:0:0:
320,192,128399,1,8,0:0:0:0:
448,192,128399,128,0,128707:0:0:0:70:HHOpen.wav
64,192,128707,1,2,0:0:0:0:
192,192,128707,128,4,129014:0:0:0:0:
320,192,128707,1,0,0:0:0:0:
64,192,129014,1,8,0:0:0:0:
320,192,129014,128,2,129322:0:0:0:0:
448,192,129014,1,0,0:0:0:0:
64,192,129322,128,2,129630:0:0:0:0:
192,192,129322,1,4,0:0:0:0:
448,192,129322,1,0,0:0:0:0:
192,192,129630,1,8,0:0:0:0:
320,192,129630,1,2,0:0:0:0:
448,192,129630,128,0,129937:0:0:0:0:
64,192,129937,1,2,0:0:0:0:
192,192,129937,128,4,130245:0:0:0:0:
320,192,129937,1,0,0:0:0:0:
64,192,130168,1,8,0:0:0:0:
320,192,130245,128,2,130553:0:0:0:0:
448,192,130245,1,4,0:0:0:0:
192,192,130399,1,8,0:0:0:0:
64,192,130399,1,0,0:0:0:0:
64,192,130553,1,2,0:0:0:0:
448,192,130553,1,0,0:0:0:0:
64,192,130707,1,0,0:0:0:70:tom01.wav
448,192,130707,1,0,0:0:0:0:
192,192,130860,1,8,0:0:0:0:
320,192,130860,1,0,0:0:0:70:tom01.wav
192,192,131014,1,8,0:0:0:0:
320,192,131014,1,0,0:0:0:70:tom01.wav
64,192,131168,128,4,131630:0:0:0:0:
448,192,131168,128,0,131630:0:0:0:0:
64,192,132214,128,0,132707:0:0:0:0:
448,192,132214,128,0,132707:0:0:0:0:
320,192,134553,128,0,134860:0:0:0:0:
64,192,134860,1,4,0:0:0:0:
192,192,134860,1,8,0:0:0:0:
448,192,134860,1,2,0:0:0:0:
64,192,135014,1,0,0:0:0:0:
192,192,135168,1,8,0:0:0:0:
320,192,135168,1,0,0:0:0:70:HHOpen.wav
448,192,135168,1,0,0:0:0:0:
64,192,135322,1,2,0:0:0:0:
320,192,135322,1,0,0:0:0:0:
64,192,135476,1,8,0:0:0:0:
192,192,135476,1,0,0:0:0:70:HHOpen.wav
448,192,135476,1,0,0:0:0:0:
192,192,135630,1,2,0:0:0:0:
320,192,135630,1,0,0:0:0:0:
64,192,135784,1,8,0:0:0:0:
320,192,135784,1,0,0:0:0:70:HHOpen.wav
448,192,135784,1,0,0:0:0:0:
64,192,135937,1,2,0:0:0:0:
192,192,135937,1,0,0:0:0:0:
192,192,136091,128,8,136399:0:0:0:0:
320,192,136091,1,0,0:0:0:70:HHOpen.wav
448,192,136091,1,0,0:0:0:0:
64,192,136399,1,8,0:0:0:0:
320,192,136399,128,0,136707:0:0:0:70:HHOpen.wav
448,192,136399,1,0,0:0:0:0:
64,192,136707,128,8,137014:0:0:0:0:
192,192,136707,1,0,0:0:0:70:HHOpen.wav
448,192,136707,1,0,0:0:0:0:
192,192,136860,1,2,0:0:0:0:
448,192,136860,1,0,0:0:0:0:
192,192,137014,1,8,0:0:0:0:
320,192,137014,1,0,0:0:0:70:HHOpen.wav
448,192,137014,1,0,0:0:0:0:
64,192,137168,1,2,0:0:0:0:
320,192,137168,1,0,0:0:0:0:
64,192,137322,1,8,0:0:0:0:
192,192,137322,1,0,0:0:0:70:HHOpen.wav
448,192,137322,1,0,0:0:0:0:
192,192,137476,1,0,0:0:0:0:
64,192,137630,1,8,0:0:0:0:
320,192,137630,1,0,0:0:0:70:HHOpen.wav
448,192,137630,1,0,0:0:0:0:
448,192,137784,1,0,0:0:0:0:
64,192,137937,1,8,0:0:0:0:
192,192,137937,1,0,0:0:0:70:HHOpen.wav
320,192,137937,1,0,0:0:0:0:
192,192,138091,1,2,0:0:0:0:
448,192,138091,1,0,0:0:0:0:
64,192,138245,1,8,0:0:0:0:
320,192,138245,1,0,0:0:0:70:HHOpen.wav
448,192,138245,1,0,0:0:0:0:
64,192,138399,1,2,0:0:0:0:
192,192,138399,1,0,0:0:0:0:
64,192,138553,1,8,0:0:0:0:
320,192,138553,1,0,0:0:0:70:HHOpen.wav
448,192,138553,128,0,138860:0:0:0:0:
64,192,138860,1,8,0:0:0:0:
192,192,138860,1,0,0:0:0:70:HHOpen.wav
320,192,138860,128,0,139168:0:0:0:0:
64,192,139168,128,8,139476:0:0:0:0:
192,192,139168,1,0,0:0:0:70:HHOpen.wav
448,192,139168,1,0,0:0:0:0:
448,192,139322,1,2,0:0:0:0:
192,192,139322,1,0,0:0:0:0:
192,192,139476,1,8,0:0:0:0:
320,192,139476,1,4,0:0:0:0:
448,192,139476,1,0,0:0:0:0:
64,192,139630,1,2,0:0:0:0:
320,192,139630,1,0,0:0:0:0:
64,192,139784,1,4,0:0:0:0:
192,192,139784,1,8,0:0:0:0:
448,192,139784,1,0,0:0:0:0:
192,192,139937,1,0,0:0:0:0:
64,192,140091,1,8,0:0:0:0:
320,192,140091,1,0,0:0:0:70:HHOpen.wav
448,192,140091,1,0,0:0:0:0:
448,192,140245,1,0,0:0:0:0:
64,192,140399,1,8,0:0:0:0:
192,192,140399,1,0,0:0:0:70:HHOpen.wav
320,192,140399,1,0,0:0:0:0:
192,192,140553,1,2,0:0:0:0:
448,192,140553,1,0,0:0:0:0:
64,192,140707,1,8,0:0:0:0:
320,192,140707,1,0,0:0:0:70:HHOpen.wav
448,192,140707,1,0,0:0:0:0:
64,192,140860,1,2,0:0:0:0:
192,192,140860,1,0,0:0:0:0:
192,192,141014,1,8,0:0:0:0:
320,192,141014,1,0,0:0:0:70:HHOpen.wav
448,192,141014,1,0,0:0:0:0:
64,192,141168,1,2,0:0:0:0:
320,192,141168,1,0,0:0:0:0:
64,192,141322,1,8,0:0:0:0:
192,192,141322,1,0,0:0:0:70:HHOpen.wav
448,192,141322,1,0,0:0:0:0:
192,192,141476,1,2,0:0:0:0:
320,192,141476,1,0,0:0:0:0:
64,192,141630,1,8,0:0:0:0:
320,192,141630,1,0,0:0:0:70:HHOpen.wav
448,192,141630,1,0,0:0:0:0:
64,192,141784,1,0,0:0:0:70:tom02.wav
192,192,141784,1,0,0:0:0:0:
192,192,141937,1,8,0:0:0:0:
320,192,141937,1,0,0:0:0:70:HHOpen.wav
448,192,141937,1,0,0:0:0:0:
64,192,142091,128,2,142399:0:0:0:0:
320,192,142091,1,4,0:0:0:0:
448,192,142091,1,0,0:0:0:0:
192,192,142399,1,2,0:0:0:0:
320,192,142399,1,4,0:0:0:0:
64,192,142553,1,8,0:0:0:0:
192,192,142553,1,0,0:0:0:70:HHOpen.wav
448,192,142553,1,0,0:0:0:0:
320,192,142707,1,0,0:0:0:70:tom01.wav
192,192,142784,1,0,0:0:0:70:tom01.wav
64,192,142860,1,8,0:0:0:0:
448,192,142860,1,0,0:0:0:70:tom02.wav
64,192,143014,1,8,0:0:0:0:
448,192,143014,1,0,0:0:0:70:tom02.wav
64,192,143168,1,8,0:0:0:0:
320,192,143168,1,0,0:0:0:0:
448,192,143168,1,0,0:0:0:0:
64,192,143322,1,8,0:0:0:0:
192,192,143322,1,0,0:0:0:0:
320,192,143476,128,0,144091:0:0:0:0:
448,192,143476,1,0,0:0:0:70:HHOpen.wav
64,192,143630,1,0,0:0:0:0:
448,192,143784,1,0,0:0:0:0:
192,192,143937,1,0,0:0:0:0:
64,192,144091,128,0,145322:0:0:0:0:
448,192,144091,128,0,145322:0:0:0:0:
192,192,145322,1,0,0:0:0:0:
320,192,145322,1,0,0:0:0:0:
192,192,145629,1,0,0:0:0:0:
320,192,146245,1,0,0:0:0:0:
320,192,146552,1,0,0:0:0:0:
64,192,147168,1,0,0:0:0:0:
64,192,147475,1,0,0:0:0:0:
320,192,147783,1,0,0:0:0:0:
448,192,147783,1,0,0:0:0:0:
192,192,148091,1,0,0:0:0:0:
192,192,148398,1,0,0:0:0:0:
448,192,149014,1,0,0:0:0:0:
448,192,149322,1,0,0:0:0:0:
320,192,149937,1,0,0:0:0:0:
64,192,150245,1,0,0:0:0:0:
320,192,150245,1,0,0:0:0:0:
192,192,150860,1,0,0:0:0:0:
192,192,151168,1,0,0:0:0:0:
320,192,151783,1,0,0:0:0:0:
320,192,152091,1,0,0:0:0:0:
64,192,152706,1,0,0:0:0:0:
448,192,152706,1,0,0:0:0:0:
64,192,153014,1,0,0:0:0:0:
320,192,153629,1,0,0:0:0:0:
320,192,153937,1,8,0:0:0:0:
448,192,153937,1,0,0:0:0:0:
64,192,154296,1,2,0:0:0:0:
192,192,154296,1,0,0:0:0:0:
448,192,154552,1,0,0:0:0:0:
64,192,154629,1,2,0:0:0:0:
192,192,154629,1,0,0:0:0:0:
448,192,154860,1,0,0:0:0:0:
64,192,154988,1,2,0:0:0:0:
192,192,154988,1,0,0:0:0:0:
320,192,155168,1,0,0:0:0:0:
448,192,155168,1,0,0:0:0:0:
192,192,155322,1,2,0:0:0:0:
64,192,155475,1,0,0:0:0:0:
448,192,155475,1,0,0:0:0:0:
192,192,155629,1,0,0:0:0:0:
192,192,155783,1,0,0:0:0:0:
448,192,155783,1,0,0:0:0:0:
320,192,155937,1,0,0:0:0:0:
64,192,156091,1,0,0:0:0:0:
448,192,156245,1,0,0:0:0:0:
64,192,156398,1,0,0:0:0:0:
448,192,156398,1,0,0:0:0:0:
320,192,156552,1,0,0:0:0:0:
64,192,156706,1,0,0:0:0:0:
448,192,156706,1,0,0:0:0:0:
192,192,156860,1,0,0:0:0:0:
192,192,157014,1,0,0:0:0:0:
320,192,157168,1,0,0:0:0:0:
64,192,157322,1,0,0:0:0:0:
192,192,157322,1,0,0:0:0:0:
448,192,157475,1,0,0:0:0:0:
64,192,157629,1,0,0:0:0:0:
448,192,157629,1,0,0:0:0:0:
192,192,157783,1,0,0:0:0:0:
448,192,157937,1,0,0:0:0:0:
64,192,158091,1,0,0:0:0:0:
64,192,158245,1,0,0:0:0:0:
448,192,158245,1,0,0:0:0:0:
320,192,158398,1,0,0:0:0:0:
64,192,158552,1,0,0:0:0:0:
192,192,158552,1,0,0:0:0:0:
448,192,158706,1,0,0:0:0:0:
448,192,158860,1,0,0:0:0:0:
192,192,159014,1,0,0:0:0:0:
320,192,159168,1,0,0:0:0:0:
448,192,159168,1,0,0:0:0:0:
64,192,159322,1,0,0:0:0:0:
64,192,159475,1,0,0:0:0:0:
320,192,159475,1,0,0:0:0:0:
448,192,159629,1,0,0:0:0:0:
192,192,159783,1,0,0:0:0:0:
448,192,159937,1,0,0:0:0:0:
64,192,160091,1,0,0:0:0:0:
448,192,160091,1,0,0:0:0:0:
192,192,160245,1,0,0:0:0:0:
320,192,160398,1,0,0:0:0:0:
448,192,160398,1,0,0:0:0:0:
64,192,160552,1,0,0:0:0:0:
64,192,160706,1,0,0:0:0:0:
320,192,160860,1,0,0:0:0:0:
64,192,161014,1,0,0:0:0:0:
192,192,161014,1,0,0:0:0:0:
448,192,161168,1,0,0:0:0:0:
64,192,161322,1,0,0:0:0:0:
448,192,161322,1,0,0:0:0:0:
192,192,161475,1,0,0:0:0:0:
448,192,161629,1,0,0:0:0:0:
64,192,161783,1,0,0:0:0:0:
64,192,161937,1,0,0:0:0:0:
448,192,161937,1,0,0:0:0:0:
320,192,162091,1,0,0:0:0:0:
64,192,162245,1,0,0:0:0:0:
192,192,162245,1,0,0:0:0:0:
448,192,162398,1,0,0:0:0:0:
448,192,162552,1,0,0:0:0:0:
192,192,162706,1,0,0:0:0:0:
320,192,162860,1,0,0:0:0:0:
448,192,162860,1,0,0:0:0:0:
64,192,163014,1,0,0:0:0:0:
64,192,163168,1,0,0:0:0:0:
192,192,163168,1,0,0:0:0:0:
448,192,163322,1,0,0:0:0:0:
64,192,163475,1,0,0:0:0:0:
448,192,163629,1,0,0:0:0:0:
64,192,163783,1,0,0:0:0:0:
448,192,163783,1,0,0:0:0:0:
192,192,163937,1,0,0:0:0:0:
320,192,164091,1,0,0:0:0:0:
448,192,164091,1,0,0:0:0:0:
64,192,164245,1,0,0:0:0:0:
64,192,164398,1,0,0:0:0:0:
448,192,164552,1,0,0:0:0:0:
64,192,164706,1,0,0:0:0:0:
192,192,164706,1,0,0:0:0:0:
320,192,164860,1,0,0:0:0:0:
64,192,165014,1,0,0:0:0:0:
448,192,165014,128,0,165475:0:0:0:0:
64,192,165168,1,0,0:0:0:0:
192,192,165322,1,0,0:0:0:0:
320,192,165322,128,0,165475:0:0:0:0:
192,192,165475,1,0,0:0:0:0:
64,192,165629,128,0,166091:0:0:0:0:
448,192,165629,1,0,0:0:0:0:
448,192,165783,1,0,0:0:0:0:
192,192,165937,128,0,166091:0:0:0:0:
320,192,165937,1,0,0:0:0:0:
320,192,166091,1,0,0:0:0:0:
64,192,166245,128,0,166552:0:0:0:0:
448,192,166245,128,0,166552:0:0:0:0:
192,192,166398,1,0,0:0:0:0:
192,192,166552,128,0,166706:0:0:0:0:
320,192,166552,128,0,166706:0:0:0:0:
448,192,166706,1,0,0:0:0:0:
64,192,166860,128,0,167168:0:0:0:0:
448,192,166860,128,0,167168:0:0:0:0:
320,192,167014,1,0,0:0:0:0:
192,192,167168,128,0,167322:0:0:0:0:
320,192,167168,128,0,167322:0:0:0:0:
64,192,167322,1,0,0:0:0:0:
64,192,167475,1,2,0:0:0:0:
448,192,167475,1,0,0:0:0:0:
64,192,167792,1,8,0:0:0:0:
192,192,167792,1,0,0:0:0:0:
320,192,167792,1,0,0:0:0:0:
64,192,168109,1,8,0:0:0:0:
320,192,168109,1,0,0:0:0:0:
448,192,168109,1,0,0:0:0:0:
64,192,168427,1,2,0:0:0:0:
448,192,168427,1,0,0:0:0:0:
320,192,168744,1,8,0:0:0:0:
448,192,168744,1,0,0:0:0:0:
64,192,168824,1,8,0:0:0:0:
192,192,168824,1,0,0:0:0:0:
320,192,168903,1,8,0:0:0:0:
448,192,168903,1,0,0:0:0:0:
64,192,168982,1,8,0:0:0:0:
192,192,168982,1,0,0:0:0:0:
320,192,169062,1,8,0:0:0:0:
448,192,169062,1,0,0:0:0:0:
64,192,169379,1,2,0:0:0:0:
320,192,169379,1,0,0:0:0:0:
64,192,169689,1,8,0:0:0:0:
192,192,169689,1,0,0:0:0:0:
448,192,169689,1,0,0:0:0:0:
64,192,170000,1,8,0:0:0:0:
320,192,170000,1,0,0:0:0:0:
448,192,170000,1,0,0:0:0:0:
192,192,170311,1,2,0:0:0:0:
320,192,170311,1,0,0:0:0:0:
64,192,170622,1,8,0:0:0:0:
192,192,170622,1,0,0:0:0:0:
320,192,170700,1,8,0:0:0:0:
448,192,170700,1,0,0:0:0:0:
64,192,170777,1,8,0:0:0:0:
192,192,170777,1,0,0:0:0:0:
320,192,170855,1,8,0:0:0:0:
448,192,170855,1,0,0:0:0:0:
64,192,170933,1,8,0:0:0:0:
192,192,170933,1,0,0:0:0:0:
64,192,171088,1,8,0:0:0:0:
448,192,171088,1,0,0:0:0:0:
320,192,171088,1,0,0:0:0:0:
192,192,171244,1,2,0:0:0:0:
320,192,171244,1,0,0:0:0:0:
64,192,171548,1,8,0:0:0:0:
320,192,171548,1,0,0:0:0:0:
448,192,171548,1,0,0:0:0:0:
64,192,171853,1,8,0:0:0:0:
192,192,171853,1,0,0:0:0:0:
448,192,171853,1,0,0:0:0:0:
64,192,172157,1,2,0:0:0:0:
448,192,172157,1,0,0:0:0:0:
320,192,172462,1,8,0:0:0:0:
448,192,172462,1,0,0:0:0:0:
64,192,172538,1,8,0:0:0:0:
192,192,172538,1,0,0:0:0:0:
320,192,172614,1,8,0:0:0:0:
448,192,172614,1,0,0:0:0:0:
64,192,172690,1,8,0:0:0:0:
192,192,172690,1,0,0:0:0:0:
320,192,172766,1,8,0:0:0:0:
448,192,172766,1,0,0:0:0:0:
192,192,173071,1,2,0:0:0:0:
320,192,173071,1,0,0:0:0:0:
64,192,173372,1,8,0:0:0:0:
320,192,173372,1,0,0:0:0:0:
448,192,173372,1,0,0:0:0:0:
64,192,173674,1,8,0:0:0:0:
192,192,173674,1,0,0:0:0:0:
320,192,173674,1,0,0:0:0:0:
320,192,173975,1,2,0:0:0:0:
448,192,173975,1,0,0:0:0:0:
64,192,174126,1,8,0:0:0:0:
192,192,174126,1,0,0:0:0:0:
448,192,174126,1,0,0:0:0:0:
320,192,174277,1,0,0:0:0:0:
192,192,174427,1,0,0:0:0:0:
64,192,174578,1,0,0:0:0:0:
448,192,174578,1,0,0:0:0:0:
192,192,174729,1,2,0:0:0:0:
320,192,174729,1,0,0:0:0:0:
64,192,174880,1,2,0:0:0:0:
448,192,174880,1,0,0:0:0:0:
320,192,174954,1,0,0:0:0:0:
192,192,175178,1,0,0:0:0:0:
320,192,175477,1,0,0:0:0:70:tom02.wav
448,192,175477,1,0,0:0:0:0:
192,192,175700,1,0,0:0:0:0:
64,192,175775,1,0,0:0:0:70:tom03.wav
448,192,175775,1,0,0:0:0:0:
320,192,175924,1,0,0:0:0:0:
64,192,175999,1,2,0:0:0:0:
192,192,175999,1,0,0:0:0:0:
320,192,176074,1,0,0:0:0:0:
448,192,176074,1,0,0:0:0:0:
64,192,176223,1,2,0:0:0:0:
448,192,176223,1,0,0:0:0:0:
64,192,176415,1,2,0:0:0:0:
192,192,176415,1,4,0:0:0:0:
320,192,176415,1,0,0:0:0:0:
64,192,176671,1,8,0:0:0:0:
192,192,176671,1,0,0:0:0:0:
448,192,176671,1,0,0:0:0:0:
320,192,176969,1,0,0:0:0:0:
64,192,177193,1,2,0:0:0:0:
192,192,177193,1,0,0:0:0:0:
320,192,177268,1,0,0:0:0:0:
448,192,177310,1,0,0:0:0:0:
192,192,177417,1,0,0:0:0:70:tom01.wav
320,192,177417,1,0,0:0:0:0:
64,192,177566,1,0,0:0:0:0:
192,192,177566,1,0,0:0:0:0:
448,192,177641,1,0,0:0:0:0:
64,192,177715,1,0,0:0:0:0:
192,192,177790,1,0,0:0:0:70:tom02.wav
448,192,177790,1,0,0:0:0:0:
64,192,178014,1,0,0:0:0:70:tom03.wav
192,192,178014,1,0,0:0:0:0:
320,192,178163,1,0,0:0:0:0:
64,192,178312,1,2,0:0:0:0:
192,192,178312,1,0,0:0:0:0:
320,192,178387,1,2,0:0:0:0:
448,192,178387,1,0,0:0:0:0:
64,192,178462,1,8,0:0:0:0:
192,192,178462,1,4,0:0:0:0:
320,192,178751,1,0,0:0:0:0:
320,192,178969,1,2,0:0:0:0:
448,192,178969,1,0,0:0:0:0:
64,192,179041,1,2,0:0:0:0:
192,192,179041,1,0,0:0:0:0:
320,192,179114,1,8,0:0:0:0:
448,192,179114,1,4,0:0:0:0:
64,192,179331,1,8,0:0:0:0:
192,192,179331,1,0,0:0:0:0:
320,192,179402,1,8,0:0:0:0:
448,192,179402,1,0,0:0:0:0:
64,192,179473,1,8,0:0:0:0:
192,192,179473,1,0,0:0:0:0:
320,192,179545,1,8,0:0:0:0:
448,192,179545,1,0,0:0:0:0:
64,192,179616,1,8,0:0:0:0:
192,192,179616,1,0,0:0:0:0:
320,192,179759,1,8,0:0:0:0:
192,192,179871,1,2,0:0:0:0:
320,192,179928,1,2,0:0:0:0:
64,192,179999,1,8,0:0:0:0:
448,192,180070,1,8,0:0:0:0:
320,192,180142,1,8,0:0:0:0:
192,192,180213,1,8,0:0:0:0:
448,192,180298,1,2,0:0:0:0:
320,192,180379,1,0,0:0:0:0:
64,192,180420,1,8,0:0:0:0:
192,192,180481,1,8,0:0:0:0:
320,192,180542,1,8,0:0:0:0:
448,192,180605,1,8,0:0:0:0:
192,192,180747,1,0,0:0:0:0:
64,192,180748,1,2,0:0:0:0:
320,192,180799,1,8,0:0:0:0:
448,192,180851,1,8,0:0:0:0:
192,192,180902,1,0,0:0:0:0:
320,192,180979,1,0,0:0:0:0:
64,192,181057,1,8,0:0:0:0:
320,192,181154,1,4,0:0:0:0:
448,192,181154,1,2,0:0:0:0:
192,192,181227,1,2,0:0:0:0:
448,192,181301,1,8,0:0:0:0:
320,192,181375,1,8,0:0:0:0:
64,192,181449,1,8,0:0:0:0:
192,192,181498,1,8,0:0:0:0:
320,192,181597,1,2,0:0:0:0:
448,192,181597,1,4,0:0:0:0:
192,192,181658,1,8,0:0:0:0:
64,192,181720,1,8,0:0:0:0:
320,192,181782,1,8,0:0:0:0:
448,192,181844,1,8,0:0:0:0:
192,192,181906,1,8,0:0:0:0:
64,192,181967,1,8,0:0:0:0:
448,192,181967,1,4,0:0:0:0:
320,192,182042,1,8,0:0:0:0:
192,192,182118,1,2,0:0:0:0:
64,192,182194,1,2,0:0:0:0:
320,192,182270,1,2,0:0:0:0:
64,192,182346,1,2,0:0:0:0:
192,192,182346,1,0,0:0:0:0:
448,192,182416,1,2,0:0:0:0:
320,192,182486,1,2,0:0:0:0:
192,192,182557,1,2,0:0:0:0:
64,192,182627,1,2,0:0:0:0:
448,192,182698,1,2,0:0:0:0:
64,192,182769,1,8,0:0:0:0:
192,192,182769,1,4,0:0:0:0:
320,192,182769,1,0,0:0:0:0:
64,192,185140,1,0,0:0:0:0:
448,192,185141,1,0,0:0:0:100:tick.wav
320,192,185294,1,0,0:0:0:0:
192,192,185448,1,0,0:0:0:100:tick.wav
448,192,185602,128,0,185756:0:0:0:0:
64,192,185756,1,0,0:0:0:100:tick.wav
192,192,185910,128,0,186064:0:0:0:0:
448,192,186064,1,0,0:0:0:100:tick.wav
320,192,186217,1,0,0:0:0:0:
64,192,186371,1,0,0:0:0:100:tick.wav
192,192,186371,1,0,0:0:0:0:
320,192,186525,1,0,0:0:0:0:
192,192,186679,1,0,0:0:0:100:tick.wav
64,192,186833,1,0,0:0:0:0:
448,192,186833,1,0,0:0:0:0:
320,192,186987,1,0,0:0:0:100:tick.wav
64,192,187141,1,0,0:0:0:0:
192,192,187294,1,0,0:0:0:100:tick.wav
320,192,187448,1,0,0:0:0:0:
64,192,187602,1,0,0:0:0:100:tick.wav
448,192,187602,1,0,0:0:0:0:
320,192,187756,1,0,0:0:0:0:
192,192,187910,1,0,0:0:0:100:tick.wav
448,192,188064,128,0,188217:0:0:0:0:
64,192,188217,1,0,0:0:0:100:tick.wav
192,192,188371,128,0,188525:0:0:0:0:
448,192,188525,1,0,0:0:0:100:tick.wav
320,192,188679,1,0,0:0:0:0:
64,192,188833,128,0,189141:0:0:0:100:tick.wav
192,192,189141,1,0,0:0:0:100:tick.wav
448,192,189333,128,0,189756:0:0:0:0:
320,192,189448,1,0,0:0:0:100:tick.wav
64,192,189756,1,0,0:0:0:100:tick.wav
192,192,189987,1,0,0:0:0:0:
64,192,190064,1,4,0:0:0:0:
320,192,190064,1,2,0:0:0:0:
448,192,190064,1,0,0:0:0:0:
320,192,190217,1,0,0:0:0:0:
64,192,190371,1,8,0:0:0:0:
192,192,190371,1,0,0:0:0:70:HHOpen.wav
320,192,190371,1,0,0:0:0:0:
448,192,190525,1,0,0:0:0:0:
64,192,190679,1,2,0:0:0:0:
192,192,190679,1,0,0:0:0:0:
320,192,190833,1,2,0:0:0:0:
448,192,190833,1,0,0:0:0:0:
64,192,190987,1,8,0:0:0:0:
192,192,190987,1,0,0:0:0:70:HHOpen.wav
448,192,190987,1,0,0:0:0:0:
64,192,191141,1,0,0:0:0:0:
320,192,191294,1,2,0:0:0:0:
448,192,191294,1,0,0:0:0:0:
64,192,191448,1,2,0:0:0:0:
192,192,191448,1,0,0:0:0:0:
64,192,191602,1,8,0:0:0:0:
320,192,191602,1,0,0:0:0:70:HHOpen.wav
448,192,191602,1,0,0:0:0:0:
64,192,191756,1,2,0:0:0:0:
448,192,191756,1,0,0:0:0:0:
320,192,191910,1,0,0:0:0:0:
64,192,191987,1,0,0:0:0:70:LR_Snare Drum.wav
192,192,191987,1,0,0:0:0:0:
320,192,192064,1,2,0:0:0:0:
448,192,192064,1,0,0:0:0:0:
64,192,192217,1,8,0:0:0:0:
192,192,192217,1,0,0:0:0:70:HHOpen.wav
448,192,192217,1,0,0:0:0:0:
320,192,192371,1,0,0:0:0:0:
64,192,192525,1,2,0:0:0:0:
192,192,192525,1,0,0:0:0:0:
320,192,192679,1,0,0:0:0:0:
64,192,192833,1,8,0:0:0:0:
192,192,192833,1,0,0:0:0:70:HHOpen.wav
448,192,192833,1,0,0:0:0:0:
320,192,192910,1,0,0:0:0:0:
192,192,192987,1,0,0:0:0:0:
320,192,193141,1,2,0:0:0:0:
448,192,193141,1,0,0:0:0:0:
64,192,193294,1,2,0:0:0:0:
320,192,193294,1,0,0:0:0:0:
64,192,193448,1,8,0:0:0:0:
192,192,193448,1,0,0:0:0:70:HHOpen.wav
448,192,193448,1,0,0:0:0:0:
192,192,193602,1,0,0:0:0:0:
64,192,193756,1,2,0:0:0:0:
320,192,193756,1,0,0:0:0:0:
448,192,193833,1,0,0:0:0:0:
64,192,193910,1,2,0:0:0:0:
192,192,193910,1,0,0:0:0:0:
320,192,193987,1,0,0:0:0:0:
64,192,194064,1,8,0:0:0:0:
192,192,194064,1,0,0:0:0:70:HHOpen.wav
448,192,194064,1,0,0:0:0:0:
192,192,194217,1,2,0:0:0:0:
320,192,194217,1,0,0:0:0:0:
320,192,194371,1,0,0:0:0:0:
64,192,194525,1,2,0:0:0:0:
448,192,194525,1,0,0:0:0:0:
64,192,194679,1,8,0:0:0:0:
192,192,194679,1,0,0:0:0:70:HHOpen.wav
320,192,194756,1,8,0:0:0:0:
448,192,194756,1,0,0:0:0:0:
64,192,194833,1,8,0:0:0:0:
192,192,194833,1,0,0:0:0:0:
320,192,194910,1,8,0:0:0:0:
448,192,194910,1,0,0:0:0:0:
64,192,194987,1,2,0:0:0:0:
192,192,194987,1,4,0:0:0:0:
320,192,195141,1,8,0:0:0:0:
448,192,195141,1,0,0:0:0:0:
64,192,195217,1,8,0:0:0:0:
192,192,195217,1,0,0:0:0:0:
320,192,195294,1,8,0:0:0:0:
448,192,195294,1,0,0:0:0:0:
64,192,195371,1,8,0:0:0:0:
192,192,195448,1,0,0:0:0:70:tom01.wav
320,192,195525,1,0,0:0:0:70:tom02.wav
64,192,195602,1,0,0:0:0:70:tom01.wav
448,192,195679,1,0,0:0:0:70:tom01.wav
320,192,195756,1,0,0:0:0:70:tom03.wav
192,192,195833,1,0,0:0:0:70:tom03.wav
64,192,195910,1,0,0:0:0:70:tom03.wav
448,192,195987,1,0,0:0:0:0:
64,192,196064,1,0,0:0:0:70:tom04.wav
192,192,196064,1,0,0:0:0:0:
320,192,196141,1,0,0:0:0:70:tom04.wav
448,192,196141,1,0,0:0:0:0:
64,192,196217,1,4,0:0:0:0:
192,192,196217,1,2,0:0:0:0:
320,192,196371,1,2,0:0:0:0:
448,192,196371,1,0,0:0:0:0:
64,192,196525,1,8,0:0:0:0:
192,192,196525,1,0,0:0:0:70:HHOpen.wav
448,192,196525,1,0,0:0:0:0:
192,192,196679,1,2,0:0:0:0:
320,192,196679,1,0,0:0:0:0:
64,192,196833,1,0,0:0:0:0:
64,192,196987,1,2,0:0:0:0:
192,192,196987,1,4,0:0:0:0:
448,192,196987,1,0,0:0:0:0:
320,192,197141,1,8,0:0:0:0:
448,192,197141,1,0,0:0:0:70:HHOpen.wav
64,192,197217,1,8,0:0:0:0:
192,192,197217,1,0,0:0:0:0:
320,192,197294,1,8,0:0:0:0:
448,192,197294,1,0,0:0:0:0:
64,192,197371,1,8,0:0:0:0:
192,192,197371,1,0,0:0:0:0:
320,192,197448,1,2,0:0:0:0:
448,192,197448,1,4,0:0:0:0:
64,192,197602,1,2,0:0:0:0:
320,192,197602,1,0,0:0:0:0:
64,192,197756,1,8,0:0:0:0:
192,192,197756,1,0,0:0:0:70:HHOpen.wav
448,192,197756,1,0,0:0:0:0:
192,192,197910,1,2,0:0:0:0:
320,192,197910,1,0,0:0:0:0:
448,192,198064,1,0,0:0:0:0:
64,192,198217,1,2,0:0:0:0:
192,192,198217,1,0,0:0:0:0:
64,192,198371,1,8,0:0:0:0:
320,192,198371,1,0,0:0:0:70:HHOpen.wav
448,192,198371,1,0,0:0:0:0:
320,192,198525,1,0,0:0:0:0:
192,192,198602,1,0,0:0:0:0:
64,192,198679,1,2,0:0:0:0:
448,192,198679,1,0,0:0:0:0:
320,192,198756,1,0,0:0:0:0:
64,192,198833,1,2,0:0:0:0:
192,192,198833,1,0,0:0:0:0:
64,192,198987,1,8,0:0:0:0:
320,192,198987,1,0,0:0:0:70:HHOpen.wav
448,192,198987,1,0,0:0:0:0:
192,192,199064,1,0,0:0:0:0:
320,192,199141,1,2,0:0:0:0:
448,192,199141,1,0,0:0:0:0:
64,192,199294,1,0,0:0:0:0:
192,192,199371,1,0,0:0:0:70:LR_Snare Drum.wav
320,192,199371,1,0,0:0:0:0:
64,192,199448,1,2,0:0:0:0:
448,192,199448,1,0,0:0:0:0:
64,192,199602,1,8,0:0:0:0:
192,192,199602,1,0,0:0:0:70:HHOpen.wav
448,192,199602,1,0,0:0:0:0:
320,192,199756,1,0,0:0:0:0:
64,192,199910,1,2,0:0:0:0:
448,192,199910,1,0,0:0:0:0:
192,192,199987,1,0,0:0:0:0:
320,192,200064,1,2,0:0:0:0:
448,192,200064,1,0,0:0:0:0:
64,192,200217,1,8,0:0:0:0:
192,192,200217,1,0,0:0:0:70:HHOpen.wav
320,192,200217,1,0,0:0:0:0:
448,192,200371,1,0,0:0:0:0:
192,192,200525,1,2,0:0:0:0:
320,192,200679,1,2,0:0:0:0:
448,192,200679,1,0,0:0:0:0:
64,192,200833,1,8,0:0:0:0:
192,192,200833,1,0,0:0:0:70:HHOpen.wav
448,192,200833,1,0,0:0:0:0:
64,192,200987,1,2,0:0:0:0:
320,192,200987,128,4,201294:0:0:0:0:
448,192,200987,1,0,0:0:0:0:
64,192,201294,1,2,0:0:0:0:
192,192,201294,1,0,0:0:0:0:
64,192,201448,1,8,0:0:0:0:
320,192,201448,1,0,0:0:0:70:HHOpen.wav
448,192,201448,1,0,0:0:0:0:
192,192,201602,1,2,0:0:0:0:
448,192,201602,1,0,0:0:0:0:
192,192,201756,1,0,0:0:0:70:tom01.wav
320,192,201756,1,0,0:0:0:0:
64,192,201910,1,2,0:0:0:0:
192,192,201910,1,0,0:0:0:0:
320,192,202064,1,2,0:0:0:0:
448,192,202064,1,0,0:0:0:70:HHOpen.wav
64,192,202217,1,2,0:0:0:0:
192,192,202217,128,4,202525:0:0:0:0:
448,192,202217,1,0,0:0:0:0:
320,192,202525,1,2,0:0:0:0:
448,192,202525,1,0,0:0:0:0:
64,192,202679,1,8,0:0:0:0:
192,192,202679,1,0,0:0:0:70:HHOpen.wav
320,192,202679,1,0,0:0:0:0:
320,192,202833,1,2,0:0:0:0:
64,192,202987,1,8,0:0:0:0:
192,192,202987,1,0,0:0:0:70:HHOpen.wav
448,192,202987,1,0,0:0:0:0:
64,192,203141,1,2,0:0:0:0:
320,192,203141,1,0,0:0:0:0:
192,192,203294,1,8,0:0:0:0:
320,192,203294,1,0,0:0:0:70:HHOpen.wav
448,192,203294,1,0,0:0:0:0:
64,192,203448,1,2,0:0:0:0:
320,192,203448,1,4,0:0:0:0:
448,192,203448,128,0,203756:0:0:0:0:
64,192,203756,1,8,0:0:0:0:
192,192,203756,1,0,0:0:0:70:HHOpen.wav
320,192,203756,1,0,0:0:0:0:
320,192,203910,1,0,0:0:0:0:
64,192,204064,1,2,0:0:0:0:
192,192,204064,1,0,0:0:0:0:
64,192,204217,1,8,0:0:0:0:
320,192,204217,1,0,0:0:0:70:HHOpen.wav
448,192,204217,1,0,0:0:0:0:
64,192,204371,1,2,0:0:0:0:
320,192,204371,1,0,0:0:0:0:
320,192,204525,1,2,0:0:0:0:
448,192,204525,1,0,0:0:0:0:
192,192,204679,1,2,0:0:0:0:
64,192,204833,128,2,204935:0:0:0:0:
320,192,204833,128,4,204935:0:0:0:0:
448,192,204833,128,0,204935:0:0:0:0:
64,192,205038,1,8,0:0:0:0:
192,192,205038,1,0,0:0:0:0:
320,192,205038,1,0,0:0:0:0:
64,192,205243,1,8,0:0:0:0:
320,192,205243,1,0,0:0:0:0:
448,192,205243,1,0,0:0:0:0:
192,192,205448,128,2,205551:0:0:0:0:
320,192,205448,128,4,205551:0:0:0:0:
448,192,205448,128,0,205551:0:0:0:0:
64,192,205653,1,8,0:0:0:0:
448,192,205653,1,0,0:0:0:70:tom02.wav
64,192,205858,1,8,0:0:0:0:
320,192,205858,1,0,0:0:0:70:tom03.wav
64,192,206064,128,4,206166:0:0:0:0:
192,192,206064,128,2,206166:0:0:0:0:
448,192,206064,128,0,206166:0:0:0:0:
320,192,206269,1,2,0:0:0:0:
448,192,206269,1,0,0:0:0:0:
64,192,206474,1,2,0:0:0:0:
320,192,206474,1,0,0:0:0:0:
64,192,206679,128,2,206782:0:0:0:0:
192,192,206679,128,4,206782:0:0:0:0:
320,192,206679,128,0,206782:0:0:0:0:
64,192,206884,1,2,0:0:0:0:
448,192,206884,1,0,0:0:0:0:
64,192,207089,1,8,0:0:0:0:
192,192,207089,1,0,0:0:0:0:
448,192,207089,1,0,0:0:0:0:
64,192,207294,1,4,0:0:0:0:
320,192,207294,1,2,0:0:0:0:
448,192,207294,1,0,0:0:0:0:
192,192,207448,1,0,0:0:0:0:
192,192,207602,1,8,0:0:0:0:
320,192,207602,1,0,0:0:0:0:
448,192,207602,1,0,0:0:0:0:
64,192,207756,1,4,0:0:0:0:
448,192,207756,1,0,0:0:0:0:
64,192,207910,1,4,0:0:0:0:
320,192,207910,1,8,0:0:0:0:
448,192,207910,1,0,0:0:0:0:
192,192,208064,1,4,0:0:0:0:
320,192,208064,1,0,0:0:0:0:
448,192,208064,1,0,0:0:0:0:
64,192,208217,1,8,0:0:0:0:
192,192,208217,1,0,0:0:0:0:
320,192,208217,1,0,0:0:0:0:
64,192,208371,1,4,0:0:0:0:
192,192,208371,1,0,0:0:0:0:
448,192,208371,1,0,0:0:0:0:
64,192,208679,1,8,0:0:0:0:
320,192,208679,1,0,0:0:0:0:
448,192,208679,1,0,0:0:0:0:
64,192,208833,1,8,0:0:0:0:
192,192,208833,1,0,0:0:0:0:
448,192,208833,1,0,0:0:0:0:
64,192,208987,1,8,0:0:0:0:
192,192,208987,1,0,0:0:0:0:
320,192,208987,1,0,0:0:0:0:
64,192,209141,1,4,0:0:0:0:
320,192,209141,1,0,0:0:0:70:HHOpen.wav
448,192,209141,1,0,0:0:0:0:
64,192,209448,1,4,0:0:0:0:
320,192,209448,1,0,0:0:0:70:HHOpen.wav
448,192,209448,1,0,0:0:0:0:
448,192,209756,1,0,0:0:0:0:
64,192,209756,1,0,0:0:0:0:
192,192,209910,1,0,0:0:0:0:
320,192,210064,1,0,0:0:0:0:
448,192,210064,1,0,0:0:0:0:
64,192,210217,1,0,0:0:0:0:
192,192,210371,1,0,0:0:0:0:
448,192,210371,1,0,0:0:0:0:
320,192,210525,1,0,0:0:0:0:
64,192,210679,1,0,0:0:0:0:
192,192,210679,1,0,0:0:0:0:
448,192,210833,1,0,0:0:0:0:
192,192,210987,128,0,211294:0:0:0:0:
320,192,210987,1,0,0:0:0:0:
320,192,211294,128,0,211602:0:0:0:0:
64,192,211294,1,0,0:0:0:0:
64,192,211602,128,0,211910:0:0:0:0:
448,192,211602,1,0,0:0:0:0:
320,192,211910,1,0,0:0:0:0:
448,192,211910,1,0,0:0:0:0:
64,192,212217,1,0,0:0:0:0:
192,192,212217,1,0,0:0:0:0:
448,192,212371,1,0,0:0:0:0:
64,192,212525,1,0,0:0:0:0:
192,192,212525,1,0,0:0:0:0:
320,192,212679,1,0,0:0:0:0:
192,192,212833,1,0,0:0:0:0:
448,192,212833,1,0,0:0:0:0:
64,192,212987,1,0,0:0:0:0:
448,192,213141,1,0,0:0:0:0:
320,192,213141,1,0,0:0:0:0:
192,192,213294,1,0,0:0:0:0:
64,192,213448,128,0,213756:0:0:0:0:
320,192,213448,1,0,0:0:0:0:
192,192,213756,1,0,0:0:0:0:
448,192,213756,128,0,214064:0:0:0:0:
64,192,214064,1,0,0:0:0:0:
320,192,214064,128,0,214371:0:0:0:0:
192,192,214371,1,0,0:0:0:0:
448,192,214371,1,0,0:0:0:0:
320,192,214679,1,0,0:0:0:0:
448,192,214679,1,0,0:0:0:0:
64,192,214833,1,0,0:0:0:0:
192,192,214987,1,0,0:0:0:0:
320,192,215141,1,0,0:0:0:0:
64,192,215294,1,0,0:0:0:0:
192,192,215448,1,0,0:0:0:0:
448,192,215602,1,0,0:0:0:0:
192,192,215756,1,0,0:0:0:0:
64,192,215910,1,0,0:0:0:0:
320,192,215910,1,0,0:0:0:0:
448,192,216064,1,0,0:0:0:0:
192,192,216217,1,0,0:0:0:0:
448,192,216371,1,0,0:0:0:0:
320,192,216525,128,0,216833:0:0:0:0:
64,192,216833,128,0,217141:0:0:0:0:
192,192,216833,128,0,217141:0:0:0:0:
320,192,217141,1,2,0:0:0:0:
448,192,217141,1,4,0:0:0:0:
64,192,217294,1,0,0:0:0:0:
192,192,217448,1,2,0:0:0:0:
448,192,217448,1,0,0:0:0:0:
320,192,217602,1,0,0:0:0:0:
64,192,217756,1,2,0:0:0:0:
448,192,217756,1,0,0:0:0:0:
192,192,217910,1,0,0:0:0:0:
320,192,218064,1,2,0:0:0:0:
448,192,218064,1,0,0:0:0:0:
64,192,218217,128,0,218371:0:0:0:70:ride04.wav
192,192,218371,1,2,0:0:0:0:
448,192,218371,1,0,0:0:0:0:
320,192,218525,1,0,0:0:0:0:
64,192,218679,1,2,0:0:0:0:
192,192,218679,1,0,0:0:0:0:
448,192,218833,1,0,0:0:0:0:
192,192,218987,1,2,0:0:0:0:
320,192,218987,1,0,0:0:0:0:
64,192,219141,128,0,219294:0:0:0:70:ride04.wav
192,192,219294,1,2,0:0:0:0:
448,192,219294,1,0,0:0:0:0:
64,192,219448,128,0,219602:0:0:0:70:ride04.wav
320,192,219602,1,2,0:0:0:0:
448,192,219602,1,0,0:0:0:0:
192,192,219756,1,0,0:0:0:0:
64,192,219910,1,2,0:0:0:0:
320,192,219910,1,0,0:0:0:0:
448,192,220064,1,0,0:0:0:0:
192,192,220217,1,2,0:0:0:0:
320,192,220217,1,0,0:0:0:0:
64,192,220371,1,0,0:0:0:0:
320,192,220525,1,2,0:0:0:0:
448,192,220525,1,0,0:0:0:0:
192,192,220679,1,0,0:0:0:0:
64,192,220833,1,2,0:0:0:0:
320,192,220833,1,0,0:0:0:0:
448,192,220987,1,0,0:0:0:0:
64,192,221141,1,2,0:0:0:0:
192,192,221141,1,0,0:0:0:0:
320,192,221294,1,0,0:0:0:0:
64,192,221448,1,2,0:0:0:0:
192,192,221448,1,0,0:0:0:0:
448,192,221602,1,0,0:0:0:0:
64,192,221756,1,2,0:0:0:0:
320,192,221756,1,0,0:0:0:0:
192,192,221910,1,0,0:0:0:0:
64,192,222064,1,2,0:0:0:0:
320,192,222064,1,4,0:0:0:0:
448,192,222064,1,0,0:0:0:0:
64,192,222217,1,8,0:0:0:0:
192,192,222217,1,0,0:0:0:0:
320,192,222294,1,8,0:0:0:0:
448,192,222294,1,0,0:0:0:0:
64,192,222371,1,2,0:0:0:0:
192,192,222371,1,0,0:0:0:0:
320,192,222525,1,8,0:0:0:0:
448,192,222525,1,0,0:0:0:0:
64,192,222602,1,8,0:0:0:0:
192,192,222602,1,0,0:0:0:0:
320,192,222679,1,2,0:0:0:0:
448,192,222679,1,0,0:0:0:0:
64,192,222833,1,8,0:0:0:0:
192,192,222833,1,0,0:0:0:0:
320,192,222910,1,8,0:0:0:0:
448,192,222910,1,0,0:0:0:0:
64,192,222987,1,2,0:0:0:0:
192,192,222987,1,0,0:0:0:0:
64,192,223141,1,8,0:0:0:0:
192,192,223141,1,4,0:0:0:0:
448,192,223141,1,0,0:0:0:0:
320,192,223294,1,2,0:0:0:0:
64,192,223448,1,8,0:0:0:0:
192,192,223448,1,0,0:0:0:0:
64,192,223602,1,0,0:0:0:70:tom01.wav
448,192,223602,1,0,0:0:0:0:
192,192,223756,1,0,0:0:0:70:tom02.wav
320,192,223910,1,2,0:0:0:0:
448,192,223910,1,0,0:0:0:0:
64,192,224064,1,2,0:0:0:0:
192,192,224064,1,0,0:0:0:0:
64,192,224217,1,2,0:0:0:0:
448,192,224217,1,0,0:0:0:0:
192,192,224294,1,0,0:0:0:0:
320,192,224371,1,2,0:0:0:0:
448,192,224371,1,0,0:0:0:0:
64,192,224448,1,0,0:0:0:0:
192,192,224525,1,2,0:0:0:0:
320,192,224525,1,4,0:0:0:0:
448,192,224525,128,0,224833:0:0:0:0:
64,192,224833,1,8,0:0:0:0:
192,192,224833,1,0,0:0:0:0:
320,192,224833,1,0,0:0:0:0:
448,192,224987,1,2,0:0:0:0:
64,192,225141,1,2,0:0:0:0:
192,192,225141,1,0,0:0:0:0:
320,192,225294,1,2,0:0:0:0:
448,192,225294,1,0,0:0:0:0:
64,192,225448,1,2,0:0:0:0:
192,192,225448,1,0,0:0:0:0:
64,192,225602,128,8,225910:0:0:0:0:
320,192,225602,1,4,0:0:0:0:
448,192,225602,1,0,0:0:0:0:
192,192,225910,1,2,0:0:0:0:
320,192,225910,1,4,0:0:0:0:
448,192,225910,1,0,0:0:0:0:
64,192,226064,1,8,0:0:0:0:
192,192,226064,1,0,0:0:0:0:
448,192,226064,1,0,0:0:0:0:
320,192,226217,128,2,226525:0:0:0:0:
448,192,226217,1,4,0:0:0:0:
64,192,226525,1,8,0:0:0:0:
192,192,226525,1,0,0:0:0:0:
448,192,226525,1,0,0:0:0:0:
64,192,226679,1,2,0:0:0:0:
320,192,226679,1,0,0:0:0:0:
192,192,226833,1,2,0:0:0:0:
448,192,226833,1,0,0:0:0:0:
64,192,226987,1,8,0:0:0:0:
192,192,226987,1,2,0:0:0:0:
320,192,226987,1,0,0:0:0:0:
64,192,227141,1,2,0:0:0:0:
320,192,227141,1,8,0:0:0:0:
448,192,227141,1,0,0:0:0:0:
64,192,227448,1,2,0:0:0:0:
192,192,227448,1,8,0:0:0:0:
448,192,227448,1,0,0:0:0:0:
192,192,227602,1,2,0:0:0:0:
320,192,227602,1,8,0:0:0:0:
448,192,227602,1,0,0:0:0:0:
64,192,227910,128,2,228217:0:0:0:0:
320,192,227910,1,8,0:0:0:0:
448,192,227910,1,0,0:0:0:0:
320,192,228064,128,0,228217:0:0:0:0:
448,192,228064,128,0,228217:0:0:0:0:
192,192,228217,128,0,229756:0:0:0:0:
320,192,230679,128,0,230833:0:0:0:0:
64,192,231371,1,0,0:0:0:0:
448,192,231525,1,0,0:0:0:0:
192,192,231679,128,0,231833:0:0:0:0:
448,192,232294,128,0,232448:0:0:0:0:
64,192,232448,128,0,232602:0:0:0:0:
192,192,233141,1,0,0:0:0:0:
448,192,233243,1,0,0:0:0:0:
320,192,233499,1,0,0:0:0:0:
64,192,233756,128,0,234064:0:0:0:0:
320,192,234371,128,0,234679:0:0:0:0:
64,192,234679,1,2,0:0:0:0:
192,192,234679,128,0,234987:0:0:0:0:
448,192,234679,1,0,0:0:0:0:
64,192,234987,1,4,0:0:0:0:
320,192,234987,1,8,0:0:0:0:
448,192,234987,1,2,0:0:0:0:
64,192,235140,1,0,0:0:0:0:
64,192,235294,1,8,0:0:0:0:
320,192,235294,1,0,0:0:0:70:HHOpen.wav
448,192,235294,1,0,0:0:0:0:
320,192,235448,1,2,0:0:0:0:
64,192,235602,1,8,0:0:0:0:
192,192,235602,1,0,0:0:0:70:HHOpen.wav
320,192,235602,1,0,0:0:0:0:
64,192,235756,1,2,0:0:0:0:
448,192,235756,1,0,0:0:0:0:
64,192,235910,1,8,0:0:0:0:
192,192,235910,1,0,0:0:0:70:HHOpen.wav
448,192,235910,1,0,0:0:0:0:
192,192,236063,1,2,0:0:0:0:
320,192,236063,1,0,0:0:0:0:
64,192,236217,128,8,236525:0:0:0:0:
320,192,236217,1,0,0:0:0:70:HHOpen.wav
448,192,236217,1,0,0:0:0:0:
192,192,236525,1,8,0:0:0:0:
448,192,236525,128,0,236833:0:0:0:70:HHOpen.wav
64,192,236833,1,8,0:0:0:0:
192,192,236833,128,0,237140:0:0:0:70:HHOpen.wav
320,192,236833,1,0,0:0:0:0:
64,192,236987,1,2,0:0:0:0:
448,192,236987,1,0,0:0:0:0:
320,192,237140,1,8,0:0:0:0:
448,192,237140,1,0,0:0:0:70:HHOpen.wav
64,192,237294,1,2,0:0:0:0:
192,192,237294,1,0,0:0:0:0:
192,192,237448,1,8,0:0:0:0:
320,192,237448,1,0,0:0:0:70:HHOpen.wav
448,192,237448,1,0,0:0:0:0:
64,192,237602,1,0,0:0:0:0:
64,192,237756,1,8,0:0:0:0:
192,192,237756,1,0,0:0:0:70:HHOpen.wav
448,192,237756,1,0,0:0:0:0:
320,192,237910,1,0,0:0:0:0:
192,192,238063,1,8,0:0:0:0:
320,192,238063,1,0,0:0:0:70:HHOpen.wav
448,192,238063,1,0,0:0:0:0:
64,192,238217,1,2,0:0:0:0:
192,192,238217,1,0,0:0:0:0:
192,192,238371,1,8,0:0:0:0:
320,192,238371,1,0,0:0:0:70:HHOpen.wav
448,192,238371,1,0,0:0:0:0:
64,192,238525,1,2,0:0:0:0:
320,192,238525,1,0,0:0:0:0:
64,192,238679,128,8,238987:0:0:0:0:
320,192,238679,1,0,0:0:0:70:HHOpen.wav
448,192,238679,1,0,0:0:0:0:
192,192,238987,1,8,0:0:0:0:
320,192,238987,1,0,0:0:0:70:HHOpen.wav
448,192,238987,128,0,239294:0:0:0:0:
64,192,239294,1,8,0:0:0:0:
192,192,239294,128,0,239602:0:0:0:70:HHOpen.wav
320,192,239294,1,0,0:0:0:0:
64,192,239448,1,2,0:0:0:0:
448,192,239448,1,0,0:0:0:0:
64,192,239602,1,8,0:0:0:0:
320,192,239602,1,4,0:0:0:0:
448,192,239602,1,0,0:0:0:0:
192,192,239756,1,2,0:0:0:0:
448,192,239756,1,0,0:0:0:0:
64,192,239910,1,4,0:0:0:0:
192,192,239910,1,8,0:0:0:0:
320,192,239910,1,0,0:0:0:0:
320,192,240063,1,0,0:0:0:0:
192,192,240217,1,8,0:0:0:0:
320,192,240217,1,0,0:0:0:70:HHOpen.wav
448,192,240217,1,0,0:0:0:0:
64,192,240371,1,0,0:0:0:0:
64,192,240525,1,8,0:0:0:0:
192,192,240525,1,0,0:0:0:70:HHOpen.wav
448,192,240525,1,0,0:0:0:0:
64,192,240679,1,2,0:0:0:0:
320,192,240679,1,0,0:0:0:0:
192,192,240833,1,8,0:0:0:0:
320,192,240833,1,0,0:0:0:70:HHOpen.wav
448,192,240833,1,0,0:0:0:0:
320,192,240987,1,2,0:0:0:0:
448,192,240987,1,0,0:0:0:0:
64,192,241140,1,8,0:0:0:0:
192,192,241140,1,0,0:0:0:70:HHOpen.wav
448,192,241140,1,0,0:0:0:0:
192,192,241294,1,0,0:0:0:0:
192,192,241448,1,8,0:0:0:0:
320,192,241448,1,0,0:0:0:70:HHOpen.wav
448,192,241448,1,0,0:0:0:0:
64,192,241602,1,0,0:0:0:0:
64,192,241756,1,8,0:0:0:0:
192,192,241756,1,0,0:0:0:70:HHOpen.wav
448,192,241756,1,0,0:0:0:0:
192,192,241910,1,2,0:0:0:0:
448,192,241910,1,0,0:0:0:0:
192,192,242063,1,8,0:0:0:0:
320,192,242063,1,0,0:0:0:70:HHOpen.wav
448,192,242063,1,0,0:0:0:0:
64,192,242217,1,2,0:0:0:0:
320,192,242217,1,0,0:0:0:0:
64,192,242371,1,8,0:0:0:0:
320,192,242371,1,0,0:0:0:70:HHOpen.wav
448,192,242371,1,0,0:0:0:0:
192,192,242525,1,0,0:0:0:0:
64,192,242679,1,8,0:0:0:0:
192,192,242679,1,0,0:0:0:70:HHOpen.wav
448,192,242679,1,0,0:0:0:0:
320,192,242833,1,0,0:0:0:70:tom01.wav
448,192,242833,1,0,0:0:0:0:
64,192,242910,1,0,0:0:0:70:tom01.wav
192,192,242910,1,0,0:0:0:0:
320,192,242987,1,0,0:0:0:70:tom02.wav
448,192,242987,1,0,0:0:0:0:
64,192,243140,1,0,0:0:0:70:tom02.wav
192,192,243140,1,0,0:0:0:0:
64,192,243294,1,0,0:0:0:70:tom03.wav
320,192,243294,1,0,0:0:0:0:
192,192,243448,1,0,0:0:0:70:tom03.wav
448,192,243448,1,0,0:0:0:0:
64,192,243602,128,2,243910:0:0:0:0:
320,192,243602,1,4,0:0:0:0:
448,192,243602,1,0,0:0:0:0:
192,192,243910,1,2,0:0:0:0:
320,192,243910,1,4,0:0:0:0:
448,192,243910,128,0,244217:0:0:0:0:
64,192,244217,1,4,0:0:0:0:
192,192,244217,128,2,244525:0:0:0:0:
320,192,244217,1,0,0:0:0:0:
64,192,244525,1,8,0:0:0:0:
320,192,244525,1,0,0:0:0:70:HHOpen.wav
448,192,244525,1,0,0:0:0:0:
320,192,244833,1,0,0:0:0:0:
64,192,244987,1,2,0:0:0:0:
192,192,244987,1,0,0:0:0:0:
320,192,245063,1,2,0:0:0:0:
448,192,245063,1,0,0:0:0:0:
64,192,245140,1,4,0:0:0:0:
192,192,245140,1,8,0:0:0:0:
448,192,245294,1,0,0:0:0:0:
64,192,245448,1,8,0:0:0:0:
320,192,245448,1,0,0:0:0:70:HHOpen.wav
448,192,245448,1,0,0:0:0:0:
64,192,245602,1,2,0:0:0:0:
192,192,245602,1,0,0:0:0:0:
192,192,245756,1,8,0:0:0:0:
320,192,245756,1,0,0:0:0:70:HHOpen.wav
448,192,245756,1,0,0:0:0:0:
64,192,245910,1,2,0:0:0:0:
448,192,245910,1,0,0:0:0:0:
64,192,246063,1,8,0:0:0:0:
192,192,246063,1,0,0:0:0:70:HHOpen.wav
448,192,246063,128,0,246371:0:0:0:0:
64,192,246371,1,8,0:0:0:0:
192,192,246371,128,0,246679:0:0:0:70:HHOpen.wav
320,192,246371,1,0,0:0:0:0:
320,192,246525,1,2,0:0:0:0:
448,192,246525,1,0,0:0:0:0:
64,192,246679,1,8,0:0:0:0:
320,192,246679,128,0,246987:0:0:0:70:HHOpen.wav
448,192,246679,1,0,0:0:0:0:
64,192,246833,1,2,0:0:0:0:
192,192,246833,1,0,0:0:0:0:
64,192,246987,1,8,0:0:0:0:
192,192,246987,1,0,0:0:0:70:HHOpen.wav
448,192,246987,1,0,0:0:0:0:
320,192,247140,1,2,0:0:0:0:
448,192,247140,1,0,0:0:0:0:
64,192,247294,1,8,0:0:0:0:
192,192,247294,1,0,0:0:0:70:HHOpen.wav
448,192,247294,1,0,0:0:0:0:
320,192,247448,1,0,0:0:0:0:
192,192,247602,1,8,0:0:0:0:
320,192,247602,1,0,0:0:0:70:HHOpen.wav
448,192,247602,1,0,0:0:0:0:
64,192,247756,1,0,0:0:0:0:
64,192,247910,1,8,0:0:0:0:
192,192,247910,1,0,0:0:0:70:HHOpen.wav
448,192,247910,1,0,0:0:0:0:
64,192,248063,1,2,0:0:0:0:
320,192,248063,1,0,0:0:0:0:
192,192,248217,1,8,0:0:0:0:
320,192,248217,1,0,0:0:0:70:HHOpen.wav
448,192,248217,1,0,0:0:0:0:
192,192,248371,1,2,0:0:0:0:
320,192,248371,1,0,0:0:0:0:
64,192,248525,1,8,0:0:0:0:
192,192,248525,1,0,0:0:0:70:HHOpen.wav
448,192,248525,1,0,0:0:0:0:
320,192,248679,1,2,0:0:0:0:
448,192,248679,1,0,0:0:0:0:
64,192,248833,1,8,0:0:0:0:
192,192,248833,1,0,0:0:0:70:HHOpen.wav
320,192,248833,1,0,0:0:0:0:
448,192,248987,1,2,0:0:0:0:
64,192,248987,1,0,0:0:0:0:
320,192,249063,1,0,0:0:0:0:
192,192,249063,1,2,0:0:0:0:
448,192,249140,1,0,0:0:0:70:tom01.wav
64,192,249140,1,0,0:0:0:0:
192,192,249217,1,0,0:0:0:70:tom01.wav
448,192,249294,1,2,0:0:0:0:
320,192,249294,1,0,0:0:0:0:
192,192,249371,1,2,0:0:0:0:
64,192,249371,1,0,0:0:0:0:
448,192,249448,1,8,0:0:0:0:
320,192,249448,1,0,0:0:0:70:HHOpen.wav
192,192,249602,1,2,0:0:0:0:
64,192,249602,1,0,0:0:0:0:
64,192,249756,1,4,0:0:0:0:
192,192,249756,1,8,0:0:0:0:
448,192,249756,1,0,0:0:0:0:
320,192,249910,1,0,0:0:0:0:
192,192,250063,1,8,0:0:0:0:
320,192,250063,1,0,0:0:0:70:HHOpen.wav
448,192,250063,1,0,0:0:0:0:
64,192,250217,1,0,0:0:0:0:
64,192,250371,1,8,0:0:0:0:
192,192,250371,1,0,0:0:0:70:HHOpen.wav
448,192,250371,1,0,0:0:0:0:
192,192,250525,1,2,0:0:0:0:
320,192,250525,1,0,0:0:0:0:
64,192,250679,1,8,0:0:0:0:
192,192,250679,1,0,0:0:0:70:HHOpen.wav
448,192,250679,1,0,0:0:0:0:
64,192,250833,1,2,0:0:0:0:
320,192,250833,1,0,0:0:0:0:
192,192,250987,1,8,0:0:0:0:
320,192,250987,1,0,0:0:0:70:HHOpen.wav
448,192,250987,1,0,0:0:0:0:
192,192,251140,1,2,0:0:0:0:
448,192,251140,1,0,0:0:0:0:
64,192,251294,1,8,0:0:0:0:
320,192,251294,1,0,0:0:0:70:HHOpen.wav
448,192,251294,1,0,0:0:0:0:
64,192,251448,1,8,0:0:0:0:
192,192,251448,1,0,0:0:0:0:
320,192,251525,1,8,0:0:0:0:
448,192,251525,1,0,0:0:0:0:
64,192,251602,1,8,0:0:0:0:
192,192,251602,1,0,0:0:0:70:HHOpen.wav
320,192,251756,1,0,0:0:0:70:tom02.wav
448,192,251756,1,0,0:0:0:0:
320,192,251910,1,0,0:0:0:70:tom03.wav
64,192,252063,128,4,252371:0:0:0:0:
192,192,252063,1,2,0:0:0:0:
448,192,252063,1,0,0:0:0:0:
320,192,252371,1,2,0:0:0:0:
448,192,252371,1,0,0:0:0:0:
64,192,252525,1,8,0:0:0:0:
192,192,252525,1,0,0:0:0:70:HHOpen.wav
448,192,252525,1,0,0:0:0:0:
64,192,252679,1,0,0:0:0:0:
192,192,252756,1,0,0:0:0:0:
320,192,252833,1,2,0:0:0:0:
448,192,252833,1,0,0:0:0:0:
64,192,252987,1,2,0:0:0:0:
192,192,252987,1,0,0:0:0:0:
64,192,253140,1,8,0:0:0:0:
320,192,253140,1,0,0:0:0:70:HHOpen.wav
448,192,253140,1,0,0:0:0:0:
192,192,253294,1,0,0:0:0:0:
320,192,253371,1,0,0:0:0:0:
192,192,253448,1,2,0:0:0:0:
64,192,253448,1,4,0:0:0:0:
448,192,253448,1,0,0:0:0:0:
64,192,253602,1,8,0:0:0:0:
192,192,253602,1,0,0:0:0:0:
320,192,253602,1,0,0:0:0:0:
320,192,253756,1,8,0:0:0:0:
448,192,253756,1,0,0:0:0:70:HHOpen.wav
64,192,253833,1,8,0:0:0:0:
192,192,253833,1,0,0:0:0:0:
320,192,253910,1,8,0:0:0:0:
448,192,253910,1,0,0:0:0:0:
64,192,253987,1,8,0:0:0:0:
192,192,253987,1,0,0:0:0:0:
320,192,254063,1,8,0:0:0:0:
448,192,254063,1,0,0:0:0:0:
192,192,254217,1,0,0:0:0:70:tom01.wav
64,192,254371,1,2,0:0:0:0:
320,192,254371,1,0,0:0:0:0:
448,192,254371,1,0,0:0:0:0:
320,192,254525,128,0,254679:0:0:0:70:HHOpen.wav
192,192,254679,1,0,0:0:0:0:
64,192,254679,128,0,255063:0:0:0:0:
320,192,256525,1,0,0:0:0:0:
192,192,256833,1,0,0:0:0:70:LR_Snare Clap Low_EDIT.wav
448,192,256833,1,0,0:0:0:0:
64,192,257140,1,2,0:0:0:0:
320,192,257140,1,4,0:0:0:0:
448,192,257140,1,0,0:0:0:0:
320,192,257294,1,0,0:0:0:0:
192,192,257448,1,8,0:0:0:0:
320,192,257448,1,0,0:0:0:70:HHOpen.wav
448,192,257448,1,0,0:0:0:0:
64,192,257602,1,0,0:0:0:0:
320,192,257756,1,2,0:0:0:0:
448,192,257756,1,0,0:0:0:0:
64,192,257910,1,2,0:0:0:0:
192,192,257910,1,0,0:0:0:0:
64,192,258063,1,8,0:0:0:0:
320,192,258063,1,0,0:0:0:70:HHOpen.wav
448,192,258063,1,0,0:0:0:0:
192,192,258217,1,0,0:0:0:0:
448,192,258371,1,2,0:0:0:0:
320,192,258371,1,0,0:0:0:0:
192,192,258448,1,0,0:0:0:0:
64,192,258525,1,2,0:0:0:0:
320,192,258525,1,0,0:0:0:0:
448,192,258602,1,0,0:0:0:0:
320,192,258679,1,8,0:0:0:0:
192,192,258679,1,0,0:0:0:70:HHOpen.wav
64,192,258679,1,0,0:0:0:0:
64,192,258833,1,2,0:0:0:0:
192,192,258833,1,0,0:0:0:0:
320,192,258910,1,0,0:0:0:0:
448,192,258910,1,0,0:0:0:0:
192,192,258987,1,0,0:0:0:0:
320,192,259063,1,0,0:0:0:70:LR_Snare Drum.wav
448,192,259063,1,0,0:0:0:0:
64,192,259140,1,2,0:0:0:0:
192,192,259140,1,0,0:0:0:0:
64,192,259294,1,8,0:0:0:0:
320,192,259294,1,0,0:0:0:70:HHOpen.wav
448,192,259294,1,0,0:0:0:0:
320,192,259448,1,0,0:0:0:0:
192,192,259525,1,0,0:0:0:0:
64,192,259602,1,2,0:0:0:0:
448,192,259602,1,0,0:0:0:0:
192,192,259756,1,2,0:0:0:0:
320,192,259756,1,0,0:0:0:0:
64,192,259910,1,8,0:0:0:0:
320,192,259910,1,0,0:0:0:70:HHOpen.wav
448,192,259910,1,0,0:0:0:0:
64,192,260063,1,2,0:0:0:0:
320,192,260063,1,0,0:0:0:0:
64,192,260294,1,0,0:0:0:70:LR_Snare Drum.wav
192,192,260294,1,0,0:0:0:0:
320,192,260371,1,2,0:0:0:0:
448,192,260371,1,0,0:0:0:0:
64,192,260525,1,8,0:0:0:0:
192,192,260525,1,0,0:0:0:70:HHOpen.wav
448,192,260525,1,0,0:0:0:0:
320,192,260679,1,0,0:0:0:0:
192,192,260833,1,2,0:0:0:0:
448,192,260833,1,0,0:0:0:0:
64,192,260910,1,0,0:0:0:0:
448,192,260987,1,2,0:0:0:0:
320,192,260987,1,0,0:0:0:0:
192,192,261063,1,0,0:0:0:0:
64,192,261140,1,8,0:0:0:0:
448,192,261140,1,0,0:0:0:70:HHOpen.wav
320,192,261140,1,0,0:0:0:0:
192,192,261294,1,2,0:0:0:0:
320,192,261294,1,0,0:0:0:0:
448,192,261371,1,0,0:0:0:0:
192,192,261448,1,8,0:0:0:0:
64,192,261448,1,0,0:0:0:0:
448,192,261525,1,8,0:0:0:0:
320,192,261525,1,0,0:0:0:0:
192,192,261602,1,8,0:0:0:0:
64,192,261602,1,0,0:0:0:0:
448,192,261679,1,8,0:0:0:0:
320,192,261679,1,0,0:0:0:0:
192,192,261756,1,0,0:0:0:70:tom03.wav
320,192,261910,1,0,0:0:0:70:tom04.wav
192,192,261987,1,0,0:0:0:0:
448,192,262063,1,4,0:0:0:0:
320,192,262063,1,2,0:0:0:0:
64,192,262063,1,0,0:0:0:0:
320,192,262217,1,0,0:0:0:0:
192,192,262371,1,8,0:0:0:0:
320,192,262371,1,0,0:0:0:70:HHOpen.wav
448,192,262371,1,0,0:0:0:0:
64,192,262525,1,0,0:0:0:0:
192,192,262679,1,8,0:0:0:0:
320,192,262679,1,0,0:0:0:70:HHOpen.wav
448,192,262679,1,0,0:0:0:0:
64,192,262833,1,2,0:0:0:0:
192,192,262833,1,0,0:0:0:0:
64,192,262987,1,8,0:0:0:0:
320,192,262987,1,0,0:0:0:70:HHOpen.wav
448,192,262987,1,0,0:0:0:0:
192,192,263140,1,2,0:0:0:0:
320,192,263140,1,0,0:0:0:0:
64,192,263294,1,8,0:0:0:0:
192,192,263294,1,0,0:0:0:70:HHOpen.wav
448,192,263294,1,0,0:0:0:0:
320,192,263371,1,0,0:0:0:0:
64,192,263448,1,2,0:0:0:0:
192,192,263448,1,0,0:0:0:0:
64,192,263602,1,8,0:0:0:0:
320,192,263602,1,0,0:0:0:70:HHOpen.wav
448,192,263602,1,0,0:0:0:0:
320,192,263756,1,2,0:0:0:0:
448,192,263756,1,0,0:0:0:0:
64,192,263833,1,2,0:0:0:0:
192,192,263833,1,0,0:0:0:0:
320,192,263910,1,8,0:0:0:0:
448,192,263910,1,0,0:0:0:70:HHOpen.wav
64,192,264063,1,2,0:0:0:0:
320,192,264063,1,0,0:0:0:0:
64,192,264217,1,8,0:0:0:0:
192,192,264217,1,0,0:0:0:70:HHOpen.wav
448,192,264217,1,0,0:0:0:0:
320,192,264371,1,2,0:0:0:0:
64,192,264525,1,8,0:0:0:0:
192,192,264525,1,0,0:0:0:70:HHOpen.wav
448,192,264525,1,0,0:0:0:0:
192,192,264679,1,2,0:0:0:0:
320,192,264679,1,0,0:0:0:0:
64,192,264833,1,0,0:0:0:70:tom01.wav
448,192,264833,1,0,0:0:0:0:
192,192,264910,1,0,0:0:0:70:tom02.wav
320,192,264987,1,2,0:0:0:0:
448,192,265063,1,2,0:0:0:0:
64,192,265140,1,0,0:0:0:70:tom03.wav
192,192,265140,1,0,0:0:0:0:
320,192,265217,1,0,0:0:0:70:tom03.wav
448,192,265294,1,0,0:0:0:70:tom04.wav
192,192,265371,1,0,0:0:0:70:tom04.wav
64,192,265448,1,8,0:0:0:0:
320,192,265448,1,0,0:0:0:0:
448,192,265448,1,0,0:0:0:0:
64,192,265602,1,2,0:0:0:0:
320,192,265602,1,0,0:0:0:70:HHOpen.wav
192,192,265602,1,0,0:0:0:0:
320,192,265910,1,0,0:0:0:0:
192,192,266063,1,0,0:0:0:0:
320,192,266217,1,0,0:0:0:0:
64,192,266371,1,0,0:0:0:70:HHOpen.wav
448,192,266371,1,0,0:0:0:0:
192,192,266679,1,8,0:0:0:0:
320,192,266679,1,0,0:0:0:0:
448,192,266679,1,0,0:0:0:0:
64,192,266833,1,2,0:0:0:0:
192,192,266833,1,4,0:0:0:0:
448,192,266833,1,0,0:0:0:0:
320,192,267140,1,2,0:0:0:0:
64,192,267294,1,8,0:0:0:0:
192,192,267294,1,0,0:0:0:70:HHOpen.wav
448,192,267294,1,0,0:0:0:0:
320,192,267448,1,8,0:0:0:0:
448,192,267448,1,0,0:0:0:0:
64,192,267525,1,8,0:0:0:0:
192,192,267525,1,0,0:0:0:0:
320,192,267602,1,8,0:0:0:0:
448,192,267602,1,0,0:0:0:70:HHOpen.wav
64,192,267756,1,8,0:0:0:0:
448,192,267756,1,0,0:0:0:70:tom01.wav
192,192,267910,1,0,0:0:0:70:tom03.wav
64,192,268063,1,8,0:0:0:0:
320,192,268063,1,0,0:0:0:70:HHOpen.wav
448,192,268063,1,0,0:0:0:0:
64,192,268679,1,2,0:0:0:0:
192,192,268679,1,0,0:0:0:0:
320,192,268756,1,2,0:0:0:0:
448,192,268756,1,0,0:0:0:0:
64,192,268833,128,2,276987:0:0:0:0:
192,192,268833,128,4,269192:0:0:0:0:
320,192,269192,128,0,269294:0:0:0:0:
192,192,269294,128,0,274371:0:0:0:0:
