osu file format v14

[General]
AudioFilename: audio.mp3
AudioLeadIn: 0
PreviewTime: 118489
Countdown: 0
SampleSet: Soft
StackLeniency: 0.7
Mode: 3
LetterboxInBreaks: 0
SpecialStyle: 0
WidescreenStoryboard: 1

[Editor]
DistanceSpacing: 0.6
BeatDivisor: 4
GridSize: 16
TimelineZoom: 1.9

[Metadata]
Title:Miko-sama no Aburaage disco
TitleUnicode:神子さまの油揚げdisco
Artist:ShinRa-Bansho
ArtistUnicode:森羅万象
Creator:SuzumeAyase
Version:Raisky's Easy
Source:
Tags:denyi ferdixia- raisky757 hoyofair 2022 ayaponzu* Ayo あやぽんず* あよ electronic japanese jpop j-pop genshin impact yae kaztora hedonist 君と世界の終わりに kimi to sekai no owarini owari ni
BeatmapID:3814993
BeatmapSetID:1856309

[Difficulty]
HPDrainRate:6.5
CircleSize:4
OverallDifficulty:6.5
ApproachRate:5
SliderMultiplier:1.4
SliderTickRate:1

[Events]
//Background and Video events
0,0,"yae miko.jpg",0,0
Video,0,"MVdiscoVo.mp4"
//Break Periods
//Storyboard Layer 0 (Background)
//Storyboard Layer 1 (Fail)
//Storyboard Layer 2 (Pass)
//Storyboard Layer 3 (Foreground)
//Storyboard Layer 4 (Overlay)
//Storyboard Sound Samples
Sample,17749,0,"LR_J Hit Pong.wav",50
Sample,17927,0,"LR_J Hit Pong.wav",50
Sample,29288,0,"LR_J Hit Edge F.wav",60
Sample,30885,0,"LR_Chm High Long.wav",40
Sample,45619,0,"cymbal_short.wav",65
Sample,45974,0,"cymbal_short.wav",65
Sample,53430,0,"LR_Hat Normal.wav",60
Sample,54850,0,"LR_Hat Normal.wav",60
Sample,55560,0,"LR_Snare Hat 2.wav",50
Sample,55915,0,"LR_Snare Hat 2.wav",50
Sample,56270,0,"LR_Snare Hat 2.wav",50
Sample,56625,0,"LR_Snare Hat 2.wav",50
Sample,56980,0,"LR_Snare Hat 2.wav",50
Sample,57335,0,"LR_Snare Hat 2.wav",50
Sample,57690,0,"LR_Snare Hat 2.wav",50
Sample,64613,0,"LR_J Hit Pong.wav",50
Sample,64791,0,"LR_J Hit Pong.wav",50
Sample,69051,0,"LR_Snare Wet Fast Long.wav",30
Sample,69761,0,"LR_Snare Wet Fast Long.wav",30
Sample,80412,0,"LR_Snare Wet Fast Long.wav",30
Sample,84672,0,"LR_Chm High Long.wav",50
Sample,88223,0,"LR_Clap Fast Low.wav",50
Sample,88933,0,"LR_Clap Fast Low.wav",50
Sample,89643,0,"LR_Clap Fast Low.wav",50
Sample,90353,0,"LR_Clap Fast Low.wav",50
Sample,90353,0,"LR_Chm High Long.wav",50
Sample,90708,0,"LR_Snare Wet Fast Long.wav",30
Sample,91063,0,"LR_Clap Fast Low.wav",50
Sample,91241,0,"LR_Snare Wet Fast Long.wav",30
Sample,91773,0,"LR_Snare Wet Fast Long.wav",30
Sample,96033,0,"LR_Hat Normal.wav",60
Sample,96566,0,"LR_Hat Normal.wav",60
Sample,96743,0,"LR_Hat Normal.wav",60
Sample,97809,0,"LR_Hat Normal.wav",60
Sample,98341,0,"LR_Hat Normal.wav",60
Sample,98519,0,"bubble.wav",70
Sample,98874,0,"LR_Hat Normal.wav",60
Sample,101181,0,"LR_Hat Normal.wav",60
Sample,101359,0,"bubble.wav",50
Sample,102246,0,"LR_Hat Normal.wav",60
Sample,102424,0,"LR_Hat Normal.wav",60
Sample,104199,0,"bubble.wav",50
Sample,115205,0,"LR_Snare Hat 2.wav",50
Sample,115560,0,"LR_Snare Hat 2.wav",50
Sample,115915,0,"LR_Snare Hat 2.wav",50
Sample,116270,0,"LR_Snare Hat 2.wav",50
Sample,116625,0,"LR_Snare Hat 2.wav",50
Sample,116980,0,"LR_Snare Hat 2.wav",50
Sample,117335,0,"LR_Snare Hat 2.wav",50
Sample,124258,0,"LR_J Hit Pong.wav",50
Sample,124436,0,"LR_J Hit Pong.wav",50
Sample,128696,0,"LR_Snare Wet Fast Long.wav",30
Sample,129406,0,"LR_Snare Wet Fast Long.wav",30
Sample,140057,0,"LR_Snare Wet Fast Long.wav",30
Sample,144317,0,"LR_J Hit Pong.wav",50

[TimingPoints]
1241,355.029585798817,4,2,1,20,1,0
12246,-100.0,4,2,1,60,0,0
46862,-100.0,4,2,1,20,0,0
52365,-100.0,4,2,1,60,0,0
59465,-100.0,4,2,1,60,0,1
80767,-100.0,4,2,1,60,0,0
106507,-100.0,4,2,1,20,0,0
112010,-100.0,4,2,1,60,0,0
119110,-100.0,4,2,1,60,0,1
146093,-100.0,4,2,1,60,0,0

[HitObjects]
192,192,1241,1,0,0:0:0:0:
448,192,1596,1,0,0:0:0:0:
320,192,1773,1,0,0:0:0:0:
64,192,1951,1,0,0:0:0:0:
192,192,2306,1,0,0:0:0:0:
320,192,2661,128,0,3016:0:0:0:0:
64,192,3016,1,0,0:0:0:0:
448,192,3371,1,0,0:0:0:0:
192,192,3726,128,0,4081:0:0:0:0:
320,192,4081,1,0,0:0:0:0:
64,192,4436,1,0,0:0:0:0:
192,192,4613,1,0,0:0:0:0:
448,192,4791,1,0,0:0:0:0:
64,192,5146,1,0,0:0:0:0:
448,192,5501,128,0,5856:0:0:0:0:
192,192,5856,1,0,0:0:0:0:
320,192,6211,1,0,0:0:0:0:
64,192,6566,128,0,6921:0:0:0:0:
448,192,6921,1,0,0:0:0:0:
320,192,7098,1,0,0:0:0:0:
64,192,7276,1,0,0:0:0:0:
320,192,7631,1,0,0:0:0:0:
192,192,7986,1,0,0:0:0:0:
320,192,8341,128,0,8696:0:0:0:0:
64,192,8696,1,0,0:0:0:0:
448,192,9051,1,0,0:0:0:0:
192,192,9406,128,0,9761:0:0:0:0:
448,192,9761,1,0,0:0:0:0:
320,192,9939,1,0,0:0:0:0:
192,192,10116,1,0,0:0:0:0:
64,192,10471,1,0,0:0:0:0:
192,192,10649,1,0,0:0:0:0:
320,192,10826,1,0,0:0:0:0:
448,192,11181,128,0,11536:0:0:0:0:
192,192,11536,128,0,11891:0:0:0:0:
320,192,11891,128,0,12246:0:0:0:0:
64,192,12246,1,0,0:0:0:50:LR_Snare Wet Fast Long.wav
192,192,12246,1,0,0:0:0:50:LR_J Hit Pong.wav
320,192,12601,1,6,0:0:0:0:
64,192,12956,1,8,0:0:0:0:
448,192,12956,1,0,0:0:0:0:
192,192,13312,1,2,0:0:0:0:
320,192,13667,1,8,0:0:0:0:
448,192,13667,1,0,0:0:0:0:
192,192,14022,1,2,0:0:0:0:
64,192,14377,1,8,0:0:0:0:
320,192,14377,1,0,0:0:0:0:
448,192,14732,1,2,0:0:0:0:
192,192,14909,1,0,0:0:0:60:LR_Hat Normal.wav
64,192,15087,128,8,15442:0:0:0:0:
448,192,15442,1,2,0:0:0:0:
64,192,15797,1,8,0:0:0:0:
320,192,15797,1,0,0:0:0:0:
192,192,16152,1,2,0:0:0:0:
64,192,16507,1,8,0:0:0:0:
448,192,16507,1,0,0:0:0:0:
320,192,16862,1,2,0:0:0:0:
192,192,17217,1,8,0:0:0:0:
448,192,17217,1,0,0:0:0:0:
64,192,17572,1,2,0:0:0:0:
192,192,17749,1,0,0:0:0:60:LR_Hat Normal.wav
448,192,17927,128,8,18282:0:0:0:0:
64,192,18282,1,2,0:0:0:0:
192,192,18637,1,8,0:0:0:0:
320,192,18637,1,0,0:0:0:0:
448,192,18992,1,2,0:0:0:0:
64,192,19347,1,8,0:0:0:0:
320,192,19347,1,0,0:0:0:0:
192,192,19702,1,2,0:0:0:0:
64,192,20057,1,8,0:0:0:0:
448,192,20057,1,0,0:0:0:0:
320,192,20412,1,2,0:0:0:0:
192,192,20590,1,0,0:0:0:60:LR_Hat Normal.wav
64,192,20767,128,8,21122:0:0:0:0:
448,192,21122,128,2,21477:0:0:0:0:
320,192,21477,1,10,0:0:0:0:
192,192,21655,128,2,22010:0:0:0:0:
448,192,22010,1,2,0:0:0:0:
64,192,22187,128,10,22542:0:0:0:0:
320,192,22542,128,2,22897:0:0:0:0:
192,192,22897,128,0,23252:0:0:0:0:
448,192,23252,128,0,23607:0:0:0:0:
64,192,23607,128,0,23962:0:0:0:0:
320,192,23962,1,2,0:0:0:0:
448,192,23962,1,4,0:0:0:0:
64,192,24317,1,0,0:0:0:50:LR_Hit Snare Soft.wav
192,192,24317,1,0,0:0:0:0:
320,192,24672,1,0,0:0:0:0:
64,192,25027,1,0,0:0:0:50:LR_Hit Snare Soft.wav
448,192,25027,1,0,0:0:0:0:
192,192,25383,1,0,0:0:0:0:
320,192,25738,1,0,0:0:0:50:LR_Hit Snare Soft.wav
448,192,25738,1,0,0:0:0:0:
64,192,26093,1,2,0:0:0:25:soft-hitwhistle.wav
192,192,26270,1,2,0:0:0:25:soft-hitwhistle.wav
448,192,26448,128,0,26803:0:0:0:50:LR_Hit Snare Soft.wav
64,192,26803,1,2,0:0:0:25:soft-hitwhistle.wav
192,192,27158,1,0,0:0:0:50:LR_Hit Snare Soft.wav
448,192,27158,1,0,0:0:0:0:
320,192,27513,1,0,0:0:0:0:
64,192,27868,1,0,0:0:0:50:LR_Hit Snare Soft.wav
448,192,27868,1,0,0:0:0:0:
192,192,28045,1,2,0:0:0:25:soft-hitwhistle.wav
448,192,28400,1,2,0:0:0:25:soft-hitwhistle.wav
64,192,28578,1,0,0:0:0:50:LR_Hit Snare Soft.wav
320,192,28578,1,0,0:0:0:0:
192,192,28933,1,2,0:0:0:25:soft-hitwhistle.wav
64,192,29110,1,2,0:0:0:25:soft-hitwhistle.wav
448,192,29288,1,0,0:0:0:50:LR_Hit Snare Soft.wav
320,192,29643,1,2,0:0:0:25:soft-hitwhistle.wav
64,192,29998,1,0,0:0:0:50:LR_Hit Snare Soft.wav
192,192,29998,1,0,0:0:0:0:
448,192,30530,1,2,0:0:0:25:soft-hitwhistle.wav
320,192,30708,1,0,0:0:0:50:LR_Hit Snare Soft.wav
64,192,30885,1,2,0:0:0:25:soft-hitwhistle.wav
192,192,31241,1,2,0:0:0:25:soft-hitwhistle.wav
320,192,31418,1,0,0:0:0:50:LR_Hit Snare Soft.wav
448,192,31418,1,0,0:0:0:0:
64,192,31773,1,2,0:0:0:25:soft-hitwhistle.wav
192,192,32128,128,0,32483:0:0:0:50:LR_Hit Snare Soft.wav
448,192,32483,1,2,0:0:0:25:soft-hitwhistle.wav
64,192,32838,1,0,0:0:0:50:LR_Hit Snare Soft.wav
192,192,32838,1,0,0:0:0:0:
320,192,33371,1,2,0:0:0:25:soft-hitwhistle.wav
64,192,33548,1,0,0:0:0:50:LR_Hit Snare Soft.wav
192,192,33726,128,0,34258:0:0:0:0:
448,192,34258,128,0,34613:0:0:0:0:
64,192,34613,128,0,34968:0:0:0:0:
320,192,34968,1,0,0:0:0:50:LR_Snare Wet Fast Long.wav
448,192,34968,1,0,0:0:0:0:
64,192,35323,1,2,0:0:0:0:
192,192,35323,1,4,0:0:0:0:
320,192,35678,1,2,0:0:0:0:
64,192,36033,1,2,0:0:0:0:
448,192,36033,1,0,0:0:0:0:
192,192,36388,1,2,0:0:0:0:
320,192,36743,1,2,0:0:0:0:
448,192,36743,1,0,0:0:0:0:
64,192,37098,1,2,0:0:0:0:
192,192,37454,1,2,0:0:0:0:
320,192,37454,1,0,0:0:0:0:
448,192,37809,128,2,38164:0:0:0:0:
64,192,38164,1,2,0:0:0:0:
192,192,38164,1,0,0:0:0:0:
320,192,38519,128,2,38874:0:0:0:0:
64,192,38874,1,2,0:0:0:0:
448,192,38874,1,0,0:0:0:0:
192,192,39229,1,2,0:0:0:0:
320,192,39584,1,2,0:0:0:0:
448,192,39584,1,0,0:0:0:0:
192,192,39939,1,2,0:0:0:0:
64,192,40294,1,2,0:0:0:0:
448,192,40294,1,0,0:0:0:0:
320,192,40649,1,2,0:0:0:0:
64,192,41004,1,2,0:0:0:0:
192,192,41181,1,0,0:0:0:40:LR_HiHat vFast.wav
448,192,41359,1,2,0:0:0:0:
64,192,41714,1,2,0:0:0:0:
320,192,41714,1,0,0:0:0:0:
192,192,42069,1,2,0:0:0:0:
64,192,42424,1,2,0:0:0:0:
448,192,42424,1,0,0:0:0:0:
320,192,42779,1,2,0:0:0:0:
64,192,43134,1,2,0:0:0:0:
192,192,43134,1,0,0:0:0:0:
320,192,43489,128,2,43844:0:0:0:0:
64,192,43844,1,2,0:0:0:0:
448,192,43844,1,0,0:0:0:0:
192,192,44199,128,2,44554:0:0:0:0:
320,192,44554,1,2,0:0:0:0:
448,192,44554,1,0,0:0:0:0:
64,192,44909,128,2,45264:0:0:0:0:
320,192,45264,1,2,0:0:0:0:
448,192,45264,1,0,0:0:0:65:cymbal_short.wav
192,192,45619,1,2,0:0:0:0:
448,192,45974,1,2,0:0:0:0:
64,192,46329,1,0,0:0:0:50:LR_Snare Wet Fast Long.wav
192,192,46329,1,0,0:0:0:0:
448,192,46684,128,6,47217:0:0:0:0:
192,192,47217,1,0,0:0:0:0:
64,192,47394,128,0,48104:0:0:0:0:
320,192,48104,128,0,48637:0:0:0:0:
64,192,48637,1,0,0:0:0:0:
192,192,48814,128,0,49525:0:0:0:0:
448,192,49525,128,0,49880:0:0:0:0:
320,192,49880,128,0,50235:0:0:0:0:
192,192,50235,128,0,50590:0:0:0:0:
64,192,50590,128,0,50945:0:0:0:0:
448,192,50945,128,0,51300:0:0:0:0:
192,192,51300,128,0,51655:0:0:0:0:
320,192,51655,128,0,52010:0:0:0:0:
64,192,52010,1,0,0:0:0:50:LR_J Hit Pong.wav
192,192,52010,1,0,0:0:0:0:
320,192,52365,1,2,0:0:0:0:
448,192,52365,1,4,0:0:0:0:
64,192,52720,1,0,0:0:0:60:LR_Hat Normal.wav
192,192,52897,1,2,0:0:0:0:
320,192,53075,1,0,0:0:0:50:LR_Hit Snare Soft.wav
448,192,53430,1,2,0:0:0:0:
64,192,53785,1,2,0:0:0:0:
448,192,54140,1,0,0:0:0:60:LR_Hat Normal.wav
320,192,54317,1,2,0:0:0:0:
192,192,54495,1,0,0:0:0:50:LR_Hit Snare Soft.wav
320,192,54850,1,2,0:0:0:0:
64,192,55205,1,6,0:0:0:0:
448,192,55205,1,0,0:0:0:50:LR_Snare Hat 2.wav
64,192,55560,1,2,0:0:0:0:
320,192,55915,1,2,0:0:0:0:
320,192,56270,1,2,0:0:0:0:
192,192,56625,128,2,56980:0:0:0:0:
320,192,56980,128,2,57335:0:0:0:0:
448,192,57335,128,2,57690:0:0:0:0:
64,192,57690,128,2,58045:0:0:0:0:
320,192,58045,1,2,0:0:0:0:
448,192,58045,1,0,0:0:0:50:LR_Chm Fast.wav
64,192,58578,1,0,0:0:0:0:
320,192,58755,1,0,0:0:0:0:
448,192,59110,1,0,0:0:0:0:
64,192,59465,1,4,0:0:0:0:
192,192,59465,1,2,0:0:0:0:
320,192,59820,1,8,0:0:0:0:
448,192,59820,1,0,0:0:0:0:
64,192,60175,1,2,0:0:0:0:
192,192,60353,1,0,0:0:0:60:LR_Hat Normal.wav
320,192,60530,1,8,0:0:0:0:
448,192,60885,1,2,0:0:0:0:
64,192,61241,1,8,0:0:0:0:
192,192,61241,1,0,0:0:0:0:
320,192,61596,1,2,0:0:0:0:
64,192,61951,1,8,0:0:0:0:
448,192,61951,1,0,0:0:0:50:LR_Chm Fast.wav
192,192,62306,1,2,0:0:0:0:
320,192,62661,1,8,0:0:0:0:
448,192,62661,1,0,0:0:0:0:
192,192,63016,1,2,0:0:0:0:
320,192,63193,1,0,0:0:0:60:LR_Hat Normal.wav
448,192,63371,1,8,0:0:0:0:
64,192,63726,1,2,0:0:0:0:
192,192,64081,1,8,0:0:0:0:
320,192,64081,1,0,0:0:0:0:
448,192,64436,1,2,0:0:0:0:
320,192,64613,1,0,0:0:0:60:LR_Hat Normal.wav
192,192,64791,1,8,0:0:0:0:
64,192,65146,1,2,0:0:0:0:
192,192,65501,1,8,0:0:0:0:
320,192,65501,1,0,0:0:0:0:
448,192,65856,1,2,0:0:0:0:
192,192,66033,1,0,0:0:0:60:LR_Hat Normal.wav
64,192,66211,1,8,0:0:0:0:
448,192,66566,1,2,0:0:0:0:
64,192,66921,1,8,0:0:0:0:
192,192,67098,1,0,0:0:0:60:LR_Hat Normal.wav
448,192,67276,1,2,0:0:0:0:
192,192,67631,1,8,0:0:0:0:
320,192,67631,1,0,0:0:0:0:
64,192,67986,1,2,0:0:0:0:
320,192,68341,1,8,0:0:0:0:
448,192,68341,1,0,0:0:0:30:LR_Snare Wet Fast Long.wav
192,192,68696,1,2,0:0:0:0:
320,192,69051,1,8,0:0:0:0:
64,192,69229,1,2,0:0:0:0:
192,192,69229,1,4,0:0:0:0:
448,192,69584,1,2,0:0:0:0:
192,192,69761,1,8,0:0:0:0:
320,192,69939,1,2,0:0:0:0:
64,192,70116,128,2,70471:0:0:0:0:
320,192,70471,1,0,0:0:0:50:LR_Snare Wet Fast Long.wav
448,192,70471,1,0,0:0:0:0:
64,192,70826,1,4,0:0:0:0:
192,192,70826,1,2,0:0:0:0:
448,192,71181,1,8,0:0:0:0:
320,192,71359,1,0,0:0:0:60:LR_Hat Normal.wav
64,192,71536,1,2,0:0:0:0:
192,192,71891,1,8,0:0:0:0:
320,192,71891,1,0,0:0:0:0:
64,192,72246,1,2,0:0:0:0:
320,192,72424,1,0,0:0:0:60:LR_Hat Normal.wav
448,192,72601,1,8,0:0:0:0:
320,192,72956,1,2,0:0:0:0:
64,192,73312,1,8,0:0:0:0:
192,192,73312,1,0,0:0:0:50:LR_Chm Fast.wav
320,192,73667,1,2,0:0:0:0:
192,192,74022,1,8,0:0:0:0:
448,192,74199,1,0,0:0:0:60:LR_Hat Normal.wav
64,192,74377,1,2,0:0:0:0:
192,192,74732,1,8,0:0:0:0:
320,192,74732,1,0,0:0:0:0:
448,192,75087,1,2,0:0:0:0:
64,192,75442,1,8,0:0:0:0:
192,192,75619,1,0,0:0:0:60:LR_Hat Normal.wav
320,192,75797,1,2,0:0:0:0:
64,192,76152,1,8,0:0:0:0:
448,192,76152,1,0,0:0:0:50:LR_J Hit Pong.wav
192,192,76507,1,2,0:0:0:0:
320,192,76862,1,8,0:0:0:0:
448,192,76862,1,0,0:0:0:0:
192,192,77217,1,2,0:0:0:0:
320,192,77394,1,0,0:0:0:60:LR_Hat Normal.wav
64,192,77572,1,8,0:0:0:0:
320,192,77927,1,2,0:0:0:0:
192,192,78104,1,0,0:0:0:60:LR_Hat Normal.wav
448,192,78282,1,8,0:0:0:0:
64,192,78637,1,2,0:0:0:0:
320,192,78992,1,8,0:0:0:0:
448,192,78992,1,0,0:0:0:0:
192,192,79347,1,2,0:0:0:0:
64,192,79702,1,8,0:0:0:0:
448,192,79702,1,0,0:0:0:30:LR_Snare Wet Fast Long.wav
320,192,80057,1,2,0:0:0:0:
64,192,80412,1,8,0:0:0:0:
192,192,80590,128,2,81122:0:0:0:0:
448,192,81122,128,0,81477:0:0:0:0:
64,192,81477,1,0,0:0:0:0:
320,192,81832,128,0,82187:0:0:0:50:LR_Snare Wet Fast Long.wav
64,192,82187,1,2,0:0:0:0:
192,192,82187,1,4,0:0:0:0:
448,192,82542,1,0,0:0:0:50:LR_Clap Fast Low.wav
320,192,82897,1,0,0:0:0:50:LR_Clap Fast Low.wav
192,192,83252,1,0,0:0:0:50:LR_Clap Fast Low.wav
64,192,83607,1,0,0:0:0:50:LR_Clap Fast Low.wav
320,192,83962,1,0,0:0:0:50:LR_Clap Fast Low.wav
192,192,84317,1,0,0:0:0:50:LR_Clap Fast Low.wav
448,192,84672,1,0,0:0:0:50:LR_Clap Fast Low.wav
64,192,85027,1,2,0:0:0:0:
192,192,85027,1,0,0:0:0:50:LR_Clap Fast Low.wav
320,192,85383,1,0,0:0:0:50:LR_Clap Fast Low.wav
448,192,85738,1,0,0:0:0:50:LR_Clap Fast Low.wav
64,192,86093,1,0,0:0:0:50:LR_Clap Fast Low.wav
448,192,86448,128,2,87335:0:0:0:0:
64,192,87335,1,2,0:0:0:0:
192,192,87513,1,0,0:0:0:50:LR_Snare Wet Fast Long.wav
320,192,87868,1,2,0:0:0:0:
448,192,87868,1,0,0:0:0:50:LR_Clap Fast Low.wav
192,192,88223,1,2,0:0:0:0:
64,192,88578,1,2,0:0:0:0:
448,192,88578,1,0,0:0:0:50:LR_Clap Fast Low.wav
320,192,88933,1,2,0:0:0:0:
64,192,89288,1,2,0:0:0:0:
192,192,89288,1,0,0:0:0:50:LR_Clap Fast Low.wav
320,192,89643,1,2,0:0:0:0:
64,192,89998,1,2,0:0:0:0:
448,192,89998,1,0,0:0:0:50:LR_Clap Fast Low.wav
192,192,90353,1,2,0:0:0:0:
448,192,90708,128,8,91063:0:0:0:0:
64,192,91063,1,2,0:0:0:0:
192,192,91241,128,8,91596:0:0:0:0:
448,192,91596,1,2,0:0:0:0:
320,192,91773,128,8,92128:0:0:0:0:
64,192,92128,128,0,93548:0:0:0:0:
448,192,93548,128,0,93903:0:0:0:30:LR_Snare Drum .wav
320,192,93903,128,0,94258:0:0:0:30:LR_Snare Drum .wav
192,192,94258,128,0,94613:0:0:0:30:LR_Snare Drum .wav
448,192,94613,1,0,0:0:0:50:LR_J Hit Pong.wav
64,192,94968,128,2,95323:0:0:0:0:
192,192,94968,1,4,0:0:0:0:
448,192,95323,1,0,0:0:0:60:LR_Hat Normal.wav
192,192,95678,1,0,0:0:0:50:LR_Hit Snare Soft.wav
320,192,95678,128,0,96033:0:0:0:70:bubble.wav
64,192,96033,1,2,0:0:0:0:
448,192,96388,1,0,0:0:0:60:LR_Hat Normal.wav
320,192,96566,1,2,0:0:0:0:
64,192,96743,1,2,0:0:0:0:
192,192,97098,1,0,0:0:0:50:LR_Hit Snare Soft.wav
320,192,97098,1,0,0:0:0:70:bubble.wav
448,192,97454,128,0,97809:0:0:0:60:LR_Hat Normal.wav
64,192,97809,1,2,0:0:0:0:
320,192,98164,1,0,0:0:0:60:LR_Hat Normal.wav
192,192,98341,1,2,0:0:0:0:
64,192,98519,128,4,98874:0:0:0:0:
448,192,98519,1,0,0:0:0:50:LR_Hit Snare Soft.wav
320,192,98874,1,2,0:0:0:0:
192,192,99229,128,2,99584:0:0:0:0:
320,192,99584,128,0,99939:0:0:0:0:
448,192,99939,128,0,100294:0:0:0:0:
64,192,100294,1,0,0:0:0:50:LR_J Hit Pong.wav
192,192,100294,1,0,0:0:0:0:
320,192,100649,1,2,0:0:0:0:
64,192,101004,1,0,0:0:0:60:LR_Hat Normal.wav
320,192,101181,1,2,0:0:0:0:
192,192,101359,1,0,0:0:0:50:LR_Hit Snare Soft.wav
448,192,101714,1,6,0:0:0:0:
192,192,102069,1,0,0:0:0:60:LR_Hat Normal.wav
320,192,102246,1,2,0:0:0:0:
64,192,102424,1,2,0:0:0:0:
320,192,102779,1,0,0:0:0:50:LR_Hit Snare Soft.wav
448,192,102779,1,0,0:0:0:50:bubble.wav
192,192,103134,128,0,103489:0:0:0:60:LR_Hat Normal.wav
64,192,103489,1,2,0:0:0:0:
448,192,103489,1,4,0:0:0:0:
320,192,104022,1,4,0:0:0:0:
448,192,104022,1,2,0:0:0:0:
64,192,104199,1,0,0:0:0:50:LR_Hit Snare Soft.wav
192,192,104554,1,2,0:0:0:0:
320,192,104554,1,4,0:0:0:0:
448,192,104909,128,0,105264:0:0:0:0:
320,192,105264,128,0,105619:0:0:0:0:
192,192,105619,128,0,105974:0:0:0:0:
64,192,105974,128,0,106329:0:0:0:0:
320,192,106329,1,2,0:0:0:0:
448,192,106329,128,4,106862:0:0:0:0:
64,192,106862,1,0,0:0:0:0:
192,192,107039,128,0,107394:0:0:0:0:
448,192,107394,1,0,0:0:0:0:
320,192,107749,128,0,108282:0:0:0:0:
192,192,108282,1,0,0:0:0:0:
64,192,108459,128,0,108814:0:0:0:0:
448,192,108814,1,0,0:0:0:0:
320,192,109169,128,0,109525:0:0:0:0:
192,192,109525,128,0,109880:0:0:0:0:
64,192,109880,128,0,110235:0:0:0:0:
320,192,110235,128,0,110590:0:0:0:0:
448,192,110590,128,0,110945:0:0:0:0:
192,192,110945,128,0,111300:0:0:0:0:
320,192,111300,128,0,111655:0:0:0:0:
64,192,111655,1,0,0:0:0:50:LR_J Hit Pong.wav
192,192,111655,1,0,0:0:0:0:
320,192,112010,1,4,0:0:0:0:
448,192,112010,1,2,0:0:0:0:
64,192,112365,1,0,0:0:0:0:
192,192,112542,1,2,0:0:0:0:
320,192,112720,1,0,0:0:0:50:LR_Hit Snare Soft.wav
448,192,113075,1,2,0:0:0:0:
64,192,113430,1,2,0:0:0:0:
448,192,113785,1,0,0:0:0:0:
320,192,113962,1,2,0:0:0:0:
192,192,114140,1,0,0:0:0:50:LR_Hit Snare Soft.wav
320,192,114495,1,2,0:0:0:0:
64,192,114850,1,2,0:0:0:0:
448,192,114850,1,0,0:0:0:50:LR_Snare Hat 2.wav
64,192,115205,1,2,0:0:0:0:
320,192,115560,1,2,0:0:0:0:
320,192,115915,1,2,0:0:0:0:
192,192,116270,128,2,116625:0:0:0:0:
320,192,116625,128,2,116980:0:0:0:0:
448,192,116980,128,2,117335:0:0:0:0:
64,192,117335,128,2,117690:0:0:0:0:
320,192,117690,1,0,0:0:0:50:LR_Chm Fast.wav
448,192,117690,1,0,0:0:0:0:
192,192,118223,1,0,0:0:0:0:
448,192,118400,1,0,0:0:0:0:
64,192,118755,1,0,0:0:0:0:
320,192,119110,1,2,0:0:0:0:
448,192,119110,1,4,0:0:0:0:
64,192,119465,1,8,0:0:0:0:
192,192,119465,1,0,0:0:0:0:
448,192,119820,1,2,0:0:0:0:
320,192,119998,1,0,0:0:0:60:LR_Hat Normal.wav
192,192,120175,1,8,0:0:0:0:
64,192,120530,1,2,0:0:0:0:
320,192,120885,1,8,0:0:0:0:
448,192,120885,1,0,0:0:0:0:
192,192,121241,1,2,0:0:0:0:
64,192,121596,1,8,0:0:0:0:
448,192,121596,1,0,0:0:0:50:LR_Chm Fast.wav
320,192,121951,1,2,0:0:0:0:
64,192,122306,1,8,0:0:0:0:
192,192,122306,1,0,0:0:0:0:
320,192,122661,1,2,0:0:0:0:
192,192,122838,1,0,0:0:0:60:LR_Hat Normal.wav
64,192,123016,1,8,0:0:0:0:
448,192,123371,1,2,0:0:0:0:
192,192,123726,1,8,0:0:0:0:
320,192,123726,1,0,0:0:0:0:
64,192,124081,1,2,0:0:0:0:
192,192,124258,1,0,0:0:0:60:LR_Hat Normal.wav
320,192,124436,1,8,0:0:0:0:
448,192,124791,1,2,0:0:0:0:
192,192,125146,1,8,0:0:0:0:
320,192,125146,1,0,0:0:0:0:
64,192,125501,1,2,0:0:0:0:
320,192,125678,1,0,0:0:0:60:LR_Hat Normal.wav
448,192,125856,1,8,0:0:0:0:
64,192,126211,1,2,0:0:0:0:
448,192,126566,1,8,0:0:0:0:
320,192,126743,1,0,0:0:0:60:LR_Hat Normal.wav
64,192,126921,1,2,0:0:0:0:
192,192,127276,1,8,0:0:0:0:
320,192,127276,1,0,0:0:0:0:
448,192,127631,1,2,0:0:0:0:
64,192,127986,1,8,0:0:0:0:
192,192,127986,1,0,0:0:0:30:LR_Snare Wet Fast Long.wav
320,192,128341,1,2,0:0:0:0:
192,192,128696,1,8,0:0:0:0:
320,192,128874,1,2,0:0:0:0:
448,192,128874,1,4,0:0:0:0:
64,192,129229,1,2,0:0:0:0:
320,192,129406,1,8,0:0:0:0:
448,192,129761,128,2,130116:0:0:0:0:
64,192,130116,1,0,0:0:0:50:LR_Snare Wet Fast Long.wav
192,192,130116,1,0,0:0:0:0:
320,192,130471,1,2,0:0:0:0:
448,192,130471,1,4,0:0:0:0:
64,192,130826,1,8,0:0:0:0:
192,192,131004,1,0,0:0:0:60:LR_Hat Normal.wav
448,192,131181,1,2,0:0:0:0:
192,192,131536,1,8,0:0:0:0:
320,192,131536,1,0,0:0:0:0:
448,192,131891,1,2,0:0:0:0:
192,192,132069,1,0,0:0:0:60:LR_Hat Normal.wav
64,192,132246,1,8,0:0:0:0:
192,192,132601,1,2,0:0:0:0:
320,192,132956,1,8,0:0:0:0:
448,192,132956,1,0,0:0:0:50:LR_Chm Fast.wav
192,192,133312,1,2,0:0:0:0:
320,192,133667,1,8,0:0:0:0:
64,192,133844,1,0,0:0:0:60:LR_Hat Normal.wav
448,192,134022,1,2,0:0:0:0:
192,192,134377,1,8,0:0:0:0:
320,192,134377,1,0,0:0:0:0:
64,192,134732,1,2,0:0:0:0:
448,192,135087,1,8,0:0:0:0:
320,192,135264,1,0,0:0:0:60:LR_Hat Normal.wav
192,192,135442,1,2,0:0:0:0:
64,192,135797,1,8,0:0:0:0:
448,192,135797,1,0,0:0:0:50:LR_J Hit Pong.wav
320,192,136152,1,2,0:0:0:0:
64,192,136507,1,8,0:0:0:0:
192,192,136507,1,0,0:0:0:0:
320,192,136862,1,2,0:0:0:0:
192,192,137039,1,0,0:0:0:60:LR_Hat Normal.wav
448,192,137217,1,8,0:0:0:0:
192,192,137572,1,2,0:0:0:0:
320,192,137749,1,0,0:0:0:60:LR_Hat Normal.wav
64,192,137927,1,8,0:0:0:0:
192,192,138282,1,2,0:0:0:0:
320,192,138637,1,8,0:0:0:0:
448,192,138637,1,0,0:0:0:50:LR_Chm Fast.wav
192,192,138992,1,2,0:0:0:0:
64,192,139347,1,8,0:0:0:0:
448,192,139347,1,0,0:0:0:30:LR_Snare Wet Fast Long.wav
320,192,139702,1,2,0:0:0:0:
64,192,140057,1,8,0:0:0:0:
192,192,140235,128,2,140590:0:0:0:0:
320,192,140235,1,4,0:0:0:0:
448,192,140590,1,0,0:0:0:60:LR_Hat Normal.wav
320,192,140767,128,8,141122:0:0:0:0:
64,192,141122,1,0,0:0:0:0:
64,192,141477,128,0,141832:0:0:0:50:LR_Snare Wet Fast Long.wav
192,192,141477,1,0,0:0:0:0:
320,192,141832,128,2,142187:0:0:0:0:
448,192,141832,1,4,0:0:0:0:
192,192,142187,128,10,142542:0:0:0:0:
64,192,142542,128,2,142897:0:0:0:0:
448,192,142897,1,10,0:0:0:0:
192,192,143075,1,2,0:0:0:0:
320,192,143075,1,4,0:0:0:0:
64,192,143430,1,0,0:0:0:60:LR_Hat Normal.wav
192,192,143607,1,8,0:0:0:0:
448,192,143962,1,0,0:0:0:0:
320,192,144140,1,0,0:0:0:50:LR_J Hit Pong.wav
64,192,144317,128,0,144672:0:0:0:50:LR_Snare Wet Fast Long.wav
320,192,144672,128,2,145027:0:0:0:0:
448,192,144672,1,4,0:0:0:0:
192,192,145027,128,10,145383:0:0:0:0:
64,192,145383,128,2,145738:0:0:0:0:
448,192,145738,1,10,0:0:0:0:
192,192,145915,1,2,0:0:0:0:
64,192,146270,1,0,0:0:0:0:
320,192,146448,1,0,0:0:0:0:
192,192,146625,1,0,0:0:0:0:
448,192,146803,128,0,147158:0:0:0:0:
