osu file format v14

[General]
AudioFilename: audio.mp3
AudioLeadIn: 0
PreviewTime: 118489
Countdown: 0
SampleSet: Soft
StackLeniency: 0.7
Mode: 3
LetterboxInBreaks: 0
SpecialStyle: 0
WidescreenStoryboard: 1

[Editor]
DistanceSpacing: 0.6
BeatDivisor: 4
GridSize: 16
TimelineZoom: 1.4

[Metadata]
Title:Miko-sama no Aburaage disco
TitleUnicode:神子さまの油揚げdisco
Artist:ShinRa-Bansho
ArtistUnicode:森羅万象
Creator:SuzumeAyase
Version:Ferdi's Normal
Source:
Tags:denyi ferdixia- raisky757 hoyofair 2022 ayaponzu* Ayo あやぽんず* あよ electronic japanese jpop j-pop genshin impact yae kaztora hedonist 君と世界の終わりに kimi to sekai no owarini owari ni
BeatmapID:3814996
BeatmapSetID:1856309

[Difficulty]
HPDrainRate:7
CircleSize:4
OverallDifficulty:7
ApproachRate:5
SliderMultiplier:1.4
SliderTickRate:1

[Events]
//Background and Video events
0,0,"yae miko.jpg",0,0
Video,0,"MVdiscoVo.mp4"
//Break Periods
//Storyboard Layer 0 (Background)
//Storyboard Layer 1 (Fail)
//Storyboard Layer 2 (Pass)
//Storyboard Layer 3 (Foreground)
//Storyboard Layer 4 (Overlay)
//Storyboard Sound Samples
Sample,25205,0,"LR_Chm High Long.wav",40
Sample,30885,0,"LR_Chm High Long.wav",40
Sample,43667,0,"LR_Chm High Long.wav",40
Sample,53430,0,"LR_Hat Normal.wav",60
Sample,54850,0,"LR_Hat Normal.wav",60
Sample,55383,0,"LR_Snare Hat 2.wav",50
Sample,55738,0,"LR_Snare Hat 2.wav",50
Sample,56093,0,"LR_Snare Hat 2.wav",50
Sample,56448,0,"LR_Snare Hat 2.wav",50
Sample,56625,0,"LR_Snare Hat 2.wav",50
Sample,56803,0,"LR_Snare Hat 2.wav",50
Sample,56980,0,"LR_Snare Hat 2.wav",50
Sample,57158,0,"LR_Snare Hat 2.wav",50
Sample,57335,0,"LR_Snare Hat 2.wav",50
Sample,57513,0,"LR_Snare Hat 2.wav",50
Sample,57690,0,"LR_Snare Hat 2.wav",50
Sample,57868,0,"LR_Snare Hat 2.wav",50
Sample,69761,0,"LR_Snare Wet Fast Long.wav",30
Sample,76329,0,"LR_Chm High Long.wav",40
Sample,88223,0,"LR_Clap Fast Low.wav",50
Sample,88578,0,"LR_Clap Fast Low.wav",50
Sample,88933,0,"LR_Clap Fast Low.wav",50
Sample,89288,0,"LR_Clap Fast Low.wav",50
Sample,89643,0,"LR_Clap Fast Low.wav",50
Sample,89998,0,"LR_Clap Fast Low.wav",50
Sample,90353,0,"LR_Chm High Long.wav",50
Sample,91063,0,"LR_Clap Fast Low.wav",50
Sample,91418,0,"LR_Clap Fast Low.wav",50
Sample,94436,0,"LR_Snare Drum 3.wav",30
Sample,95501,0,"LR_Hat Normal.wav",60
Sample,96033,0,"LR_Hat Normal.wav",60
Sample,96566,0,"LR_Hat Normal.wav",60
Sample,96743,0,"LR_Hat Normal.wav",60
Sample,97631,0,"LR_Hat Normal.wav",60
Sample,97809,0,"LR_Hat Normal.wav",60
Sample,98341,0,"LR_Hat Normal.wav",60
Sample,98519,0,"bubble.wav",70
Sample,98874,0,"LR_Hat Normal.wav",60
Sample,101181,0,"LR_Hat Normal.wav",60
Sample,102246,0,"LR_Hat Normal.wav",60
Sample,102424,0,"LR_Hat Normal.wav",60
Sample,103312,0,"LR_Hat Normal.wav",60
Sample,103400,0,"LR_Hat Normal.wav",60
Sample,115027,0,"LR_Snare Hat 2.wav",50
Sample,115383,0,"LR_Snare Hat 2.wav",50
Sample,115738,0,"LR_Snare Hat 2.wav",50
Sample,116093,0,"LR_Snare Hat 2.wav",50
Sample,116270,0,"LR_Snare Hat 2.wav",50
Sample,116448,0,"LR_Snare Hat 2.wav",50
Sample,116625,0,"LR_Snare Hat 2.wav",50
Sample,116803,0,"LR_Snare Hat 2.wav",50
Sample,116980,0,"LR_Snare Hat 2.wav",50
Sample,117158,0,"LR_Snare Hat 2.wav",50
Sample,117335,0,"LR_Snare Hat 2.wav",50
Sample,117513,0,"LR_Snare Hat 2.wav",50
Sample,129406,0,"LR_Snare Wet Fast Long.wav",30
Sample,135974,0,"LR_Chm High Long.wav",40
Sample,141655,0,"LR_Hat Normal.wav",60
Sample,144495,0,"LR_Chm High Long.wav",40

[TimingPoints]
1241,355.029585798817,4,2,1,20,1,0
12246,-100.0,4,2,1,60,0,0
46862,-100.0,4,2,1,20,0,0
52365,-100.0,4,2,1,60,0,0
59465,-100.0,4,2,1,60,0,1
80767,-100.0,4,2,1,60,0,0
106507,-100.0,4,2,1,20,0,0
112010,-100.0,4,2,1,60,0,0
119110,-100.0,4,2,1,60,0,1
146093,-100.0,4,2,1,60,0,0

[HitObjects]
64,192,1241,1,0,0:0:0:0:
192,192,1418,1,0,0:0:0:0:
320,192,1596,1,0,0:0:0:0:
448,192,1773,1,0,0:0:0:0:
64,192,1951,128,0,2306:0:0:0:0:
448,192,2306,1,0,0:0:0:0:
192,192,2483,128,0,2838:0:0:0:0:
320,192,2838,1,0,0:0:0:0:
448,192,3016,1,0,0:0:0:0:
192,192,3193,1,0,0:0:0:0:
64,192,3371,1,0,0:0:0:0:
320,192,3548,1,0,0:0:0:0:
320,192,3726,128,0,4081:0:0:0:0:
64,192,4081,1,0,0:0:0:0:
192,192,4258,1,0,0:0:0:0:
320,192,4436,1,0,0:0:0:0:
448,192,4613,1,0,0:0:0:0:
64,192,4791,128,0,5146:0:0:0:0:
320,192,5146,1,0,0:0:0:0:
192,192,5323,128,0,5678:0:0:0:0:
64,192,5678,1,0,0:0:0:0:
320,192,5856,1,0,0:0:0:0:
192,192,6033,1,0,0:0:0:0:
448,192,6211,128,0,6566:0:0:0:0:
64,192,6566,128,0,6921:0:0:0:0:
448,192,6921,1,0,0:0:0:0:
320,192,7098,1,0,0:0:0:0:
192,192,7276,1,0,0:0:0:0:
64,192,7454,1,0,0:0:0:0:
448,192,7631,128,0,7986:0:0:0:0:
192,192,7986,1,0,0:0:0:0:
320,192,8164,128,0,8519:0:0:0:0:
192,192,8519,1,0,0:0:0:0:
64,192,8696,1,0,0:0:0:0:
320,192,8874,1,0,0:0:0:0:
448,192,9051,1,0,0:0:0:0:
192,192,9229,1,0,0:0:0:0:
192,192,9406,128,0,9761:0:0:0:0:
448,192,9761,1,0,0:0:0:0:
320,192,9939,1,0,0:0:0:0:
64,192,10116,1,0,0:0:0:0:
448,192,10294,1,0,0:0:0:0:
192,192,10471,1,0,0:0:0:0:
320,192,10649,1,0,0:0:0:0:
64,192,10826,1,0,0:0:0:0:
192,192,11004,1,0,0:0:0:0:
320,192,11181,128,0,11359:0:0:0:0:
192,192,11536,128,0,11714:0:0:0:0:
448,192,11891,128,0,12069:0:0:0:0:
64,192,12069,1,0,0:0:0:0:
192,192,12158,1,0,0:0:0:0:
320,192,12246,1,0,0:0:0:50:LR_Snare Wet Fast Long.wav
448,192,12246,1,0,0:0:0:50:LR_J Hit Pong.wav
64,192,12601,1,2,0:0:0:0:
192,192,12601,1,4,0:0:0:0:
320,192,12779,1,0,0:0:0:60:LR_Hat Normal.wav
64,192,12956,1,8,0:0:0:0:
448,192,12956,1,0,0:0:0:0:
192,192,13134,1,0,0:0:0:60:LR_Hat Normal.wav
320,192,13312,1,2,0:0:0:0:
448,192,13489,1,0,0:0:0:60:LR_Hat Normal.wav
64,192,13667,1,8,0:0:0:0:
192,192,13667,1,0,0:0:0:0:
320,192,13844,1,0,0:0:0:60:LR_Hat Normal.wav
192,192,14022,1,2,0:0:0:0:
448,192,14199,1,0,0:0:0:60:LR_Hat Normal.wav
64,192,14377,1,8,0:0:0:0:
320,192,14377,1,0,0:0:0:0:
192,192,14554,1,0,0:0:0:60:LR_Hat Normal.wav
448,192,14732,1,2,0:0:0:0:
64,192,14909,128,0,15087:0:0:0:60:LR_Hat Normal.wav
320,192,15087,1,8,0:0:0:0:
448,192,15087,128,0,15442:0:0:0:0:
192,192,15442,1,2,0:0:0:0:
64,192,15619,1,0,0:0:0:60:LR_Hat Normal.wav
320,192,15797,1,8,0:0:0:0:
448,192,15797,1,0,0:0:0:0:
64,192,15974,1,0,0:0:0:60:LR_Hat Normal.wav
192,192,16152,1,2,0:0:0:0:
320,192,16329,1,0,0:0:0:60:LR_Hat Normal.wav
64,192,16507,1,8,0:0:0:0:
448,192,16507,1,0,0:0:0:0:
192,192,16684,1,0,0:0:0:60:LR_Hat Normal.wav
320,192,16862,1,2,0:0:0:0:
192,192,17039,1,0,0:0:0:60:LR_Hat Normal.wav
64,192,17217,1,8,0:0:0:0:
448,192,17217,1,0,0:0:0:0:
320,192,17394,1,0,0:0:0:60:LR_Hat Normal.wav
192,192,17572,1,2,0:0:0:0:
320,192,17749,1,0,0:0:0:60:LR_Hat Normal.wav
448,192,17749,128,0,17927:0:0:0:50:LR_J Hit Pong.wav
64,192,17927,128,8,18282:0:0:0:0:
192,192,17927,1,0,0:0:0:50:LR_J Hit Pong.wav
448,192,18282,1,2,0:0:0:0:
320,192,18459,1,0,0:0:0:60:LR_Hat Normal.wav
64,192,18637,1,8,0:0:0:0:
192,192,18637,1,0,0:0:0:0:
448,192,18814,1,0,0:0:0:60:LR_Hat Normal.wav
320,192,18992,1,2,0:0:0:0:
64,192,19169,1,0,0:0:0:60:LR_Hat Normal.wav
192,192,19347,1,8,0:0:0:0:
448,192,19347,1,0,0:0:0:0:
320,192,19525,1,0,0:0:0:60:LR_Hat Normal.wav
192,192,19702,1,2,0:0:0:0:
64,192,19880,1,0,0:0:0:60:LR_Hat Normal.wav
320,192,20057,1,8,0:0:0:0:
448,192,20057,1,0,0:0:0:0:
192,192,20235,1,0,0:0:0:60:LR_Hat Normal.wav
64,192,20412,1,2,0:0:0:0:
448,192,20590,128,0,20767:0:0:0:60:LR_Hat Normal.wav
64,192,20767,1,8,0:0:0:0:
192,192,20767,128,0,21122:0:0:0:0:
448,192,21122,1,2,0:0:0:0:
64,192,21300,1,2,0:0:0:0:
320,192,21477,1,8,0:0:0:0:
448,192,21477,1,2,0:0:0:0:
192,192,21655,1,2,0:0:0:0:
64,192,21832,1,2,0:0:0:0:
320,192,22010,1,2,0:0:0:0:
64,192,22187,1,8,0:0:0:0:
192,192,22187,1,2,0:0:0:0:
320,192,22365,1,2,0:0:0:0:
448,192,22454,1,2,0:0:0:0:
64,192,22542,1,2,0:0:0:0:
320,192,22720,1,0,0:0:0:0:
192,192,22897,1,0,0:0:0:0:
448,192,23075,1,0,0:0:0:0:
64,192,23252,1,0,0:0:0:0:
320,192,23430,1,0,0:0:0:0:
192,192,23607,128,0,23962:0:0:0:0:
64,192,23962,1,2,0:0:0:0:
448,192,23962,1,4,0:0:0:0:
320,192,24317,1,0,0:0:0:50:LR_Hit Snare Soft.wav
448,192,24317,1,0,0:0:0:0:
448,192,24850,1,2,0:0:0:25:soft-hitwhistle.wav
64,192,25027,1,0,0:0:0:50:LR_Hit Snare Soft.wav
192,192,25027,1,0,0:0:0:0:
320,192,25205,1,2,0:0:0:25:soft-hitwhistle.wav
192,192,25560,1,2,0:0:0:25:soft-hitwhistle.wav
320,192,25738,1,0,0:0:0:50:LR_Hit Snare Soft.wav
448,192,25738,1,0,0:0:0:0:
64,192,26093,1,2,0:0:0:25:soft-hitwhistle.wav
192,192,26270,1,2,0:0:0:25:soft-hitwhistle.wav
320,192,26448,1,0,0:0:0:50:LR_Hit Snare Soft.wav
448,192,26448,1,0,0:0:0:0:
64,192,26625,1,0,0:0:0:30:LR_Hit Snare Soft.wav
448,192,26803,128,2,27158:0:0:0:25:soft-hitwhistle.wav
64,192,27158,128,0,27513:0:0:0:50:LR_Hit Snare Soft.wav
192,192,27158,1,0,0:0:0:0:
320,192,27513,128,0,27868:0:0:0:0:
192,192,27690,1,2,0:0:0:25:soft-hitwhistle.wav
64,192,27868,1,0,0:0:0:50:LR_Hit Snare Soft.wav
448,192,27868,1,0,0:0:0:0:
192,192,28045,1,2,0:0:0:25:soft-hitwhistle.wav
448,192,28400,1,2,0:0:0:25:soft-hitwhistle.wav
192,192,28578,1,0,0:0:0:50:LR_Hit Snare Soft.wav
320,192,28578,1,0,0:0:0:0:
64,192,28933,1,2,0:0:0:25:soft-hitwhistle.wav
320,192,29110,1,2,0:0:0:25:soft-hitwhistle.wav
64,192,29288,1,0,0:0:0:50:LR_Hit Snare Soft.wav
192,192,29288,1,0,0:0:0:60:LR_J Hit Edge F.wav
192,192,29643,1,2,0:0:0:25:soft-hitwhistle.wav
64,192,29998,1,0,0:0:0:50:LR_Hit Snare Soft.wav
448,192,29998,1,0,0:0:0:0:
64,192,30530,1,2,0:0:0:25:soft-hitwhistle.wav
192,192,30708,1,0,0:0:0:50:LR_Hit Snare Soft.wav
448,192,30708,1,0,0:0:0:0:
320,192,30885,1,2,0:0:0:25:soft-hitwhistle.wav
448,192,31241,1,2,0:0:0:25:soft-hitwhistle.wav
64,192,31418,1,0,0:0:0:50:LR_Hit Snare Soft.wav
192,192,31418,1,0,0:0:0:0:
320,192,31773,1,2,0:0:0:25:soft-hitwhistle.wav
192,192,31951,1,2,0:0:0:25:soft-hitwhistle.wav
64,192,32128,1,0,0:0:0:50:LR_Hit Snare Soft.wav
448,192,32128,1,0,0:0:0:0:
320,192,32306,1,0,0:0:0:30:LR_Hit Snare Soft.wav
64,192,32483,128,2,32838:0:0:0:25:soft-hitwhistle.wav
320,192,32838,1,0,0:0:0:50:LR_Hit Snare Soft.wav
448,192,32838,128,0,33193:0:0:0:0:
192,192,33193,128,0,33548:0:0:0:0:
64,192,33371,1,2,0:0:0:25:soft-hitwhistle.wav
320,192,33548,1,0,0:0:0:50:LR_Hit Snare Soft.wav
448,192,33548,1,0,0:0:0:0:
64,192,33726,128,0,34081:0:0:0:0:
320,192,34081,128,0,34258:0:0:0:0:
448,192,34258,128,0,34436:0:0:0:0:
192,192,34436,128,0,34613:0:0:0:0:
320,192,34613,128,0,34791:0:0:0:0:
64,192,34791,1,0,0:0:0:0:
192,192,34880,1,0,0:0:0:0:
320,192,34968,1,0,0:0:0:50:LR_Snare Wet Fast Long.wav
448,192,34968,1,0,0:0:0:0:
64,192,35323,1,2,0:0:0:0:
192,192,35323,1,4,0:0:0:0:
320,192,35501,1,0,0:0:0:40:LR_HiHat vFast.wav
448,192,35678,1,2,0:0:0:0:
192,192,35856,1,0,0:0:0:40:LR_HiHat vFast.wav
64,192,36033,128,2,36388:0:0:0:0:
448,192,36388,1,2,0:0:0:0:
320,192,36566,128,0,36921:0:0:0:40:LR_HiHat vFast.wav
192,192,36921,1,0,0:0:0:40:LR_HiHat vFast.wav
64,192,37098,1,2,0:0:0:0:
448,192,37276,1,0,0:0:0:40:LR_HiHat vFast.wav
192,192,37454,1,2,0:0:0:0:
320,192,37631,1,0,0:0:0:40:LR_HiHat vFast.wav
448,192,37809,128,2,38164:0:0:0:0:
64,192,38164,1,2,0:0:0:0:
320,192,38341,1,0,0:0:0:40:LR_HiHat vFast.wav
192,192,38519,128,2,38874:0:0:0:0:
320,192,38874,1,2,0:0:0:0:
64,192,39051,1,0,0:0:0:40:LR_HiHat vFast.wav
448,192,39229,1,2,0:0:0:0:
320,192,39406,128,0,39761:0:0:0:40:LR_HiHat vFast.wav
64,192,39761,128,0,39939:0:0:0:40:LR_HiHat vFast.wav
448,192,39939,128,2,40116:0:0:0:0:
192,192,40116,128,0,40294:0:0:0:40:LR_HiHat vFast.wav
320,192,40294,128,2,40471:0:0:0:0:
64,192,40471,128,0,40649:0:0:0:40:LR_HiHat vFast.wav
448,192,40649,128,2,41004:0:0:0:0:
192,192,41004,1,2,0:0:0:0:
320,192,41181,1,0,0:0:0:40:LR_HiHat vFast.wav
448,192,41359,1,2,0:0:0:0:
192,192,41536,1,0,0:0:0:40:LR_HiHat vFast.wav
64,192,41714,128,2,42069:0:0:0:0:
320,192,42069,1,2,0:0:0:0:
448,192,42246,128,0,42601:0:0:0:40:LR_HiHat vFast.wav
192,192,42601,1,0,0:0:0:40:LR_HiHat vFast.wav
320,192,42779,1,2,0:0:0:0:
64,192,42956,1,0,0:0:0:40:LR_HiHat vFast.wav
448,192,43134,1,2,0:0:0:0:
320,192,43312,1,0,0:0:0:40:LR_HiHat vFast.wav
192,192,43489,128,2,43667:0:0:0:0:
448,192,43667,128,0,43844:0:0:0:40:LR_HiHat vFast.wav
64,192,43844,1,2,0:0:0:0:
192,192,44022,1,0,0:0:0:40:LR_HiHat vFast.wav
320,192,44199,128,2,44377:0:0:0:0:
64,192,44377,128,0,44554:0:0:0:40:LR_HiHat vFast.wav
448,192,44554,1,2,0:0:0:0:
320,192,44732,1,0,0:0:0:40:LR_HiHat vFast.wav
64,192,44909,128,2,45087:0:0:0:0:
192,192,45087,128,0,45264:0:0:0:40:LR_HiHat vFast.wav
320,192,45264,1,2,0:0:0:0:
448,192,45264,1,0,0:0:0:65:cymbal_short.wav
64,192,45619,1,2,0:0:0:0:
192,192,45619,1,0,0:0:0:65:cymbal_short.wav
320,192,45974,1,2,0:0:0:0:
448,192,45974,1,0,0:0:0:65:cymbal_short.wav
192,192,46152,1,0,0:0:0:0:
320,192,46241,1,0,0:0:0:0:
64,192,46329,1,0,0:0:0:50:LR_Snare Wet Fast Long.wav
448,192,46329,1,0,0:0:0:0:
64,192,46684,128,2,47217:0:0:0:0:
192,192,46684,1,4,0:0:0:0:
320,192,47217,1,0,0:0:0:0:
448,192,47394,128,0,47927:0:0:0:0:
320,192,48104,128,0,48637:0:0:0:0:
64,192,48637,1,0,0:0:0:0:
192,192,48814,128,0,49347:0:0:0:0:
64,192,49525,128,0,49880:0:0:0:0:
448,192,49880,128,0,50235:0:0:0:0:
320,192,50235,128,0,50590:0:0:0:0:
192,192,50590,128,0,50945:0:0:0:0:
64,192,50945,128,0,51300:0:0:0:0:
320,192,51300,128,0,51655:0:0:0:0:
448,192,51655,128,0,52010:0:0:0:0:
64,192,52010,1,0,0:0:0:50:LR_J Hit Pong.wav
192,192,52010,1,0,0:0:0:0:
320,192,52365,128,2,52720:0:0:0:0:
448,192,52365,1,4,0:0:0:0:
192,192,52720,128,0,53075:0:0:0:60:LR_Hat Normal.wav
448,192,52897,1,2,0:0:0:0:
64,192,53075,128,0,53430:0:0:0:50:LR_Hit Snare Soft.wav
320,192,53075,1,0,0:0:0:0:
448,192,53430,128,2,53785:0:0:0:0:
320,192,53785,128,2,54140:0:0:0:0:
192,192,54140,128,0,54317:0:0:0:60:LR_Hat Normal.wav
64,192,54317,128,2,54495:0:0:0:0:
320,192,54495,1,0,0:0:0:50:LR_Hit Snare Soft.wav
448,192,54495,128,0,54850:0:0:0:0:
192,192,54850,128,2,55027:0:0:0:0:
320,192,55027,128,0,55205:0:0:0:0:
64,192,55205,1,6,0:0:0:0:
448,192,55205,1,0,0:0:0:50:LR_Snare Hat 2.wav
192,192,55383,1,2,0:0:0:0:
320,192,55560,1,2,0:0:0:0:
448,192,55560,1,0,0:0:0:50:LR_Snare Hat 2.wav
192,192,55738,1,2,0:0:0:0:
64,192,55915,1,2,0:0:0:0:
448,192,55915,1,0,0:0:0:50:LR_Snare Hat 2.wav
320,192,56093,1,2,0:0:0:0:
64,192,56270,1,2,0:0:0:0:
192,192,56270,1,0,0:0:0:50:LR_Snare Hat 2.wav
320,192,56448,1,2,0:0:0:0:
448,192,56625,128,2,56803:0:0:0:0:
64,192,56803,128,2,56980:0:0:0:0:
320,192,56980,128,2,57158:0:0:0:0:
192,192,57158,128,2,57335:0:0:0:0:
448,192,57335,128,2,57513:0:0:0:0:
64,192,57513,128,2,57690:0:0:0:0:
192,192,57690,128,2,57868:0:0:0:0:
320,192,57868,128,2,58045:0:0:0:0:
64,192,58045,1,2,0:0:0:0:
448,192,58045,128,0,58578:0:0:0:50:LR_Chm Fast.wav
192,192,58578,1,0,0:0:0:0:
64,192,58755,1,0,0:0:0:0:
448,192,58933,1,0,0:0:0:0:
320,192,59110,1,0,0:0:0:0:
192,192,59288,1,0,0:0:0:0:
64,192,59465,1,4,0:0:0:0:
448,192,59465,1,2,0:0:0:0:
320,192,59732,1,0,0:0:0:60:LR_Hat Normal.wav
64,192,59820,1,8,0:0:0:0:
192,192,59820,1,0,0:0:0:0:
320,192,59998,1,0,0:0:0:60:LR_Hat Normal.wav
448,192,60175,1,2,0:0:0:0:
64,192,60353,1,0,0:0:0:60:LR_Hat Normal.wav
192,192,60530,1,8,0:0:0:0:
320,192,60530,1,0,0:0:0:0:
448,192,60708,1,0,0:0:0:60:LR_Hat Normal.wav
64,192,60885,1,2,0:0:0:0:
320,192,61063,1,0,0:0:0:60:LR_Hat Normal.wav
192,192,61241,1,8,0:0:0:0:
448,192,61241,1,0,0:0:0:0:
64,192,61418,1,0,0:0:0:60:LR_Hat Normal.wav
320,192,61596,1,2,0:0:0:0:
448,192,61773,128,0,61951:0:0:0:60:LR_Hat Normal.wav
64,192,61951,128,8,62306:0:0:0:0:
192,192,61951,1,0,0:0:0:50:LR_Chm Fast.wav
320,192,62306,1,2,0:0:0:0:
192,192,62572,1,0,0:0:0:60:LR_Hat Normal.wav
320,192,62661,1,8,0:0:0:0:
448,192,62661,1,0,0:0:0:0:
64,192,62838,1,0,0:0:0:60:LR_Hat Normal.wav
192,192,63016,1,2,0:0:0:0:
448,192,63193,1,0,0:0:0:60:LR_Hat Normal.wav
192,192,63371,1,8,0:0:0:0:
320,192,63371,1,0,0:0:0:0:
64,192,63548,1,0,0:0:0:60:LR_Hat Normal.wav
448,192,63726,1,2,0:0:0:0:
320,192,63903,1,0,0:0:0:60:LR_Hat Normal.wav
64,192,64081,1,8,0:0:0:0:
192,192,64081,1,0,0:0:0:0:
448,192,64258,1,0,0:0:0:60:LR_Hat Normal.wav
320,192,64436,1,2,0:0:0:0:
64,192,64613,128,0,64791:0:0:0:60:LR_Hat Normal.wav
192,192,64613,1,0,0:0:0:50:LR_J Hit Pong.wav
320,192,64791,1,8,0:0:0:0:
448,192,64791,128,0,65146:0:0:0:50:LR_J Hit Pong.wav
64,192,65146,1,2,0:0:0:0:
320,192,65323,1,0,0:0:0:60:LR_Hat Normal.wav
64,192,65501,1,8,0:0:0:0:
192,192,65501,1,0,0:0:0:0:
448,192,65678,1,0,0:0:0:60:LR_Hat Normal.wav
64,192,65856,1,2,0:0:0:0:
192,192,66033,1,0,0:0:0:60:LR_Hat Normal.wav
320,192,66211,1,8,0:0:0:0:
448,192,66211,1,0,0:0:0:0:
64,192,66388,1,0,0:0:0:60:LR_Hat Normal.wav
320,192,66566,1,2,0:0:0:0:
192,192,66743,1,0,0:0:0:60:LR_Hat Normal.wav
64,192,66921,1,8,0:0:0:0:
448,192,66921,1,0,0:0:0:0:
320,192,67098,1,0,0:0:0:60:LR_Hat Normal.wav
192,192,67276,1,2,0:0:0:0:
448,192,67454,1,0,0:0:0:60:LR_Hat Normal.wav
64,192,67631,128,8,67986:0:0:0:0:
192,192,67631,1,0,0:0:0:0:
320,192,67986,1,2,0:0:0:0:
192,192,68164,1,0,0:0:0:60:LR_Hat Normal.wav
64,192,68341,1,8,0:0:0:0:
448,192,68341,128,0,68696:0:0:0:30:LR_Snare Wet Fast Long.wav
320,192,68696,1,2,0:0:0:0:
64,192,68874,1,0,0:0:0:60:LR_Hat Normal.wav
192,192,69051,1,8,0:0:0:0:
320,192,69051,1,0,0:0:0:30:LR_Snare Wet Fast Long.wav
64,192,69229,128,2,69584:0:0:0:0:
448,192,69229,1,4,0:0:0:0:
192,192,69584,1,2,0:0:0:0:
320,192,69761,1,8,0:0:0:0:
448,192,69939,1,2,0:0:0:0:
64,192,70116,128,2,70294:0:0:0:0:
320,192,70294,128,2,70471:0:0:0:0:
64,192,70471,1,0,0:0:0:50:LR_Snare Wet Fast Long.wav
192,192,70471,128,0,70826:0:0:0:0:
320,192,70826,1,4,0:0:0:0:
448,192,70826,1,2,0:0:0:0:
64,192,71093,1,0,0:0:0:60:LR_Hat Normal.wav
192,192,71181,1,8,0:0:0:0:
448,192,71181,1,0,0:0:0:0:
320,192,71359,1,0,0:0:0:60:LR_Hat Normal.wav
64,192,71536,1,2,0:0:0:0:
448,192,71714,1,0,0:0:0:60:LR_Hat Normal.wav
192,192,71891,1,8,0:0:0:0:
320,192,71891,1,0,0:0:0:0:
64,192,72069,1,0,0:0:0:60:LR_Hat Normal.wav
448,192,72246,1,2,0:0:0:0:
192,192,72424,1,0,0:0:0:60:LR_Hat Normal.wav
64,192,72601,1,8,0:0:0:0:
320,192,72601,1,0,0:0:0:0:
448,192,72779,1,0,0:0:0:60:LR_Hat Normal.wav
192,192,72956,128,2,73134:0:0:0:0:
64,192,73134,128,0,73312:0:0:0:60:LR_Hat Normal.wav
320,192,73312,1,8,0:0:0:0:
448,192,73312,128,0,73667:0:0:0:50:LR_Chm Fast.wav
192,192,73667,1,2,0:0:0:0:
320,192,73933,1,0,0:0:0:60:LR_Hat Normal.wav
64,192,74022,1,8,0:0:0:0:
192,192,74022,1,0,0:0:0:0:
448,192,74199,1,0,0:0:0:60:LR_Hat Normal.wav
320,192,74377,1,2,0:0:0:0:
64,192,74554,1,0,0:0:0:60:LR_Hat Normal.wav
192,192,74732,1,8,0:0:0:0:
320,192,74732,1,0,0:0:0:0:
448,192,74909,1,0,0:0:0:60:LR_Hat Normal.wav
64,192,75087,1,2,0:0:0:0:
320,192,75264,1,0,0:0:0:60:LR_Hat Normal.wav
64,192,75442,1,8,0:0:0:0:
192,192,75442,1,0,0:0:0:0:
448,192,75619,1,0,0:0:0:60:LR_Hat Normal.wav
64,192,75797,128,2,75974:0:0:0:0:
320,192,75974,1,0,0:0:0:60:LR_Hat Normal.wav
448,192,75974,128,0,76152:0:0:0:50:LR_J Hit Pong.wav
64,192,76152,1,8,0:0:0:0:
192,192,76152,128,0,76329:0:0:0:50:LR_J Hit Pong.wav
320,192,76329,128,0,76507:0:0:0:60:LR_Hat Normal.wav
64,192,76507,1,2,0:0:0:0:
448,192,76684,1,0,0:0:0:60:LR_Hat Normal.wav
192,192,76862,1,8,0:0:0:0:
320,192,76862,1,0,0:0:0:0:
64,192,77039,1,0,0:0:0:60:LR_Hat Normal.wav
448,192,77217,1,2,0:0:0:0:
320,192,77394,1,0,0:0:0:60:LR_Hat Normal.wav
64,192,77572,1,8,0:0:0:0:
192,192,77572,1,0,0:0:0:0:
448,192,77749,1,0,0:0:0:60:LR_Hat Normal.wav
192,192,77927,1,2,0:0:0:0:
320,192,78104,1,0,0:0:0:60:LR_Hat Normal.wav
64,192,78282,1,8,0:0:0:0:
448,192,78282,1,0,0:0:0:0:
192,192,78459,1,0,0:0:0:60:LR_Hat Normal.wav
320,192,78637,1,2,0:0:0:0:
64,192,78814,1,0,0:0:0:60:LR_Hat Normal.wav
320,192,78992,1,8,0:0:0:0:
448,192,78992,128,0,79347:0:0:0:0:
192,192,79347,1,2,0:0:0:0:
320,192,79525,1,0,0:0:0:60:LR_Hat Normal.wav
64,192,79702,128,8,80057:0:0:0:0:
448,192,79702,1,0,0:0:0:30:LR_Snare Wet Fast Long.wav
192,192,80057,1,2,0:0:0:0:
448,192,80235,1,0,0:0:0:60:LR_Hat Normal.wav
192,192,80412,1,8,0:0:0:0:
320,192,80412,1,0,0:0:0:30:LR_Snare Wet Fast Long.wav
64,192,80590,1,2,0:0:0:0:
448,192,80590,128,0,80945:0:0:0:0:
320,192,80945,128,0,81122:0:0:0:0:
192,192,81122,128,0,81300:0:0:0:0:
64,192,81300,128,0,81477:0:0:0:0:
448,192,81477,128,0,81655:0:0:0:0:
192,192,81655,1,0,0:0:0:0:
320,192,81832,128,0,82187:0:0:0:50:LR_Snare Wet Fast Long.wav
448,192,81832,1,0,0:0:0:0:
64,192,82187,1,2,0:0:0:0:
192,192,82187,1,4,0:0:0:0:
448,192,82542,1,0,0:0:0:50:LR_Clap Fast Low.wav
448,192,82897,1,0,0:0:0:50:LR_Clap Fast Low.wav
64,192,83252,1,0,0:0:0:50:LR_Clap Fast Low.wav
64,192,83607,1,0,0:0:0:50:LR_Clap Fast Low.wav
320,192,83785,1,0,0:0:0:0:
192,192,83962,1,0,0:0:0:50:LR_Clap Fast Low.wav
320,192,84140,1,0,0:0:0:0:
448,192,84317,128,0,84672:0:0:0:50:LR_Clap Fast Low.wav
64,192,84672,128,0,85027:0:0:0:50:LR_Clap Fast Low.wav
192,192,84672,1,0,0:0:0:50:LR_Chm High Long.wav
320,192,85027,1,2,0:0:0:0:
448,192,85027,1,0,0:0:0:50:LR_Clap Fast Low.wav
64,192,85383,1,0,0:0:0:50:LR_Clap Fast Low.wav
192,192,85560,1,0,0:0:0:0:
448,192,85738,128,0,86093:0:0:0:50:LR_Clap Fast Low.wav
320,192,86093,1,0,0:0:0:50:LR_Clap Fast Low.wav
192,192,86448,128,2,87335:0:0:0:0:
320,192,87335,1,2,0:0:0:0:
64,192,87513,1,0,0:0:0:50:LR_Snare Wet Fast Long.wav
448,192,87513,1,0,0:0:0:0:
192,192,87868,1,2,0:0:0:0:
320,192,87868,1,0,0:0:0:50:LR_Clap Fast Low.wav
64,192,88045,1,2,0:0:0:0:
448,192,88223,1,2,0:0:0:0:
192,192,88400,1,2,0:0:0:0:
320,192,88578,1,2,0:0:0:0:
64,192,88755,1,2,0:0:0:0:
448,192,88933,1,2,0:0:0:0:
192,192,89110,1,2,0:0:0:0:
320,192,89288,1,2,0:0:0:0:
64,192,89465,1,2,0:0:0:0:
320,192,89643,1,2,0:0:0:0:
192,192,89820,1,2,0:0:0:0:
448,192,89998,1,2,0:0:0:0:
64,192,90175,1,2,0:0:0:0:
320,192,90353,1,2,0:0:0:0:
448,192,90353,1,0,0:0:0:50:LR_Clap Fast Low.wav
192,192,90530,1,2,0:0:0:0:
64,192,90708,1,8,0:0:0:0:
448,192,90708,1,0,0:0:0:30:LR_Snare Wet Fast Long.wav
320,192,90885,1,2,0:0:0:0:
192,192,91063,1,2,0:0:0:0:
64,192,91241,1,8,0:0:0:0:
448,192,91241,1,0,0:0:0:30:LR_Snare Wet Fast Long.wav
192,192,91418,1,2,0:0:0:0:
320,192,91596,1,2,0:0:0:0:
64,192,91773,1,8,0:0:0:0:
448,192,91773,1,0,0:0:0:30:LR_Snare Wet Fast Long.wav
320,192,91951,1,2,0:0:0:0:
64,192,92128,128,0,93548:0:0:0:0:
448,192,93548,128,0,93726:0:0:0:30:LR_Snare Drum .wav
192,192,93726,128,0,93903:0:0:0:30:LR_Snare Drum 3.wav
320,192,93903,128,0,94081:0:0:0:30:LR_Snare Drum .wav
64,192,94081,128,0,94258:0:0:0:30:LR_Snare Drum 3.wav
448,192,94258,128,0,94436:0:0:0:30:LR_Snare Drum .wav
192,192,94436,128,2,94613:0:0:0:0:
320,192,94613,1,0,0:0:0:50:LR_J Hit Pong.wav
448,192,94613,1,0,0:0:0:0:
64,192,94968,1,2,0:0:0:0:
192,192,94968,1,4,0:0:0:0:
320,192,95146,1,0,0:0:0:60:LR_Hat Normal.wav
448,192,95323,1,0,0:0:0:60:LR_Hat Normal.wav
64,192,95501,1,2,0:0:0:0:
192,192,95678,1,0,0:0:0:50:LR_Hit Snare Soft.wav
320,192,95678,1,0,0:0:0:70:bubble.wav
448,192,96033,1,2,0:0:0:0:
64,192,96211,1,0,0:0:0:60:LR_Hat Normal.wav
192,192,96388,1,0,0:0:0:60:LR_Hat Normal.wav
448,192,96566,1,2,0:0:0:0:
320,192,96743,1,2,0:0:0:0:
64,192,97098,128,0,97454:0:0:0:50:LR_Hit Snare Soft.wav
192,192,97098,1,0,0:0:0:70:bubble.wav
448,192,97454,1,0,0:0:0:60:LR_Hat Normal.wav
320,192,97631,1,2,0:0:0:0:
192,192,97809,128,2,98164:0:0:0:0:
448,192,98164,128,0,98519:0:0:0:60:LR_Hat Normal.wav
64,192,98341,1,2,0:0:0:0:
192,192,98519,1,4,0:0:0:0:
320,192,98519,128,0,98874:0:0:0:50:LR_Hit Snare Soft.wav
64,192,98874,1,2,0:0:0:0:
448,192,99051,128,0,99229:0:0:0:60:LR_Hat Normal.wav
192,192,99229,128,2,99406:0:0:0:0:
320,192,99406,128,0,99584:0:0:0:0:
64,192,99584,128,0,99761:0:0:0:0:
448,192,99939,128,0,100294:0:0:0:0:
64,192,100294,1,0,0:0:0:50:LR_J Hit Pong.wav
192,192,100294,1,0,0:0:0:0:
320,192,100649,1,2,0:0:0:0:
192,192,100826,1,0,0:0:0:60:LR_Hat Normal.wav
448,192,101004,1,0,0:0:0:60:LR_Hat Normal.wav
64,192,101181,1,2,0:0:0:0:
192,192,101359,1,0,0:0:0:50:LR_Hit Snare Soft.wav
320,192,101359,1,0,0:0:0:50:bubble.wav
448,192,101536,1,0,0:0:0:60:LR_Hat Normal.wav
64,192,101714,1,6,0:0:0:0:
192,192,101891,1,0,0:0:0:60:LR_Hat Normal.wav
320,192,102069,1,0,0:0:0:60:LR_Hat Normal.wav
64,192,102246,1,2,0:0:0:0:
448,192,102424,1,2,0:0:0:0:
192,192,102601,1,0,0:0:0:60:LR_Hat Normal.wav
320,192,102779,1,0,0:0:0:50:LR_Hit Snare Soft.wav
448,192,102779,1,0,0:0:0:50:bubble.wav
64,192,102956,1,0,0:0:0:60:LR_Hat Normal.wav
192,192,103134,1,0,0:0:0:60:LR_Hat Normal.wav
448,192,103312,1,2,0:0:0:0:
320,192,103400,1,2,0:0:0:0:
64,192,103489,128,2,103844:0:0:0:0:
192,192,103489,1,4,0:0:0:0:
320,192,103844,1,0,0:0:0:60:LR_Hat Normal.wav
192,192,104022,1,4,0:0:0:0:
448,192,104022,128,2,104377:0:0:0:0:
64,192,104377,1,0,0:0:0:60:LR_Hat Normal.wav
192,192,104554,1,2,0:0:0:0:
320,192,104554,128,4,104909:0:0:0:0:
64,192,104909,128,0,105087:0:0:0:0:
448,192,105087,128,0,105264:0:0:0:0:
192,192,105264,128,0,105442:0:0:0:0:
320,192,105442,128,0,105619:0:0:0:0:
64,192,105619,128,0,105797:0:0:0:0:
192,192,105797,128,0,105974:0:0:0:0:
320,192,105974,128,0,106152:0:0:0:0:
192,192,106152,128,0,106329:0:0:0:0:
64,192,106329,128,2,106862:0:0:0:0:
448,192,106329,1,4,0:0:0:0:
192,192,106862,1,0,0:0:0:0:
448,192,107039,128,0,107394:0:0:0:0:
320,192,107394,1,0,0:0:0:0:
64,192,107749,128,0,108282:0:0:0:0:
192,192,108282,1,0,0:0:0:0:
448,192,108459,128,0,108814:0:0:0:0:
320,192,108814,1,0,0:0:0:0:
64,192,109169,128,0,109525:0:0:0:0:
192,192,109525,128,0,109880:0:0:0:0:
320,192,109880,128,0,110235:0:0:0:0:
448,192,110235,128,0,110590:0:0:0:0:
64,192,110590,128,0,110945:0:0:0:0:
192,192,110945,1,0,0:0:0:0:
448,192,111122,1,0,0:0:0:0:
320,192,111300,128,0,111655:0:0:0:0:
64,192,111655,1,0,0:0:0:50:LR_J Hit Pong.wav
192,192,111655,1,0,0:0:0:0:
192,192,112010,128,4,112365:0:0:0:0:
448,192,112010,1,2,0:0:0:0:
320,192,112365,128,0,112720:0:0:0:0:
64,192,112542,1,2,0:0:0:0:
192,192,112720,1,0,0:0:0:50:LR_Hit Snare Soft.wav
448,192,112720,128,0,113075:0:0:0:0:
64,192,113075,128,2,113430:0:0:0:0:
192,192,113430,128,2,113785:0:0:0:0:
320,192,113785,128,0,113962:0:0:0:0:
448,192,113962,128,2,114140:0:0:0:0:
64,192,114140,128,0,114495:0:0:0:50:LR_Hit Snare Soft.wav
192,192,114140,1,0,0:0:0:0:
320,192,114495,128,2,114672:0:0:0:0:
192,192,114672,128,0,114850:0:0:0:0:
64,192,114850,1,2,0:0:0:0:
448,192,114850,1,0,0:0:0:50:LR_Snare Hat 2.wav
320,192,115027,1,2,0:0:0:0:
64,192,115205,1,2,0:0:0:0:
192,192,115205,1,0,0:0:0:50:LR_Snare Hat 2.wav
320,192,115383,1,2,0:0:0:0:
64,192,115560,1,2,0:0:0:0:
448,192,115560,1,0,0:0:0:50:LR_Snare Hat 2.wav
192,192,115738,1,2,0:0:0:0:
320,192,115915,1,2,0:0:0:0:
448,192,115915,1,0,0:0:0:50:LR_Snare Hat 2.wav
192,192,116093,1,2,0:0:0:0:
64,192,116270,128,2,116448:0:0:0:0:
448,192,116448,128,2,116625:0:0:0:0:
192,192,116625,128,2,116803:0:0:0:0:
320,192,116803,128,2,116980:0:0:0:0:
64,192,116980,128,2,117158:0:0:0:0:
448,192,117158,128,2,117335:0:0:0:0:
320,192,117335,128,2,117513:0:0:0:0:
192,192,117513,128,2,117690:0:0:0:0:
64,192,117690,128,0,118223:0:0:0:50:LR_Chm Fast.wav
448,192,117690,1,0,0:0:0:0:
320,192,118223,1,0,0:0:0:0:
448,192,118400,1,0,0:0:0:0:
64,192,118578,1,0,0:0:0:0:
192,192,118755,1,0,0:0:0:0:
320,192,118933,1,0,0:0:0:0:
64,192,119110,1,2,0:0:0:0:
448,192,119110,1,4,0:0:0:0:
192,192,119377,1,0,0:0:0:60:LR_Hat Normal.wav
320,192,119465,1,8,0:0:0:0:
448,192,119465,1,0,0:0:0:0:
192,192,119643,1,0,0:0:0:60:LR_Hat Normal.wav
64,192,119820,1,2,0:0:0:0:
448,192,119998,1,0,0:0:0:60:LR_Hat Normal.wav
192,192,120175,1,8,0:0:0:0:
320,192,120175,1,0,0:0:0:0:
64,192,120353,1,0,0:0:0:60:LR_Hat Normal.wav
448,192,120530,1,2,0:0:0:0:
192,192,120708,1,0,0:0:0:60:LR_Hat Normal.wav
64,192,120885,1,8,0:0:0:0:
320,192,120885,1,0,0:0:0:0:
448,192,121063,1,0,0:0:0:60:LR_Hat Normal.wav
192,192,121241,1,2,0:0:0:0:
64,192,121418,128,0,121596:0:0:0:60:LR_Hat Normal.wav
320,192,121596,1,8,0:0:0:0:
448,192,121596,128,0,121951:0:0:0:50:LR_Chm Fast.wav
192,192,121951,1,2,0:0:0:0:
320,192,122217,1,0,0:0:0:60:LR_Hat Normal.wav
64,192,122306,1,8,0:0:0:0:
192,192,122306,1,0,0:0:0:0:
448,192,122483,1,0,0:0:0:60:LR_Hat Normal.wav
320,192,122661,1,2,0:0:0:0:
64,192,122838,1,0,0:0:0:60:LR_Hat Normal.wav
192,192,123016,1,8,0:0:0:0:
448,192,123016,1,0,0:0:0:0:
320,192,123193,1,0,0:0:0:60:LR_Hat Normal.wav
64,192,123371,1,2,0:0:0:0:
192,192,123548,1,0,0:0:0:60:LR_Hat Normal.wav
320,192,123726,1,8,0:0:0:0:
448,192,123726,1,0,0:0:0:0:
64,192,123903,1,0,0:0:0:60:LR_Hat Normal.wav
192,192,124081,1,2,0:0:0:0:
320,192,124258,1,0,0:0:0:60:LR_Hat Normal.wav
448,192,124258,128,0,124436:0:0:0:50:LR_J Hit Pong.wav
64,192,124436,128,8,124791:0:0:0:0:
192,192,124436,1,0,0:0:0:50:LR_J Hit Pong.wav
448,192,124791,1,2,0:0:0:0:
192,192,124968,1,0,0:0:0:60:LR_Hat Normal.wav
320,192,125146,1,8,0:0:0:0:
448,192,125146,1,0,0:0:0:0:
64,192,125323,1,0,0:0:0:60:LR_Hat Normal.wav
448,192,125501,1,2,0:0:0:0:
320,192,125678,1,0,0:0:0:60:LR_Hat Normal.wav
64,192,125856,1,8,0:0:0:0:
192,192,125856,1,0,0:0:0:0:
448,192,126033,1,0,0:0:0:60:LR_Hat Normal.wav
192,192,126211,1,2,0:0:0:0:
320,192,126388,1,0,0:0:0:60:LR_Hat Normal.wav
64,192,126566,1,8,0:0:0:0:
448,192,126566,1,0,0:0:0:0:
192,192,126743,1,0,0:0:0:60:LR_Hat Normal.wav
320,192,126921,1,2,0:0:0:0:
64,192,127098,1,0,0:0:0:60:LR_Hat Normal.wav
320,192,127276,1,8,0:0:0:0:
448,192,127276,128,0,127631:0:0:0:0:
192,192,127631,1,2,0:0:0:0:
320,192,127809,1,0,0:0:0:60:LR_Hat Normal.wav
64,192,127986,128,8,128341:0:0:0:0:
448,192,127986,1,0,0:0:0:30:LR_Snare Wet Fast Long.wav
192,192,128341,1,2,0:0:0:0:
448,192,128519,1,0,0:0:0:60:LR_Hat Normal.wav
192,192,128696,1,8,0:0:0:0:
320,192,128696,1,0,0:0:0:30:LR_Snare Wet Fast Long.wav
64,192,128874,1,2,0:0:0:0:
448,192,128874,128,4,129229:0:0:0:0:
320,192,129229,1,2,0:0:0:0:
192,192,129406,1,8,0:0:0:0:
64,192,129584,1,2,0:0:0:0:
448,192,129761,128,2,129939:0:0:0:0:
192,192,129939,128,2,130116:0:0:0:0:
320,192,130116,128,0,130471:0:0:0:50:LR_Snare Wet Fast Long.wav
448,192,130116,1,0,0:0:0:0:
64,192,130471,1,2,0:0:0:0:
192,192,130471,1,4,0:0:0:0:
448,192,130738,1,0,0:0:0:60:LR_Hat Normal.wav
64,192,130826,1,8,0:0:0:0:
320,192,130826,1,0,0:0:0:0:
192,192,131004,1,0,0:0:0:60:LR_Hat Normal.wav
448,192,131181,1,2,0:0:0:0:
64,192,131359,1,0,0:0:0:60:LR_Hat Normal.wav
192,192,131536,1,8,0:0:0:0:
320,192,131536,1,0,0:0:0:0:
448,192,131714,1,0,0:0:0:60:LR_Hat Normal.wav
64,192,131891,1,2,0:0:0:0:
320,192,132069,1,0,0:0:0:60:LR_Hat Normal.wav
192,192,132246,1,8,0:0:0:0:
448,192,132246,1,0,0:0:0:0:
64,192,132424,1,0,0:0:0:60:LR_Hat Normal.wav
320,192,132601,128,2,132779:0:0:0:0:
448,192,132779,128,0,132956:0:0:0:60:LR_Hat Normal.wav
64,192,132956,128,8,133312:0:0:0:0:
192,192,132956,1,0,0:0:0:50:LR_Chm Fast.wav
320,192,133312,1,2,0:0:0:0:
192,192,133578,1,0,0:0:0:60:LR_Hat Normal.wav
320,192,133667,1,8,0:0:0:0:
448,192,133667,1,0,0:0:0:0:
64,192,133844,1,0,0:0:0:60:LR_Hat Normal.wav
192,192,134022,1,2,0:0:0:0:
448,192,134199,1,0,0:0:0:60:LR_Hat Normal.wav
192,192,134377,1,8,0:0:0:0:
320,192,134377,1,0,0:0:0:0:
64,192,134554,1,0,0:0:0:60:LR_Hat Normal.wav
448,192,134732,1,2,0:0:0:0:
192,192,134909,1,0,0:0:0:60:LR_Hat Normal.wav
320,192,135087,1,8,0:0:0:0:
448,192,135087,1,0,0:0:0:0:
64,192,135264,1,0,0:0:0:60:LR_Hat Normal.wav
448,192,135442,128,2,135619:0:0:0:0:
64,192,135619,128,0,135797:0:0:0:60:LR_Hat Normal.wav
192,192,135619,1,0,0:0:0:50:LR_J Hit Pong.wav
320,192,135797,128,8,135974:0:0:0:0:
448,192,135797,1,0,0:0:0:50:LR_J Hit Pong.wav
192,192,135974,128,0,136152:0:0:0:60:LR_Hat Normal.wav
448,192,136152,1,2,0:0:0:0:
64,192,136329,1,0,0:0:0:60:LR_Hat Normal.wav
192,192,136507,1,8,0:0:0:0:
320,192,136507,1,0,0:0:0:0:
448,192,136684,1,0,0:0:0:60:LR_Hat Normal.wav
64,192,136862,1,2,0:0:0:0:
192,192,137039,1,0,0:0:0:60:LR_Hat Normal.wav
320,192,137217,1,8,0:0:0:0:
448,192,137217,1,0,0:0:0:0:
64,192,137394,1,0,0:0:0:60:LR_Hat Normal.wav
320,192,137572,1,2,0:0:0:0:
192,192,137749,1,0,0:0:0:60:LR_Hat Normal.wav
64,192,137927,1,8,0:0:0:0:
448,192,137927,1,0,0:0:0:0:
320,192,138104,1,0,0:0:0:60:LR_Hat Normal.wav
192,192,138282,1,2,0:0:0:0:
448,192,138459,1,0,0:0:0:60:LR_Hat Normal.wav
64,192,138637,128,8,138992:0:0:0:0:
192,192,138637,1,0,0:0:0:50:LR_Chm Fast.wav
320,192,138992,1,2,0:0:0:0:
192,192,139169,1,0,0:0:0:60:LR_Hat Normal.wav
64,192,139347,1,8,0:0:0:0:
448,192,139347,128,0,139702:0:0:0:30:LR_Snare Wet Fast Long.wav
320,192,139702,1,2,0:0:0:0:
64,192,139880,1,0,0:0:0:60:LR_Hat Normal.wav
192,192,140057,1,8,0:0:0:0:
320,192,140057,1,0,0:0:0:30:LR_Snare Wet Fast Long.wav
64,192,140235,128,2,140590:0:0:0:0:
448,192,140235,1,4,0:0:0:0:
192,192,140590,128,0,140767:0:0:0:60:LR_Hat Normal.wav
320,192,140767,128,8,140945:0:0:0:0:
448,192,140945,128,0,141122:0:0:0:60:LR_Hat Normal.wav
64,192,141122,128,0,141300:0:0:0:0:
192,192,141300,128,0,141477:0:0:0:60:LR_Hat Normal.wav
320,192,141477,1,0,0:0:0:50:LR_Snare Wet Fast Long.wav
448,192,141477,1,0,0:0:0:0:
64,192,141655,1,2,0:0:0:0:
192,192,141743,1,2,0:0:0:0:
320,192,141832,1,2,0:0:0:0:
448,192,141832,1,4,0:0:0:0:
64,192,142010,1,2,0:0:0:0:
192,192,142187,1,8,0:0:0:0:
448,192,142187,1,2,0:0:0:0:
320,192,142365,1,2,0:0:0:0:
64,192,142542,1,2,0:0:0:0:
448,192,142720,1,2,0:0:0:0:
64,192,142897,1,10,0:0:0:0:
192,192,142986,1,2,0:0:0:0:
320,192,143075,128,2,143430:0:0:0:0:
448,192,143075,1,4,0:0:0:0:
64,192,143430,128,0,143607:0:0:0:60:LR_Hat Normal.wav
448,192,143607,128,8,143785:0:0:0:0:
192,192,143785,128,0,143962:0:0:0:60:LR_Hat Normal.wav
320,192,143962,128,0,144140:0:0:0:0:
64,192,144140,1,0,0:0:0:50:LR_J Hit Pong.wav
192,192,144140,1,0,0:0:0:0:
320,192,144317,1,0,0:0:0:50:LR_Snare Wet Fast Long.wav
448,192,144317,1,0,0:0:0:50:LR_J Hit Pong.wav
64,192,144495,1,2,0:0:0:0:
192,192,144584,1,2,0:0:0:0:
320,192,144672,1,2,0:0:0:0:
448,192,144672,1,4,0:0:0:0:
192,192,144850,1,2,0:0:0:0:
64,192,145027,1,2,0:0:0:0:
448,192,145027,1,8,0:0:0:0:
320,192,145205,1,2,0:0:0:0:
64,192,145383,1,2,0:0:0:0:
192,192,145560,1,2,0:0:0:0:
448,192,145738,1,10,0:0:0:0:
320,192,145826,1,2,0:0:0:0:
64,192,145915,128,2,146270:0:0:0:0:
320,192,146270,128,0,146448:0:0:0:0:
192,192,146448,128,0,146625:0:0:0:0:
320,192,146625,128,0,146803:0:0:0:0:
448,192,146803,128,0,147158:0:0:0:0:
