osu file format v14

[General]
AudioFilename: audio.mp3
AudioLeadIn: 0
PreviewTime: 77728
Countdown: 0
SampleSet: Soft
StackLeniency: 0.3
Mode: 0
LetterboxInBreaks: 0
EpilepsyWarning: 1
WidescreenStoryboard: 1

[Editor]
Bookmarks: 964,2140,11551,20963,39787,58610,68022,78610,97433,111551,120962,130374,135080,144492,163315,172727,191551,200962,210374,229198,248021
DistanceSpacing: 0.9
BeatDivisor: 4
GridSize: 32
TimelineZoom: 2.799999

[Metadata]
Title:MY Heart Rate
TitleUnicode:MY Heart Rate
Artist:ShinRa-Bansho
ArtistUnicode:森羅万象
Creator:UberFazz
Version:JAZZ's Lunatic
Source:東方花映塚 ~ Phantasmagoria of Flower View.
Tags:japanese pop video game あよ ayo kaztora heartrate シンクロ2 Synchro 2 touhou 2hu 東方project 博麗霊夢 hakurei reimu 春色小径 ~ Colorful Path Spring Lane pofv reitaisai 15 例大祭15 swing jaune jazzberry -ametori
BeatmapID:2576252
BeatmapSetID:1237886

[Difficulty]
HPDrainRate:5
CircleSize:4
OverallDifficulty:7
ApproachRate:9
SliderMultiplier:2
SliderTickRate:1

[Events]
//Background and Video events
0,0,"reimu.jpg",0,0
//Break Periods
2,163515,169773
//Storyboard Layer 0 (Background)
//Storyboard Layer 1 (Fail)
//Storyboard Layer 2 (Pass)
//Storyboard Layer 3 (Foreground)
//Storyboard Layer 4 (Overlay)
//Storyboard Sound Samples

[TimingPoints]
964,588.235294117647,4,2,1,40,1,0
964,-166.666666666667,4,2,1,40,0,0
1552,-125,4,2,1,40,0,0
2140,588.235294117647,4,2,1,40,1,0
11551,-62.5,4,2,1,60,0,0
11845,-181.818181818182,4,2,1,60,0,0
12434,-125,4,2,1,60,0,0
12728,-62.5,4,2,1,60,0,0
13022,-181.818181818182,4,2,1,60,0,0
13610,-125,4,2,1,60,0,0
13904,-62.5,4,2,1,60,0,0
14198,-181.818181818182,4,2,1,60,0,0
14787,-125,4,2,1,60,0,0
15081,-62.5,4,2,1,60,0,0
15375,-181.818181818182,4,2,1,60,0,0
15963,-125,4,2,1,60,0,0
16257,-62.5,4,2,1,60,0,0
16551,-181.818181818182,4,2,1,60,0,0
17139,-125,4,2,1,60,0,0
17434,-62.5,4,2,1,60,0,0
17728,-181.818181818182,4,2,1,60,0,0
18316,-125,4,2,1,60,0,0
20081,-50,4,2,1,60,0,0
20375,-83.3333333333333,4,2,1,60,0,0
21257,-100,4,2,1,60,0,0
21551,-62.5,4,2,1,60,0,0
22139,-71.4285714285714,4,2,1,60,0,0
23022,-83.3333333333333,4,2,1,60,0,0
23610,-71.4285714285714,4,2,1,60,0,0
27728,-83.3333333333333,4,2,1,60,0,0
28316,-125,4,2,1,60,0,0
28610,-71.4285714285714,4,2,1,60,0,0
28904,-125,4,2,1,60,0,0
29198,-71.4285714285714,4,2,1,60,0,0
29492,-62.5,4,2,1,60,0,0
29787,-71.4285714285714,4,2,1,60,0,0
33904,-62.5,4,2,1,60,0,0
34198,-125,4,2,1,60,0,0
34492,-62.5,4,2,1,60,0,0
34787,-125,4,2,1,60,0,0
35081,-71.4285714285714,4,2,1,60,0,0
35963,-125,4,2,1,60,0,0
36257,-62.5,4,2,1,60,0,0
37139,-125,4,2,1,60,0,0
37728,-71.4285714285714,4,2,1,60,0,0
38316,-125,4,2,1,60,0,0
38610,-71.4285714285714,4,2,1,60,0,0
38904,-62.5,4,2,1,60,0,0
39199,-71.4285714285714,4,2,1,60,0,0
40375,-83.3333333333333,4,2,1,60,0,0
58904,-71.4285714285714,4,2,1,60,0,0
59667,588.235294117647,4,2,1,60,1,0
59787,588.235294117647,4,2,1,60,1,0
60375,-67.5675675675676,4,2,1,60,0,0
60560,588.235294117647,4,2,1,60,1,0
60658,-71.4285714285714,4,2,1,60,0,0
60963,588.235294117647,4,2,1,60,1,0
62139,-62.5,4,2,1,60,0,0
62309,588.235294117647,4,2,1,60,1,0
62434,588.235294117647,4,2,1,60,1,0
62434,-62.5,4,2,1,60,0,0
62728,588.235294117647,4,2,1,60,1,0
62728,-125,4,2,1,60,0,0
63022,-62.5,4,2,1,60,0,0
63316,588.235294117647,4,2,1,60,1,0
63610,-71.4285714285714,4,2,1,60,0,0
64356,588.235294117647,4,2,1,60,1,0
64492,588.235294117647,4,2,1,60,1,0
64492,-71.4285714285714,4,2,1,60,0,0
65245,588.235294117647,4,2,1,60,1,0
65669,588.235294117647,4,2,1,60,1,0
65848,588.235294117647,4,2,1,60,1,0
66124,588.235294117647,4,2,1,60,1,0
66257,588.235294117647,4,2,1,60,1,0
66713,588.235294117647,4,2,1,60,1,0
66845,588.235294117647,4,2,1,60,1,0
66845,-55.5555555555556,4,2,1,60,0,0
67139,-125,4,2,1,60,0,0
67728,-55.5555555555556,4,2,1,60,0,0
68022,588.235294117647,4,2,1,60,1,0
69492,-71.4285714285714,4,2,1,60,0,0
76434,588.235294117647,4,2,1,60,1,0
76532,-71.4285714285714,4,2,1,60,0,0
76826,-50,4,2,1,60,0,0
77434,588.235294117647,4,2,1,60,1,0
78022,-71.4285714285714,4,2,1,40,0,0
78610,588.235294117647,4,2,1,70,1,0
78610,-62.5,4,2,1,70,0,1
78904,-125,4,2,1,70,0,1
79198,-62.5,4,2,1,70,0,1
85668,-55.5555555555556,4,2,1,70,0,1
86845,-50,4,2,1,70,0,1
88315,-62.5,4,2,1,70,0,1
93021,-125,4,2,1,70,0,1
93315,-62.5,4,2,1,70,0,1
93610,-125,4,2,1,70,0,1
93904,-166.666666666667,4,2,1,70,0,1
94198,-62.5,4,2,1,70,0,1
97433,-62.5,4,2,1,60,0,0
100276,-47.6190476190476,4,2,1,60,0,0
100962,-47.6190476190476,4,2,1,40,0,0
101257,-50,4,2,1,40,0,0
101551,-83.3333333333333,4,2,1,40,0,0
102139,-83.3333333333333,4,2,1,50,0,0
110962,-50,4,2,1,60,0,0
111845,-83.3333333333333,4,2,1,60,0,0
114492,-62.5,4,2,1,60,0,0
114884,-83.3333333333333,4,2,1,60,0,0
118315,-125,4,2,1,60,0,0
118610,-83.3333333333333,4,2,1,60,0,0
120374,-25,4,2,1,60,0,0
120668,-50,4,2,1,60,0,0
121551,-71.4285714285714,4,2,1,60,0,0
122015,588.235294117647,4,2,1,60,1,0
122113,588.235294117647,4,2,1,60,1,0
122309,-71.4285714285714,4,2,1,60,0,0
123289,588.235294117647,4,2,1,60,1,0
123610,588.235294117647,4,2,1,60,1,0
123610,-71.4285714285714,4,2,1,60,0,0
123904,588.235294117647,4,2,1,60,1,0
123904,-71.4285714285714,4,2,1,60,0,0
124367,588.235294117647,4,2,1,60,1,0
124492,588.235294117647,4,2,1,60,1,0
124786,-71.4285714285714,4,2,1,60,0,0
125668,588.235294117647,4,2,1,60,1,0
125668,-71.4285714285714,4,2,1,60,0,0
128903,-125,4,2,1,60,0,0
129197,-71.4285714285714,4,2,1,60,0,0
132432,-50,4,2,1,60,0,0
133217,-71.4285714285714,4,2,1,60,0,0
138903,-55.5555555555556,4,2,1,60,0,0
139785,-50,4,2,1,60,0,0
140668,-86.9565217391304,4,2,1,60,0,0
142432,-71.4285714285714,4,2,1,60,0,0
142726,-62.5,4,2,1,60,0,0
143020,-55.5555555555556,4,2,1,60,0,0
143315,-50,4,2,1,60,0,0
143903,-71.4285714285714,4,2,1,60,0,0
144491,-62.5,4,2,1,70,0,1
144785,-125,4,2,1,70,0,1
145079,-62.5,4,2,1,70,0,1
150668,-125,4,2,1,70,0,1
150962,-62.5,4,2,1,70,0,1
151550,-55.5555555555556,4,2,1,70,0,1
152726,-50,4,2,1,70,0,1
154197,-62.5,4,2,1,70,0,1
158903,-125,4,2,1,70,0,1
159197,-62.5,4,2,1,70,0,1
159491,-125,4,2,1,70,0,1
159785,-166.666666666667,4,2,1,70,0,1
160079,-62.5,4,2,1,70,0,1
163315,-62.5,4,2,1,60,0,0
170373,-50,4,2,1,60,0,0
170668,-125,4,2,1,70,0,0
170962,-50,4,2,1,60,0,0
171257,-125,4,2,1,70,0,0
171550,-50,4,2,1,60,0,0
171845,-50,4,2,1,70,0,0
173020,-125,4,2,1,70,0,0
173315,-55.5555555555556,4,2,1,70,0,0
174785,-62.5,4,2,1,70,0,0
180079,-125,4,2,1,70,0,0
180373,-71.4285714285714,4,2,1,70,0,0
180668,-125,4,2,1,70,0,0
180962,-71.4285714285714,4,2,1,70,0,0
181256,-62.5,4,2,1,70,0,0
181550,-71.4285714285714,4,2,1,70,0,0
182138,-125,4,2,1,70,0,0
182726,-50,4,2,1,70,0,0
183315,-62.5,4,2,1,70,0,0
190962,-250,4,2,1,70,0,0
191550,-100,4,2,1,50,0,0
198609,-83.3333333333333,4,2,1,70,0,0
200962,-71.4285714285714,4,2,1,60,0,0
204785,-125,4,2,1,60,0,0
205079,-71.4285714285714,4,2,1,60,0,0
205373,-125,4,2,1,60,0,0
205668,-71.4285714285714,4,2,1,60,0,0
209197,-50,4,2,1,70,0,0
209638,-40,4,2,1,70,0,0
210079,-50,4,2,1,70,0,1
210962,-62.5,4,2,1,70,0,1
220079,-125,4,2,1,70,0,1
220373,-62.5,4,2,1,70,0,1
226844,-62.5,4,2,1,80,0,0
229197,-62.5,4,2,1,70,0,1
229491,-125,4,2,1,70,0,1
229785,-62.5,4,2,1,70,0,1
247726,-45.4545454545455,4,2,1,70,0,1
248020,-250,4,2,1,40,0,0
248315,-333.333333333333,4,2,1,40,0,0
248609,-500,4,2,1,40,0,0
248903,-1000,4,2,1,40,0,0

[Colours]
Combo1 : 236,117,206
Combo2 : 182,10,70
Combo3 : 103,128,245
Combo4 : 243,133,12

[HitObjects]
99,109,964,6,0,L|207:100,1,99.9999969482423,2|0,2:0|2:0,2:0:0:0:
229,116,1552,2,0,L|355:105,1,106.666666666667,2|0,2:0|2:0,2:0:0:0:
355,131,2042,5,0,2:0:0:0:
355,131,2140,2,0,L|339:239,1,100,2|2,2:0|2:0,2:0:0:0:
270,270,2728,2,0,L|280:343,1,66.6666666666667,2|2,2:0|2:0,2:0:0:0:
306,352,3022,1,2,2:0:0:0:
185,327,3218,5,0,2:0:0:0:
188,303,3316,1,2,2:0:0:0:
113,212,3512,1,2,2:0:0:0:
117,235,3806,2,0,P|167:214|167:147,1,100,2|2,2:0|2:0,2:0:0:0:
124,114,4198,2,0,P|79:125|64:143,1,66.6666666666667,2|2,2:0|2:0,2:0:0:0:
202,96,4492,6,0,P|256:117|306:104,1,100,2|2,2:0|2:0,2:0:0:0:
407,11,4983,1,0,2:0:0:0:
387,22,5081,2,0,L|379:125,1,100,2|2,2:0|2:0,2:0:0:0:
457,226,5571,5,0,2:0:0:0:
452,203,5669,1,2,2:0:0:0:
341,265,5865,1,2,2:0:0:0:
338,285,6159,2,0,B|406:298|390:242|469:251,1,133.333333333333,2|0,2:0|2:0,2:0:0:0:
265,345,6747,5,0,2:0:0:0:
248,333,6845,2,0,L|261:227,1,100,2|2,2:0|2:0,2:0:0:0:
197,179,7434,2,0,L|189:99,1,66.6666666666667,2|0,2:0|2:0,2:0:0:0:
207,88,7728,1,2,2:0:0:0:
334,28,7924,5,0,2:0:0:0:
331,51,8022,2,0,L|325:105,1,33.3333333333333,2|0,2:0|2:0,2:0:0:0:
404,129,8218,2,0,L|410:186,1,33.3333333333333,2|0,2:0|2:0,2:0:0:0:
331,51,8512,2,0,L|318:163,1,100,2|2,2:0|2:0,2:0:0:0:
429,222,8904,2,0,P|423:182|405:160,1,66.6666666666667,2|0,2:0|2:0,2:0:0:0:
335,227,9198,6,0,P|283:184|223:188,2,100,2|2|2,2:0|2:0|2:0,2:0:0:0:
271,342,9983,1,2,2:0:0:0:
254,329,10081,2,0,L|261:260,1,66.6666666666667,2|2,2:0|2:0,2:0:0:0:
66,258,10375,6,0,P|158:273|88:180,1,266.666666666667,2|2,2:0|2:0,2:0:0:0:
109,196,11257,2,0,P|143:172|153:138,1,66.6666666666667,2|0,2:0|2:0,2:0:0:0:
317,77,11551,6,0,P|268:70|220:122,1,106.666666666667,4|0,1:0|2:0,2:0:0:0:
335,161,11845,2,0,P|370:147|393:146,1,55.0000016784668,10|2,2:3|2:0,2:0:0:0:
385,145,12434,2,0,P|359:149|334:161,1,53.3333333333333,10|2,2:3|2:0,2:0:0:0:
477,271,12728,6,0,P|416:230|378:228,1,106.666666666667,0|0,1:0|2:0,2:0:0:0:
282,297,13022,2,0,L|344:288,1,55.0000016784668,10|2,2:3|2:0,2:0:0:0:
334,289,13610,2,0,L|282:297,1,53.3333333333333,10|2,2:3|2:0,2:0:0:0:
232,368,13904,6,0,L|244:245,1,106.666666666667,0|0,1:0|2:0,2:0:0:0:
171,180,14198,2,0,B|152:201|152:201|175:214,1,55.0000016784668,10|2,2:3|2:0,2:0:0:0:
173,213,14787,2,0,B|192:192|192:192|170:179,1,53.3333333333333,10|0,2:3|2:0,2:0:0:0:
300,118,15081,6,0,P|235:122|204:99,1,106.666666666667,0|0,1:0|2:0,2:0:0:0:
258,2,15375,2,0,P|271:32|262:54,1,55.0000016784668,10|2,2:3|2:0,2:0:0:0:
264,50,15963,2,0,P|251:27|257:1,1,53.3333333333333,10|2,2:3|2:0,2:0:0:0:
313,135,16257,6,0,B|379:134|350:104|416:99,1,106.666666666667,0|0,1:0|2:0,2:0:0:0:
433,224,16551,2,0,P|415:207|419:174,1,55.0000016784668,10|2,2:3|2:0,2:0:0:0:
417,178,17139,2,0,P|435:197|433:224,1,53.3333333333333,10|2,2:3|2:0,2:0:0:0:
499,279,17434,6,0,P|450:256|388:257,1,106.666666666667,0|0,1:0|2:0,2:0:0:0:
321,331,17728,2,0,B|342:310|342:310|325:286,1,55.0000016784668,10|2,2:3|2:0,2:0:0:0:
327,289,18316,2,0,B|306:310|306:310|323:334,1,53.3333333333333,10|2,2:3|2:0,2:0:0:0:
275,227,18610,6,0,B|191:251|131:196|192:165|96:116|26:151|26:151|77:143|115:186,1,373.333333333333,4|0,1:0|2:0,2:0:0:0:
237,152,20081,6,0,P|258:131|265:104,1,50,2|0,2:0|2:0,2:0:0:0:
204,0,20228,2,0,P|229:14|243:39,1,50,2|0,2:0|2:0,2:0:0:0:
436,103,20375,2,0,B|460:86|487:91|487:91|432:129|365:110|324:52,1,239.999992675781,8|0,2:1|1:0,2:0:0:0:
326,55,21257,2,0,L|335:126,1,66.6666666666667,2|0,2:3|2:0,2:0:0:0:
178,209,21551,6,0,B|290:219|256:132|375:146,1,213.333333333333,14|0,0:1|2:0,2:0:0:0:
443,195,22041,5,0,0:0:0:0:
443,195,22139,2,0,L|425:339,1,139.999995727539,2|2,1:0|0:3,2:0:0:0:
275,294,22630,1,2,1:0:0:0:
277,275,22728,2,0,P|327:240|384:270,1,93.3333304850261,8|0,0:1|2:0,2:0:0:0:
303,364,23022,6,0,P|255:305|135:268,1,199.999993896485,2|0,0:3|2:0,2:0:0:0:
65,343,23610,2,0,P|117:307|118:276,1,93.3333304850261,2|0,0:3|2:0,2:0:0:0:
48,117,23904,5,10,0:1:0:0:
116,189,24100,1,2,0:0:0:0:
118,173,24198,1,2,0:3:0:0:
220,85,24394,5,2,0:0:0:0:
225,100,24492,2,0,P|164:102|134:64,1,93.3333304850261,2|0,1:0|0:0,2:0:0:0:
263,19,24787,2,0,P|265:80|227:110,1,93.3333304850261,2|0,1:3|0:0,2:0:0:0:
205,208,25081,2,0,B|243:180|243:180|303:191,1,93.3333304850261,8|0,0:1|2:0,2:0:0:0:
383,227,25375,2,0,B|337:235|337:235|299:207,1,93.3333304850261,2|0,0:3|2:0,2:0:0:0:
469,111,25669,5,2,1:0:0:0:
457,197,25865,1,2,0:0:0:0:
444,281,26159,1,2,1:0:0:0:
383,227,26257,2,0,P|336:229|298:254,1,93.3333304850261,8|0,0:1|0:0,2:0:0:0:
268,330,26502,5,2,0:0:0:0:
268,330,26551,2,0,B|227:330|236:296|180:290,1,93.3333304850261,2|0,0:3|0:0,2:0:0:0:
141,361,26845,2,0,L|154:212,1,139.999995727539,2|2,1:0|0:3,2:0:0:0:
64,89,27336,1,2,1:0:0:0:
54,103,27434,2,0,L|67:210,1,93.3333304850261,8|0,0:1|2:0,2:0:0:0:
291,222,27728,6,0,P|212:134|133:141,1,199.999993896485,2|0,0:3|2:0,2:0:0:0:
155,154,28316,2,0,P|184:141|198:113,1,53.3333333333333,2|0,1:3|2:0,2:0:0:0:
320,56,28610,6,0,P|303:78|285:175,1,93.3333304850261,8|0,0:1|0:0,2:0:0:0:
418,120,28904,2,0,P|386:121|365:132,1,53.3333333333333,2|0,0:3|0:0,2:0:0:0:
420,244,29198,6,0,P|398:226|301:208,1,93.3333304850261,0|0,1:0|0:0,2:0:0:0:
353,342,29492,2,0,P|351:310|340:289,1,53.3333333333333,2|8,1:3|2:1,2:0:0:0:
174,261,29689,5,8,0:1:0:0:
214,341,29787,2,0,P|246:303|263:257,1,93.3333304850261,8|0,0:1|2:0,2:0:0:0:
230,130,30081,1,8,0:1:0:0:
63,91,30375,6,0,B|75:193,1,93.3333304850261,6|0,1:0|0:0,2:0:0:0:
126,238,30669,2,0,P|79:206|26:201,1,93.3333304850261,2|2,0:3|0:0,2:0:0:0:
0,263,30963,1,8,0:1:0:0:
186,110,31159,1,2,0:0:0:0:
186,110,31257,2,0,P|247:71|300:66,1,93.3333304850261,2|0,0:3|0:0,2:0:0:0:
363,190,31551,6,0,B|330:161|330:161|354:110,1,93.3333304850261,2|0,1:0|0:0,2:0:0:0:
427,147,31845,1,2,0:3:0:0:
494,298,32041,1,2,0:0:0:0:
484,283,32139,2,0,L|388:268,1,93.3333304850261,8|2,0:1|0:0,2:0:0:0:
314,326,32434,2,0,P|348:339|379:296,1,93.3333304850261,2|0,0:3|0:0,2:0:0:0:
210,201,32728,6,0,P|234:256|232:296,1,93.3333304850261,2|0,1:0|2:0,2:0:0:0:
218,302,33022,1,2,0:3:0:0:
133,138,33218,2,0,B|169:103|169:103|275:130,1,139.999995727539,2|2,0:0|0:0,2:0:0:0:
281,110,33561,1,2,2:0:0:0:
281,110,33610,2,0,L|269:15,1,93.3333304850261,2|0,0:3|0:0,2:0:0:0:
32,113,33904,6,0,P|105:121|162:172,1,106.666666666667,2|0,1:0|0:0,2:0:0:0:
125,159,34198,2,0,P|97:129|100:115,1,53.3333333333333,2|0,0:3|0:0,2:0:0:0:
207,183,34492,6,0,P|236:250|220:325,1,106.666666666667,10|0,0:1|2:0,2:0:0:0:
213,286,34787,2,0,P|224:247|238:242,1,53.3333333333333,2|0,0:3|2:0,2:0:0:0:
409,313,35081,6,0,P|363:273|312:268,1,93.3333304850261,2|0,1:0|2:0,2:0:0:0:
314,284,35375,1,2,0:3:0:0:
451,232,35571,1,2,0:0:0:0:
471,227,35669,2,0,L|484:122,1,93.3333304850261,8|2,0:1|0:0,2:0:0:0:
396,62,35963,2,0,L|404:123,1,53.3333333333333,2|0,0:3|0:0,2:0:0:0:
328,160,36257,6,0,B|205:152|268:74|140:64,1,213.333333333333,2|0,1:0|2:0,2:0:0:0:
23,223,36747,2,0,B|112:217|66:160|159:153,1,160,2|0,0:0|0:0,2:0:0:0:
259,284,37139,6,0,P|199:290|157:225,1,133.333333333333,2|0,0:3|2:0,2:0:0:0:
277,275,37728,6,0,P|323:297|341:340,1,93.3333304850261,2|0,0:3|0:0,2:0:0:0:
446,254,38022,6,0,P|418:250|337:194,1,93.3333304850261,10|0,0:1|0:0,2:0:0:0:
469,139,38316,2,0,P|445:160|423:167,1,53.3333333333333,2|0,0:3|0:0,2:0:0:0:
383,50,38610,6,0,P|380:78|324:159,1,93.3333304850261,2|0,1:0|0:0,2:0:0:0:
266,27,38904,2,0,P|287:51|294:73,1,53.3333333333333,2|10,0:3|2:1,2:0:0:0:
255,235,39100,5,10,0:1:0:0:
185,182,39199,2,0,P|232:152|280:150,1,93.3333304850261,10|0,0:1|2:0,2:0:0:0:
374,232,39493,1,10,0:1:0:0:
92,329,39787,5,6,1:0:0:0:
82,248,40081,1,10,2:0:0:0:
180,354,40277,1,0,2:0:0:0:
198,350,40375,2,0,B|251:350|235:312|308:305,1,119.999996337891,10|8,2:1|2:0,2:0:0:0:
398,339,40865,2,0,L|394:385,1,39.9999987792969,0|0,2:0|1:0,2:0:0:0:
322,230,41159,5,2,2:0:0:0:
317,212,41257,1,10,2:0:0:0:
434,143,41453,1,2,2:0:0:0:
429,161,41551,2,0,P|384:136|351:134,1,79.9999975585938,10|0,2:1|2:0,2:0:0:0:
317,65,41845,2,0,P|267:79|242:101,1,79.9999975585938,10|0,2:0|2:0,2:0:0:0:
197,157,42139,5,2,1:0:0:0:
205,231,42434,1,10,2:0:0:0:
15,173,42630,1,0,2:0:0:0:
31,162,42728,2,0,P|89:166|139:214,1,119.999996337891,10|8,2:1|2:0,2:0:0:0:
71,279,43218,2,0,P|60:249|59:232,1,39.9999987792969,0|0,2:0|1:0,2:0:0:0:
154,80,43512,5,2,2:0:0:0:
175,85,43610,1,10,2:0:0:0:
246,161,43806,1,2,2:0:0:0:
268,158,43904,2,0,L|355:148,1,79.9999975585938,10|0,2:1|2:0,2:0:0:0:
437,235,44198,2,0,L|350:225,1,79.9999975585938,10|0,2:0|2:0,2:0:0:0:
210,336,44492,6,0,P|258:296|322:292,1,119.999996337891,2|8,1:0|2:0,2:0:0:0:
143,381,44983,1,2,2:0:0:0:
133,364,45081,2,0,P|85:324|21:320,1,119.999996337891,10|8,2:1|2:0,2:0:0:0:
202,134,45571,1,2,2:0:0:0:
190,149,45669,2,0,P|167:195|158:276,1,119.999996337891,2|8,1:0|2:0,2:0:0:0:
82,154,46159,1,2,2:0:0:0:
66,142,46257,2,0,P|49:107|69:68,1,79.9999975585938,10|0,2:1|2:0,2:0:0:0:
151,35,46551,2,0,P|129:67|85:69,1,79.9999975585938,8|2,2:0|2:0,2:0:0:0:
158,148,46845,6,0,P|194:124|246:115,1,79.9999975585938,2|0,1:0|2:0,2:0:0:0:
298,227,47139,2,0,P|264:206|225:199,1,79.9999975585938,10|0,2:0|2:0,2:0:0:0:
235,287,47434,2,0,P|258:323|267:375,1,79.9999975585938,10|0,2:1|2:0,2:0:0:0:
244,369,47728,1,10,2:0:0:0:
471,258,47924,5,0,2:0:0:0:
457,272,48022,2,0,P|420:248|379:242,1,79.9999975585938,0|0,1:0|2:0,2:0:0:0:
258,322,48316,2,0,P|280:285|315:262,1,79.9999975585938,10|0,2:0|2:0,2:0:0:0:
512,221,48610,2,0,P|453:174|317:176,1,199.999993896485,8|0,2:1|2:0,2:0:0:0:
267,205,49198,5,4,1:0:0:0:
356,43,49492,2,0,L|350:101,1,39.9999987792969,10|0,2:0|2:0,2:0:0:0:
260,114,49689,1,2,2:0:0:0:
256,92,49787,1,10,2:1:0:0:
141,54,49983,2,0,P|191:81|255:68,1,119.999996337891,2|2,2:0|2:0,2:0:0:0:
131,41,50375,6,0,P|105:85|105:130,1,79.9999975585938,0|2,1:0|2:0,2:0:0:0:
15,133,50669,2,0,P|40:177|79:200,1,79.9999975585938,10|0,2:0|2:0,2:0:0:0:
240,218,50963,2,0,P|197:176|134:195,1,119.999996337891,10|10,2:1|2:0,2:0:0:0:
234,306,51453,5,2,2:0:0:0:
251,317,51551,2,0,L|339:308,1,79.9999975585938,2|0,1:0|2:0,2:0:0:0:
360,204,51845,2,0,L|351:292,1,79.9999975585938,10|0,2:0|2:0,2:0:0:0:
442,191,52139,2,0,L|430:312,1,119.999996337891,10|8,2:1|2:0,2:0:0:0:
347,194,52630,2,0,L|344:148,1,39.9999987792969,0|0,2:0|1:0,2:0:0:0:
482,98,52924,5,2,2:0:0:0:
462,106,53022,1,10,2:0:0:0:
381,42,53218,1,2,2:0:0:0:
361,34,53316,1,10,2:1:0:0:
250,133,53512,1,2,2:0:0:0:
271,124,53610,2,0,L|278:33,1,79.9999975585938,10|0,2:0|2:0,2:0:0:0:
188,78,53904,6,0,B|86:86|131:158|16:167,1,199.999993896485,0|0,1:0|2:0,2:0:0:0:
184,165,54492,2,0,P|153:207|145:247,1,79.9999975585938,8|0,2:1|2:0,2:0:0:0:
162,255,54787,1,8,2:0:0:0:
318,234,54983,2,0,P|266:228|227:241,1,79.9999975585938,2|0,2:0|2:0,2:0:0:0:
286,335,55277,5,2,2:0:0:0:
300,343,55375,2,0,P|355:319|356:303,1,79.9999975585938,10|0,2:0|2:0,2:0:0:0:
455,154,55669,2,0,P|429:205|421:270,1,119.999996337891,8|10,2:1|2:0,2:0:0:0:
358,146,56159,5,2,2:0:0:0:
361,126,56257,2,0,L|373:41,1,79.9999975585938,2|0,1:0|2:0,2:0:0:0:
266,151,56551,2,0,L|254:66,1,79.9999975585938,10|0,2:0|2:0,2:0:0:0:
159,103,56845,2,0,L|171:18,1,79.9999975585938,10|0,2:1|2:0,2:0:0:0:
74,160,57139,2,0,L|62:75,1,79.9999975585938,10|0,2:0|2:0,2:0:0:0:
77,182,57434,6,0,P|130:191|153:212,1,79.9999975585938,2|0,1:0|2:0,2:0:0:0:
175,356,57728,2,0,P|193:305|187:275,1,79.9999975585938,10|0,2:0|2:0,2:0:0:0:
102,103,58022,2,0,P|174:127|200:149,1,79.9999975585938,10|0,2:1|2:0,2:0:0:0:
260,371,58316,2,0,P|275:308|272:269,1,79.9999975585938,10|0,2:0|2:0,2:0:0:0:
228,212,58610,5,4,1:0:0:0:
460,68,58904,6,0,L|432:216,1,139.999995727539,10|10,2:0|2:1,2:0:0:0:
255,78,59394,5,2,2:0:0:0:
330,47,59492,1,10,2:0:0:0:
132,96,59667,5,2,2:0:0:0:
169,27,59787,1,2,1:0:0:0:
38,138,59983,5,0,2:0:0:0:
45,161,60081,1,10,2:0:0:0:
203,319,60277,5,2,2:0:0:0:
232,253,60375,2,0,P|199:209|155:211,1,93.3333304850261,8|2,2:1|2:0,2:0:0:0:
79,272,60658,2,0,P|123:265|146:226,1,93.3333304850261,0|2,2:0|2:0,2:0:0:0:
52,45,60963,5,2,1:0:0:0:
427,268,61257,1,10,2:0:0:0:
283,331,61453,5,2,2:0:0:0:
336,270,61551,1,10,2:1:0:0:
123,248,61747,5,2,2:0:0:0:
200,268,61845,1,10,2:0:0:0:
50,79,62041,5,2,2:0:0:0:
91,146,62139,2,0,P|151:140|175:103,1,93.3333304850261,0|2,1:0|2:0,2:0:0:0:
240,38,62434,6,0,P|215:96|224:174,1,106.666666666667,10|0,2:0|2:0,2:0:0:0:
284,173,62728,2,0,P|266:151|236:147,1,53.3333333333333,8|0,2:1|2:0,2:0:0:0:
123,248,63022,6,0,P|188:218|234:235,1,106.666666666667,10|0,2:0|2:0,2:0:0:0:
278,276,63316,1,0,1:0:0:0:
53,25,63610,6,0,L|67:190,1,139.999995727539,10|10,2:0|2:1,2:0:0:0:
245,65,64100,5,2,2:0:0:0:
226,59,64198,1,10,2:0:0:0:
369,161,64356,5,2,2:0:0:0:
452,131,64492,2,0,L|469:13,1,93.3333304850261,2|0,1:0|2:0,2:0:0:0:
445,19,64787,1,10,2:0:0:0:
269,151,64983,5,2,2:0:0:0:
274,187,65081,1,8,2:1:0:0:
441,272,65245,5,2,2:0:0:0:
445,250,65343,1,0,2:0:0:0:
301,342,65539,5,2,2:0:0:0:
220,326,65669,1,2,1:0:0:0:
116,192,65848,5,2,2:0:0:0:
135,188,65946,1,0,2:0:0:0:
308,361,66124,5,2,2:0:0:0:
227,345,66257,1,10,2:1:0:0:
269,143,66453,1,2,2:0:0:0:
85,285,66713,5,2,2:0:0:0:
166,269,66845,2,0,L|184:142,1,119.999996337891,2|0,1:0|2:0,2:0:0:0:
158,121,67139,2,0,L|153:66,1,53.3333333333333,10|0,2:0|2:0,2:0:0:0:
217,16,67434,1,10,2:1:0:0:
392,117,67630,1,2,2:0:0:0:
321,163,67728,2,0,P|272:114|298:96,1,119.999996337891,10|0,2:0|2:0,2:0:0:0:
408,121,68022,5,4,1:0:0:0:
330,354,68218,5,2,2:0:0:0:
345,278,68316,1,10,2:0:0:0:
162,322,68512,5,2,2:0:0:0:
237,295,68610,1,10,2:1:0:0:
88,198,68806,5,2,2:0:0:0:
165,216,68904,1,10,2:0:0:0:
95,77,69100,5,2,2:0:0:0:
157,123,69198,1,2,1:0:0:0:
345,136,69394,5,2,2:0:0:0:
425,103,69492,2,0,P|405:56|355:75,1,93.3333304850261,10|0,2:0|2:0,2:0:0:0:
414,188,69786,2,0,P|464:194|472:141,1,93.3333304850261,10|0,2:1|2:0,2:0:0:0:
345,136,70080,2,0,P|314:175|356:210,1,93.3333304850261,10|0,2:0|2:0,2:0:0:0:
425,103,70374,5,0,1:0:0:0:
209,20,70571,1,2,2:0:0:0:
149,71,70669,2,0,L|157:183,1,93.3333304850261,10|0,2:0|2:0,2:0:0:0:
180,179,70963,1,10,2:1:0:0:
378,295,71159,5,2,2:0:0:0:
299,265,71257,1,10,2:0:0:0:
144,339,71453,5,2,2:0:0:0:
222,312,71551,1,2,1:0:0:0:
73,276,71747,5,2,2:0:0:0:
10,216,71845,2,0,L|119:235,1,93.3333304850261,10|0,2:0|2:0,2:0:0:0:
197,138,72139,2,0,L|88:157,1,93.3333304850261,10|0,2:1|2:0,2:0:0:0:
29,56,72433,2,0,L|138:75,1,93.3333304850261,10|0,2:0|2:0,2:0:0:0:
275,105,72727,5,0,1:0:0:0:
364,267,73022,2,0,B|332:236|332:236|344:185,1,93.3333304850261,10|0,2:0|2:0,2:0:0:0:
484,281,73316,2,0,L|387:270,1,93.3333304850261,10|0,2:1|2:0,2:0:0:0:
279,310,73610,2,0,L|284:360,1,46.6666652425131,10|0,2:0|2:0,2:0:0:0:
155,333,73806,1,2,2:0:0:0:
171,317,73904,2,0,P|186:255|178:222,1,93.3333304850261,0|0,1:0|2:0,2:0:0:0:
140,161,74198,6,0,B|91:172|91:172|57:139,1,93.3333304850261,10|0,2:0|2:0,2:0:0:0:
160,51,74492,2,0,L|144:149,1,93.3333304850261,10|0,2:1|2:0,2:0:0:0:
251,170,74786,2,0,L|241:119,1,46.6666652425131,10|0,2:0|2:0,2:0:0:0:
348,75,74982,1,2,2:0:0:0:
364,68,75080,2,0,L|291:58,1,46.6666652425131,0|0,1:0|2:0,2:0:0:0:
382,180,75276,5,2,2:0:0:0:
462,140,75374,1,10,2:0:0:0:
296,282,75571,5,2,2:0:0:0:
216,242,75669,1,10,2:1:0:0:
456,227,75865,6,0,L|444:333,1,93.3333304850261,2|0,2:0|2:0,2:0:0:0:
296,282,76159,1,10,2:1:0:0:
306,266,76257,2,0,L|373:257,1,46.6666652425131,2|0,1:0|2:0,2:0:0:0:
258,354,76434,1,10,2:1:0:0:
245,362,76532,2,0,L|187:354,1,46.6666652425131,10|0,2:1|2:0,2:0:0:0:
96,150,76728,5,2,2:0:0:0:
166,185,76826,2,0,B|180:223|171:259|146:281|146:281|130:248,1,133.333333333333,8|2,2:1|2:0,2:0:0:0:
90,133,77120,1,10,2:1:0:0:
179,98,77316,1,10,2:1:0:0:
405,113,78022,6,0,B|342:74|389:24|441:47|455:154|390:199,1,233.333326212565,2|0,2:0|2:0,2:0:0:0:
218,166,78610,6,0,P|271:131|321:134,1,106.666666666667,4|0,1:0|2:0,2:0:0:0:
311,150,78904,2,0,P|278:138|266:121,1,53.3333333333333,10|0,2:3|2:0,2:0:0:0:
134,47,79198,2,0,L|144:104,1,53.3333333333333,10|0,2:1|2:0,2:0:0:0:
56,241,79394,2,0,L|66:134,1,106.666666666667,2|0,2:0|2:0,2:0:0:0:
146,31,79688,5,2,2:0:0:0:
156,114,79786,1,0,1:0:0:0:
39,252,79982,1,0,2:0:0:0:
114,223,80080,2,0,P|169:225|231:272,1,106.666666666667,10|0,2:3|2:0,2:0:0:0:
256,320,80374,5,10,2:1:0:0:
349,302,80595,5,2,2:0:0:0:
442,281,80815,5,2,2:0:0:0:
297,109,80962,6,0,P|284:202|380:186,1,213.333333333333,2|0,1:0|2:0,2:0:0:0:
452,90,81453,1,2,2:0:0:0:
433,85,81551,2,0,P|389:125|379:188,1,106.666666666667,8|0,2:1|2:0,2:0:0:0:
478,314,81845,2,0,P|444:261|399:241,1,106.666666666667,10|0,2:3|2:0,2:0:0:0:
342,322,82139,6,0,B|231:332|279:245|135:261,1,213.333333333333,2|0,1:0|2:0,2:0:0:0:
70,325,82629,1,2,2:0:0:0:
83,338,82727,2,0,B|106:355|106:355|105:327,1,53.3333333333333,10|0,2:1|2:0,2:0:0:0:
146,259,82923,1,0,2:0:0:0:
74,222,83021,2,0,B|45:226|45:226|66:245,1,53.3333333333333,10|0,2:3|2:0,2:0:0:0:
143,176,83217,1,0,2:0:0:0:
56,93,83315,6,0,B|96:145|96:145|247:118,1,213.333333333333,2|0,1:0|2:0,2:0:0:0:
297,51,83806,1,0,2:0:0:0:
318,61,83904,5,10,2:1:0:0:
305,186,84124,5,2,2:0:0:0:
291,311,84345,5,2,2:0:0:0:
458,227,84492,6,0,P|398:259|349:254,1,106.666666666667,2|0,1:0|2:0,2:0:0:0:
237,135,84786,2,0,P|256:200|294:231,1,106.666666666667,10|2,2:3|2:0,2:0:0:0:
482,108,85080,2,0,P|404:113|352:171,1,160,8|10,2:1|2:3,2:0:0:0:
118,348,85570,5,0,2:0:0:0:
177,295,85668,2,0,P|194:256|144:178,1,119.999996337891,2|0,1:0|2:0,2:0:0:0:
32,147,85962,2,0,P|58:160|88:160,1,59.9999981689454,10|0,2:3|2:0,2:0:0:0:
207,55,86159,1,2,2:0:0:0:
151,111,86257,2,0,P|232:93|297:101,1,119.999996337891,8|2,2:1|2:0,2:0:0:0:
341,187,86551,2,0,P|279:158|294:107,1,119.999996337891,10|2,2:3|2:0,2:0:0:0:
459,115,86845,6,0,L|442:272,1,133.333333333333,2|2,1:0|2:0,2:0:0:0:
67,247,87139,2,0,L|53:115,1,133.333333333333,10|10,2:3|2:1,2:0:0:0:
477,103,87433,2,0,L|460:260,1,133.333333333333,10|2,2:1|2:0,2:0:0:0:
56,266,87727,2,0,L|41:133,1,133.333333333333,10|2,2:3|2:0,2:0:0:0:
256,0,88021,5,4,1:0:0:0:
353,321,88315,6,0,P|321:311|277:311,1,53.3333333333333,10|0,2:3|2:0,2:0:0:0:
146,352,88511,1,2,2:0:0:0:
210,308,88610,2,0,P|229:251|199:219,1,106.666666666667,8|2,2:1|2:0,2:0:0:0:
58,129,88904,2,0,P|97:173|140:163,1,106.666666666667,10|0,2:3|2:0,2:0:0:0:
61,50,89198,5,0,1:0:0:0:
498,113,89492,6,0,P|509:149|488:194,1,53.3333333333333,10|0,2:3|2:0,2:0:0:0:
440,276,89688,1,2,2:0:0:0:
382,226,89786,2,0,P|391:165|432:155,1,106.666666666667,8|2,2:1|2:0,2:0:0:0:
509,298,90080,2,0,P|451:278|394:273,1,106.666666666667,10|0,2:3|2:0,2:0:0:0:
342,315,90374,5,0,1:0:0:0:
212,30,90668,6,0,P|207:56|211:82,1,53.3333333333333,10|0,2:3|2:0,2:0:0:0:
319,150,90864,1,2,2:0:0:0:
386,110,90962,2,0,P|316:107|277:129,1,106.666666666667,8|2,2:1|2:0,2:0:0:0:
200,258,91257,2,0,P|224:207|210:155,1,106.666666666667,10|2,2:3|2:0,2:0:0:0:
33,216,91551,6,0,L|143:203,1,106.666666666667,2|0,1:0|2:0,2:0:0:0:
214,267,91845,1,10,2:3:0:0:
294,283,91943,1,0,2:0:0:0:
379,301,92041,1,0,2:0:0:0:
450,258,92139,2,0,L|441:139,1,106.666666666667,10|0,2:1|2:0,2:0:0:0:
358,90,92433,2,0,L|367:197,1,106.666666666667,10|0,2:3|2:0,2:0:0:0:
467,78,92727,6,0,L|354:65,1,106.666666666667,2|0,1:0|2:0,2:0:0:0:
249,129,93021,2,0,L|314:124,1,53.3333333333333,10|2,2:3|2:0,2:0:0:0:
484,164,93315,6,0,L|371:151,1,106.666666666667,10|0,2:1|2:0,2:0:0:0:
324,257,93610,2,0,L|319:196,1,53.3333333333333,10|0,2:3|2:0,2:0:0:0:
307,14,93904,6,0,P|290:34|266:43,1,39.9999987792969,0|0,1:0|2:0,2:0:0:0:
153,40,94198,6,0,P|204:56|224:81,1,53.3333333333333,10|0,2:3|2:0,2:0:0:0:
124,204,94394,1,2,2:0:0:0:
49,150,94492,2,0,P|106:121|161:120,1,106.666666666667,10|2,2:1|2:0,2:0:0:0:
270,239,94786,2,0,P|214:220|208:175,1,106.666666666667,10|2,2:3|2:0,2:0:0:0:
393,34,95080,6,0,B|376:146|376:146|428:208|428:208|407:341,2,320,6|8|0,1:0|2:1|1:0,2:0:0:0:
496,312,96747,5,8,2:1:0:0:
343,234,96845,1,8,2:1:0:0:
330,244,97139,1,8,2:1:0:0:
319,253,97433,5,4,1:0:0:0:
256,192,97531,12,0,99688,2:0:0:0:
369,89,99786,6,0,B|415:144|415:144|270:124,1,213.333333333333,6|0,1:0|2:0,2:0:0:0:
167,86,100276,6,0,B|108:44|108:44|253:26,1,209.999993591309,2|0,1:0|2:0,2:0:0:0:
381,105,100668,6,0,B|427:160|427:160|282:140,1,209.999993591309,2|0,1:0|2:0,2:0:0:0:
289,141,101257,6,0,P|266:153|252:173,1,50,2|0,2:0|2:0,2:0:0:0:
256,293,101404,2,0,P|237:276|228:253,1,50,2|0,2:0|2:0,2:0:0:0:
67,229,101551,2,0,P|125:193|181:196,1,119.999996337891,2|0,2:0|2:0,2:0:0:0:
412,313,102139,6,0,L|423:194,1,119.999996337891,6|8,1:0|2:0,2:0:0:0:
243,340,102727,2,0,L|254:221,1,119.999996337891,2|8,2:0|2:0,2:0:0:0:
337,231,103315,2,0,L|348:112,1,119.999996337891,2|8,2:0|2:0,2:0:0:0:
160,296,103806,5,0,2:0:0:0:
162,274,103904,1,2,2:0:0:0:
327,348,104100,1,0,2:0:0:0:
329,326,104198,1,8,2:0:0:0:
60,191,104492,6,0,L|196:182,1,119.999996337891,2|8,2:0|2:0,2:0:0:0:
142,102,105080,2,0,L|278:93,1,119.999996337891,2|8,2:0|2:0,2:0:0:0:
101,268,105668,2,0,L|237:259,1,119.999996337891,2|8,2:0|2:0,2:0:0:0:
280,92,106159,5,0,2:0:0:0:
261,94,106257,1,2,2:0:0:0:
220,260,106551,2,0,L|311:253,1,79.9999975585938,8|0,2:0|2:0,2:0:0:0:
380,70,106845,6,0,L|363:203,1,119.999996337891,2|8,2:0|2:0,2:0:0:0:
457,164,107433,2,0,L|440:297,1,119.999996337891,2|8,2:0|2:0,2:0:0:0:
294,235,108021,2,0,L|277:368,1,119.999996337891,2|8,2:0|2:0,2:0:0:0:
451,203,108610,2,0,L|441:283,1,79.9999975585938,2|0,2:0|2:0,2:0:0:0:
270,152,108904,5,8,2:0:0:0:
270,152,109198,2,0,L|398:143,1,119.999996337891,2|8,2:0|2:0,2:0:0:0:
203,73,109786,2,0,L|331:64,1,119.999996337891,2|8,2:0|2:0,2:0:0:0:
169,241,110374,2,0,L|297:232,1,119.999996337891,2|8,2:0|2:0,2:0:0:0:
419,14,110962,6,0,B|467:116|377:188|352:140|264:248|328:368,1,400,4|4,1:0|1:0,2:0:0:0:
95,71,111845,6,0,P|113:64|132:58,1,39.9999987792969,10|0,2:0|2:0,2:0:0:0:
229,157,112041,1,2,2:0:0:0:
225,47,112139,2,0,P|205:88|204:107,1,39.9999987792969,10|0,2:1|2:0,2:0:0:0:
236,181,112335,2,0,P|193:164|152:167,1,79.9999975585938,2|0,2:0|2:0,2:0:0:0:
61,259,112629,1,2,2:0:0:0:
76,250,112727,2,0,P|91:226|58:240,1,79.9999975585938,0|2,1:0|2:0,2:0:0:0:
147,297,113021,6,0,L|241:286,1,79.9999975585938,10|2,2:0|2:0,2:0:0:0:
248,367,113315,2,0,L|255:309,1,39.9999987792969,10|0,2:1|2:0,2:0:0:0:
331,375,113511,1,2,2:0:0:0:
331,375,113610,2,0,L|339:289,1,79.9999975585938,10|0,2:0|2:0,2:0:0:0:
360,101,113904,5,2,1:0:0:0:
450,272,114100,1,0,2:0:0:0:
471,268,114198,1,10,2:0:0:0:
322,165,114394,1,0,2:0:0:0:
270,221,114492,2,0,B|188:222|220:161|126:152,1,160,10|8,2:1|2:0,2:0:0:0:
106,175,114884,2,0,L|114:231,1,39.9999987792969,0|0,2:0|2:0,2:0:0:0:
208,68,115080,2,0,L|188:181,1,79.9999975585938,0|2,1:0|2:0,2:0:0:0:
65,43,115374,6,0,P|103:87|141:87,1,79.9999975585938,10|2,2:0|2:0,2:0:0:0:
282,53,115668,2,0,P|224:56|198:77,1,79.9999975585938,10|0,2:1|2:0,2:0:0:0:
270,169,115962,2,0,P|259:133|262:117,1,39.9999987792969,10|0,2:0|2:0,2:0:0:0:
442,135,116159,1,0,2:0:0:0:
452,154,116257,2,0,P|399:127|340:132,1,119.999996337891,2|10,1:0|2:0,2:0:0:0:
300,265,116747,5,2,2:0:0:0:
450,256,116845,1,8,2:1:0:0:
287,280,117139,5,8,2:0:0:0:
462,269,117335,1,0,2:0:0:0:
264,193,117629,5,0,2:0:0:0:
352,221,117727,1,8,2:0:0:0:
129,277,117923,5,0,2:0:0:0:
204,257,118021,2,0,P|158:224|119:232,1,79.9999975585938,8|0,2:1|2:0,2:0:0:0:
114,204,118315,2,0,P|89:213|69:232,1,53.3333333333333,10|0,2:0|2:0,2:0:0:0:
7,77,118610,6,0,P|47:127|79:132,1,79.9999975585938,6|0,1:0|2:0,2:0:0:0:
156,55,118904,2,0,P|130:80|125:95,1,39.9999987792969,10|0,2:0|2:0,2:0:0:0:
238,199,119100,1,2,2:0:0:0:
220,197,119198,2,0,P|202:155|205:116,1,79.9999975585938,8|0,2:1|2:0,2:0:0:0:
245,57,119492,2,0,P|264:44|285:41,1,39.9999987792969,10|0,2:0|2:0,2:0:0:0:
371,182,119688,5,0,2:0:0:0:
366,165,119786,2,0,P|319:143|285:143,1,79.9999975585938,2|0,1:0|2:0,2:0:0:0:
366,165,120080,2,0,P|361:113|344:83,1,79.9999975585938,10|2,2:0|2:0,2:0:0:0:
366,165,120374,2,0,P|408:135|425:105,1,66.6666666666667,8|0,2:1|2:0,2:0:0:0:
503,286,120668,6,0,P|440:238|377:249,1,133.333333333333,8|0,2:0|2:0,2:0:0:0:
256,352,120962,5,6,1:0:0:0:
123,263,121159,5,2,2:0:0:0:
102,188,121257,1,2,2:3:0:0:
266,117,121453,5,2,2:0:0:0:
289,41,121551,2,0,L|192:51,1,93.3333304850261,10|0,2:1|2:0,2:0:0:0:
172,27,121845,1,2,2:3:0:0:
318,193,122015,5,2,2:0:0:0:
406,168,122113,1,2,1:0:0:0:
300,358,122309,2,0,L|317:210,1,139.999995727539,2|2,2:0|2:0,2:0:0:0:
331,83,122701,1,8,2:1:0:0:
109,256,122897,5,2,2:0:0:0:
124,242,122995,2,0,P|173:225|219:230,1,93.3333304850261,0|2,2:0|2:0,2:0:0:0:
300,358,123289,5,2,1:0:0:0:
392,199,123485,1,2,2:0:0:0:
315,218,123610,2,0,P|293:170|295:130,1,93.3333304850261,2|0,2:3|2:0,2:0:0:0:
438,71,123904,2,0,P|416:118|375:114,1,93.3333304850261,10|0,2:1|2:0,2:0:0:0:
244,32,124198,5,2,2:3:0:0:
273,22,124296,1,0,2:0:0:0:
327,63,124367,1,2,2:0:0:0:
294,130,124492,1,0,1:0:0:0:
125,179,124688,5,0,2:0:0:0:
75,92,124786,2,0,P|77:138|102:176,1,93.3333304850261,2|0,2:3|2:0,2:0:0:0:
217,151,125080,1,8,2:1:0:0:
146,260,125276,5,0,2:0:0:0:
45,259,125374,2,0,P|86:279|132:277,1,93.3333304850261,2|0,2:3|2:0,2:0:0:0:
257,230,125668,6,0,P|232:264|229:284,1,46.6666652425131,2|0,1:0|2:0,2:0:0:0:
345,372,125864,2,0,P|315:329|313:282,1,93.3333304850261,2|0,2:0|2:0,2:0:0:0:
451,237,126158,1,2,2:0:0:0:
423,312,126256,2,0,P|395:304|433:289,1,93.3333304850261,8|2,2:1|2:0,2:0:0:0:
323,199,126550,2,0,P|343:178|337:219,1,93.3333304850261,0|2,2:0|2:0,2:0:0:0:
459,182,126844,2,0,P|462:196|446:183,1,46.6666652425131,0|0,1:0|2:0,2:0:0:0:
407,115,127040,1,2,2:0:0:0:
407,115,127138,2,0,P|393:110|411:103,1,46.6666652425131,0|0,2:0|2:0,2:0:0:0:
265,40,127334,1,2,2:0:0:0:
282,114,127432,2,0,P|308:106|272:92,1,93.3333304850261,10|0,2:1|2:0,2:0:0:0:
212,188,127726,2,0,P|226:221|234:187,1,93.3333304850261,2|0,2:3|2:0,2:0:0:0:
83,46,128020,6,0,P|116:102|121:184,1,139.999995727539,2|2,1:0|2:3,2:0:0:0:
265,304,128511,1,0,2:0:0:0:
254,288,128609,2,0,P|205:262|154:258,1,93.3333304850261,10|0,2:1|2:0,2:0:0:0:
144,276,128903,2,0,P|116:284|95:301,1,53.3333333333333,2|0,2:3|2:0,2:0:0:0:
310,365,129197,6,0,P|288:293|320:209,1,139.999995727539,2|2,1:0|2:3,2:0:0:0:
451,123,129687,1,0,2:0:0:0:
440,139,129785,2,0,P|391:165|340:169,1,93.3333304850261,10|0,2:1|2:0,2:0:0:0:
326,145,130079,2,0,P|295:128|283:105,1,46.6666652425131,2|0,2:3|2:0,2:0:0:0:
121,45,130275,5,0,2:0:0:0:
129,122,130373,1,6,1:0:0:0:
129,122,132040,5,8,2:1:0:0:
136,199,132138,1,8,2:1:0:0:
300,292,132334,5,0,2:0:0:0:
288,277,132432,2,0,B|239:248|190:264|190:264|220:274|243:254,1,133.333333333333,2|2,2:3|1:0,2:0:0:0:
360,234,132726,5,14,2:1:0:0:
360,234,133020,1,0,2:0:0:0:
252,107,133217,2,0,P|282:155|290:200,1,93.3333304850261,0|0,2:0|2:0,2:0:0:0:
367,149,133511,1,8,2:1:0:0:
455,94,133609,2,0,P|410:135|371:124,1,93.3333304850261,8|2,1:3|2:0,2:0:0:0:
274,33,133903,6,0,P|287:17|289:28,1,46.6666652425131,2|0,2:0|2:0,2:0:0:0:
183,106,134099,2,0,P|166:53|199:77,1,139.999995727539,10|2,2:1|1:0,2:0:0:0:
278,216,134491,2,0,P|258:165|268:122,1,93.3333304850261,8|2,2:1|2:0,2:0:0:0:
440,298,134785,5,10,2:3:0:0:
355,290,134883,1,0,2:0:0:0:
298,347,134981,1,2,2:0:0:0:
278,361,135079,6,0,B|228:356|243:334|188:327,1,93.3333304850261,4|0,1:0|2:0,2:0:0:0:
80,336,135373,2,0,P|120:295|123:254,1,93.3333304850261,10|2,2:3|2:0,2:0:0:0:
86,191,135668,2,0,P|47:179|29:183,1,46.6666652425131,10|0,2:1|2:0,2:0:0:0:
179,140,135864,1,2,2:0:0:0:
159,144,135962,2,0,P|182:142|244:95,1,93.3333304850261,10|2,2:3|2:0,2:0:0:0:
46,30,136256,6,0,P|81:79|85:127,1,93.3333304850261,2|0,1:0|2:0,2:0:0:0:
0,218,136550,2,0,P|69:189|110:200,1,93.3333304850261,10|0,2:3|2:0,2:0:0:0:
203,296,136844,2,0,P|147:282|136:249,1,93.3333304850261,10|0,2:1|2:0,2:0:0:0:
253,175,137138,1,10,2:3:0:0:
236,180,137236,2,0,P|210:214|208:224,1,46.6666652425131,0|2,2:0|2:0,2:0:0:0:
330,316,137432,6,0,P|294:280|287:235,1,93.3333304850261,0|2,1:0|2:0,2:0:0:0:
323,103,137726,1,10,2:3:0:0:
448,259,137922,5,2,2:0:0:0:
372,241,138020,1,10,2:1:0:0:
231,137,138217,5,2,2:0:0:0:
301,111,138315,1,10,2:3:0:0:
213,268,138511,5,2,2:0:0:0:
135,253,138609,1,2,1:0:0:0:
49,90,138805,5,0,2:0:0:0:
125,66,138903,2,0,P|141:125|78:160,1,119.999996337891,10|2,2:3|2:0,2:0:0:0:
0,224,139197,2,0,P|46:177|128:206,1,119.999996337891,10|2,2:1|2:0,2:0:0:0:
149,336,139491,2,0,P|151:257|172:217,1,119.999996337891,10|0,2:3|2:0,2:0:0:0:
236,175,139785,6,0,B|318:189|273:226|363:237,1,133.333333333333,6|0,1:0|2:0,2:0:0:0:
376,217,140079,1,10,2:3:0:0:
218,96,140275,6,0,B|136:110|181:147|91:158,1,133.333333333333,6|0,1:0|2:0,2:0:0:0:
78,138,140569,1,10,2:3:0:0:
100,47,140668,6,0,B|301:58|168:195|381:217,1,345.000006580353,14|8,1:3|2:1,2:0:0:0:
142,143,141844,1,10,2:1:0:0:
345,92,142040,1,8,2:1:0:0:
339,114,142138,1,10,2:3:0:0:
173,313,142432,6,0,P|168:259|140:217,1,93.3333304850261,2|0,2:0|2:0,2:0:0:0:
288,343,142726,6,0,P|301:266|320:230,1,106.666666666667,2|0,2:0|2:0,2:0:0:0:
150,330,143020,6,0,P|135:247|105:206,1,119.999996337891,2|0,2:0|2:0,2:0:0:0:
309,361,143315,6,0,P|329:273|391:179,1,200,2|2,2:0|2:0,2:0:0:0:
510,64,143707,5,2,2:0:0:0:
453,126,143805,1,2,2:0:0:0:
383,77,143903,2,0,B|310:95|329:36|244:50,1,139.999995727539,2|2,2:0|2:0,2:0:0:0:
141,239,144393,5,0,2:0:0:0:
61,223,144491,2,0,P|152:191|169:195,1,106.666666666667,4|0,1:0|2:0,2:0:0:0:
169,215,144785,2,0,P|203:232|212:243,1,53.3333333333333,10|0,2:3|2:0,2:0:0:0:
276,349,145079,2,0,L|283:286,1,53.3333333333333,10|0,2:1|2:0,2:0:0:0:
425,206,145275,2,0,B|388:248|388:248|336:232,1,106.666666666667,2|0,2:0|2:0,2:0:0:0:
259,106,145569,5,2,2:0:0:0:
273,183,145668,1,0,1:0:0:0:
456,52,145864,5,0,2:0:0:0:
445,129,145962,2,0,L|327:115,1,106.666666666667,10|0,2:3|2:0,2:0:0:0:
142,23,146256,5,10,2:1:0:0:
150,148,146477,5,2,2:0:0:0:
157,277,146697,5,2,2:0:0:0:
333,119,146844,6,0,B|291:112|260:121|232:146|218:182|247:199|266:171|266:144,1,160,2|10,1:0|2:3,2:0:0:0:
423,123,147334,1,2,2:0:0:0:
379,191,147432,2,0,P|369:274|398:308,1,106.666666666667,8|0,2:1|2:0,2:0:0:0:
486,313,147726,2,0,P|454:272|394:290,1,106.666666666667,10|0,2:3|2:0,2:0:0:0:
340,345,148020,6,0,B|248:349|282:290|182:295,1,160,2|10,1:0|2:3,2:0:0:0:
86,359,148413,2,0,P|108:338|113:311,1,53.3333333333333,0|2,2:0|2:0,2:0:0:0:
10,201,148609,2,0,P|52:232|104:235,1,106.666666666667,10|0,2:1|2:0,2:0:0:0:
184,125,148903,1,10,2:3:0:0:
114,155,149001,1,0,2:0:0:0:
176,200,149099,1,0,2:0:0:0:
255,170,149197,6,0,B|300:176|320:219|296:229|329:264|374:264,1,160,2|10,1:0|2:3,2:0:0:0:
472,190,149589,2,0,P|431:199|409:218,1,53.3333333333333,0|0,2:0|2:0,2:0:0:0:
294,332,149785,5,10,2:1:0:0:
277,179,150006,5,2,2:0:0:0:
260,40,150227,5,2,2:0:0:0:
104,168,150373,6,0,P|156:163|196:112,1,106.666666666667,2|0,1:0|2:0,2:0:0:0:
128,38,150668,2,0,P|116:76|130:101,1,53.3333333333333,10|2,2:3|2:0,2:0:0:0:
321,197,150962,2,0,B|238:180|289:123|201:103,1,160,8|10,2:1|2:3,2:0:0:0:
106,341,151452,5,0,2:0:0:0:
152,279,151550,2,0,P|219:263|276:266,1,119.999996337891,2|0,1:0|2:0,2:0:0:0:
324,323,151844,2,0,P|288:306|277:285,1,59.9999981689454,10|0,2:3|2:0,2:0:0:0:
363,153,152040,1,2,2:0:0:0:
431,188,152138,2,0,P|398:245|351:234,1,119.999996337891,8|2,2:1|2:0,2:0:0:0:
256,64,152432,2,0,P|284:130|285:194,1,119.999996337891,10|2,2:3|2:0,2:0:0:0:
59,161,152726,6,0,B|95:126|95:126|205:148,1,133.333333333333,2|2,1:0|2:0,2:0:0:0:
424,262,153020,2,0,B|388:297|388:297|278:275,1,133.333333333333,10|10,2:3|2:1,2:0:0:0:
47,149,153315,2,0,B|83:114|83:114|193:136,1,133.333333333333,10|2,2:1|2:0,2:0:0:0:
434,278,153609,2,0,B|398:313|398:313|288:291,1,133.333333333333,10|2,2:3|2:0,2:0:0:0:
256,64,153903,5,4,1:0:0:0:
144,324,154197,6,0,P|132:294|133:259,1,53.3333333333333,10|0,2:3|2:0,2:0:0:0:
276,214,154393,1,2,2:0:0:0:
316,296,154491,2,0,P|239:290|203:275,1,106.666666666667,8|2,2:1|2:0,2:0:0:0:
122,150,154785,2,0,P|184:184|167:225,1,106.666666666667,10|0,2:3|2:0,2:0:0:0:
55,197,155079,5,0,1:0:0:0:
358,47,155373,6,0,L|365:108,1,53.3333333333333,10|0,2:3|2:0,2:0:0:0:
441,198,155569,1,2,2:0:0:0:
493,128,155668,2,0,L|380:113,1,106.666666666667,8|2,2:1|2:0,2:0:0:0:
267,208,155962,2,0,B|317:230|317:230|355:188,1,106.666666666667,10|0,2:3|2:0,2:0:0:0:
402,115,156256,5,0,1:0:0:0:
46,66,156550,6,0,P|82:54|107:52,1,53.3333333333333,10|0,2:3|2:0,2:0:0:0:
117,168,156746,1,2,2:0:0:0:
201,154,156844,2,0,P|135:133|84:135,1,106.666666666667,8|2,2:1|2:0,2:0:0:0:
222,145,157138,2,0,P|258:99|238:52,1,106.666666666667,10|2,2:3|2:0,2:0:0:0:
183,250,157432,6,0,P|249:229|300:231,1,106.666666666667,2|0,1:0|2:0,2:0:0:0:
410,310,157726,1,10,2:3:0:0:
356,367,157824,1,0,2:0:0:0:
332,292,157922,1,0,2:0:0:0:
427,302,158020,2,0,B|462:285|462:285|456:211,1,106.666666666667,10|0,2:1|2:0,2:0:0:0:
395,136,158315,2,0,B|360:153|360:153|366:227,1,106.666666666667,10|0,2:3|2:0,2:0:0:0:
473,104,158609,6,0,L|349:92,1,106.666666666667,2|0,1:0|2:0,2:0:0:0:
290,53,158903,2,0,L|285:116,1,53.3333333333333,10|2,2:3|2:0,2:0:0:0:
103,184,159197,6,0,L|227:170,1,106.666666666667,10|0,2:1|2:0,2:0:0:0:
285,130,159491,2,0,L|291:193,1,53.3333333333333,10|0,2:3|2:0,2:0:0:0:
232,288,159785,6,0,L|238:244,1,39.9999987792969,0|0,1:0|2:0,2:0:0:0:
364,285,160079,6,0,P|313:263|299:263,1,53.3333333333333,10|0,2:3|2:0,2:0:0:0:
429,336,160275,1,2,2:0:0:0:
444,257,160373,2,0,P|439:190|417:146,1,106.666666666667,10|2,2:1|2:0,2:0:0:0:
310,161,160668,2,0,P|328:185|363:181,1,53.3333333333333,10|0,2:3|2:0,2:0:0:0:
281,46,160864,5,2,2:0:0:0:
236,118,160962,2,0,B|170:149|95:105|143:65|65:26|-3:49|-3:49|24:53|44:69,2,320,6|8|0,1:0|2:1|1:0,2:0:0:0:
195,40,162628,5,8,2:1:0:0:
212,207,162726,1,8,2:1:0:0:
214,225,163020,1,8,2:1:0:0:
216,243,163315,5,4,1:0:0:0:
100,161,170373,6,0,P|182:144|213:95,1,133.333333333333,2|0,1:0|2:0,2:0:0:0:
195,24,170668,2,0,P|178:55|183:86,1,53.3333333333333,2|0,2:3|2:0,2:0:0:0:
240,304,170962,6,0,P|267:224|239:173,1,133.333333333333,10|0,2:1|2:0,2:0:0:0:
168,153,171257,2,0,P|186:183|215:194,1,53.3333333333333,2|0,2:3|2:0,2:0:0:0:
435,253,171550,6,0,P|379:189|321:188,1,133.333333333333,2|0,1:0|2:0,2:0:0:0:
268,239,171845,1,10,2:1:0:0:
344,206,171943,1,8,2:1:0:0:
336,123,172041,1,8,2:1:0:0:
255,106,172139,1,8,2:1:0:0:
255,106,172432,5,8,2:1:0:0:
271,258,172628,1,8,2:1:0:0:
380,88,173020,6,0,P|342:85|330:71,1,53.3333333333333,0|0,1:0|2:0,2:0:0:0:
271,30,173266,5,0,2:0:0:0:
271,30,173315,2,0,P|183:37|142:121,1,179.999994506836,14|2,2:1|2:3,2:0:0:0:
178,223,173707,2,0,P|196:192|198:167,1,59.9999981689454,0|0,2:0|2:0,2:0:0:0:
351,252,173903,6,0,B|261:242|302:180|194:168,1,179.999994506836,2|2,1:0|2:3,2:0:0:0:
48,346,174393,6,0,B|138:336|97:274|205:262,1,179.999994506836,2|0,1:0|2:0,2:0:0:0:
348,325,174785,6,0,P|288:288|422:235,1,320,2|2,2:3|2:3,2:0:0:0:
464,46,175569,5,0,2:0:0:0:
497,120,175668,2,0,P|428:119|396:93,1,106.666666666667,10|2,2:1|2:0,2:0:0:0:
290,95,175962,2,0,P|334:67|386:72,1,106.666666666667,2|2,2:3|2:0,2:0:0:0:
496,202,176256,5,0,1:0:0:0:
351,252,176452,1,2,2:0:0:0:
348,226,176550,1,2,1:3:0:0:
491,295,176746,1,0,2:0:0:0:
456,359,176844,2,0,L|347:346,1,106.666666666667,10|0,2:1|2:0,2:0:0:0:
322,360,177138,2,0,L|213:347,1,106.666666666667,2|0,2:3|2:0,2:0:0:0:
141,335,177432,5,6,1:0:0:0:
133,259,177628,1,2,2:0:0:0:
126,181,177922,1,2,1:0:0:0:
195,213,178020,2,0,P|247:214|290:174,1,106.666666666667,8|0,2:1|2:0,2:0:0:0:
253,42,178266,1,2,2:0:0:0:
253,42,178315,2,0,P|221:97|221:149,1,106.666666666667,2|0,2:3|2:0,2:0:0:0:
451,164,178609,6,0,B|354:166|396:109|301:104,1,160,2|2,1:0|2:3,2:0:0:0:
133,259,179099,6,0,B|230:261|188:204|283:199,1,160,2|0,1:0|2:0,2:0:0:0:
423,304,179491,6,0,P|378:247|407:57,1,266.666666666667,2|0,2:3|2:0,2:0:0:0:
430,70,180079,2,0,P|395:89|375:90,1,53.3333333333333,2|0,1:3|2:0,2:0:0:0:
232,9,180373,6,0,P|249:31|267:128,1,93.3333304850261,8|0,2:1|2:0,2:0:0:0:
134,73,180668,2,0,P|166:74|187:85,1,53.3333333333333,2|0,2:3|2:0,2:0:0:0:
132,197,180962,6,0,P|154:179|251:161,1,93.3333304850261,0|0,1:0|2:0,2:0:0:0:
199,295,181256,2,0,P|201:263|212:242,1,53.3333333333333,2|8,1:3|2:1,2:0:0:0:
376,248,181452,5,8,2:1:0:0:
328,319,181550,2,0,P|296:271|293:230,1,93.3333304850261,8|0,2:1|2:0,2:0:0:0:
367,142,181844,1,8,2:1:0:0:
44,257,182138,6,0,P|70:283|118:279,1,80,4|2,1:0|2:3,2:0:0:0:
188,86,182628,5,0,2:0:0:0:
172,78,182726,2,0,B|138:62|138:62|87:80|70:142|95:200,1,200,10|2,2:1|2:3,2:0:0:0:
206,308,183217,5,0,2:0:0:0:
272,254,183315,2,0,P|216:227|166:234,1,106.666666666667,2|0,1:0|2:0,2:0:0:0:
203,325,183609,1,2,2:3:0:0:
359,277,183805,1,2,2:0:0:0:
361,258,183903,2,0,P|343:191|313:166,1,106.666666666667,8|0,2:1|2:0,2:0:0:0:
193,119,184197,6,0,P|294:152|367:31,1,266.666666666667,6|0,2:3|2:0,2:0:0:0:
269,59,184785,6,0,P|314:95|366:95,1,106.666666666667,2|0,2:3|2:0,2:0:0:0:
498,92,185079,2,0,P|446:119|420:166,1,106.666666666667,10|0,2:1|2:0,2:0:0:0:
442,185,185373,2,0,P|451:225|465:241,1,53.3333333333333,2|0,2:3|2:0,2:0:0:0:
336,346,185569,1,2,2:0:0:0:
304,267,185668,2,0,P|379:273|414:303,1,106.666666666667,0|0,1:0|2:0,2:0:0:0:
246,341,185962,2,0,P|213:273|222:227,1,106.666666666667,2|0,2:3|2:0,2:0:0:0:
326,159,186256,2,0,P|299:183|279:187,1,53.3333333333333,10|0,2:1|2:0,2:0:0:0:
112,125,186452,2,0,P|182:133|212:169,1,106.666666666667,0|0,2:0|2:0,2:0:0:0:
141,332,186746,5,0,2:0:0:0:
72,295,186844,2,0,B|158:301|124:236|221:244,1,160,4|2,1:0|2:3,2:0:0:0:
396,330,187334,1,0,2:0:0:0:
399,310,187432,2,0,L|410:235,1,53.3333333333333,10|0,2:1|2:0,2:0:0:0:
303,164,187628,2,0,L|319:277,1,106.666666666667,2|0,2:0|2:0,2:0:0:0:
384,182,187922,5,2,2:0:0:0:
365,109,188020,2,0,P|320:79|249:102,1,106.666666666667,0|0,1:0|2:0,2:0:0:0:
135,202,188315,2,0,P|189:195|221:138,1,106.666666666667,2|0,2:3|2:0,2:0:0:0:
110,28,188609,2,0,P|139:80|144:131,1,106.666666666667,10|0,2:1|2:0,2:0:0:0:
65,221,188903,2,0,P|96:201|126:204,1,53.3333333333333,2|0,2:3|2:0,2:0:0:0:
261,257,189099,5,2,2:0:0:0:
217,336,189197,2,0,B|303:374|383:292|331:263|417:194|495:241,2,320,4|8|0,1:0|2:1|1:0,2:0:0:0:
293,131,190864,5,8,2:1:0:0:
261,257,190962,2,0,L|254:211,1,40,10|8,2:1|2:1,2:0:0:0:
474,129,191550,6,0,P|390:118|292:112,1,166.666666666667,4|0,1:0|2:0,2:0:0:0:
170,36,192138,2,0,P|190:64|214:95,1,66.6666666666667,2|0,2:0|2:0,2:0:0:0:
235,82,192432,1,8,2:0:0:0:
110,200,192628,1,0,2:0:0:0:
127,183,192726,2,0,P|127:147|121:106,1,66.6666666666667,2|0,2:0|2:0,2:0:0:0:
197,237,193020,2,0,P|229:250|271:275,1,66.6666666666667,8|0,2:0|2:0,2:0:0:0:
186,326,193315,2,0,P|133:317|67:315,1,100,2|8,2:0|2:0,2:0:0:0:
275,189,193805,1,0,2:0:0:0:
299,193,193903,2,0,P|384:165|459:148,1,166.666666666667,2|0,2:0|2:0,2:0:0:0:
483,279,194491,2,0,P|455:265|417:252,1,66.6666666666667,2|0,2:0|2:0,2:0:0:0:
402,271,194785,1,8,2:0:0:0:
342,85,194981,1,0,2:0:0:0:
376,109,195079,2,0,P|367:150|361:194,1,66.6666666666667,2|0,2:0|2:0,2:0:0:0:
251,119,195373,2,0,P|248:84|242:42,1,66.6666666666667,8|0,2:0|2:0,2:0:0:0:
130,177,195668,2,0,P|183:189|245:211,1,100,2|8,2:0|2:0,2:0:0:0:
209,353,196158,1,0,2:0:0:0:
273,311,196256,2,0,P|262:229|257:140,1,166.666666666667,2|0,2:0|2:0,2:0:0:0:
444,113,196844,2,0,P|397:128|340:154,1,100,2|8,2:0|2:0,2:0:0:0:
179,75,197334,1,0,2:0:0:0:
202,55,197432,2,0,P|240:52|286:46,1,66.6666666666667,2|0,2:0|2:0,2:0:0:0:
168,192,197726,2,0,P|135:151|92:106,1,100,8|2,2:0|2:0,2:0:0:0:
78,261,198315,1,8,2:0:0:0:
309,172,198511,1,0,2:0:0:0:
253,228,198609,2,0,P|362:212|459:207,1,199.999993896485,2|0,2:0|2:0,2:0:0:0:
324,331,199197,2,0,P|360:312|407:298,1,79.9999975585938,2|0,2:0|2:0,2:0:0:0:
417,314,199491,1,8,2:0:0:0:
245,314,199687,1,0,2:0:0:0:
180,338,199785,1,2,2:0:0:0:
225,171,199981,1,0,2:0:0:0:
218,212,200079,1,8,2:0:0:0:
62,185,200373,2,0,P|106:178|168:174,1,79.9999975585938,2|0,2:0|2:0,2:0:0:0:
286,69,200668,2,0,P|255:113|228:168,1,79.9999975585938,8|0,2:0|2:0,2:0:0:0:
237,229,200962,6,0,B|321:220|288:185|365:174,1,139.999995727539,4|10,1:0|2:3,2:0:0:0:
453,291,201452,1,0,2:0:0:0:
439,304,201550,2,0,P|387:296|365:256,1,93.3333304850261,8|0,2:1|2:0,2:0:0:0:
462,116,201844,2,0,L|448:231,1,93.3333304850261,10|0,2:3|2:0,2:0:0:0:
260,133,202138,6,0,P|346:134|362:177,1,139.999995727539,0|10,1:0|2:3,2:0:0:0:
203,205,202628,1,0,2:0:0:0:
188,193,202726,2,0,P|167:136|177:94,1,93.3333304850261,8|0,2:1|2:0,2:0:0:0:
42,15,203020,2,0,P|81:53|91:96,1,93.3333304850261,10|0,2:3|2:0,2:0:0:0:
188,193,203315,6,0,B|146:159|146:159|42:189,1,139.999995727539,0|10,1:0|2:3,2:0:0:0:
183,281,203805,1,0,2:0:0:0:
203,278,203903,2,0,L|298:266,1,93.3333304850261,8|0,2:1|2:0,2:0:0:0:
285,93,204197,2,0,L|273:188,1,93.3333304850261,10|0,2:3|2:0,2:0:0:0:
442,225,204491,6,0,P|374:221|339:190,1,93.3333304850261,0|0,1:0|2:0,2:0:0:0:
371,188,204785,2,0,P|360:161|359:134,1,53.3333333333333,10|0,2:3|2:0,2:0:0:0:
479,29,205079,6,0,P|509:89|500:135,1,93.3333304850261,8|0,2:1|2:0,2:0:0:0:
482,108,205373,2,0,P|464:131|441:145,1,53.3333333333333,10|0,2:3|2:0,2:0:0:0:
358,137,205668,6,0,B|281:135|303:90|227:93,1,139.999995727539,0|10,1:0|2:3,2:0:0:0:
187,260,206158,1,0,2:0:0:0:
207,257,206256,2,0,P|237:218|237:169,1,93.3333304850261,8|0,2:1|2:0,2:0:0:0:
97,118,206550,2,0,P|115:163|158:187,1,93.3333304850261,10|0,2:3|2:0,2:0:0:0:
285,218,206844,6,0,P|234:228|198:276,1,93.3333304850261,0|0,1:0|2:0,2:0:0:0:
343,332,207138,1,10,2:3:0:0:
351,318,207236,2,0,P|352:286|341:256,1,46.6666652425131,0|0,2:0|2:0,2:0:0:0:
244,196,207432,2,0,P|270:213|302:219,1,46.6666652425131,8|0,2:1|2:0,2:0:0:0:
469,133,207628,2,0,P|416:130|361:198,1,139.999995727539,0|0,2:0|2:0,2:0:0:0:
361,191,208020,5,0,1:0:0:0:
364,194,209197,6,0,B|409:172|465:235|414:312|306:292|272:213,1,266.666666666667,6|0,1:0|2:0,2:0:0:0:
203,122,209638,2,0,B|156:89|185:0|289:6|330:123|272:200,1,291.666666666667,14|0,2:1|2:0,2:0:0:0:
133,251,210079,2,0,P|174:223|208:222,1,66.6666666666667,10|0,2:1|2:0,2:0:0:0:
291,349,210275,5,8,2:1:0:0:
217,378,210373,2,0,B|192:329|232:268|244:297|281:250|264:195,1,200,4|10,1:0|2:3,2:0:0:0:
338,280,210766,2,0,P|364:289|403:285,1,66.6666666666667,0|2,2:0|2:0,2:0:0:0:
424,125,210962,2,0,P|381:171|375:216,1,106.666666666667,8|2,2:1|2:0,2:0:0:0:
509,114,211256,2,0,P|447:99|405:117,1,106.666666666667,10|0,2:3|2:0,2:0:0:0:
232,82,211550,6,0,P|302:91|365:28,1,160,0|10,1:0|2:3,2:0:0:0:
180,20,211942,2,0,P|155:43|148:62,1,53.3333333333333,0|2,2:0|2:0,2:0:0:0:
196,221,212138,2,0,P|206:165|161:144,1,106.666666666667,8|2,2:1|2:0,2:0:0:0:
94,172,212432,2,0,P|84:228|129:249,1,106.666666666667,8|0,2:3|2:0,2:0:0:0:
328,314,212726,6,0,B|278:278|278:278|174:312,1,160,0|10,1:0|2:3,2:0:0:0:
408,364,213118,2,0,L|417:294,1,53.3333333333333,0|2,2:0|2:0,2:0:0:0:
356,135,213315,2,0,L|367:253,1,106.666666666667,8|2,2:1|2:0,2:0:0:0:
268,91,213609,2,0,L|279:209,1,106.666666666667,10|0,2:3|2:0,2:0:0:0:
449,72,213903,6,0,P|387:113|354:109,1,106.666666666667,0|0,1:0|2:0,2:0:0:0:
206,21,214197,1,10,2:3:0:0:
215,190,214393,1,2,2:0:0:0:
231,183,214491,2,0,P|266:139|265:84,1,106.666666666667,8|2,2:1|2:0,2:0:0:0:
139,214,214785,2,0,P|194:222|241:193,1,106.666666666667,10|0,2:3|2:0,2:0:0:0:
121,123,215079,6,0,P|58:163|59:262,1,160,0|10,1:0|2:3,2:0:0:0:
189,205,215471,2,0,P|158:203|134:218,1,53.3333333333333,0|2,2:0|2:0,2:0:0:0:
268,274,215668,2,0,P|333:235|383:236,1,106.666666666667,8|2,2:1|2:0,2:0:0:0:
230,343,215962,2,0,P|229:305|242:283,1,53.3333333333333,10|0,2:3|2:0,2:0:0:0:
325,145,216158,5,0,2:0:0:0:
411,177,216256,2,0,P|333:179|279:110,1,160,0|10,1:0|2:3,2:0:0:0:
277,43,216648,2,0,P|298:14|330:0,1,53.3333333333333,0|2,2:0|2:0,2:0:0:0:
211,84,216844,2,0,P|185:145|195:205,1,106.666666666667,8|2,2:1|2:0,2:0:0:0:
150,24,217138,2,0,P|88:49|52:99,1,106.666666666667,8|2,2:3|2:0,2:0:0:0:
27,249,217432,6,0,B|118:248|84:191|178:184,1,160,2|10,1:0|2:3,2:0:0:0:
277,300,217922,1,2,2:0:0:0:
266,314,218020,2,0,P|203:311|168:254,1,106.666666666667,10|0,2:1|2:0,2:0:0:0:
310,168,218315,2,0,P|338:224|307:282,1,106.666666666667,10|0,2:3|2:0,2:0:0:0:
239,105,218609,6,0,P|287:145|393:137,1,160,0|10,1:0|2:3,2:0:0:0:
372,43,219001,2,0,P|341:49|323:77,1,53.3333333333333,0|10,2:0|2:1,2:0:0:0:
458,178,219197,2,0,B|473:127|473:127|444:82,1,106.666666666667,10|0,2:1|2:0,2:0:0:0:
302,260,219491,2,0,B|286:209|286:209|315:164,1,106.666666666667,8|0,2:3|2:0,2:0:0:0:
484,333,219785,6,0,P|431:298|381:301,1,106.666666666667,6|0,1:0|2:0,2:0:0:0:
391,317,220079,2,0,P|424:305|436:288,1,53.3333333333333,10|0,2:3|2:0,2:0:0:0:
293,208,220373,2,0,L|303:265,1,53.3333333333333,10|0,2:1|2:0,2:0:0:0:
202,365,220569,2,0,L|212:258,1,106.666666666667,2|0,2:0|2:0,2:0:0:0:
317,130,220864,5,2,2:0:0:0:
236,148,220962,1,0,1:0:0:0:
86,60,221158,1,0,2:0:0:0:
164,71,221256,2,0,P|209:109|208:167,1,106.666666666667,10|0,2:3|2:0,2:0:0:0:
75,241,221550,5,10,2:1:0:0:
211,258,221770,5,2,2:0:0:0:
347,275,221991,5,2,2:0:0:0:
281,87,222138,6,0,P|244:127|348:161,1,213.333333333333,2|0,1:0|2:0,2:0:0:0:
225,29,222628,1,2,2:0:0:0:
210,37,222726,2,0,P|171:90|162:142,1,106.666666666667,8|0,2:1|2:0,2:0:0:0:
10,76,223020,2,0,P|36:136|76:170,1,106.666666666667,10|0,2:3|2:0,2:0:0:0:
276,271,223315,6,0,B|185:270|219:213|125:206,1,160,2|10,1:0|2:3,2:0:0:0:
101,295,223707,2,0,B|125:313|125:313|132:278,1,53.3333333333333,0|2,2:0|2:0,2:0:0:0:
288,187,223903,2,0,B|277:133|277:133|236:166,1,106.666666666667,10|0,2:1|2:0,2:0:0:0:
276,271,224197,2,0,B|332:271|332:271|359:220,1,106.666666666667,10|0,2:3|2:0,2:0:0:0:
408,66,224491,6,0,B|355:104|355:104|375:207,1,160,0|10,1:0|2:3,2:0:0:0:
439,322,224981,5,2,2:0:0:0:
462,247,225079,1,10,2:1:0:0:
289,330,225275,5,2,2:0:0:0:
358,293,225373,1,10,2:3:0:0:
152,241,225569,5,0,2:0:0:0:
232,265,225667,2,0,L|221:152,1,106.666666666667,2|0,1:0|2:0,2:0:0:0:
241,144,225962,2,0,L|237:84,1,53.3333333333333,10|0,2:3|2:0,2:0:0:0:
65,120,226158,1,2,2:0:0:0:
12,179,226256,2,0,P|48:199|80:195,1,53.3333333333333,10|0,2:1|2:0,2:0:0:0:
181,36,226452,2,0,P|78:82|63:131,1,160,2|2,2:0|2:0,2:0:0:0:
92,274,226844,5,4,1:0:0:0:
256,192,226942,12,0,228020,1:0:0:0:
92,274,228217,5,2,2:0:0:0:
170,262,228609,1,10,2:1:0:0:
248,250,228805,1,8,2:1:0:0:
326,238,228903,1,10,2:1:0:0:
404,226,229001,1,8,2:1:0:0:
482,214,229099,1,10,2:1:0:0:
431,149,229197,6,0,P|340:117|323:121,1,106.666666666667,4|0,1:0|2:0,2:0:0:0:
323,141,229491,2,0,P|289:158|280:169,1,53.3333333333333,10|0,2:3|2:0,2:0:0:0:
216,275,229785,2,0,L|209:212,1,53.3333333333333,10|0,2:1|2:0,2:0:0:0:
67,132,229981,2,0,B|104:174|104:174|156:158,1,106.666666666667,2|0,2:0|2:0,2:0:0:0:
219,16,230275,5,2,2:0:0:0:
205,95,230373,1,0,1:0:0:0:
330,220,230569,5,0,2:0:0:0:
323,141,230667,2,0,L|442:154,1,106.666666666667,10|0,2:3|2:0,2:0:0:0:
436,305,230962,5,10,2:1:0:0:
284,286,231182,5,2,2:0:0:0:
132,267,231403,5,2,2:0:0:0:
148,138,231550,6,0,B|190:142|217:158|238:190|242:228|210:237|199:205|206:179,1,160,2|10,1:0|2:3,2:0:0:0:
66,106,232040,1,2,2:0:0:0:
133,54,232138,2,0,P|198:32|246:43,1,106.666666666667,8|0,2:1|2:0,2:0:0:0:
309,119,232432,2,0,P|258:102|258:49,1,106.666666666667,10|0,2:3|2:0,2:0:0:0:
435,50,232726,6,0,B|385:79|385:79|403:191,1,160,2|10,1:0|2:3,2:0:0:0:
470,231,233118,2,0,L|461:295,1,53.3333333333333,0|2,2:0|2:0,2:0:0:0:
287,285,233315,2,0,B|332:252|332:252|389:261,1,106.666666666667,10|0,2:1|2:0,2:0:0:0:
318,365,233609,2,0,B|267:373|267:373|222:340,1,106.666666666667,10|2,2:3|2:0,2:0:0:0:
68,328,233903,6,0,B|162:311|113:277|215:254,1,160,0|10,1:0|2:3,2:0:0:0:
222,91,234393,1,2,2:0:0:0:
274,152,234491,2,0,L|267:219,1,53.3333333333333,10|0,2:1|2:0,2:0:0:0:
361,319,234687,2,0,L|350:208,1,106.666666666667,2|0,2:0|2:0,2:0:0:0:
385,100,234981,5,2,2:0:0:0:
373,114,235079,2,0,B|353:132|353:132|345:103,1,53.3333333333333,0|0,1:0|2:0,2:0:0:0:
483,268,235275,2,0,P|404:206|346:214,1,160,2|2,2:0|2:0,2:0:0:0:
231,329,235667,2,0,P|281:306|280:256,1,106.666666666667,10|0,2:1|2:0,2:0:0:0:
182,239,235962,2,0,P|226:270|269:244,1,106.666666666667,10|0,2:3|2:0,2:0:0:0:
192,147,236256,6,0,P|123:163|98:204,1,106.666666666667,2|0,1:0|2:0,2:0:0:0:
79,203,236501,1,2,2:0:0:0:
79,203,236550,2,0,P|73:238|84:261,1,53.3333333333333,10|0,2:3|2:0,2:0:0:0:
278,273,236746,2,0,P|234:243|168:242,1,106.666666666667,2|0,2:0|2:0,2:0:0:0:
302,357,237040,2,0,P|305:303|273:246,1,106.666666666667,2|0,2:0|2:0,2:0:0:0:
295,90,237334,5,2,2:0:0:0:
272,172,237432,2,0,B|372:179|338:121|423:121,1,160,0|10,1:0|2:3,2:0:0:0:
452,241,237824,2,0,P|425:225|416:200,1,53.3333333333333,0|10,2:0|2:1,2:0:0:0:
512,67,238020,2,0,L|502:179,1,106.666666666667,10|0,2:1|2:0,2:0:0:0:
417,121,238315,2,0,L|407:14,1,106.666666666667,10|2,2:3|2:0,2:0:0:0:
330,162,238609,6,0,P|252:155|208:86,1,160,6|10,1:0|2:3,2:0:0:0:
110,21,239001,2,0,P|128:45|133:73,1,53.3333333333333,0|0,2:0|2:0,2:0:0:0:
60,205,239197,2,0,P|95:160|147:146,1,106.666666666667,10|0,2:1|2:0,2:0:0:0:
147,282,239491,2,0,P|138:246|143:220,1,53.3333333333333,10|0,2:3|2:0,2:0:0:0:
235,227,239687,5,2,2:0:0:0:
231,250,239785,1,2,1:0:0:0:
327,312,239981,1,2,2:0:0:0:
325,290,240275,1,2,2:0:0:0:
412,254,240373,2,0,L|400:367,1,106.666666666667,8|2,2:1|2:0,2:0:0:0:
325,290,240667,2,0,L|313:177,1,106.666666666667,10|2,2:3|2:0,2:0:0:0:
505,85,240962,6,0,P|436:168|385:158,1,160,2|10,1:0|2:3,2:0:0:0:
310,61,241354,2,0,P|334:92|338:119,1,53.3333333333333,0|0,2:0|2:0,2:0:0:0:
161,140,241550,2,0,P|222:112|266:124,1,106.666666666667,10|0,2:1|2:0,2:0:0:0:
194,246,241844,2,0,P|206:213|223:191,1,53.3333333333333,10|0,2:3|2:0,2:0:0:0:
320,267,242040,5,2,2:0:0:0:
297,260,242138,1,2,1:0:0:0:
214,340,242334,1,2,2:0:0:0:
237,333,242628,1,2,2:0:0:0:
194,246,242726,2,0,L|83:236,1,106.666666666667,8|0,2:1|2:0,2:0:0:0:
26,186,243020,2,0,P|77:202|106:163,1,106.666666666667,10|2,2:3|2:0,2:0:0:0:
213,29,243315,6,0,P|177:96|182:142,1,106.666666666667,0|0,1:0|2:0,2:0:0:0:
203,139,243560,1,0,2:0:0:0:
203,139,243609,1,10,2:3:0:0:
358,89,243805,5,2,2:0:0:0:
284,67,243903,1,10,2:1:0:0:
383,236,244099,5,2,2:0:0:0:
346,168,244393,1,2,2:0:0:0:
390,251,244491,6,0,P|445:242|466:193,1,106.666666666667,0|2,1:0|2:0,2:0:0:0:
300,251,244785,2,0,P|305:297|316:314,1,53.3333333333333,10|0,2:3|2:0,2:0:0:0:
175,365,244981,5,2,2:0:0:0:
218,299,245079,1,10,2:1:0:0:
54,303,245275,5,2,2:0:0:0:
131,286,245373,1,10,2:3:0:0:
6,173,245569,5,2,2:0:0:0:
72,216,245667,1,4,1:0:0:0:
256,192,245766,12,0,247236,2:0:0:0:
218,124,247334,5,10,2:1:0:0:
172,56,247432,2,0,L|183:172,1,106.666666666667,10|0,2:1|2:0,2:0:0:0:
346,247,247726,2,0,B|355:147|355:147|325:190,1,146.666671142578,10|0,2:1|2:0,2:0:0:0:
256,288,248020,6,0,L|258:315,1,26.6666666666667,2|0,2:0|2:0,2:0:0:0:
177,301,248315,2,0,L|179:328,1,19.9999993896485,2|0,2:0|2:0,2:0:0:0:
98,314,248609,2,0,L|99:330,1,13.3333333333333,2|0,2:0|2:0,2:0:0:0:
21,326,248903,2,0,L|21:334,1,6.66666666666667,2|2,2:0|2:0,2:0:0:0:
