osu file format v14

[General]
AudioFilename: audio.mp3
AudioLeadIn: 0
PreviewTime: 125968
Countdown: 0
SampleSet: Soft
StackLeniency: 0.3
Mode: 0
LetterboxInBreaks: 0
WidescreenStoryboard: 1

[Editor]
Bookmarks: 28181,60968,95067,126542,142280,160640,217034,265559
DistanceSpacing: 1
BeatDivisor: 4
GridSize: 8
TimelineZoom: 2

[Metadata]
Title:Kakumei no bullet
TitleUnicode:革命のbullet
Artist:ShinRa-Bansho
ArtistUnicode:森羅万象
Creator:original3s
Version:casper's Insane
Source:東方永夜抄 ~ Imperishable Night.
Tags:casper casperisapotato Baack UberFazz touhou pop japanese kaztora revolutionary 清水"カルロス"宥人 あよ team shanghai alice zun 少女綺想曲 ~ Dream Battle ayo shoujo kisoukyoku maiden's capriccio in th08 eiyashou eternal night vignette from the east 博麗 霊夢 j-pop jpop reimu hakurei 上海アリス幻樂団 太田 順也 TH 東方Project
BeatmapID:3275498
BeatmapSetID:1590256

[Difficulty]
HPDrainRate:5
CircleSize:4
OverallDifficulty:8.5
ApproachRate:9
SliderMultiplier:1.68
SliderTickRate:1

[Events]
//Background and Video events
0,0,"z.jpg",0,0
//Break Periods
2,95277,99067
2,160850,170542
2,187079,196772
//Storyboard Layer 0 (Background)
//Storyboard Layer 1 (Fail)
//Storyboard Layer 2 (Pass)
//Storyboard Layer 3 (Foreground)
//Storyboard Layer 4 (Overlay)
//Storyboard Sound Samples

[TimingPoints]
651,327.868852459016,4,2,1,40,1,0
1962,-125,4,2,1,40,0,0
7044,-83.3333333333333,4,2,1,40,0,0
7126,-83.3333333333333,4,2,1,5,0,0
7208,-125,4,2,1,40,0,0
9093,-125,4,2,1,5,0,0
9175,-125,4,2,1,40,0,0
11142,-166.666666666667,4,2,1,40,0,0
17208,-166.666666666667,4,2,1,50,0,0
17372,-76.923076923077,4,2,1,60,0,0
17618,-76.923076923077,4,2,1,5,0,0
17700,-100,4,2,1,70,0,0
22536,-100,4,2,1,5,0,0
22618,-83.3333333333333,4,2,1,70,0,0
22700,-83.3333333333333,4,2,1,5,0,0
22782,-83.3333333333333,4,2,1,70,0,0
22946,-100,4,2,1,70,0,0
28191,-142.857142857143,4,2,1,70,0,0
37126,-142.857142857143,4,2,1,5,0,0
37208,-142.857142857143,4,2,1,70,0,0
37372,-111.111111111111,4,2,1,70,0,0
37454,-111.111111111111,4,2,1,5,0,0
37536,-111.111111111111,4,2,1,70,0,0
37618,-111.111111111111,4,2,1,5,0,0
37700,-111.111111111111,4,2,1,70,0,0
38683,-133.333333333333,4,2,1,70,0,0
48519,-111.111111111111,4,2,1,70,0,0
49175,-125,4,2,1,70,0,0
54749,-111.111111111111,4,2,1,70,0,0
55814,-111.111111111111,4,2,1,5,0,0
55896,-111.111111111111,4,2,1,70,0,0
57044,-142.857142857143,4,2,1,70,0,0
58355,-111.111111111111,4,2,1,70,0,0
59093,-111.111111111111,4,2,1,5,0,0
59175,-111.111111111111,4,2,1,70,0,0
59257,-111.111111111111,4,2,1,5,0,0
59339,-111.111111111111,4,2,1,70,0,0
59421,-111.111111111111,4,2,1,5,0,0
59503,-111.111111111111,4,2,1,70,0,0
59585,-111.111111111111,4,2,1,5,0,0
59667,-166.666666666666,4,2,1,70,0,0
60978,-95.2380952380952,4,2,1,80,0,0
65814,-95.2380952380952,4,2,1,5,0,0
65896,-76.923076923077,4,2,1,80,0,0
65978,-76.923076923077,4,2,1,5,0,0
66060,-95.2380952380952,4,2,1,80,0,0
69093,-95.2380952380952,4,2,1,5,0,0
69175,-95.2380952380952,4,2,1,80,0,0
78601,-95.2380952380952,4,2,1,5,0,0
78683,-95.2380952380952,4,2,1,80,0,0
89421,-95.2380952380952,4,2,1,5,0,0
89503,-76.923076923077,4,2,1,80,0,0
89585,-76.923076923077,4,2,1,5,0,0
89667,-95.2380952380952,4,2,1,80,0,0
91839,-95.2380952380952,4,2,1,5,0,0
92126,-133.333333333333,4,2,1,80,0,0
99667,-100,4,2,1,70,0,0
100323,-117.647058823529,4,2,1,70,0,0
102946,-125,4,2,1,70,0,0
110814,-117.647058823529,4,2,1,70,0,0
112700,-117.647058823529,4,2,1,5,0,0
112782,-117.647058823529,4,2,1,70,0,0
113273,-142.857142857143,4,2,1,70,0,0
116634,-142.857142857143,4,2,1,5,0,0
116716,-142.857142857143,4,2,1,70,0,0
117208,-125,4,2,1,70,0,0
117454,-125,4,2,1,5,0,0
117536,-125,4,2,1,70,0,0
117700,-100,4,2,1,70,0,0
117946,-100,4,2,1,5,0,0
118028,-125,4,2,1,70,0,0
123929,-166.666666666667,4,2,1,70,0,0
125077,-111.111111111111,4,2,1,70,0,0
125814,-111.111111111111,4,2,1,5,0,0
125896,-111.111111111111,4,2,1,70,0,0
126224,-166.666666666666,4,2,1,70,0,0
126552,-95.2380952380952,4,2,1,80,0,0
131388,-95.2380952380952,4,2,1,5,0,0
131470,-76.923076923077,4,2,1,80,0,0
131552,-76.923076923077,4,2,1,5,0,0
131634,-95.2380952380952,4,2,1,80,0,0
134667,-95.2380952380952,4,2,1,5,0,0
134749,-95.2380952380952,4,2,1,80,0,0
137044,-95.2380952380952,4,2,1,85,0,0
144175,-95.2380952380952,4,2,1,5,0,0
144257,-95.2380952380952,4,2,1,85,0,0
150159,-111.111111111111,4,2,1,75,0,0
153355,-111.111111111111,4,2,1,5,0,0
153437,-111.111111111111,4,2,1,75,0,0
158028,-142.857142857143,4,2,1,75,0,0
158110,-142.857142857143,4,2,1,45,0,0
171142,-125,4,2,1,70,0,0
173765,-125,4,2,1,72,0,0
176388,-125,4,2,1,74,0,0
179011,-125,4,2,1,76,0,0
180323,-111.111111111111,4,2,1,76,0,0
181634,-100,4,2,1,78,0,0
184257,-100,4,2,1,80,0,0
186798,-100,4,2,1,5,0,0
186880,-100,4,2,1,60,0,0
197372,-133.333333333333,4,2,1,70,0,0
201798,-105.263157894737,4,2,1,70,0,0
201962,-105.263157894737,4,2,1,70,0,0
202618,-125,4,2,1,70,0,0
206388,-111.111111111111,4,2,1,70,0,0
206634,-111.111111111111,4,2,1,5,0,0
206716,-111.111111111111,4,2,1,70,0,0
206798,-111.111111111111,4,2,1,5,0,0
206880,-111.111111111111,4,2,1,70,0,0
207372,-142.857142857143,4,2,1,70,0,0
207700,-117.647058823529,4,2,1,75,0,0
208355,-105.263157894737,4,2,1,75,0,0
209011,-95.238095238095,4,2,1,75,0,0
209831,-86.9565217391304,4,2,1,75,0,0
211798,-90.9090909090908,4,2,1,80,0,0
213929,-90.9090909090908,4,2,1,5,0,0
214011,-90.9090909090908,4,2,1,80,0,0
214175,-90.9090909090908,4,2,1,5,0,0
214257,-90.9090909090908,4,2,1,80,0,0
215241,-90.9090909090908,4,2,1,5,0,0
215323,-90.9090909090908,4,2,1,80,0,0
215487,-90.9090909090908,4,2,1,5,0,0
215569,-90.9090909090908,4,2,1,80,0,0
216716,-74.0740740740741,4,2,1,80,0,0
216962,-74.0740740740741,4,2,1,5,0,0
217044,-90.9090909090909,4,2,1,85,0,0
219913,-90.9090909090908,4,2,1,5,0,0
219995,-90.9090909090908,4,2,1,85,0,0
227126,-90.9090909090908,4,2,1,5,0,0
227208,-74.0740740740741,4,2,1,85,0,0
227290,-74.0740740740741,4,2,1,5,0,0
227372,-111.111111111111,4,2,1,85,0,0
227536,-90.9090909090909,4,2,1,85,0,0
232372,-90.9090909090909,4,2,1,5,0,0
232454,-74.0740740740741,4,2,1,85,0,0
232536,-74.0740740740741,4,2,1,5,0,0
232618,-74.0740740740741,4,2,1,85,0,0
232782,-90.9090909090909,4,2,1,85,0,0
238028,-142.857142857143,4,2,1,85,0,0
239995,-100,4,2,1,85,0,0
240323,-74.0740740740741,4,2,1,85,0,0
240569,-74.0740740740741,4,2,1,5,0,0
240650,-90.9090909090909,4,2,1,80,0,1
245241,-90.9090909090909,4,2,1,80,0,1
245487,-90.9090909090909,4,2,1,5,0,1
245569,-74.0740740740741,4,2,1,80,0,1
245650,-74.0740740740741,4,2,1,5,0,1
245732,-74.0740740740741,4,2,1,80,0,1
245896,-90.9090909090909,4,2,1,82,0,1
248519,-105.263157894737,4,2,1,82,0,0
251142,-90.9090909090909,4,2,1,84,0,1
256388,-90.9090909090909,4,2,1,86,0,1
261634,-142.857142857143,4,2,1,76,0,0
264093,-200,4,2,1,76,0,0
264257,-200,4,2,1,50,0,0
264585,-200,4,2,1,30,0,0
264913,-200,4,2,1,10,0,0
265159,-200,4,2,1,5,0,0
265241,-125,4,2,1,55,0,0

[Colours]
Combo1 : 252,139,139
Combo2 : 232,202,140
Combo3 : 222,142,122
Combo4 : 245,192,230
Combo5 : 170,205,240
Combo6 : 249,77,72

[HitObjects]
139,40,1962,6,0,P|106:85|115:114,1,67.2,6|0,3:2|0:0,0:0:0:0:
258,146,2290,2,0,P|234:95|205:88,1,67.2,2|0,0:0|0:0,0:0:0:0:
81,188,2618,2,0,P|169:200|190:178,2,100.8,2|2|2,0:0|0:0|0:0,0:0:0:0:
8,120,3273,5,0,0:0:0:0:
34,44,3437,2,0,L|25:110,1,67.2,2|2,0:0|0:0,0:0:0:0:
140,224,3765,1,2,0:0:0:0:
102,291,3929,2,0,P|53:259|76:185,1,134.4,2|0,0:0|0:0,0:0:0:0:
393,339,4585,6,0,B|378:374|378:374|345:387,1,67.2,2|0,0:2|0:0,0:0:0:0:
396,229,4913,2,0,B|433:224|433:224|461:246,1,67.2,2|0,0:0|0:0,0:0:0:0:
295,281,5241,2,0,B|263:239|263:239|270:191,2,100.8,2|2|2,0:0|0:0|0:0,0:0:0:0:
381,341,5896,5,0,0:0:0:0:
461,346,6060,2,0,L|394:355,1,67.2,2|2,0:0|0:0,0:0:0:0:
311,279,6388,1,2,0:0:0:0:
231,372,6552,2,0,P|190:335|112:345,1,134.4,2|0,0:0|0:0,0:0:0:0:
104,340,7044,2,0,P|118:318|122:289,1,50.3999984619141,2|0,0:3|0:0,0:0:0:0:
7,190,7208,6,0,P|33:224|70:232,1,67.2,4|0,3:2|0:0,0:0:0:0:
179,147,7536,2,0,P|136:152|110:180,1,67.2,2|0,0:0|0:0,0:0:0:0:
104,340,7864,2,0,P|140:299|122:234,2,100.8,2|2|2,0:0|0:0|0:0,0:0:0:0:
10,281,8519,5,0,0:0:0:0:
10,281,8683,1,2,0:0:0:0:
151,250,8847,2,0,B|192:254|192:254|208:264|208:264|252:269,1,100.8,2|0,0:0|0:0,0:0:0:0:
282,262,9175,2,0,P|304:286|306:319,1,67.2,2|0,0:0|0:0,0:0:0:0:
224,183,9503,1,0,0:0:0:0:
335,197,9667,1,0,0:0:0:0:
139,249,9831,6,0,B|120:224|120:224|130:189,1,67.2,2|0,0:0|0:0,0:0:0:0:
279,106,10159,2,0,B|266:134|266:134|231:143,1,67.2,2|0,0:0|0:0,0:0:0:0:
59,52,10487,2,0,B|107:46|107:46|147:88,2,100.8,2|2|2,0:0|0:0|0:0,0:0:0:0:
4,142,11142,5,0,0:0:0:0:
19,224,11306,1,2,0:0:0:0:
14,137,11470,1,2,0:0:0:0:
29,219,11634,1,2,0:0:0:0:
112,166,11798,2,0,B|166:150|202:186|202:186|246:231|303:212,1,201.599993847656,2|2,0:0|0:3,0:0:0:0:
256,192,12536,12,2,15077,0:3:0:0:
307,206,17208,5,0,3:0:0:0:
260,132,17372,2,0,B|288:110|293:59|293:59|308:108|343:127,1,163.799992501831,8|0,0:1|0:0,0:0:0:0:
308,218,17700,6,0,P|221:230|166:164,1,168,4|8,3:1|3:2,0:0:0:0:
114,95,18191,1,2,0:0:0:0:
0,232,18355,2,0,P|17:272|68:287,1,84,2|0,3:2|0:0,0:0:0:0:
107,87,18683,2,0,P|63:81|24:118,1,84,10|0,3:2|0:0,0:0:0:0:
14,144,18929,1,0,0:0:0:0:
14,144,19011,5,0,3:0:0:0:
119,250,19175,2,0,L|208:239,1,84,2|8,0:0|3:2,0:0:0:0:
283,122,19503,1,2,0:0:0:0:
351,284,19667,2,0,P|330:331|282:343,1,84,2|0,3:2|0:0,0:0:0:0:
399,190,19995,2,0,P|450:184|484:219,1,84,10|0,3:2|0:0,0:0:0:0:
409,31,20323,6,0,B|374:65|374:65|397:219,1,168,2|8,3:2|3:2,0:0:0:0:
479,245,20814,1,2,0:0:0:0:
340,365,20978,2,0,P|308:338|302:293,1,84,2|0,3:2|0:0,0:0:0:0:
487,253,21306,2,0,P|479:294|443:321,1,84,10|0,3:2|0:0,0:0:0:0:
410,317,21552,1,0,0:0:0:0:
410,317,21634,5,0,3:0:0:0:
456,169,21798,1,2,0:0:0:0:
330,227,21962,1,10,3:2:0:0:
497,247,22126,1,2,0:0:0:0:
300,134,22290,1,2,3:2:0:0:
278,169,22372,2,0,L|164:192,1,84,8|0,0:3|0:0,0:0:0:0:
142,156,22618,6,0,P|179:172|191:202,1,50.3999984619141,8|0,3:0|0:0,0:0:0:0:
38,226,22782,1,8,0:0:0:0:
38,226,22864,1,8,0:0:0:0:
38,226,22946,6,0,P|-8:182|28:81,1,168,4|8,3:2|3:2,0:0:0:0:
95,0,23437,1,2,0:0:0:0:
229,81,23601,2,0,L|130:70,1,84,2|0,3:2|0:0,0:0:0:0:
27,235,23929,2,0,L|126:224,1,84,10|0,3:2|0:0,0:0:0:0:
150,240,24175,1,0,0:0:0:0:
150,240,24257,1,0,3:0:0:0:
60,383,24421,6,0,P|21:352|32:291,1,84,2|8,0:0|3:2,0:0:0:0:
137,232,24749,1,2,0:0:0:0:
214,350,24913,2,0,P|253:362|289:343,1,84,2|0,3:2|0:0,0:0:0:0:
265,170,25241,2,0,P|234:197|232:238,1,84,10|0,3:2|0:0,0:0:0:0:
388,223,25569,6,0,B|396:153|396:153|385:123|385:123|396:35,1,168,2|8,3:2|3:2,0:0:0:0:
512,0,26060,1,2,0:0:0:0:
379,61,26224,2,0,L|270:73,1,84,2|0,3:2|0:0,0:0:0:0:
402,224,26552,2,0,L|511:236,1,84,10|0,3:2|0:0,0:0:0:0:
510,267,26798,1,0,0:0:0:0:
510,267,26880,5,0,3:0:0:0:
457,126,27044,1,8,0:0:0:0:
328,249,27208,2,0,L|338:336,1,84,0|0,3:0|0:0,0:0:0:0:
310,365,27454,1,0,0:0:0:0:
310,365,27536,2,0,P|274:385|233:378,1,84,0|2,3:0|0:0,0:0:0:0:
342,241,27864,2,0,P|382:233|418:254,1,84,10|2,3:2|0:0,0:0:0:0:
260,297,28191,5,4,3:2:0:0:
221,290,30814,5,4,3:2:0:0:
183,282,33437,5,4,3:2:0:0:
144,275,33929,1,4,3:2:0:0:
106,267,36060,5,4,3:2:0:0:
69,259,36880,6,0,P|11:290|-2:325,1,88.1999973083497,0|0,3:0|0:0,0:0:0:0:
8,336,37208,1,0,3:0:0:0:
141,224,37372,6,0,L|135:180,1,37.7999988464356,8|0,0:2|0:0,0:0:0:0:
72,150,37536,2,0,L|78:106,1,37.7999988464356,0|0,3:0|0:0,0:0:0:0:
117,50,37700,1,0,3:0:0:0:
260,115,37864,6,0,L|174:130,1,75.5999976928712,8|0,0:1|3:0,0:0:0:0:
58,153,38191,1,8,0:1:0:0:
150,235,38355,1,2,3:2:0:0:
176,243,38437,1,0,3:0:0:0:
204,243,38518,1,8,3:2:0:0:
231,233,38600,1,0,3:0:0:0:
253,215,38683,6,0,P|285:199|331:205,1,63.0000024032594,4|0,3:1|0:0,0:0:0:0:
385,266,39011,1,0,3:0:0:0:
276,357,39175,2,0,P|246:337|228:294,1,63.0000024032594,2|0,0:0|3:0,0:0:0:0:
257,201,39503,1,0,0:0:0:0:
156,105,39667,6,0,L|88:115,1,63.0000024032594,2|0,3:2|0:0,0:0:0:0:
0,129,39995,1,0,3:0:0:0:
60,8,40159,2,0,L|128:18,1,63.0000024032594,2|0,0:0|3:0,0:0:0:0:
216,32,40487,1,2,0:0:0:0:
154,120,40650,2,0,L|145:182,1,63.0000024032594,2|0,3:2|0:0,0:0:0:0:
284,99,40978,2,0,L|292:161,1,63.0000024032594,2|0,3:2|0:0,0:0:0:0:
164,293,41306,6,0,P|200:265|238:264,1,63.0000024032594,0|0,3:0|0:0,0:0:0:0:
344,332,41634,2,0,P|301:314|281:282,1,63.0000024032594,0|0,3:0|0:0,0:0:0:0:
304,169,41962,1,0,3:0:0:0:
391,232,42126,1,0,0:0:0:0:
474,134,42290,2,0,L|464:51,1,63.0000024032594,2|0,3:2|0:0,0:0:0:0:
327,0,42618,6,0,P|298:48|315:100,1,94.500003604889,2|2,3:2|0:0,0:0:0:0:
326,106,42946,2,0,P|329:136|299:181,1,63.0000024032594,0|2,3:0|0:0,0:0:0:0:
261,229,43273,1,2,3:2:0:0:
394,185,43437,1,2,0:0:0:0:
236,112,43601,2,0,P|205:100|173:104,1,63.0000024032594,0|2,3:0|0:0,0:0:0:0:
42,62,43929,6,0,L|47:0,1,63.0000024032594,0|0,3:0|0:0,0:0:0:0:
166,111,44257,2,0,L|159:185,1,63.0000024032594,0|0,3:0|0:0,0:0:0:0:
58,263,44585,2,0,L|-28:252,2,63.0000024032594,0|0|0,3:0|0:0|3:0,0:0:0:0:
138,351,45077,1,2,0:0:0:0:
228,240,45241,6,0,B|233:199|233:199|241:186|241:186|247:144,1,94.500003604889,2|2,3:2|0:0,0:0:0:0:
261,119,45569,2,0,L|269:52,1,63.0000024032594,0|2,3:0|0:0,0:0:0:0:
161,0,45896,6,0,P|111:0|61:49,1,94.500003604889,2|2,3:2|0:0,0:0:0:0:
58,51,46224,2,0,P|1:70|-21:57,1,63.0000024032594,0|2,3:2|0:0,0:0:0:0:
144,81,46552,6,0,L|152:156,1,63.0000024032594,2|0,3:2|0:0,0:0:0:0:
126,222,46880,1,8,3:2:0:0:
245,199,47044,2,0,L|237:274,1,63.0000024032594,0|0,3:0|0:0,0:0:0:0:
263,340,47372,1,10,3:2:0:0:
149,296,47536,1,10,3:2:0:0:
317,232,47700,6,0,B|349:228|349:228|378:251,1,63.0000024032594,2|0,3:2|0:0,0:0:0:0:
437,383,48028,2,0,B|417:356|417:356|423:320,1,63.0000024032594,2|0,3:0|0:0,0:0:0:0:
512,191,48355,1,0,3:0:0:0:
512,191,48437,1,0,3:0:0:0:
512,191,48519,6,0,L|499:284,1,75.5999976928712,8|0,3:1|0:0,0:0:0:0:
448,101,48847,1,8,3:2:0:0:
355,220,49011,1,2,0:0:0:0:
340,223,49092,1,0,0:0:0:0:
327,225,49175,6,0,B|291:219|265:244|265:244|237:273|199:266,1,134.4,4|0,3:1|3:0,0:0:0:0:
193,259,49831,2,0,P|195:218|168:195,1,67.2,2|0,3:2|0:0,0:0:0:0:
92,227,50159,2,0,P|89:267|116:290,1,67.2,0|0,3:0|0:0,0:0:0:0:
123,142,50487,6,0,P|95:110|5:129,1,134.4,2|0,3:2|3:0,0:0:0:0:
0,126,51142,2,0,L|10:192,1,67.2,2|0,3:2|0:0,0:0:0:0:
28,318,51470,1,10,0:2:0:0:
123,238,51634,6,0,P|175:263|186:358,1,134.4,2|8,3:2|0:2,0:0:0:0:
16,315,52126,2,0,B|8:280|8:280|35:245,1,67.2,0|0,3:0|0:0,0:0:0:0:
110,159,52454,1,0,3:0:0:0:
110,159,52618,1,0,3:0:0:0:
0,179,52782,1,10,0:2:0:0:
141,233,52946,6,0,B|171:214|205:228|205:228|228:256|270:257,1,134.4,6|0,3:2|3:0,0:0:0:0:
285,283,53355,1,0,3:0:0:0:
285,283,53437,2,0,P|287:321|268:344,1,67.2,8|0,0:2|0:0,0:0:0:0:
116,380,53765,6,0,B|83:357|83:357|74:276,1,100.8,2|2,3:2|3:2,0:0:0:0:
69,263,54093,2,0,L|76:184,1,67.2,0|2,0:0|3:2,0:0:0:0:
5,56,54421,5,2,0:0:0:0:
140,16,54585,5,0,3:0:0:0:
114,0,54667,1,0,3:0:0:0:
84,5,54748,1,8,0:2:0:0:
128,111,54913,1,0,3:0:0:0:
240,0,55077,2,0,L|246:37,3,37.7999988464356,2|0|2|0,3:2|3:2|3:2|3:2,0:0:0:0:
273,64,55405,1,10,0:2:0:0:
214,168,55569,6,0,P|281:165|320:223,1,113.399996539307,6|0,3:2|0:0,0:0:0:0:
320,231,55896,5,2,3:0:0:0:
498,152,56142,5,2,3:0:0:0:
401,321,56388,5,2,3:0:0:0:
380,126,56607,5,2,3:0:0:0:
491,260,56825,5,2,3:0:0:0:
306,235,57044,6,0,P|286:269|290:303,1,58.7999982055665,4|0,3:2|0:0,0:0:0:0:
264,363,57372,1,2,0:0:0:0:
171,267,57536,2,0,P|190:301|221:314,1,58.7999982055665,2|0,0:0|0:0,0:0:0:0:
250,173,57864,2,0,P|210:176|185:198,1,58.7999982055665,2|0,0:0|0:0,0:0:0:0:
298,284,58191,1,2,0:0:0:0:
345,86,58355,5,2,3:2:0:0:
397,196,58519,1,2,0:2:0:0:
252,49,58683,2,0,P|272:13|308:2,1,75.5999976928712,2|2,3:2|0:0,0:0:0:0:
444,86,59011,6,0,L|449:129,1,37.7999988464356,8|0,0:1|0:0,0:0:0:0:
413,154,59175,2,0,L|409:197,1,37.7999988464356,8|0,0:2|0:0,0:0:0:0:
455,217,59339,2,0,L|460:261,1,37.7999988464356,8|0,0:2|0:0,0:0:0:0:
415,304,59503,2,0,L|411:348,1,37.7999988464356,8|0,0:2|0:0,0:0:0:0:
476,382,59667,6,0,L|497:387,6,12.5999996154785,8|0|0|0|0|0|0,3:2|0:0|0:0|0:0|0:0|0:0|0:0,0:0:0:0:
398,348,59995,2,0,L|377:353,6,12.5999996154785,8|0|0|0|0|0|0,3:1|0:0|0:0|0:0|0:0|0:0|0:0,0:0:0:0:
454,270,60323,5,2,0:2:0:0:
445,265,60650,1,2,0:2:0:0:
436,261,60978,6,0,L|343:272,1,88.1999973083497,6|0,3:1|0:0,0:0:0:0:
307,114,61306,2,0,L|394:124,1,88.1999973083497,10|0,3:1|0:0,0:0:0:0:
200,213,61634,2,0,P|158:162|199:93,1,132.299995962525,2|2,3:1|0:1,0:0:0:0:
214,76,61962,2,0,P|238:32|211:-10,1,88.1999973083497,8|2,3:1|0:1,0:0:0:0:
39,23,62290,5,0,3:0:0:0:
92,193,62454,1,2,0:1:0:0:
149,43,62618,1,10,3:1:0:0:
0,144,62782,1,2,0:1:0:0:
87,296,62946,2,0,L|218:283,1,132.299995962525,2|2,3:1|0:1,0:0:0:0:
258,301,63273,2,0,P|266:345|238:382,1,88.1999973083497,8|2,3:1|0:1,0:0:0:0:
98,184,63601,6,0,B|134:158|134:158|186:166,1,88.1999973083497,2|0,3:1|0:0,0:0:0:0:
79,305,63929,2,0,B|35:311|35:311|0:286,1,88.1999973083497,10|0,3:1|0:0,0:0:0:0:
60,100,64257,2,0,B|112:57|112:57|187:75,1,132.299995962525,2|2,3:1|0:1,0:0:0:0:
217,85,64585,2,0,B|260:91|260:91|296:66,1,88.1999973083497,8|2,3:1|0:1,0:0:0:0:
427,3,64913,5,0,3:0:0:0:
323,186,65077,1,2,0:1:0:0:
300,55,65241,1,10,3:1:0:0:
407,238,65405,1,2,0:1:0:0:
192,155,65569,5,2,3:1:0:0:
174,194,65650,2,0,P|174:246|205:279,1,88.1999973083497,8|0,0:3|0:0,0:0:0:0:
254,293,65896,2,0,P|209:270|171:286,1,54.5999975006105,8|0,3:1|0:0,0:0:0:0:
142,375,66060,1,8,3:0:0:0:
142,375,66141,1,4,0:3:0:0:
142,375,66224,6,0,L|240:364,1,88.1999973083497,6|0,3:1|0:0,0:0:0:0:
286,173,66552,2,0,L|198:163,1,88.1999973083497,10|0,3:1|0:0,0:0:0:0:
335,336,66880,2,0,P|403:349|466:279,1,132.299995962525,2|2,3:1|0:1,0:0:0:0:
458,270,67208,2,0,P|483:222|513:209,1,88.1999973083497,8|2,3:1|0:1,0:0:0:0:
395,69,67536,5,0,3:0:0:0:
294,224,67700,2,0,L|305:317,1,88.1999973083497,2|8,0:1|3:1,0:0:0:0:
375,178,68028,1,2,0:1:0:0:
212,118,68191,2,0,B|169:129|169:129|134:102,1,88.1999973083497,2|0,3:1|0:0,0:0:0:0:
98,283,68519,2,0,B|55:272|55:272|20:299,1,88.1999973083497,8|0,3:1|0:0,0:0:0:0:
0,145,68847,6,0,B|34:128|42:84|42:84|14:57|15:23,1,132.299995962525,6|0,3:1|0:0,0:0:0:0:
92,18,69175,1,10,0:1:0:0:
223,103,69339,6,0,L|122:90,1,88.1999973083497,6|0,3:1|0:0,0:0:0:0:
258,203,69667,1,2,3:1:0:0:
120,89,69831,1,10,0:1:0:0:
303,2,69995,5,6,3:1:0:0:
297,13,70323,5,2,3:1:0:0:
297,13,70405,1,0,3:0:0:0:
297,13,70487,2,0,P|297:60|343:85,1,88.1999973083497,10|2,3:1|3:1,0:0:0:0:
506,60,70814,2,0,P|465:36|420:63,1,88.1999973083497,10|0,0:1|3:0,0:0:0:0:
335,254,71142,1,10,0:1:0:0:
420,56,71306,1,10,0:1:0:0:
512,223,71470,6,0,B|474:246|474:246|416:235,1,88.1999973083497,6|0,3:1|0:0,0:0:0:0:
308,115,71798,2,0,B|270:91|270:91|212:102,1,88.1999973083497,10|0,3:1|0:0,0:0:0:0:
347,287,72126,2,0,L|377:137,1,132.299995962525,2|2,3:1|0:1,0:0:0:0:
410,133,72454,2,0,L|393:28,1,88.1999973083497,8|2,3:1|0:1,0:0:0:0:
207,176,72782,5,0,3:0:0:0:
338,211,72946,1,2,0:1:0:0:
219,67,73110,1,10,3:1:0:0:
155,271,73273,1,2,0:1:0:0:
84,122,73437,2,0,P|18:137|2:203,1,132.299995962525,2|2,3:1|0:1,0:0:0:0:
1,237,73765,2,0,P|42:262|100:236,1,88.1999973083497,8|2,3:1|0:1,0:0:0:0:
242,214,74093,6,0,L|231:316,1,88.1999973083497,2|0,3:1|0:0,0:0:0:0:
46,384,74421,2,0,L|36:296,1,88.1999973083497,10|0,3:1|0:0,0:0:0:0:
224,212,74749,2,0,P|184:254|154:255,1,88.1999973083497,2|0,3:1|0:0,0:0:0:0:
131,126,75077,1,10,3:1:0:0:
273,284,75241,6,0,B|313:303|350:276|350:276|382:230|436:246,1,176.399994616699,6|2,3:1|3:1,0:0:0:0:
499,380,75732,2,0,P|445:349|442:301,1,88.1999973083497,8|0,3:1|0:0,0:0:0:0:
296,178,76060,5,0,3:0:0:0:
296,178,76142,1,0,3:0:0:0:
296,178,76224,1,2,3:1:0:0:
425,323,76388,1,8,3:1:0:0:
232,380,76553,1,10,3:1:0:0:
212,377,76634,1,8,0:1:0:0:
192,375,76717,6,0,B|147:370|147:370|112:337,1,88.1999973083497,6|2,3:1|3:2,0:0:0:0:
86,194,77044,1,8,0:1:0:0:
216,158,77208,2,0,B|234:199|234:199|223:246,1,88.1999973083497,4|0,3:2|0:0,0:0:0:0:
4,238,77536,2,0,B|30:201|30:201|76:187,1,88.1999973083497,0|8,3:0|0:1,0:0:0:0:
151,47,77864,6,0,P|73:-4|-6:32,1,176.399994616699,2|0,3:2|3:0,0:0:0:0:
179,149,78355,2,0,B|219:126|219:126|237:38,1,132.299995962525,8|0,0:1|0:0,0:0:0:0:
267,9,78683,2,0,P|312:0|351:33,1,88.1999973083497,2|2,3:2|0:0,0:0:0:0:
254,176,79011,2,0,P|209:185|170:152,1,88.1999973083497,8|2,3:1|0:2,0:0:0:0:
406,118,79339,6,0,L|415:213,1,88.1999973083497,4|0,3:1|0:0,0:0:0:0:
253,263,79667,1,10,0:1:0:0:
423,217,79831,6,0,L|518:226,1,88.1999973083497,2|0,3:1|0:0,0:0:0:0:
241,178,80159,1,2,3:1:0:0:
417,307,80323,1,10,0:1:0:0:
240,264,80487,6,0,L|145:273,1,88.1999973083497,4|0,3:2|0:0,0:0:0:0:
0,141,80814,1,2,3:1:0:0:
141,280,80978,1,10,0:1:0:0:
23,381,81142,6,0,P|-13:333|12:260,1,132.299995962525,2|8,3:1|0:2,0:0:0:0:
45,256,81470,2,0,B|78:227|78:227|69:175,1,88.1999973083497,2|0,3:1|3:0,0:0:0:0:
19,10,81798,1,8,0:1:0:0:
19,10,81880,1,8,0:1:0:0:
19,10,81962,6,0,P|35:38|37:60,3,44.0999986541748,4|0|0|0,3:2|3:2|3:2|3:2,3:2:0:0:
130,44,82290,2,0,P|113:71|95:84,3,44.0999986541748,2|0|10|0,3:2|3:2|3:2|3:2,3:2:0:0:
196,145,82618,2,0,P|163:144|143:135,3,44.0999986541748,8|0|8|0,3:2|3:2|3:2|3:2,3:2:0:0:
165,259,82946,2,0,P|148:231|146:208,1,44.0999986541748,8|0,3:2|3:2,3:2:0:0:
281,163,83110,5,8,3:2:0:0:
424,0,84585,6,0,P|375:25|364:72,1,88.1999973083497,4|0,3:1|0:0,0:0:0:0:
511,140,84913,2,0,P|513:85|478:52,1,88.1999973083497,8|0,3:1|0:0,0:0:0:0:
349,154,85241,2,0,B|363:190|363:190|479:207|479:207,1,132.299995962525,2|2,3:2|0:0,0:0:0:0:
498,217,85569,2,0,P|520:266|496:315,1,88.1999973083497,8|2,3:1|0:0,0:0:0:0:
372,342,85896,5,0,3:0:0:0:
511,380,86060,1,2,0:0:0:0:
389,250,86224,1,8,3:1:0:0:
512,222,86388,1,2,0:0:0:0:
379,352,86552,2,0,B|329:346|329:346|298:355|298:355|242:348,1,132.299995962525,2|2,3:2|0:0,0:0:0:0:
211,374,86880,2,0,P|175:332|200:283,1,88.1999973083497,8|2,3:1|0:0,0:0:0:0:
74,178,87208,6,0,B|30:172|30:172|-5:210,1,88.1999973083497,2|0,3:2|0:0,0:0:0:0:
192,294,87536,2,0,B|219:258|219:258|203:209,1,88.1999973083497,8|0,3:1|0:0,0:0:0:0:
92,65,87864,2,0,P|134:105|219:83,1,132.299995962525,2|2,3:2|0:0,0:0:0:0:
227,59,88191,2,0,P|269:33|317:44,1,88.1999973083497,8|2,3:1|0:2,0:0:0:0:
423,156,88519,5,0,3:0:0:0:
449,0,88683,1,2,0:2:0:0:
313,128,88847,1,8,3:1:0:0:
463,80,89011,1,2,0:2:0:0:
251,18,89175,5,2,3:2:0:0:
219,49,89257,2,0,L|207:169,1,88.1999973083497,8|0,3:0|0:0,0:0:0:0:
248,192,89503,2,0,P|221:150|177:147,1,54.5999975006105,0|0,3:0|0:0,0:0:0:0:
71,104,89667,1,8,0:0:0:0:
53,109,89748,1,0,0:0:0:0:
37,113,89831,6,0,P|0:79|13:26,1,88.1999973083497,4|0,3:1|3:0,0:0:0:0:
154,0,90159,1,8,0:1:0:0:
252,177,90323,6,0,P|288:143|276:90,1,88.1999973083497,4|0,3:1|0:0,0:0:0:0:
139,5,90651,1,8,0:1:0:0:
87,211,90814,6,0,L|-10:227,1,88.1999973083497,4|0,3:2|0:0,0:0:0:0:
73,112,91142,1,8,0:1:0:0:
259,253,91306,6,0,L|355:269,1,88.1999973083497,4|0,3:1|0:0,0:0:0:0:
273,154,91634,1,8,0:1:0:0:
124,298,91798,6,0,L|130:338,1,22.0499993270874,4|0,3:2|0:0,0:0:0:0:
410,190,92126,5,4,3:1:0:0:
256,192,92208,12,4,94257,3:2:0:0:
411,189,94585,6,0,L|423:101,2,63.0000024032594,2|2|2,0:0|0:0|0:0,0:0:0:0:
384,349,95077,1,4,0:1:0:0:
397,334,99667,6,0,B|444:347|444:347|464:366|464:366|526:385,2,126,6|6|6,3:2|3:2|3:2,0:0:0:0:
333,213,100323,6,0,P|264:199|207:238,1,142.800002723694,4|0,3:1|3:0,0:0:0:0:
250,358,100814,2,0,L|326:372,1,71.4000013618469,8|0,0:0|3:0,0:0:0:0:
403,252,101142,1,2,3:2:0:0:
337,293,101306,1,10,3:2:0:0:
257,160,101470,5,2,3:2:0:0:
407,333,101798,1,2,3:2:0:0:
480,115,102126,1,2,3:2:0:0:
473,204,102290,6,0,L|464:124,1,71.4000013618469,8|2,0:0|3:2,0:0:0:0:
347,55,102618,2,0,L|334:154,1,71.4000013618469,10|8,0:0|0:0,0:0:0:0:
316,155,102864,1,8,0:0:0:0:
316,155,102946,6,0,P|274:175|240:167,1,67.2,4|0,3:1|0:0,0:0:0:0:
135,114,103273,1,0,3:0:0:0:
205,47,103437,2,0,P|243:73|253:106,1,67.2,2|0,0:0|3:0,0:0:0:0:
188,223,103765,1,0,0:0:0:0:
120,118,103929,6,0,L|41:105,1,67.2,2|0,3:2|0:0,0:0:0:0:
0,187,104257,1,0,3:0:0:0:
114,241,104421,2,0,L|192:228,1,67.2,2|0,0:0|3:0,0:0:0:0:
256,270,104749,1,0,0:0:0:0:
135,365,104913,2,0,L|75:375,3,33.6,2|0|0|0,3:2|0:0|0:0|0:0,0:0:0:0:
63,342,105241,2,0,L|3:352,3,33.6,2|0|0|0,3:2|0:0|0:0|0:0,0:0:0:0:
0,384,105569,5,2,3:0:0:0:
128,244,105732,2,0,P|165:265|181:304,1,67.2,2|0,0:0|3:0,0:0:0:0:
81,166,106060,1,2,0:3:0:0:
267,206,106224,2,0,P|267:248|241:281,1,67.2,2|0,3:2|0:0,0:0:0:0:
317,117,106552,5,2,3:0:0:0:
433,254,106716,2,0,B|467:258|467:258|498:225,1,67.2,2|0,0:0|3:0,0:0:0:0:
321,319,107044,1,2,0:3:0:0:
381,150,107208,2,0,B|367:118|367:118|323:108,1,67.2,2|0,3:2|0:0,0:0:0:0:
498,216,107536,5,2,3:0:0:0:
340,239,107700,2,0,L|268:248,1,67.2,2|0,0:0|3:0,0:0:0:0:
390,157,108028,1,2,0:3:0:0:
232,134,108191,2,0,P|221:109|222:75,3,33.6,2|0|0|0,3:2|0:0|0:0|0:0,0:0:0:0:
277,56,108519,1,0,3:0:0:0:
348,232,108683,5,10,3:2:0:0:
84,279,109175,1,2,3:2:0:0:
173,27,109667,1,2,3:2:0:0:
210,166,109995,1,0,3:0:0:0:
210,166,110077,1,0,3:0:0:0:
210,166,110159,6,0,L|201:244,1,67.2,10|0,3:2|3:0,0:0:0:0:
212,265,110405,1,0,0:0:0:0:
212,265,110487,2,0,L|221:343,1,67.2,10|0,3:2|3:0,0:0:0:0:
116,378,110814,6,0,P|80:373|56:348,1,71.4000013618469,4|0,3:1|0:0,0:0:0:0:
17,213,111142,1,10,3:2:0:0:
17,213,111306,2,0,P|19:261|-10:290,1,71.4000013618469,2|0,0:0|3:0,0:0:0:0:
100,189,111634,2,0,P|140:161|186:166,1,71.4000013618469,2|8,0:0|3:2,0:0:0:0:
225,46,111962,6,0,B|215:21|197:6|197:6|101:-1,1,142.800002723694,2|0,3:2|3:0,0:0:0:0:
9,80,112454,2,0,P|55:108|54:179,1,107.10000204277,12|0,3:2|0:0,0:0:0:0:
86,185,112782,5,6,3:2:0:0:
170,0,113028,5,6,3:2:0:0:
294,158,113273,6,0,B|341:165|363:205|363:205|386:247|437:256,1,176.399994616699,4|0,3:1|0:0,0:0:0:0:
503,179,113929,1,0,3:0:0:0:
424,265,114093,2,0,P|408:302|418:335,2,58.7999982055665,8|0|0,0:0|0:0|0:0,0:0:0:0:
493,173,114585,6,0,B|484:125|484:125|469:110|469:110|460:52,1,117.599996411133,0|0,3:0|3:0,0:0:0:0:
374,3,115077,2,0,L|362:79,1,58.7999982055665,0|0,0:0|3:0,3:0:0:0:
392,135,115405,1,8,0:0:0:0:
512,0,115569,1,0,0:0:0:0:
498,99,115732,1,10,0:2:0:0:
359,0,115896,6,0,P|272:4|250:37,1,117.599996411133,2|0,3:2|3:0,0:0:0:0:
202,107,116388,2,0,B|160:121|160:121|112:91,1,88.1999973083497,8|0,0:0|0:0,0:0:0:0:
114,69,116716,1,2,3:2:0:0:
18,144,116880,1,2,3:2:0:0:
0,19,117044,1,8,0:0:0:0:
98,175,117208,6,0,L|109:288,1,100.8,6|0,3:2|0:0,0:0:0:0:
58,337,117536,1,0,3:0:0:0:
39,341,117618,1,0,3:0:0:0:
12,324,117700,2,0,P|15:274|82:260,1,126,8|0,0:0|0:0,0:0:0:0:
135,308,118028,5,10,3:2:0:0:
257,193,118273,5,10,3:2:0:0:
62,125,118519,5,10,3:2:0:0:
181,63,118683,6,0,P|175:22|132:1,1,67.2,4|0,3:1|0:0,0:0:0:0:
262,102,119011,2,0,P|294:76|291:28,1,67.2,8|0,3:2|0:0,0:0:0:0:
270,190,119339,2,0,P|317:216|376:180,1,100.8,0|0,3:0|3:0,0:0:0:0:
377,174,119667,2,0,P|425:150|457:160,1,67.2,10|2,0:2|3:2,0:0:0:0:
509,209,119995,5,0,3:0:0:0:
492,90,120159,1,8,3:2:0:0:
500,218,120323,2,0,L|510:290,1,67.2,8|0,3:2|0:0,0:0:0:0:
389,377,120650,2,0,P|419:340|410:280,1,100.8,8|8,3:2|0:0,0:0:0:0:
416,255,120978,2,0,P|374:231|334:246,1,67.2,2|8,3:2|0:0,0:0:0:0:
246,307,121306,6,0,B|216:272|216:272|229:165,1,134.4,4|0,3:2|0:0,0:0:0:0:
305,83,121798,2,0,P|271:110|227:108,1,67.2,2|0,0:0|0:0,0:0:0:0:
320,1,122126,2,0,P|352:8|376:30,1,67.2,2|0,0:0|0:0,0:0:0:0:
361,144,122454,1,2,0:0:0:0:
205,52,122618,5,10,3:2:0:0:
291,83,122782,1,2,0:2:0:0:
138,141,122946,1,10,3:2:0:0:
104,0,123110,1,2,0:0:0:0:
234,171,123273,6,0,L|229:209,3,33.6,8|0|0|0,0:1|3:0|3:0|3:0,0:0:0:0:
173,249,123601,1,0,3:0:0:0:
152,251,123682,1,0,3:0:0:0:
132,253,123764,1,0,3:0:0:0:
112,256,123846,1,0,3:0:0:0:
92,258,123929,6,0,L|23:267,1,50.3999984619141,2|0,0:3|0:0,0:0:0:0:
0,360,124257,2,0,L|69:369,1,50.3999984619141,2|0,0:3|0:0,0:0:0:0:
185,325,124585,1,2,0:3:0:0:
125,178,124749,1,0,3:0:0:0:
81,255,124913,1,8,0:2:0:0:
239,194,125077,6,0,B|281:180|323:201|333:235|333:235|311:263|271:252,1,151.199995385742,4|8,3:2|0:0,0:0:0:0:
192,133,125569,2,0,B|199:67|199:67|221:52|230:19,1,113.399996539307,4|0,3:1|0:0,0:0:0:0:
150,6,125896,5,2,0:2:0:0:
138,8,126224,2,0,L|99:3,3,25.1999992309571,2|0|0|0,0:2|0:0|0:0|0:0,0:0:0:0:
53,45,126552,6,0,L|43:150,1,88.1999973083497,6|0,3:1|0:0,0:0:0:0:
223,237,126880,2,0,L|214:149,1,88.1999973083497,10|0,3:1|0:0,0:0:0:0:
0,208,127208,2,0,P|44:230|115:188,1,132.299995962525,2|2,3:1|0:1,0:0:0:0:
138,157,127536,2,0,P|190:135|245:161,1,88.1999973083497,8|2,3:1|0:1,0:0:0:0:
319,305,127864,5,0,3:0:0:0:
350,149,128028,1,2,0:1:0:0:
247,350,128191,1,10,3:1:0:0:
196,222,128355,1,2,0:1:0:0:
400,259,128519,2,0,B|488:276|488:276|516:317,1,132.299995962525,2|2,3:1|0:1,0:0:0:0:
498,353,128847,2,0,P|459:375|395:360,1,88.1999973083497,8|2,3:1|0:1,0:0:0:0:
331,178,129175,6,0,B|298:207|298:207|292:262,1,88.1999973083497,2|0,3:1|0:0,0:0:0:0:
493,185,129503,2,0,B|488:140|488:140|455:111,1,88.1999973083497,10|0,3:1|0:0,0:0:0:0:
294,30,129831,2,0,B|241:23|241:23|214:33|214:33|155:26,1,132.299995962525,2|2,3:1|0:1,0:0:0:0:
128,0,130159,2,0,P|92:34|89:79,1,88.1999973083497,8|2,3:1|0:1,0:0:0:0:
165,194,130487,5,0,3:0:0:0:
0,122,130650,1,2,0:1:0:0:
99,74,130814,1,10,3:1:0:0:
17,256,130978,1,2,0:1:0:0:
208,126,131142,5,2,3:1:0:0:
246,148,131224,2,0,L|260:245,1,88.1999973083497,8|0,0:3|0:0,0:0:0:0:
216,284,131470,2,0,P|262:244|293:251,1,54.5999975006105,8|0,3:1|0:0,0:0:0:0:
386,304,131634,1,8,3:0:0:0:
386,304,131716,1,8,0:3:0:0:
386,304,131798,6,0,P|394:351|360:395,1,88.1999973083497,6|0,3:1|0:0,0:0:0:0:
268,228,132126,2,0,P|304:197|359:205,1,88.1999973083497,10|0,3:1|0:0,0:0:0:0:
204,359,132454,2,0,B|167:369|138:348|138:348|108:325|69:336,1,132.299995962525,2|2,3:1|0:1,0:0:0:0:
42,308,132782,2,0,B|7:335|7:335|13:378,1,88.1999973083497,8|2,3:1|0:1,0:0:0:0:
161,253,133110,1,0,3:0:0:0:
5,212,133273,1,2,0:1:0:0:
188,145,133437,1,10,3:1:0:0:
145,257,133601,1,2,0:1:0:0:
14,118,133765,6,0,P|-8:57|49:3,1,132.299995962525,2|2,3:1|0:1,0:0:0:0:
74,1,134093,2,0,P|123:19|140:61,1,88.1999973083497,8|2,3:1|0:1,0:0:0:0:
271,146,134421,6,0,B|283:112|261:82|261:82|240:51|251:16,1,132.299995962525,4|0,3:2|0:0,0:0:0:0:
324,39,134749,1,10,0:1:0:0:
195,125,134913,2,0,P|174:174|205:226,1,88.1999973083497,6|0,3:1|0:0,0:0:0:0:
283,142,135241,5,2,3:1:0:0:
91,223,135405,1,10,0:1:0:0:
262,287,135569,5,4,3:2:0:0:
261,301,135896,5,2,3:1:0:0:
261,301,135978,1,0,3:0:0:0:
261,301,136060,2,0,P|222:331|171:318,1,88.1999973083497,10|2,3:1|0:1,0:0:0:0:
300,129,136388,2,0,P|348:122|386:159,1,88.1999973083497,10|0,0:1|3:0,0:0:0:0:
512,275,136716,1,10,0:1:0:0:
333,336,136880,1,10,0:1:0:0:
484,203,137044,6,0,L|495:111,1,88.1999973083497,6|0,3:1|0:0,0:0:0:0:
339,0,137372,2,0,L|349:87,1,88.1999973083497,10|0,3:1|0:0,0:0:0:0:
228,184,137700,2,0,P|169:217|99:198,1,132.299995962525,2|2,3:1|0:1,0:0:0:0:
78,172,138028,2,0,P|44:147|-9:155,1,88.1999973083497,8|2,3:1|0:1,0:0:0:0:
70,304,138355,5,0,3:0:0:0:
159,135,138519,1,2,0:1:0:0:
228,306,138683,1,10,3:1:0:0:
86,182,138847,1,2,0:1:0:0:
0,353,139011,2,0,P|59:386|129:367,1,132.299995962525,2|2,3:1|0:1,0:0:0:0:
143,335,139339,2,0,P|193:313|232:325,1,88.1999973083497,8|2,3:1|0:1,0:0:0:0:
323,181,139667,6,0,B|298:145|298:145|245:134,1,88.1999973083497,2|0,3:1|0:0,0:0:0:0:
327,357,139995,2,0,B|370:353|370:353|406:313,1,88.1999973083497,10|0,3:1|0:0,0:0:0:0:
218,218,140323,2,0,L|117:232,1,88.1999973083497,2|0,3:1|0:0,0:0:0:0:
281,287,140650,1,10,0:1:0:0:
380,105,140814,6,0,P|450:143|440:233,1,176.399994616699,6|2,3:1|3:1,0:0:0:0:
512,369,141306,2,0,P|458:370|429:325,1,88.1999973083497,8|0,0:1|0:0,0:0:0:0:
339,217,141634,5,0,3:0:0:0:
339,217,141716,1,0,3:0:0:0:
339,217,141798,1,10,0:1:0:0:
240,338,141962,1,0,3:0:0:0:
203,177,142126,1,10,0:1:0:0:
204,159,142207,1,0,3:0:0:0:
206,141,142290,6,0,B|238:109|238:109|299:120,1,88.1999973083497,6|2,3:1|3:2,0:0:0:0:
251,304,142618,1,8,0:1:0:0:
87,173,142782,2,0,B|75:129|75:129|103:96,1,88.1999973083497,4|0,3:1|0:0,0:0:0:0:
246,295,143110,2,0,B|214:327|214:327|171:318,1,88.1999973083497,0|8,3:0|0:1,0:0:0:0:
20,219,143437,6,0,B|-9:257|-9:257|7:385,1,176.399994616699,4|0,3:2|3:0,0:0:0:0:
183,285,143929,2,0,P|213:238|285:241,1,132.299995962525,8|0,0:1|0:0,0:0:0:0:
321,216,144257,2,0,P|347:176|332:132,1,88.1999973083497,2|2,3:2|0:0,0:0:0:0:
156,202,144585,2,0,P|147:244|172:278,1,88.1999973083497,8|2,3:1|0:2,0:0:0:0:
218,39,144913,6,0,L|130:50,1,88.1999973083497,2|0,3:2|0:0,0:0:0:0:
15,0,145241,1,10,0:1:0:0:
180,119,145405,6,0,L|168:206,1,88.1999973083497,2|0,3:1|0:0,0:0:0:0:
230,34,145732,1,2,3:1:0:0:
83,152,145896,1,10,0:1:0:0:
260,174,146060,6,0,L|347:185,1,88.1999973083497,2|0,3:1|0:0,0:0:0:0:
175,217,146388,1,2,3:1:0:0:
298,85,146552,1,10,0:1:0:0:
159,223,146716,6,0,P|166:293|234:323,1,132.299995962525,2|8,3:1|0:0,0:0:0:0:
257,309,147044,2,0,P|289:347|282:390,1,88.1999973083497,2|0,3:1|3:0,0:0:0:0:
317,222,147372,1,10,0:1:0:0:
334,220,147453,1,8,0:1:0:0:
352,218,147536,6,0,L|405:229,3,44.0999986541748,4|0|0|0,3:2|3:2|3:2|3:2,3:2:0:0:
348,143,147864,2,0,L|399:126,3,44.0999986541748,2|0|10|0,3:2|3:2|3:2|3:2,3:2:0:0:
307,80,148191,2,0,L|343:39,3,44.0999986541748,8|0|8|0,3:2|3:2|3:2|3:2,3:2:0:0:
240,45,148519,2,0,L|251:-9,1,44.0999986541748,8|0,3:2|3:0,0:0:0:0:
165,100,148683,5,8,3:2:0:0:
477,0,150159,6,0,P|510:37|507:74,1,75.5999976928712,4|0,3:1|0:0,0:0:0:0:
411,110,150487,2,0,P|378:147|395:244,1,151.199995385742,10|0,3:2|0:0,0:0:0:0:
512,211,150978,2,0,P|477:184|427:194,1,75.5999976928712,2|0,3:2|0:0,0:0:0:0:
278,271,151306,6,0,L|287:181,1,75.5999976928712,10|0,3:2|0:0,0:0:0:0:
231,109,151634,1,2,3:2:0:0:
348,29,151798,2,0,B|412:23|412:23|434:8|434:8|504:1,2,151.199995385742,10|2|8,3:2|3:2|3:2,0:0:0:0:
222,99,152618,1,0,0:0:0:0:
207,97,152699,1,0,0:0:0:0:
192,78,152782,6,0,P|186:41|209:13,1,75.5999976928712,2|0,3:2|0:0,0:0:0:0:
289,151,153110,2,0,P|251:208|186:197,1,113.399996539307,10|0,3:2|0:0,0:0:0:0:
177,193,153437,1,0,0:0:0:0:
251,294,153601,2,0,P|255:341|225:381,1,75.5999976928712,2|0,3:2|0:0,0:0:0:0:
99,219,153929,6,0,P|137:192|187:198,1,75.5999976928712,10|0,3:2|0:0,0:0:0:0:
119,322,154257,1,2,3:2:0:0:
2,287,154421,1,10,3:2:0:0:
106,325,154585,1,0,0:0:0:0:
96,207,154749,5,2,3:2:0:0:
69,180,154831,2,0,P|60:125|93:81,1,113.399996539307,8|10,3:2|0:2,0:0:0:0:
13,0,155241,1,8,0:0:0:0:
13,0,155323,1,8,0:0:0:0:
13,0,155405,6,0,L|4:88,1,75.5999976928712,4|0,3:1|0:0,0:0:0:0:
83,174,155732,2,0,P|123:144|171:150,1,75.5999976928712,10|0,3:2|0:0,0:0:0:0:
181,160,155978,1,0,0:0:0:0:
181,160,156060,1,0,0:0:0:0:
118,71,156224,1,2,3:2:0:0:
255,148,156388,1,0,0:0:0:0:
145,249,156552,6,0,B|108:236|73:267|73:267|39:298|0:285,1,151.199995385742,10|2,3:2|3:2,0:0:0:0:
130,323,157044,1,8,3:2:0:0:
20,211,157208,1,0,3:0:0:0:
101,143,157372,5,10,3:2:0:0:
125,145,157453,1,8,3:2:0:0:
149,148,157535,1,0,3:2:0:0:
174,150,157617,1,0,3:2:0:0:
198,166,157700,6,0,L|242:158,3,37.7999988464356,10|0|8|0,3:2|3:2|3:2|3:2,3:2:0:0:
310,173,158028,6,0,B|318:126|283:96|283:96|248:66|266:16|266:16|307:0|341:8|355:50|355:50|389:18|433:31,1,352.799989233399,4|0,3:2|0:0,0:0:0:0:
506,61,159175,1,2,0:0:0:0:
501,96,159256,1,2,0:0:0:0:
494,134,159339,6,0,B|454:169|461:243|461:243|440:171|382:154,2,235.199992822266,2|2|4,0:0|0:3|3:1,0:0:0:0:
509,224,171142,6,0,B|473:216|438:238|438:238|425:272|385:294,1,134.4,4|0,3:1|3:0,0:0:0:0:
351,210,171634,1,2,0:0:0:0:
233,309,171798,2,0,P|218:253|272:179,1,134.4,2|0,3:2|3:0,0:0:0:0:
127,14,172454,6,0,P|161:69|147:133,1,134.4,2|0,3:2|3:0,0:0:0:0:
113,288,172946,1,2,0:0:0:0:
113,288,173028,1,2,0:0:0:0:
113,288,173110,2,0,P|72:287|45:260,1,67.2,6|2,3:2|0:0,0:0:0:0:
0,177,173437,2,0,P|37:157|73:167,1,67.2,2|2,3:2|0:0,0:0:0:0:
242,229,173765,6,0,B|296:222|296:222|320:208|320:208|391:201,1,134.4,4|0,3:1|3:0,0:0:0:0:
401,107,174257,1,2,0:0:0:0:
464,266,174421,2,0,B|513:215|513:215|483:140|484:140,1,134.4,2|0,3:2|3:0,0:0:0:0:
231,67,175077,6,0,B|237:51|207:126|207:126|256:177,1,134.4,2|0,3:2|3:0,0:0:0:0:
382,292,175569,1,2,0:0:0:0:
382,292,175650,1,2,0:0:0:0:
382,292,175732,2,0,L|372:368,1,67.2,6|2,3:2|0:0,0:0:0:0:
262,384,176060,2,0,L|253:317,1,67.2,2|2,3:2|0:0,0:0:0:0:
153,171,176388,6,0,B|116:160|87:181|87:181|56:203|19:191,1,134.4,4|0,3:1|3:0,0:0:0:0:
74,278,176880,1,2,0:0:0:0:
245,217,177044,2,0,P|260:154|214:109,1,134.4,2|0,3:2|3:0,0:0:0:0:
410,0,177700,6,0,B|436:28|436:28|420:129,1,134.4,2|0,3:2|3:2,0:0:0:0:
356,205,178191,1,2,0:0:0:0:
356,205,178273,1,2,0:0:0:0:
356,205,178355,1,2,3:2:0:0:
439,355,178519,1,2,0:0:0:0:
350,327,178683,1,2,3:2:0:0:
512,253,178847,1,2,0:0:0:0:
339,200,179011,6,0,P|306:143|327:82,1,134.4,4|0,3:1|3:0,0:0:0:0:
368,5,179503,1,2,0:0:0:0:
512,83,179667,2,0,P|513:116|498:145,1,67.2,2|0,3:2|0:0,0:0:0:0:
350,195,179995,2,0,P|379:179|412:181,1,67.2,0|2,3:0|0:0,0:0:0:0:
449,202,180241,1,0,0:0:0:0:
449,202,180323,6,0,P|473:248|425:340,1,151.199995385742,2|0,3:2|3:0,0:0:0:0:
335,384,180815,1,0,3:0:0:0:
261,207,180979,2,0,P|301:185|353:197,1,75.5999976928712,0|0,3:0|3:0,0:0:0:0:
221,362,181307,2,0,L|208:278,1,75.5999976928712,8|0,3:1|3:0,0:0:0:0:
107,119,181634,6,0,B|83:61|83:61|130:2,1,126,4|0,3:1|3:0,0:0:0:0:
163,3,181962,1,8,3:1:0:0:
257,91,182126,2,0,L|157:70,1,84,0|0,3:0|0:0,0:0:0:0:
1,22,182454,1,0,3:0:0:0:
119,121,182618,1,8,0:1:0:0:
14,202,182782,6,0,B|-16:235|-16:235|1:365,1,168,4|0,3:2|3:0,0:0:0:0:
148,310,183273,1,8,0:1:0:0:
67,268,183437,1,0,0:0:0:0:
96,374,183601,1,0,3:0:0:0:
154,173,183765,1,0,0:0:0:0:
272,343,183929,1,8,3:1:0:0:
135,306,184093,1,0,0:0:0:0:
320,227,184257,6,0,P|383:203|471:266,1,168,4|0,3:2|3:0,0:0:0:0:
481,257,184913,2,0,L|468:165,1,84,0|0,3:0|0:0,0:0:0:0:
308,225,185241,2,0,L|296:308,1,84,8|0,3:2|3:0,0:0:0:0:
394,86,185569,5,2,3:2:0:0:
394,86,185732,1,0,3:0:0:0:
183,147,185896,1,8,3:2:0:0:
183,147,186059,1,0,3:0:0:0:
279,0,186225,5,2,3:2:0:0:
298,20,186306,1,0,3:0:0:0:
308,47,186388,1,2,3:2:0:0:
308,75,186470,1,0,3:0:0:0:
298,102,186552,2,0,P|284:132|327:218,1,126,2|0,3:2|0:0,0:0:0:0:
358,221,186879,5,4,0:0:0:0:
245,339,197372,6,0,P|244:288|229:270,1,63.0000024032594,4|0,3:1|0:0,0:0:0:0:
148,293,197700,2,0,P|149:344|164:362,1,63.0000024032594,10|0,3:2|0:0,0:0:0:0:
183,211,198028,2,0,B|161:190|161:190|97:197,1,94.500003604889,2|2,3:2|0:0,0:0:0:0:
73,218,198355,2,0,L|-19:230,1,63.0000024032594,8|2,3:2|0:0,0:0:0:0:
131,119,198683,5,0,3:0:0:0:
32,78,198847,2,0,P|1:45|6:3,2,63.0000024032594,2|10|2,0:2|3:2|0:2,0:0:0:0:
155,36,199339,2,0,P|185:4|254:11,1,94.500003604889,2|2,3:2|0:0,0:0:0:0:
260,16,199667,2,0,P|311:31|334:21,1,63.0000024032594,8|2,3:2|0:0,0:0:0:0:
413,71,199995,6,0,B|394:99|394:99|407:147,1,63.0000024032594,2|0,3:2|0:0,0:0:0:0:
488,140,200323,2,0,B|507:112|507:112|494:64,1,63.0000024032594,10|0,3:2|0:0,0:0:0:0:
345,178,200650,2,0,L|362:326,1,126.000004806519,2|10,3:2|3:2,0:0:0:0:
272,361,201142,5,2,3:2:0:0:
436,255,201470,1,2,3:2:0:0:
252,162,201798,2,0,L|246:233,1,39.8999989345551,0|0,3:0|0:0,0:0:0:0:
290,275,201962,5,8,3:2:0:0:
164,183,202126,1,2,3:2:0:0:
264,161,202290,1,8,3:2:0:0:
137,293,202454,1,2,3:2:0:0:
87,131,202618,6,0,B|92:76|92:76|102:53|102:53|110:-20,1,134.4,6|8,3:2|3:2,0:0:0:0:
224,74,203110,2,0,P|178:89|157:120,1,67.2,2|0,0:0|3:0,0:0:0:0:
18,104,203437,2,0,P|64:119|85:150,1,67.2,2|8,0:0|3:2,0:0:0:0:
0,298,203765,6,0,P|-10:250|70:201,1,134.4,2|2,0:0|0:0,0:0:0:0:
134,269,204257,2,0,L|143:354,1,67.2,10|0,3:2|0:0,0:0:0:0:
246,307,204585,2,0,L|237:392,1,67.2,2|0,3:2|0:0,0:0:0:0:
345,229,204913,2,0,P|310:208|271:215,1,67.2,10|0,3:2|0:0,0:0:0:0:
184,159,205241,5,2,3:2:0:0:
278,105,205405,2,0,P|307:70|311:37,1,67.2,2|8,3:2|3:2,0:0:0:0:
197,0,205732,5,4,3:2:0:0:
425,40,206060,1,12,3:2:0:0:
276,217,206388,6,0,L|263:342,1,113.399996539307,4|0,3:1|0:0,0:0:0:0:
318,383,206716,2,0,P|340:366|367:365,1,37.7999988464356,0|0,3:0|0:0,0:0:0:0:
419,327,206880,2,0,P|444:337|459:360,3,37.7999988464356,8|0|0|0,3:2|0:0|0:0|0:0,0:0:0:0:
512,384,207208,5,0,3:0:0:0:
400,257,207372,2,0,L|408:315,1,58.7999982055665,8|0,3:2|0:0,0:0:0:0:
498,221,207700,5,8,3:2:0:0:
498,221,207864,1,4,3:2:0:0:
390,99,208028,1,0,3:0:0:0:
339,197,208191,1,8,3:2:0:0:
476,84,208355,6,0,P|450:30|414:22,1,79.7999978691102,2|0,3:2|3:0,0:0:0:0:
242,142,208683,1,0,3:0:0:0:
376,104,208846,1,8,3:2:0:0:
239,16,209011,6,0,L|148:6,1,88.1999973083497,2|0,3:2|3:0,0:0:0:0:
349,27,209339,1,8,0:2:0:0:
185,92,209503,1,8,3:2:0:0:
297,209,209667,1,8,3:2:0:0:
130,293,209831,6,0,L|80:278,3,48.3000009212494,8|0|8|8,3:2|3:2|3:2|3:2,3:2:0:0:
55,239,210159,2,0,L|5:254,3,48.3000009212494,8|0|0|0,3:2|3:2|3:2|3:2,3:2:0:0:
270,349,211798,5,10,3:2:0:0:
350,117,212126,1,10,3:2:0:0:
143,173,212454,5,10,3:2:0:0:
321,141,212700,5,10,3:2:0:0:
260,312,212946,5,10,3:2:0:0:
303,157,213273,5,10,3:2:0:0:
257,285,213437,1,10,3:2:0:0:
321,141,213765,6,0,P|337:207|305:250,1,92.4000028198243,10|0,3:2|0:0,0:0:0:0:
260,312,214011,6,0,P|193:293|172:243,1,92.4000028198243,10|0,3:2|0:0,0:0:0:0:
143,173,214257,5,10,3:2:0:0:
341,70,214421,5,10,3:2:0:0:
421,302,214749,1,10,3:2:0:0:
331,107,215077,6,0,P|285:110|251:140,1,92.4000028198243,10|0,3:2|0:0,0:0:0:0:
214,246,215323,6,0,P|241:282|284:295,1,92.4000028198243,10|0,3:2|0:0,0:0:0:0:
392,278,215569,5,10,3:2:0:0:
361,15,216552,5,0,3:0:0:0:
236,53,216716,6,0,B|204:56|175:88|175:88|169:50|209:24|243:38,1,170.10000064888,8|0,0:1|0:0,0:0:0:0:
308,90,217044,6,0,P|316:135|286:183,1,92.4000028198243,6|0,3:1|0:0,0:0:0:0:
137,233,217372,2,0,P|171:203|228:205,1,92.4000028198243,10|0,3:1|0:0,0:0:0:0:
310,345,217700,6,0,B|269:371|269:371|147:355,1,138.600004229736,2|2,3:1|0:1,0:0:0:0:
140,334,218028,2,0,L|126:220,1,92.4000028198243,8|2,3:1|0:1,0:0:0:0:
0,137,218355,1,0,3:0:0:0:
167,160,218519,1,2,0:1:0:0:
18,243,218683,1,8,3:1:0:0:
117,68,218847,1,2,0:1:0:0:
261,149,219011,6,0,P|293:194|275:279,1,138.600004229736,2|0,3:1|0:0,0:0:0:0:
241,298,219339,2,0,P|238:360|278:387,1,92.4000028198243,8|0,3:1|0:0,0:0:0:0:
435,321,219667,6,0,B|452:288|431:255|431:255|411:221|427:185,1,138.600004229736,6|0,3:1|0:0,0:0:0:0:
489,143,219995,1,10,0:1:0:0:
423,16,220159,6,0,P|383:-5|338:0,1,92.4000028198243,6|0,3:1|0:0,0:0:0:0:
363,122,220487,1,2,3:1:0:0:
511,22,220650,1,10,0:1:0:0:
330,6,220814,5,2,3:1:0:0:
326,22,221142,5,2,3:1:0:0:
326,22,221224,1,0,3:0:0:0:
326,22,221306,2,0,P|288:61|307:105,1,92.4000028198243,10|2,3:1|3:1,0:0:0:0:
487,156,221634,2,0,P|472:103|424:98,1,92.4000028198243,10|0,0:1|3:0,0:0:0:0:
265,243,221962,1,10,0:1:0:0:
433,219,222126,1,10,0:1:0:0:
287,94,222290,5,2,0:1:0:0:
287,94,222454,1,0,3:0:0:0:
362,283,222618,2,0,B|371:330|371:330|328:377,1,92.4000028198243,14|0,3:1|0:0,0:0:0:0:
186,205,222946,2,0,B|239:158|239:158|330:179,1,138.600004229736,2|2,3:1|0:1,0:0:0:0:
345,197,223273,2,0,B|392:206|392:206|424:175,1,92.4000028198243,8|2,3:1|0:1,0:0:0:0:
323,0,223601,5,0,3:0:0:0:
234,132,223765,1,2,0:1:0:0:
369,75,223929,1,10,3:1:0:0:
181,0,224093,1,2,0:1:0:0:
244,140,224257,2,0,P|265:202|224:255,1,138.600004229736,2|2,3:1|0:1,0:0:0:0:
179,265,224585,2,0,P|124:288|107:336,1,92.4000028198243,8|2,3:1|0:1,0:0:0:0:
14,182,224913,6,0,L|3:91,1,92.4000028198243,2|0,3:1|0:0,0:0:0:0:
194,3,225241,2,0,L|183:94,1,92.4000028198243,10|0,3:1|0:0,0:0:0:0:
315,266,225569,2,0,L|224:255,1,92.4000028198243,2|0,3:1|0:0,0:0:0:0:
85,65,225896,1,10,0:1:0:0:
277,18,226060,6,0,B|318:1|356:23|356:23|375:45|375:45|413:66|458:50,1,184.800005639649,2|2,3:1|3:1,0:0:0:0:
329,173,226552,2,0,P|300:129|328:83,1,92.4000028198243,8|0,0:1|0:0,0:0:0:0:
491,150,226880,5,0,3:0:0:0:
459,183,226962,2,0,L|444:306,1,92.4000028198243,0|2,3:0|0:1,0:0:0:0:
497,328,227208,2,0,P|474:292|423:281,1,56.7000002162933,8|0,0:1|0:0,0:0:0:0:
328,353,227372,1,10,0:1:0:0:
328,353,227454,1,8,0:1:0:0:
328,353,227536,6,0,P|371:379|413:367,1,92.4000028198243,6|0,3:1|0:0,0:0:0:0:
447,177,227864,2,0,P|402:168|365:193,1,92.4000028198243,8|0,3:1|0:0,0:0:0:0:
205,327,228191,2,0,P|162:353|120:341,1,92.4000028198243,2|0,3:2|0:0,0:0:0:0:
86,151,228519,2,0,P|130:142|167:167,1,92.4000028198243,8|0,3:1|0:0,0:0:0:0:
362,110,228847,6,0,B|389:72|389:72|376:22,1,92.4000028198243,2|0,3:2|0:0,0:0:0:0:
215,0,229175,2,0,B|187:37|187:37|200:87,1,92.4000028198243,8|0,3:1|0:0,0:0:0:0:
280,204,229503,1,0,3:0:0:0:
165,252,229667,2,0,L|65:242,1,92.4000028198243,2|8,0:1|3:1,0:0:0:0:
181,159,229995,1,2,0:1:0:0:
240,349,230159,6,0,P|272:385|324:376,1,92.4000028198243,2|0,3:1|0:0,0:0:0:0:
345,147,230487,2,0,P|296:156|278:206,1,92.4000028198243,8|2,3:1|0:0,0:0:0:0:
458,316,230814,2,0,L|465:266,3,46.2000014099122,0|0|2|0,3:0|0:0|0:0|0:0,0:0:0:0:
512,207,231142,2,0,L|505:157,3,46.2000014099122,8|0|0|0,3:1|0:0|0:0|0:0,0:0:0:0:
445,117,231470,6,0,B|467:76|467:76|520:64,1,92.4000028198243,2|0,3:2|0:0,0:0:0:0:
322,83,231798,2,0,B|297:43|297:43|313:-8,1,92.4000028198243,8|0,3:1|0:0,0:0:0:0:
225,164,232126,5,2,3:2:0:0:
194,129,232208,2,0,L|83:116,1,92.4000028198243,8|0,3:0|0:0,0:0:0:0:
58,168,232454,2,0,P|87:144|86:99,1,56.7000002162933,8|0,0:1|0:0,0:0:0:0:
30,3,232618,1,8,0:1:0:0:
30,3,232700,1,8,0:1:0:0:
30,3,232782,6,0,P|-2:39|17:99,1,92.4000028198243,4|0,3:1|0:0,0:0:0:0:
191,118,233110,1,10,0:1:0:0:
97,265,233273,6,0,L|2:255,1,92.4000028198243,2|0,3:1|0:0,0:0:0:0:
97,101,233601,1,2,3:1:0:0:
200,214,233765,1,10,0:1:0:0:
308,63,233929,6,0,L|403:73,1,92.4000028198243,2|0,3:1|0:0,0:0:0:0:
308,227,234257,1,2,3:1:0:0:
205,114,234421,1,10,0:1:0:0:
96,254,234585,6,0,P|81:297|159:351,1,138.600004229736,2|8,3:1|0:1,0:0:0:0:
185,371,234913,2,0,P|226:332|225:289,1,92.4000028198243,2|0,3:1|3:0,0:0:0:0:
323,152,235241,1,10,0:1:0:0:
341,148,235322,1,8,0:1:0:0:
359,144,235405,6,0,P|390:155|407:185,3,46.2000014099122,4|0|0|0,3:2|3:2|3:2|3:2,3:2:0:0:
467,198,235732,2,0,P|472:230|455:260,3,46.2000014099122,2|0|10|0,3:2|3:2|3:2|3:2,3:2:0:0:
474,318,236060,2,0,P|448:339|414:339,3,46.2000014099122,8|0|8|0,3:2|3:2|3:2|3:2,3:2:0:0:
373,384,236388,2,0,P|342:372|326:339,1,46.2000014099122,8|0,3:2|3:0,3:2:0:0:
390,261,236552,5,8,3:2:0:0:
381,254,238028,6,0,B|319:241|272:287|272:287|223:333|165:318,1,235.199992822266,4|2,3:1|3:0,0:0:0:0:
162,308,239339,5,2,3:0:0:0:
158,297,239667,1,0,3:0:0:0:
155,285,239995,6,0,L|94:273,1,42,2|0,3:0|0:0,0:0:0:0:
81,211,240159,2,0,L|20:223,1,42
11,293,240323,6,0,B|50:308|64:354|64:354|66:305|101:280,1,170.10000064888,2|0,0:0|0:0,0:0:0:0:
75,202,240650,6,0,P|46:145|115:44,1,184.800005639649,4|8,3:1|3:2,0:0:0:0:
247,18,241142,1,2,0:0:0:0:
214,146,241306,2,0,B|167:156|167:156|119:122,1,92.4000028198243,2|0,3:2|0:0,0:0:0:0:
336,72,241634,2,0,B|368:107|368:107|362:165,1,92.4000028198243,10|0,3:2|0:0,0:0:0:0:
343,193,241880,1,0,0:0:0:0:
343,193,241962,5,0,3:0:0:0:
466,286,242126,2,0,P|502:242|487:196,1,92.4000028198243,2|8,0:0|3:2,0:0:0:0:
310,263,242454,1,2,0:0:0:0:
421,384,242618,2,0,L|514:370,1,92.4000028198243,2|0,3:2|0:0,0:0:0:0:
304,255,242946,2,0,L|211:241,1,92.4000028198243,10|0,3:2|0:0,0:0:0:0:
327,77,243273,6,0,B|369:46|413:66|413:66|449:110|503:96,1,184.800005639649,2|8,3:2|3:2,0:0:0:0:
357,186,243765,1,2,0:0:0:0:
258,31,243929,2,0,P|218:6|171:17,1,92.4000028198243,2|0,3:2|0:0,0:0:0:0:
167,200,244257,2,0,P|208:177|222:131,1,92.4000028198243,10|0,3:2|0:0,0:0:0:0:
208,92,244503,1,0,0:0:0:0:
208,92,244585,5,0,3:0:0:0:
273,233,244749,1,2,0:0:0:0:
125,281,244913,1,10,3:2:0:0:
156,192,245077,1,2,0:0:0:0:
35,121,245241,5,2,3:2:0:0:
5,156,245323,2,0,L|18:263,1,92.4000028198243,8|0,3:2|0:0,0:0:0:0:
67,303,245569,2,0,P|91:280|130:279,1,56.7000002162933,10|0,0:0|0:0,0:0:0:0:
223,373,245732,1,8,0:0:0:0:
223,373,245814,1,8,0:0:0:0:
223,373,245896,6,0,B|189:339|189:339|204:197,1,184.800005639649,4|8,3:1|3:2,0:0:0:0:
277,78,246388,1,2,0:0:0:0:
365,183,246552,2,0,P|321:224|284:219,1,92.4000028198243,2|0,3:2|0:0,0:0:0:0:
374,44,246880,2,0,P|433:54|451:87,1,92.4000028198243,10|0,3:2|0:0,0:0:0:0:
446,124,247126,1,0,0:0:0:0:
446,124,247208,5,0,3:0:0:0:
268,74,247372,2,0,L|171:91,1,92.4000028198243,2|8,0:0|3:2,0:0:0:0:
122,217,247700,1,2,0:0:0:0:
43,102,247864,2,0,B|37:56|37:56|73:21,1,92.4000028198243,2|0,3:2|0:0,0:0:0:0:
214,205,248191,2,0,B|177:231|177:231|128:219,1,92.4000028198243,10|0,3:2|0:0,0:0:0:0:
14,352,248519,6,0,P|61:313|126:340,1,119.699996803665,2|0,3:2|3:0,0:0:0:0:
143,353,248847,2,0,B|176:374|176:374|230:360,1,79.7999978691102,8|10,0:0|0:0,0:0:0:0:
302,188,249175,1,0,3:0:0:0:
302,188,249257,1,8,0:0:0:0:
302,188,249339,1,0,3:0:0:0:
373,304,249503,1,10,0:2:0:0:
193,275,249667,1,8,0:0:0:0:
315,186,249831,5,0,3:0:0:0:
178,101,249995,2,0,P|179:140|206:168,1,79.7999978691102,2|8,0:0|3:2,0:0:0:0:
297,41,250323,1,2,0:0:0:0:
132,10,250487,5,2,3:2:0:0:
111,13,250568,1,8,3:2:0:0:
90,17,250650,1,0,3:0:0:0:
70,20,250732,1,0,3:0:0:0:
49,24,250814,2,0,L|-21:35,3,39.8999989345551,10|0|8|8,3:2|3:2|3:2|3:2,3:2:0:0:
42,105,251142,6,0,B|35:174|35:174|10:215|10:215|3:281,1,184.800005639649,4|8,3:1|3:2,0:0:0:0:
82,373,251634,1,2,0:0:0:0:
216,273,251798,2,0,P|181:248|127:261,1,92.4000028198243,2|0,3:2|0:0,0:0:0:0:
307,343,252126,2,0,P|336:308|332:263,1,92.4000028198243,10|0,3:2|0:0,0:0:0:0:
304,226,252372,1,0,0:0:0:0:
304,226,252454,5,0,3:0:0:0:
434,161,252618,2,0,B|478:173|478:173|500:216,1,92.4000028198243,2|8,0:0|3:2,0:0:0:0:
430,325,252946,1,2,0:0:0:0:
291,223,253110,2,0,B|279:178|279:178|305:138,1,92.4000028198243,2|0,3:2|0:0,0:0:0:0:
448,43,253437,2,0,B|412:72|412:72|365:65,1,92.4000028198243,10|0,3:2|0:0,0:0:0:0:
234,4,253765,6,0,P|175:10|115:119,1,184.800005639649,2|8,3:2|3:2,0:0:0:0:
254,230,254257,2,0,P|244:185|205:154,1,92.4000028198243,2|2,0:0|3:2,0:0:0:0:
191,302,254585,5,0,0:0:0:0:
361,349,254749,2,0,P|394:318|402:268,1,92.4000028198243,10|0,3:2|0:0,0:0:0:0:
254,366,255077,5,0,3:0:0:0:
100,254,255241,2,0,L|113:160,1,92.4000028198243,2|10,0:0|3:2,0:0:0:0:
76,382,255569,5,2,0:0:0:0:
4,214,255732,1,2,3:2:0:0:
4,214,255814,1,8,3:2:0:0:
4,214,255896,1,0,3:0:0:0:
94,378,256060,5,10,0:0:0:0:
244,266,256223,1,8,0:0:0:0:
244,266,256305,1,8,0:0:0:0:
244,266,256388,6,0,B|291:242|334:272|334:272|380:302|429:281,1,184.800005639649,4|8,3:1|3:2,0:0:0:0:
382,147,256880,1,2,0:0:0:0:
236,275,257044,2,0,L|258:392,1,92.4000028198243,2|0,3:2|0:0,0:0:0:0:
428,294,257372,2,0,L|445:203,1,92.4000028198243,10|0,3:2|0:0,0:0:0:0:
483,175,257618,1,0,0:0:0:0:
483,175,257700,5,0,3:0:0:0:
323,221,257864,2,0,P|270:204|253:164,1,92.4000028198243,2|8,0:0|3:2,0:0:0:0:
354,14,258191,1,2,0:0:0:0:
487,78,258355,2,0,P|498:132|472:167,1,92.4000028198243,2|0,3:2|0:0,0:0:0:0:
264,45,258683,2,0,P|305:8|348:12,1,92.4000028198243,10|0,3:2|0:0,0:0:0:0:
332,191,259011,6,0,B|258:201|258:201|226:224|226:224|142:238,1,184.800005639649,2|8,3:2|3:2,0:0:0:0:
9,160,259503,1,2,0:0:0:0:
154,252,259667,2,0,B|167:297|167:297|133:343,1,92.4000028198243,2|0,3:2|0:0,0:0:0:0:
0,154,259995,2,0,B|32:120|32:120|89:126,1,92.4000028198243,10|0,3:2|0:0,0:0:0:0:
121,153,260241,1,0,0:0:0:0:
121,153,260323,5,0,3:0:0:0:
251,33,260487,2,0,P|208:3|156:17,1,92.4000028198243,10|8,0:0|3:2,0:0:0:0:
244,171,260814,1,2,0:0:0:0:
349,99,260978,5,10,3:2:0:0:
383,94,261059,1,8,0:0:0:0:
417,90,261141,1,8,0:0:0:0:
452,85,261223,1,8,0:0:0:0:
486,81,261306,2,0,L|499:26,3,46.2000014099122,10|0|0|0,3:2|3:2|3:2|3:2,3:2:0:0:
469,155,261634,6,0,B|458:199|458:199|493:245,2,88.1999973083497,2|0|0,0:3|0:0|0:0,0:0:0:0:
417,90,262290,2,0,P|371:99|348:124,1,58.7999982055665,0|2,0:0|0:3,0:0:0:0:
347,131,262536,1,2,0:3:0:0:
347,131,262618,2,0,P|321:145|292:146,1,58.7999982055665,0|2,0:0|0:3,0:0:0:0:
267,130,262864,1,0,0:0:0:0:
267,130,262946,6,0,B|277:85|277:85|242:39,2,88.1999973083497,2|0|2,0:3|0:0|0:3,0:0:0:0:
175,171,263601,5,2,0:3:0:0:
72,152,263765,1,0,0:0:0:0:
54,255,263929,1,2,0:3:0:0:
158,276,264093,6,0,B|190:307|255:307|255:307|195:333|175:377|175:377|142:349|109:343,1,273,2|0,0:0|0:0,0:0:0:0:
89,349,265241,6,0,P|85:330|76:314,4,33.6,2|2|2|2|2,0:0|0:0|0:0|0:0|0:0,0:0:0:0:
