osu file format v14

[General]
AudioFilename: audio.mp3
AudioLeadIn: 0
PreviewTime: 125968
Countdown: 0
SampleSet: Soft
StackLeniency: 0.3
Mode: 0
LetterboxInBreaks: 0
WidescreenStoryboard: 1

[Editor]
Bookmarks: 106050,253427
DistanceSpacing: 1
BeatDivisor: 4
GridSize: 32
TimelineZoom: 2

[Metadata]
Title:Kakumei no bullet
TitleUnicode:革命のbullet
Artist:ShinRa-Bansho
ArtistUnicode:森羅万象
Creator:original3s
Version:Hard
Source:東方永夜抄 ~ Imperishable Night.
Tags:casper casperisapotato Baack UberFazz touhou pop japanese kaztora revolutionary 清水"カルロス"宥人 あよ team shanghai alice zun 少女綺想曲 ~ Dream Battle ayo shoujo kisoukyoku maiden's capriccio in th08 eiyashou eternal night vignette from the east 博麗 霊夢 j-pop jpop reimu hakurei 上海アリス幻樂団 太田 順也 TH 東方Project
BeatmapID:3287654
BeatmapSetID:1590256

[Difficulty]
HPDrainRate:4.8
CircleSize:4
OverallDifficulty:7
ApproachRate:8
SliderMultiplier:1.44
SliderTickRate:1

[Events]
//Background and Video events
0,0,"z.jpg",0,0
//Break Periods
2,95277,98917
2,160850,170392
2,187080,196622
//Storyboard Layer 0 (Background)
//Storyboard Layer 1 (Fail)
//Storyboard Layer 2 (Pass)
//Storyboard Layer 3 (Foreground)
//Storyboard Layer 4 (Overlay)
//Storyboard Sound Samples

[TimingPoints]
651,327.868852459016,4,2,1,40,1,0
1962,-125,4,2,1,40,0,0
17700,-111.111111111111,4,2,1,70,0,0
49175,-125,4,2,1,70,0,0
54749,-111.111111111111,4,2,1,70,0,0
60978,-100,4,2,1,80,0,0
79831,-111.111111111111,4,2,1,80,0,0
81962,-100,4,2,1,80,0,0
84585,-111.111111111111,4,2,1,80,0,0
99667,-111.111111111111,4,2,1,70,0,0
113273,-125,4,2,1,70,0,0
115896,-111.111111111111,4,2,1,70,0,0
122618,-125,4,2,1,70,0,0
126552,-100,4,2,1,80,0,0
137044,-100,4,2,1,85,0,0
144913,-111.111111111111,4,2,1,85,0,0
150159,-125,4,2,1,75,0,0
158028,-166.666666666667,4,2,1,75,0,0
171142,-125,4,2,1,70,0,0
173765,-125,4,2,1,72,0,0
176388,-125,4,2,1,74,0,0
179011,-125,4,2,1,76,0,0
181634,-111.111111111111,4,2,1,78,0,0
184257,-125,4,2,1,80,0,0
186880,-125,4,2,1,80,0,0
197372,-125,4,2,1,70,0,0
202618,-111.111111111111,4,2,1,70,0,0
207700,-100,4,2,1,75,0,0
211798,-100,4,2,1,80,0,0
217044,-100,4,2,1,85,0,0
222618,-90.9090909090909,4,2,1,85,0,0
222946,-100,4,2,1,85,0,0
232782,-111.111111111111,4,2,1,85,0,0
235405,-100,4,2,1,85,0,0
238028,-166.666666666667,4,2,1,85,0,0
240650,-111.111111111111,4,2,1,80,0,0
245896,-111.111111111111,4,2,1,82,0,0
251142,-111.111111111111,4,2,1,84,0,0
256388,-111.111111111111,4,2,1,86,0,0
261634,-111.111111111111,4,2,1,76,0,0
264257,-111.111111111111,4,2,1,50,0,0
264585,-111.111111111111,4,2,1,30,0,0
264913,-111.111111111111,4,2,1,10,0,0
265323,-111.111111111111,4,2,1,55,0,0

[Colours]
Combo1 : 252,139,139
Combo2 : 232,202,140
Combo3 : 222,142,122
Combo4 : 245,192,230
Combo5 : 170,205,240
Combo6 : 249,77,72

[HitObjects]
23,36,1962,6,0,P|80:62|145:100,1,115.2,6|2,3:2|0:0,0:0:0:0:
163,170,2454,1,0,0:0:0:0:
163,170,2618,2,0,P|200:150|243:138,2,86.4,2|2|2,0:0|0:0|0:0,0:0:0:0:
126,250,3273,1,0,0:0:0:0:
49,223,3437,2,0,P|41:195|33:167,2,57.6,2|2|2,0:0|0:0|0:0,0:0:0:0:
121,271,3929,2,0,B|183:287|146:332|225:354,1,115.2,2|0,0:0|0:0,0:0:0:0:
446,364,4585,6,0,P|488:334|466:271,1,115.2,2|2,0:2|0:0,0:0:0:0:
366,253,5077,1,0,0:0:0:0:
366,253,5241,2,0,P|353:294|340:335,2,86.4,2|2|2,0:0|0:0|0:0,0:0:0:0:
371,155,5896,1,0,0:0:0:0:
445,183,6060,2,0,P|471:172|498:161,2,57.6,2|2|2,0:0|0:0|0:0,0:0:0:0:
370,138,6552,2,0,P|317:121|257:97,1,115.2,2|0,0:0|0:0,0:0:0:0:
197,147,7044,1,2,0:3:0:0:
217,0,7208,6,0,P|159:29|107:49,1,115.2,4|2,3:2|0:0,0:0:0:0:
74,122,7700,1,0,0:0:0:0:
74,122,7864,2,0,P|31:125|1:155,2,86.4,2|2|2,0:0|0:0|0:0,0:0:0:0:
166,156,8519,1,0,0:0:0:0:
123,230,8683,2,0,P|97:218|70:210,2,57.6,2|2|2,0:0|0:0|0:0,0:0:0:0:
161,316,9175,2,0,P|211:300|282:285,1,115.2,2|0,0:0|0:0,0:0:0:0:
481,377,9831,6,0,B|483:340|459:328|458:335|421:322|430:275,1,115.2,2|2,0:0|0:0,0:0:0:0:
457,197,10323,1,0,0:0:0:0:
457,197,10487,2,0,P|501:191|513:144,2,86.4,2|2|2,0:0|0:0|0:0,0:0:0:0:
378,150,11142,1,0,0:0:0:0:
326,212,11306,2,0,P|337:238|347:265,2,57.6,2|2|2,0:0|0:0|0:0,0:0:0:0:
234,170,11798,6,0,B|159:182|120:106|154:42|225:41|239:89,1,230.4,2|2,0:0|0:3,0:0:0:0:
256,192,12536,12,0,15077,0:0:0:0:
78,362,17700,6,0,P|34:319|57:263,1,129.599996044922,4|8,3:1|3:2,0:0:0:0:
82,169,18191,1,2,0:0:0:0:
82,169,18355,2,0,P|116:181|167:205,1,64.799998022461,2|0,3:2|0:0,0:0:0:0:
174,301,18683,2,0,P|203:288|234:277,1,64.799998022461,10|0,3:2|0:0,0:0:0:0:
297,204,19011,1,0,3:0:0:0:
371,292,19175,1,2,0:0:0:0:
371,292,19339,2,0,P|385:263|376:233,1,64.799998022461,8|2,3:2|0:0,0:0:0:0:
305,163,19667,2,0,P|335:152|365:139,1,64.799998022461,2|0,3:2|0:0,0:0:0:0:
482,67,19995,2,0,P|451:56|422:44,1,64.799998022461,10|0,3:2|0:0,0:0:0:0:
309,34,20323,6,0,B|262:46|262:46|245:75|245:75|199:88,1,129.599996044922,2|8,3:2|3:2,0:0:0:0:
92,64,20814,1,2,0:0:0:0:
92,64,20978,2,0,P|80:34|92:5,1,64.799998022461,2|0,3:2|0:0,0:0:0:0:
205,94,21306,2,0,P|216:123|204:152,1,64.799998022461,10|0,3:2|0:0,0:0:0:0:
51,201,21634,2,0,P|83:210|118:230,1,64.799998022461,0|2,3:0|0:0,0:0:0:0:
75,369,21962,2,0,P|58:346|60:310,1,64.799998022461,10|2,3:2|0:0,0:0:0:0:
190,276,22290,2,0,P|195:261|201:246,2,32.3999990112305,2|8|0,3:2|0:3|0:3,0:0:0:0:
253,339,22618,1,8,3:0:0:0:
334,276,22782,1,8,0:0:0:0:
334,276,22864,1,8,0:0:0:0:
334,276,22946,6,0,P|314:210|298:141,1,129.599996044922,4|8,3:2|3:2,0:0:0:0:
343,74,23437,1,2,0:0:0:0:
343,74,23601,2,0,P|391:78|406:105,1,64.799998022461,2|0,3:2|0:0,0:0:0:0:
296,157,23929,2,0,P|256:140|212:126,1,64.799998022461,10|0,3:2|0:0,0:0:0:0:
181,61,24257,1,0,3:0:0:0:
108,112,24421,1,2,0:0:0:0:
108,112,24585,2,0,P|120:141|131:172,1,64.799998022461,8|2,3:2|0:0,0:0:0:0:
88,260,24913,2,0,P|55:247|15:236,1,64.799998022461,2|0,3:2|0:0,0:0:0:0:
151,334,25241,2,0,P|119:343|89:355,1,64.799998022461,10|0,3:2|0:0,0:0:0:0:
197,251,25569,6,0,B|238:245|255:278|255:278|254:318|299:338,1,129.599996044922,2|8,3:2|3:2,0:0:0:0:
380,381,26060,1,2,0:0:0:0:
380,381,26224,2,0,P|388:347|398:308,1,64.799998022461,2|0,3:2|0:0,0:0:0:0:
502,297,26552,2,0,P|493:263|484:224,1,64.799998022461,10|0,3:2|0:0,0:0:0:0:
399,206,26880,1,0,3:0:0:0:
402,121,27044,2,0,P|423:115|464:161,1,64.799998022461,8|0,0:0|3:0,0:0:0:0:
346,203,27372,2,0,P|361:207|376:212,2,32.3999990112305,0|0|0,0:0|0:0|3:0,0:0:0:0:
286,134,27700,5,2,0:0:0:0:
205,152,27864,1,10,3:2:0:0:
186,71,28028,1,2,0:0:0:0:
267,53,28192,5,4,3:2:0:0:
267,53,30814,5,4,3:2:0:0:
186,71,33437,5,4,3:2:0:0:
205,152,33929,5,4,3:2:0:0:
286,134,36060,5,4,3:2:0:0:
286,134,37372,6,0,P|317:140|352:153,1,64.799998022461,0|0,3:0|3:0,0:0:0:0:
433,111,37700,1,0,3:0:0:0:
388,38,37864,1,8,0:1:0:0:
487,191,38191,5,8,0:1:0:0:
487,191,38273,1,8,0:1:0:0:
487,191,38355,2,0,B|506:220|506:220|484:256,1,64.799998022461,8|8,0:0|0:0,0:0:0:0:
400,229,38683,6,0,B|355:232|351:265|352:266|353:268|346:307|295:298,1,129.599996044922,4|0,3:1|3:0,0:0:0:0:
222,344,39175,1,2,0:0:0:0:
222,344,39339,2,0,P|211:302|199:257,1,64.799998022461,0|0,3:0|0:0,0:0:0:0:
238,194,39667,2,0,P|208:143|144:166,1,129.599996044922,2|0,3:2|3:0,0:0:0:0:
107,238,40159,2,0,P|77:227|39:223,1,64.799998022461,2|0,0:0|3:0,0:0:0:0:
0,130,40487,1,2,0:0:0:0:
0,130,40650,2,0,P|32:126|62:114,1,64.799998022461,2|0,3:2|0:0,0:0:0:0:
181,21,40978,2,0,B|141:54|141:54|151:68|178:117,1,97.1999970336915,2|0,3:2|0:0,0:0:0:0:
198,155,41306,6,0,P|213:113|229:74,1,64.799998022461,0|0,3:0|0:0,0:0:0:0:
326,118,41634,2,0,P|310:76|295:37,1,64.799998022461,0|0,3:0|0:0,0:0:0:0:
422,175,41962,2,0,P|437:134|453:94,1,64.799998022461,0|0,3:0|0:0,0:0:0:0:
382,25,42290,1,2,3:2:0:0:
421,260,42618,6,0,P|412:200|457:185,2,97.1999970336915,2|2|2,3:2|0:0|0:0,0:0:0:0:
383,343,43273,2,0,P|432:356|494:383,2,97.1999970336915,2|2|2,3:2|0:0|0:0,0:0:0:0:
320,249,43929,6,0,P|271:262|209:289,1,97.1999970336915,0|0,3:0|0:0,0:0:0:0:
208,262,44257,2,0,P|197:217|157:206,1,64.799998022461,0|0,3:0|0:0,0:0:0:0:
84,324,44585,2,0,P|125:344|159:320,1,64.799998022461,0|0,3:0|0:0,0:0:0:0:
84,189,44913,2,0,P|45:214|48:256,1,64.799998022461,0|2,3:0|0:0,0:0:0:0:
189,202,45241,2,0,P|180:157|161:77,2,97.1999970336915,2|2|2,3:2|0:0|0:0,0:0:0:0:
81,108,45896,2,0,P|51:72|7:85,2,97.1999970336915,2|2|2,3:2|0:0|0:0,0:0:0:0:
182,207,46552,6,0,P|213:215|243:225,1,64.799998022461,2|0,3:2|0:0,0:0:0:0:
288,309,46880,1,8,3:2:0:0:
220,372,47044,1,0,3:0:0:0:
448,338,47372,5,10,3:2:0:0:
448,338,47536,1,10,3:2:0:0:
512,276,47700,2,0,P|473:265|401:238,1,97.1999970336915,2|0,3:2|0:0,0:0:0:0:
412,232,48028,2,0,P|408:200|425:174,1,64.799998022461,0|0,3:0|0:0,0:0:0:0:
355,101,48355,1,0,3:0:0:0:
355,101,48519,6,0,P|320:109|272:125,1,64.799998022461,8|0,3:1|0:0,0:0:0:0:
211,20,48847,2,0,P|195:47|202:79,1,64.799998022461,8|2,3:2|0:0,0:0:0:0:
59,137,49175,6,0,P|117:153|188:190,1,115.2,4|0,3:1|3:0,0:0:0:0:
291,327,49831,2,0,P|329:279|294:226,1,115.2,2|0,3:2|3:0,0:0:0:0:
68,275,50487,2,0,B|33:320|33:320|78:369,2,115.2,2|0|0,3:2|3:0|3:2,0:0:0:0:
170,173,51470,5,10,0:2:0:0:
170,173,51634,2,0,P|223:152|285:131,1,115.2,2|8,3:2|0:2,0:0:0:0:
346,22,52126,2,0,P|358:48|350:75,1,57.6,0|0,3:0|0:0,0:0:0:0:
401,161,52454,2,0,P|429:167|477:185,2,57.6,0|0|10,3:0|3:0|0:2,0:0:0:0:
341,222,52946,2,0,B|304:225|300:261|302:263|303:265|299:296|254:300,1,115.2,6|0,3:2|3:0,0:0:0:0:
250,297,53355,1,0,3:0:0:0:
250,297,53437,1,8,0:2:0:0:
54,289,53765,6,0,P|35:327|18:382,2,86.4,2|2|2,3:2|3:2|3:2,0:0:0:0:
18,156,54585,1,0,3:0:0:0:
18,156,54667,1,0,3:0:0:0:
18,156,54749,2,0,P|55:141|83:135,1,64.799998022461,8|0,0:2|3:0,0:0:0:0:
112,218,55077,2,0,P|145:226|177:239,1,64.799998022461,10|2,3:2|3:2,0:0:0:0:
232,175,55405,1,10,0:2:0:0:
300,230,55569,2,0,B|334:267|334:267|320:286|302:321,1,97.1999970336915,6|0,3:2|0:0,0:0:0:0:
335,328,55896,5,2,3:0:0:0:
442,292,56142,1,2,3:0:0:0:
512,384,56388,1,2,3:0:0:0:
433,314,56607,6,0,P|421:267|408:220,1,86.3999973632813,2|2,3:0|3:0,0:0:0:0:
457,132,57044,1,4,3:2:0:0:
82,89,58355,6,0,P|56:63|10:66,2,64.799998022461,2|2|2,3:2|0:2|3:2,0:0:0:0:
172,73,58847,1,2,0:0:0:0:
172,163,59011,2,0,P|143:170|102:188,1,64.799998022461,8|8,0:1|0:2,0:0:0:0:
8,248,59339,2,0,P|37:255|78:273,1,64.799998022461,8|8,0:2|0:2,0:0:0:0:
112,343,59667,1,8,3:2:0:0:
67,108,59995,1,8,3:1:0:0:
347,369,60978,6,0,P|399:317|360:252,1,144,6|10,3:1|3:1,0:0:0:0:
337,160,61470,1,0,0:0:0:0:
337,160,61634,2,0,P|299:171|262:187,1,72,2|0,3:1|0:0,0:0:0:0:
260,285,61962,2,0,P|226:271|192:261,1,72,8|2,3:1|0:1,0:0:0:0:
128,197,62290,1,0,3:0:0:0:
69,266,62454,1,2,0:1:0:0:
69,266,62618,2,0,P|39:232|56:188,1,72,10|2,3:1|0:1,0:0:0:0:
0,105,62946,2,0,P|47:114|74:127,1,72,2|0,3:1|0:0,0:0:0:0:
168,118,63273,1,8,3:1:0:0:
154,23,63437,1,2,0:1:0:0:
246,16,63601,6,0,B|293:27|293:27|314:63|314:63|375:79,1,144,2|10,3:1|3:1,0:0:0:0:
478,69,64093,1,0,0:0:0:0:
478,69,64257,2,0,P|491:31|470:3,1,72,2|0,3:1|0:0,0:0:0:0:
356,97,64585,2,0,P|342:129|358:159,1,72,8|2,3:1|0:1,0:0:0:0:
435,238,64913,1,0,3:0:0:0:
435,238,65077,2,0,P|466:221|507:207,2,72,2|10|2,0:1|3:1|0:1,0:0:0:0:
367,321,65569,2,0,P|384:328|400:337,2,36,2|8|4,3:1|0:3|0:3,0:0:0:0:
309,253,65896,1,8,3:1:0:0:
237,294,66060,5,8,0:2:0:0:
237,294,66142,1,8,0:2:0:0:
237,294,66224,2,0,B|190:269|160:306|160:306|153:348|110:361,1,144,6|10,3:1|3:1,0:0:0:0:
4,372,66716,1,0,0:0:0:0:
4,372,66880,2,0,P|13:336|26:292,1,72,2|0,3:1|0:0,0:0:0:0:
0,200,67208,2,0,P|36:191|80:178,1,72,8|2,3:1|0:1,0:0:0:0:
149,213,67536,1,0,3:0:0:0:
197,142,67700,1,2,0:1:0:0:
197,142,67864,2,0,P|206:92|174:66,1,72,8|2,3:1|0:1,0:0:0:0:
146,222,68191,6,0,P|217:240|291:274,1,144,2|8,3:1|3:1,0:0:0:0:
350,228,68683,1,0,0:0:0:0:
345,341,68847,2,0,P|403:299|472:280,1,144,6|10,3:1|0:1,0:0:0:0:
512,205,69339,1,6,3:1:0:0:
462,35,69667,6,0,P|429:50|398:68,1,72,2|10,3:1|0:1,0:0:0:0:
480,122,69995,1,6,3:1:0:0:
218,44,70323,1,2,3:1:0:0:
218,44,70405,1,0,3:0:0:0:
218,44,70487,2,0,P|236:74|253:108,1,72,10|2,3:1|3:1,0:0:0:0:
326,137,70814,1,10,0:1:0:0:
0,204,71142,5,10,0:1:0:0:
42,135,71306,1,10,0:1:0:0:
115,169,71470,6,0,B|158:156|172:199|170:201|169:203|185:249|229:240,1,144,6|10,3:1|3:1,0:0:0:0:
329,204,71962,1,0,0:0:0:0:
329,204,72126,2,0,P|321:243|313:290,1,72,2|0,3:1|0:0,0:0:0:0:
428,295,72454,2,0,P|461:283|494:270,1,72,8|2,3:1|0:1,0:0:0:0:
512,174,72782,1,0,3:0:0:0:
426,120,72946,1,2,0:1:0:0:
426,120,73110,2,0,P|391:96|351:113,1,72,10|2,3:1|0:1,0:0:0:0:
250,145,73437,2,0,P|239:107|226:63,1,72,2|0,3:1|0:0,0:0:0:0:
158,2,73765,1,8,3:1:0:0:
57,40,73929,1,2,0:1:0:0:
57,40,74093,2,0,P|36:71|67:111,1,72,2|0,3:1|0:0,0:0:0:0:
132,132,74421,1,10,3:1:0:0:
37,302,74749,6,0,P|101:268|191:230,1,144,2|10,3:1|3:1,0:0:0:0:
246,152,75241,2,0,B|307:177|307:177|337:227|269:263,1,144,6|2,3:1|3:1,0:0:0:0:
206,352,75732,2,0,P|223:298|246:298,1,72,8|0,3:1|0:0,0:0:0:0:
285,384,76060,2,0,P|312:362|308:328,1,72,0|2,3:0|3:1,0:0:0:0:
299,250,76388,1,8,3:1:0:0:
299,250,76552,1,10,3:1:0:0:
379,204,76716,5,6,3:1:0:0:
312,147,76880,2,0,B|287:134|283:100|283:100|281:129|249:149,1,108,2|0,3:2|0:0,0:0:0:0:
253,150,77208,2,0,B|259:99|219:87|218:89|218:91|173:84|182:39,1,144,4|0,3:2|3:0,0:0:0:0:
0,188,77864,6,0,P|61:207|144:240,1,144,2|0,3:2|3:0,0:0:0:0:
243,232,78355,2,0,P|269:214|245:146,1,108,8|0,0:1|0:0,0:0:0:0:
237,143,78683,2,0,P|275:131|318:120,1,72,2|2,3:2|0:0,0:0:0:0:
340,35,79011,2,0,P|375:45|410:56,1,72,8|2,3:1|0:2,0:0:0:0:
483,16,79339,1,4,3:1:0:0:
488,229,79667,5,10,0:1:0:0:
488,229,79831,2,0,B|443:244|426:211|427:209|428:208|417:170|356:190,1,129.599996044922,2|2,3:1|3:1,0:0:0:0:
313,128,80323,1,10,0:1:0:0:
313,128,80487,2,0,P|331:195|351:267,1,129.599996044922,4|2,3:2|3:1,0:0:0:0:
363,340,80978,1,10,0:1:0:0:
282,332,81142,2,0,P|239:314|213:304,1,64.799998022461,2|0,3:1|0:0,0:0:0:0:
197,310,81388,1,8,0:2:0:0:
197,310,81470,2,0,B|171:284|142:266|142:266|169:251|208:208,1,129.599996044922,2|8,3:1|0:2,0:0:0:0:
308,162,81962,6,0,B|266:174|245:137|245:137|243:96|194:79,1,144,4|2,3:2|3:1,0:0:0:0:
119,42,82454,1,10,3:1:0:0:
63,109,82618,1,8,3:2:0:0:
133,172,82782,2,0,P|149:164|166:159,3,36,8|8|8|8,3:2|3:2|3:2|3:2,0:0:0:0:
118,178,83110,1,8,0:0:0:0:
60,134,84585,6,0,P|86:211|115:283,1,129.599996044922,4|8,3:1|3:1,0:0:0:0:
176,320,85077,1,0,0:0:0:0:
176,320,85241,2,0,P|206:318|228:276,1,64.799998022461,2|0,3:2|0:0,0:0:0:0:
302,264,85569,2,0,P|288:234|278:204,1,64.799998022461,8|2,3:1|0:0,0:0:0:0:
325,129,85896,1,0,3:0:0:0:
325,129,86060,2,0,P|356:123|384:140,2,64.799998022461,2|8|2,0:0|3:1|0:0,0:0:0:0:
254,85,86552,1,2,3:2:0:0:
469,143,86880,2,0,P|476:172|496:225,1,64.799998022461,8|2,3:1|0:0,0:0:0:0:
413,254,87208,6,0,B|370:244|354:281|355:281|356:281|342:322|284:309,1,129.599996044922,2|8,3:2|3:1,0:0:0:0:
207,368,87700,1,0,0:0:0:0:
207,368,87864,2,0,P|189:328|216:289,1,64.799998022461,2|0,3:2|0:0,0:0:0:0:
276,235,88191,2,0,P|243:226|187:202,1,64.799998022461,8|2,3:1|0:2,0:0:0:0:
131,238,88519,1,0,3:0:0:0:
50,171,88683,1,2,0:2:0:0:
50,171,88847,2,0,P|96:157|136:140,1,64.799998022461,8|2,3:1|0:2,0:0:0:0:
167,64,89175,2,0,P|149:53|130:45,2,32.3999990112305,2|8|0,3:2|3:0|3:0,0:0:0:0:
233,117,89503,1,0,3:0:0:0:
302,70,89667,5,8,0:0:0:0:
302,70,89749,1,8,0:0:0:0:
302,70,89831,2,0,P|304:25|265:1,2,64.799998022461,4|0|8,3:1|3:0|0:1,0:0:0:0:
436,123,90323,2,0,P|363:126|357:195,1,129.599996044922,4|8,3:1|0:1,0:0:0:0:
273,220,90814,2,0,B|257:194|228:205|228:205|248:259|294:255,1,129.599996044922,4|8,3:2|0:1,0:0:0:0:
415,274,91306,2,0,B|445:273|450:242|450:242|393:232|374:274,1,129.599996044922,4|8,3:1|0:1,0:0:0:0:
318,345,91798,6,0,P|302:348|269:360,1,32.3999990112305,4|0,3:2|0:0,0:0:0:0:
437,149,92126,2,0,P|452:152|486:164,1,32.3999990112305,4|0,3:1|0:0,0:0:0:0:
129,87,93765,6,0,P|148:93|169:104,4,32.3999990112305
58,118,94257,1,4,3:2:0:0:
258,347,95077,5,4,0:1:0:0:
7,127,99667,6,0,P|44:138|93:157,1,64.799998022461,6|0,3:2|0:0,0:0:0:0:
60,109,99913,2,0,P|91:98|122:89,1,64.799998022461,6|0,3:2|0:0,0:0:0:0:
110,61,100159,1,6,3:2:0:0:
213,94,100323,6,0,P|200:121|188:162,1,64.799998022461,4|0,3:2|0:0,0:0:0:0:
117,218,100650,2,0,P|130:245|142:286,1,64.799998022461,0|8,3:0|0:0,0:0:0:0:
206,328,100978,1,0,3:0:0:0:
244,249,101142,1,2,3:2:0:0:
244,249,101306,1,10,3:2:0:0:
327,278,101470,5,2,3:2:0:0:
206,328,101798,1,2,3:2:0:0:
201,170,102126,5,2,3:2:0:0:
201,170,102290,2,0,P|240:154|287:145,1,64.799998022461,8|2,0:0|3:2,0:0:0:0:
321,75,102618,1,10,0:0:0:0:
321,75,102782,1,8,0:0:0:0:
441,119,102946,6,0,B|399:107|384:150|384:150|409:222,1,129.599996044922,4|0,3:1|3:0,0:0:0:0:
422,308,103437,1,2,0:0:0:0:
422,308,103601,2,0,P|381:291|345:281,1,64.799998022461,0|0,3:0|0:0,0:0:0:0:
244,368,103929,2,0,P|203:331|246:267,1,129.599996044922,2|0,3:2|3:0,0:0:0:0:
229,179,104421,2,0,P|260:171|291:161,2,64.799998022461,2|0|0,0:0|3:0|0:0,0:0:0:0:
211,282,104913,2,0,P|139:257|73:242,1,129.599996044922,2|2,3:2|3:2,0:0:0:0:
29,170,105405,1,0,0:0:0:0:
100,101,105569,5,2,3:0:0:0:
100,100,105732,2,0,P|107:70|89:44,1,64.799998022461,2|0,0:0|3:0,0:0:0:0:
161,170,106060,1,2,0:3:0:0:
161,170,106224,2,0,P|191:160|204:132,1,64.799998022461,2|0,3:2|0:0,0:0:0:0:
105,249,106552,1,2,3:0:0:0:
105,249,106716,2,0,P|127:270|159:268,1,64.799998022461,2|0,0:0|3:0,0:0:0:0:
218,372,107044,5,2,0:3:0:0:
218,372,107208,2,0,P|247:363|261:334,1,64.799998022461,2|0,3:2|0:0,0:0:0:0:
394,330,107536,1,2,3:0:0:0:
394,330,107700,2,0,P|401:300|383:273,1,64.799998022461,2|0,0:0|3:0,0:0:0:0:
439,150,108028,1,2,0:3:0:0:
439,150,108191,2,0,P|416:128|385:130,1,64.799998022461,2|0,3:2|0:0,0:0:0:0:
313,173,108519,1,0,3:0:0:0:
256,100,108683,6,0,P|252:77|245:49,1,32.3999990112305,10|0,3:2|0:0,0:0:0:0:
210,250,109175,2,0,P|206:272|199:301,1,32.3999990112305,2|0,3:2|0:0,0:0:0:0:
106,78,109667,2,0,P|102:62|100:46,1,32.3999990112305,2|0,3:2|0:0,0:0:0:0:
21,190,109995,5,0,3:0:0:0:
21,190,110077,1,0,3:0:0:0:
21,190,110159,2,0,P|55:202|96:223,1,64.799998022461,10|0,3:2|3:0,0:0:0:0:
190,283,110487,2,0,P|159:293|130:307,1,64.799998022461,10|0,3:2|3:0,0:0:0:0:
196,172,110814,6,0,B|241:181|251:140|250:138|249:137|259:105|304:110,1,129.599996044922,4|10,3:1|3:2,0:0:0:0:
418,84,111306,2,0,P|432:55|422:25,1,64.799998022461,2|0,0:0|3:0,0:0:0:0:
294,126,111634,2,0,P|323:138|367:161,1,64.799998022461,2|8,0:0|3:2,0:0:0:0:
412,224,111962,1,2,3:2:0:0:
245,318,112290,5,0,3:0:0:0:
300,377,112454,2,0,P|284:321|276:288,1,64.799998022461,12|0,3:2|0:0,0:0:0:0:
156,299,112782,2,0,P|171:243|180:210,1,64.799998022461,6|0,3:2|0:0,0:0:0:0:
164,209,113028,2,0,P|146:184|115:180,1,64.799998022461,6|0,3:2|0:0,0:0:0:0:
81,148,113273,6,0,B|113:149|123:115|119:114|118:113|136:75|180:88,1,115.2,4|0,3:1|0:0,0:0:0:0:
44,6,113929,1,0,3:0:0:0:
44,6,114093,2,0,P|25:29|42:75,2,57.6,8|0|0,0:0|0:0|0:0,0:0:0:0:
163,78,114585,2,0,P|222:97|296:128,1,115.2,0|0,3:0|3:0,0:0:0:0:
315,47,115077,2,0,P|346:31|380:17,1,57.6,0|0,0:0|3:0,0:0:0:0:
450,60,115405,1,8,0:0:0:0:
288,126,115732,5,10,0:2:0:0:
288,126,115896,2,0,B|315:160|330:173|330:173|293:245,1,129.599996044922,2|0,3:2|3:0,0:0:0:0:
276,314,116388,2,0,P|246:299|215:290,1,64.799998022461,8|0,0:0|0:0,0:0:0:0:
94,300,116716,2,0,P|88:332|108:361,2,64.799998022461,2|2|8,3:2|3:2|0:0,0:0:0:0:
17,235,117208,2,0,P|58:218|153:192,1,129.599996044922,6|0,3:2|3:0,0:0:0:0:
155,175,117618,1,0,3:0:0:0:
155,175,117700,1,8,0:0:0:0:
22,101,118028,6,0,B|-1:60|-1:60|30:21,2,97.1999970336915,2|2|10,3:2|3:2|3:2,0:0:0:0:
118,62,118683,2,0,P|180:79|247:107,1,129.599996044922,4|8,3:1|3:2,0:0:0:0:
474,70,119339,2,0,P|451:52|406:57,1,64.799998022461,0|0,3:0|0:0,0:0:0:0:
396,62,119585,1,0,3:0:0:0:
396,62,119667,1,10,0:2:0:0:
298,35,119831,2,0,P|314:68|326:119,1,64.799998022461,2|0,3:2|3:0,0:0:0:0:
409,152,120159,1,8,3:2:0:0:
409,152,120323,2,0,P|392:185|371:267,1,97.1999970336915,8|0,3:2|0:0,0:0:0:0:
379,250,120650,2,0,B|405:240|405:240|410:232|410:232|441:223,1,64.799998022461,8|0,3:2|0:0,0:0:0:0:
447,235,120896,1,8,0:0:0:0:
447,235,120978,1,2,3:2:0:0:
512,282,121142,1,8,0:0:0:0:
461,342,121306,5,6,3:2:0:0:
55,364,122618,6,0,P|37:300|12:234,1,115.2,2|2,3:2|3:2,0:0:0:0:
82,161,123110,1,2,0:0:0:0:
82,161,123273,2,0,L|115:175,3,28.8,8|0|0|0,0:1|3:0|3:0|3:0,0:0:0:0:
129,202,123601,2,0,L|162:216,3,28.8,0|0|0|0,3:0|3:0|3:0|3:0,0:0:0:0:
195,201,123929,1,0,3:0:0:0:
279,62,124749,5,0,3:0:0:0:
279,62,124913,1,8,0:0:0:0:
370,36,125077,2,0,P|352:88|331:159,1,115.2,4|8,3:2|0:0,0:0:0:0:
407,188,125569,2,0,P|369:179|313:228,1,115.2,4|0,3:1|0:0,0:0:0:0:
10,256,126552,6,0,B|53:249|71:287|71:287|70:339|121:350,1,144,6|10,3:1|3:1,0:0:0:0:
165,211,127044,1,0,0:0:0:0:
165,211,127208,2,0,P|174:249|190:302,1,72,2|0,3:1|0:0,0:0:0:0:
281,384,127536,2,0,P|301:365|284:301,1,72,8|2,3:1|0:1,0:0:0:0:
271,237,127864,1,0,3:0:0:0:
353,200,128028,1,2,0:1:0:0:
353,200,128191,2,0,P|389:207|431:222,1,72,10|2,3:1|0:1,0:0:0:0:
503,159,128519,2,0,P|488:123|483:85,1,72,2|0,3:1|0:0,0:0:0:0:
460,5,128847,1,8,3:1:0:0:
365,4,129011,1,2,0:1:0:0:
332,95,129175,6,0,B|289:113|267:70|269:70|270:69|264:25|211:34,1,144,2|10,3:1|3:1,0:0:0:0:
137,96,129667,1,0,0:0:0:0:
137,96,129831,2,0,P|112:60|123:27,1,72,2|0,3:1|0:0,0:0:0:0:
17,157,130159,2,0,P|60:153|83:179,1,72,8|2,3:1|0:1,0:0:0:0:
181,181,130487,1,0,3:0:0:0:
181,181,130650,2,0,P|216:164|259:153,2,72,2|10|2,0:1|3:1|0:1,0:0:0:0:
91,260,131142,2,0,L|50:247,2,36,2|8|0,3:1|3:0|3:0,0:0:0:0:
154,331,131470,1,8,3:1:0:0:
228,271,131634,5,8,3:2:0:0:
228,271,131716,1,0,0:0:0:0:
228,271,131798,2,0,B|277:284|277:284|303:321|303:321|349:333,1,144,6|10,3:1|3:1,0:0:0:0:
431,278,132290,1,0,0:0:0:0:
431,278,132454,2,0,P|446:246|431:214,1,72,2|0,3:1|0:0,0:0:0:0:
436,117,132782,2,0,P|401:135|363:152,1,72,8|2,3:1|0:1,0:0:0:0:
312,84,133110,1,0,3:0:0:0:
239,150,133273,1,2,0:1:0:0:
239,150,133437,2,0,B|218:181|218:181|244:227,1,72,10|2,3:1|0:1,0:0:0:0:
304,72,133765,6,0,B|262:57|268:10|268:10|257:60|195:53,1,144,2|8,3:1|3:1,0:0:0:0:
131,43,134257,1,2,0:1:0:0:
78,158,134421,2,10,P|61:88|31:22,1,144,4|10,3:2|0:1,0:0:0:0:
131,43,134913,1,6,3:1:0:0:
71,173,135241,6,0,P|102:188|138:213,1,72,2|10,3:1|0:1,0:0:0:0:
39,255,135569,1,4,3:2:0:0:
238,363,135896,1,2,3:1:0:0:
238,363,135978,1,0,3:0:0:0:
238,363,136060,2,0,P|232:310|217:297,1,72,10|2,3:1|0:1,0:0:0:0:
154,343,136388,1,10,0:1:0:0:
394,317,136716,5,10,0:1:0:0:
441,241,136880,1,10,0:1:0:0:
367,191,137044,6,0,B|323:212|303:171|304:170|304:169|288:127|236:142,1,144,6|10,3:1|3:1,0:0:0:0:
155,118,137536,1,0,0:0:0:0:
155,118,137700,2,0,P|175:83|161:39,1,72,2|0,3:1|0:0,0:0:0:0:
15,158,138028,2,0,P|49:169|86:187,1,72,8|2,3:1|0:1,0:0:0:0:
150,246,138355,1,0,3:0:0:0:
85,322,138519,1,2,0:1:0:0:
85,322,138683,2,0,P|117:306|151:295,1,72,10|2,3:1|0:1,0:0:0:0:
223,202,139011,2,0,P|255:214|308:234,1,72,2|0,3:1|0:0,0:0:0:0:
368,292,139339,1,8,3:1:0:0:
447,229,139503,1,2,0:1:0:0:
447,229,139667,2,0,P|468:194|447:142,1,72,2|0,3:1|0:0,0:0:0:0:
408,114,139995,1,10,3:1:0:0:
206,53,140323,6,0,P|225:108|251:213,1,144,2|10,3:1|0:1,0:0:0:0:
198,273,140814,2,0,B|178:251|154:215|154:215|131:238|98:265,1,144,6|2,3:1|3:1,0:0:0:0:
216,365,141306,2,0,P|222:339|235:294,1,72,8|0,0:1|0:0,0:0:0:0:
301,384,141634,2,0,P|307:358|320:313,1,72,0|10,3:0|0:1,0:0:0:0:
292,234,141962,1,0,3:0:0:0:
292,234,142126,1,10,0:1:0:0:
381,176,142290,1,6,3:1:0:0:
328,94,142454,2,0,B|286:104|286:104|273:123|273:123|229:136,1,108,2|0,3:2|0:0,0:0:0:0:
211,140,142782,2,0,P|176:120|206:34,1,144,4|0,3:1|3:0,0:0:0:0:
0,217,143437,6,0,P|54:235|146:281,1,144,4|0,3:2|3:0,0:0:0:0:
245,372,143929,2,0,B|277:327|277:327|221:274,1,108,8|0,0:1|0:0,0:0:0:0:
238,272,144257,2,0,P|242:226|280:212,1,72,2|0,3:2|0:0,0:0:0:0:
338,156,144585,2,0,P|374:178|416:198,1,72,8|2,3:1|0:2,0:0:0:0:
439,276,144913,1,2,3:2:0:0:
393,57,145241,5,10,0:1:0:0:
393,57,145405,2,0,B|372:43|344:15|344:15|323:45|304:66,1,129.599996044922,2|2,3:1|3:1,0:0:0:0:
289,155,145896,1,10,0:1:0:0:
289,155,146060,2,0,B|244:143|244:143|227:117|227:117|176:104,1,129.599996044922,2|2,3:1|3:1,0:0:0:0:
95,64,146552,1,10,0:1:0:0:
86,143,146716,2,0,P|71:170|74:202,1,64.799998022461,2|0,3:1|0:0,0:0:0:0:
71,225,146962,1,8,0:0:0:0:
71,225,147044,2,0,B|118:226|122:257|119:257|118:257|129:297|174:288,1,129.599996044922,2|10,3:1|0:1,0:0:0:0:
255,379,147536,6,0,P|266:317|289:247,1,129.599996044922,4|2,3:2|3:1,0:0:0:0:
395,285,148028,1,2,3:1:0:0:
445,213,148191,1,0,3:0:0:0:
376,151,148355,2,0,P|355:144|331:137,3,32.3999990112305,8|0|0|0,3:2|3:2|3:2|3:2,0:0:0:0:
385,147,148683,5,0,3:0:0:0:
466,42,150159,6,0,P|419:56|371:79,1,86.4,4|0,3:1|0:0,0:0:0:0:
384,93,150487,2,0,B|348:136|348:136|364:158|385:193,1,115.2,10|0,3:2|0:0,0:0:0:0:
470,172,150978,1,2,3:2:0:0:
271,358,151306,6,0,P|278:325|288:285,1,57.6,10|0,3:2|0:0,0:0:0:0:
232,234,151634,1,2,3:2:0:0:
232,234,151798,2,0,P|199:237|180:269,1,57.6,10|0,3:2|0:0,0:0:0:0:
55,324,152126,2,0,P|44:277|27:219,1,86.4,2|0,3:2|0:0,0:0:0:0:
32,208,152454,2,0,P|51:228|79:227,1,57.6,8|0,3:2|0:0,0:0:0:0:
151,168,152782,2,0,P|155:137|167:98,1,57.6,2|0,3:2|0:0,0:0:0:0:
101,56,153110,1,10,3:2:0:0:
299,237,153601,6,0,P|294:208|287:180,1,57.6,2|0,3:2|0:0,0:0:0:0:
358,121,153929,2,0,B|396:122|407:91|406:89|402:88|411:60|441:51,1,115.2,10|2,3:2|3:2,0:0:0:0:
512,0,154421,1,10,3:2:0:0:
422,141,154749,6,0,P|409:134|395:129,2,28.8,2|8|2,3:2|3:2|3:2,0:0:0:0:
466,219,155077,1,10,0:2:0:0:
466,219,155241,1,8,0:0:0:0:
398,274,155405,2,0,P|359:285|309:313,1,86.4,4|0,3:1|0:0,0:0:0:0:
303,302,155732,1,10,3:2:0:0:
70,366,156224,6,0,P|64:337|53:302,1,57.6,2|0,3:2|0:0,0:0:0:0:
134,251,156552,1,10,3:2:0:0:
134,251,156716,2,0,P|161:259|189:265,1,57.6,0|2,0:0|3:2,0:0:0:0:
99,162,157044,2,0,P|72:170|44:176,1,57.6,8|0,3:2|3:0,0:0:0:0:
137,76,157372,2,0,P|132:62|125:49,2,28.8,10|8|0,3:2|3:2|3:0,0:0:0:0:
199,144,157700,1,10,3:2:0:0:
242,69,157864,5,8,3:2:0:0:
242,69,157946,1,8,3:2:0:0:
242,69,158028,2,0,B|339:21|403:169|346:118|409:270|522:203,1,345.599989453125,4|2,3:2|0:0,0:0:0:0:
256,192,159421,12,4,160650,3:1:0:0:
407,369,171142,6,0,B|427:334|438:320|438:320|408:293|394:279,1,115.2,4|0,3:1|3:0,0:0:0:0:
313,327,171634,1,2,0:0:0:0:
313,327,171798,2,0,P|260:304|204:290,1,115.2,2|0,3:2|3:0,0:0:0:0:
406,181,172454,2,0,P|444:194|489:143,1,115.2,2|0,3:2|3:0,0:0:0:0:
512,60,172946,1,2,0:0:0:0:
512,60,173028,1,2,0:0:0:0:
512,60,173110,2,0,P|465:45|448:41,1,57.6,6|2,3:2|0:0,0:0:0:0:
396,151,173437,2,0,P|368:158|340:167,1,57.6,2|2,3:2|0:0,0:0:0:0:
268,79,173765,6,0,B|227:77|221:48|222:47|224:48|212:14|165:18,1,115.2,4|0,3:1|3:0,0:0:0:0:
84,67,174257,1,2,0:0:0:0:
84,67,174421,2,0,P|62:125|106:161,1,115.2,2|0,3:2|3:0,0:0:0:0:
8,361,175077,2,0,P|55:340|138:314,1,115.2,2|0,3:2|3:0,0:0:0:0:
172,242,175569,1,2,0:0:0:0:
172,242,175650,1,2,0:0:0:0:
172,242,175732,2,0,P|180:214|184:185,1,57.6,6|2,3:2|0:0,0:0:0:0:
257,301,176060,2,0,P|261:272|269:244,1,57.6,2|2,3:2|0:0,0:0:0:0:
358,344,176388,6,0,B|404:378|404:378|425:354|462:323,1,115.2,4|0,3:1|3:0,0:0:0:0:
489,251,176880,1,2,0:0:0:0:
489,251,177044,2,0,P|475:202|459:123,1,115.2,2|0,3:2|3:0,0:0:0:0:
301,0,177700,2,0,B|260:9|260:9|244:32|244:32|179:50,1,115.2,2|0,3:2|3:2,0:0:0:0:
84,87,178191,1,2,0:0:0:0:
84,87,178273,1,2,0:0:0:0:
84,87,178355,2,0,P|82:54|102:29,1,57.6,2|2,3:2|0:0,0:0:0:0:
195,53,178683,2,0,P|198:81|184:105,1,57.6,2|2,3:2|0:0,0:0:0:0:
116,219,179011,6,0,P|161:203|239:183,1,115.2,4|0,3:1|3:0,0:0:0:0:
234,290,179503,1,2,0:0:0:0:
234,290,179667,2,0,P|289:305|344:322,1,115.2,2|0,3:2|3:0,0:0:0:0:
439,257,180159,1,2,0:0:0:0:
439,257,180323,2,0,B|394:210|440:157|443:157|447:157|509:106|450:43,1,230.4,2|0,3:2|3:0,0:0:0:0:
374,13,181142,1,0,3:0:0:0:
374,13,181306,2,0,P|321:29|301:39,1,57.6,8|0,3:1|3:0,0:0:0:0:
226,9,181634,6,0,P|183:46|222:116,1,129.599996044922,4|8,3:1|3:1,0:0:0:0:
291,151,182126,1,0,3:0:0:0:
130,275,182454,1,0,3:0:0:0:
130,275,182618,1,8,0:1:0:0:
56,328,182782,2,0,P|45:272|22:190,1,129.599996044922,4|0,3:2|3:0,0:0:0:0:
47,110,183273,2,0,P|76:124|107:133,1,64.799998022461,8|0,0:1|0:0,0:0:0:0:
144,251,183601,2,0,P|162:224|184:200,1,64.799998022461,0|0,3:0|0:0,0:0:0:0:
241,72,183929,2,0,P|248:103|261:133,1,64.799998022461,8|0,3:1|0:0,0:0:0:0:
309,239,184257,6,0,B|391:236|415:178|415:178|390:238|434:289,1,230.4,4|0,3:2|3:0,0:0:0:0:
462,57,185241,2,0,P|419:63|389:79,1,57.6,8|0,3:2|3:0,0:0:0:0:
329,138,185569,2,0,P|294:122|202:92,1,115.2,2|8,3:2|3:2,0:0:0:0:
144,32,186060,1,0,3:0:0:0:
144,32,186224,2,0,P|96:78|125:118,1,115.2,2|0,3:2|0:0,0:0:0:0:
325,29,186880,5,4,0:0:0:0:
27,357,197372,6,0,P|87:334|146:316,1,115.2,4|10,3:1|3:2,0:0:0:0:
82,117,198028,2,0,P|65:166|47:215,1,86.4,2|2,3:2|0:0,0:0:0:0:
64,218,198355,1,8,3:2:0:0:
188,216,198519,1,2,0:0:0:0:
188,216,198683,2,0,P|215:223|242:235,1,57.6,0|2,3:0|0:2,0:0:0:0:
349,297,199011,2,0,P|341:269|329:242,1,57.6,10|2,3:2|0:2,0:0:0:0:
363,162,199339,2,0,P|375:125|322:88,2,86.4,2|2|2,3:2|0:0|0:0,0:0:0:0:
271,125,199995,1,2,3:2:0:0:
509,196,200323,6,0,P|474:208|454:219,1,57.6,10|0,3:2|0:0,0:0:0:0:
426,303,200650,2,0,P|400:290|372:281,1,57.6,2|0,3:2|0:0,0:0:0:0:
326,203,200978,1,10,3:2:0:0:
326,203,201142,5,2,3:2:0:0:
155,341,201470,1,2,3:2:0:0:
34,150,201798,2,0,B|63:138|63:138|87:147,1,57.6,0|8,3:0|3:2,0:0:0:0:
181,151,202126,1,2,3:2:0:0:
181,151,202290,2,0,P|164:189|159:230,1,57.6,8|2,3:2|3:2,0:0:0:0:
247,298,202618,6,0,P|277:278|310:281,1,64.799998022461,6|2,3:2|0:0,0:0:0:0:
401,384,202946,2,0,P|368:367|356:339,1,64.799998022461,8|2,3:2|0:0,0:0:0:0:
395,270,203273,1,0,3:0:0:0:
395,270,203437,2,0,P|378:216|370:171,1,97.1999970336915,2|0,0:0|0:0,0:0:0:0:
392,161,203765,1,2,0:0:0:0:
467,94,203929,6,0,P|440:82|398:73,1,64.799998022461,0|0,3:0|0:0,0:0:0:0:
279,5,204257,2,0,P|286:32|291:70,1,64.799998022461,10|0,3:2|0:0,0:0:0:0:
191,73,204585,2,0,P|183:100|177:146,1,64.799998022461,2|0,3:2|0:0,0:0:0:0:
116,32,204913,1,10,3:2:0:0:
15,174,205241,5,2,3:2:0:0:
15,174,205405,2,0,P|55:191|90:216,1,64.799998022461,2|8,3:2|3:2,0:0:0:0:
131,288,205732,2,0,P|138:311|145:343,1,32.3999990112305,4|0,3:2|0:0,0:0:0:0:
262,182,206060,2,0,P|265:168|272:148,1,32.3999990112305,12|0,3:2|0:0,0:0:0:0:
433,357,206388,6,0,B|413:320|446:299|447:300|450:302|488:278|458:233,1,129.599996044922,4|0,3:1|3:0,0:0:0:0:
373,186,206880,2,0,P|392:172|448:150,1,64.799998022461,8|0,3:2|0:0,0:0:0:0:
479,90,207208,1,0,3:0:0:0:
421,38,207372,2,0,P|407:33|368:22,1,32.3999990112305,8|0,3:2|0:0,0:0:0:0:
347,205,207700,5,8,3:2:0:0:
347,205,207864,2,0,P|310:218|274:249,1,72,4|0,3:2|3:0,0:0:0:0:
184,327,208191,1,8,3:2:0:0:
184,327,208355,2,0,P|198:290|198:243,1,72,2|0,3:2|3:0,0:0:0:0:
125,199,208683,1,0,3:0:0:0:
125,199,208847,1,8,3:2:0:0:
110,96,209011,2,0,P|145:107|178:122,1,72,2|0,3:2|3:0,0:0:0:0:
272,44,209339,5,8,0:2:0:0:
289,124,209503,2,0,P|321:109|356:98,1,72,8|8,3:2|3:2,0:0:0:0:
406,180,209831,2,0,P|440:191|473:205,1,72,8|8,3:2|3:2,0:0:0:0:
471,96,210159,1,8,3:2:0:0:
471,96,210241,1,0,0:0:0:0:
471,96,210323,2,0,P|481:61|461:26,1,72
41,61,211798,6,0,B|41:99|41:99|77:128,1,72,10|0,3:2|0:0,0:0:0:0:
116,26,212126,2,0,B|142:47|142:47|142:85,1,72,10|0,3:2|0:0,0:0:0:0:
136,167,212454,2,0,P|170:223|191:268,2,108,10|10|10,3:2|3:2|3:2,0:0:0:0:
435,25,213273,5,10,3:2:0:0:
435,25,213437,2,0,P|402:54|360:44,1,72,10|2,3:2|0:0,0:0:0:0:
288,70,213765,2,0,P|232:36|187:15,2,108,10|10|10,3:2|3:2|3:2,0:0:0:0:
221,135,214421,6,0,P|195:181|214:212,1,72,10|0,3:2|0:0,0:0:0:0:
298,165,214749,2,0,P|300:200|276:225,1,72,10|0,3:2|0:0,0:0:0:0:
215,274,215077,2,0,P|197:317|168:393,2,108,10|10|10,3:2|3:2|3:2,0:0:0:0:
11,73,217044,6,0,B|60:86|60:86|82:125|82:125|144:141,1,144,6|10,3:1|3:1,0:0:0:0:
235,193,217536,1,0,0:0:0:0:
235,193,217700,2,0,P|200:202|171:223,1,72,2|0,3:1|0:0,0:0:0:0:
52,278,218028,2,0,P|86:287|116:308,1,72,10|2,3:1|0:1,0:0:0:0:
176,381,218355,1,0,3:0:0:0:
257,334,218519,1,2,0:1:0:0:
257,334,218683,2,0,P|281:295|260:257,1,72,8|2,3:1|0:1,0:0:0:0:
347,207,219011,2,0,P|353:171|361:121,1,72,2|0,3:1|0:0,0:0:0:0:
421,68,219339,1,8,3:1:0:0:
323,26,219503,1,0,0:0:0:0:
235,104,219667,6,0,B|191:56|191:56|194:-2|260:-1,1,144,6|10,3:1|0:1,0:0:0:0:
323,26,220159,1,6,3:1:0:0:
60,112,220487,6,0,P|94:121|127:138,1,72,2|10,3:1|0:1,0:0:0:0:
19,183,220814,1,2,3:1:0:0:
111,304,221142,1,2,3:1:0:0:
111,304,221224,1,0,3:0:0:0:
111,304,221306,2,0,P|143:287|177:278,1,72,10|2,3:1|3:1,0:0:0:0:
221,210,221634,1,10,0:1:0:0:
417,370,221962,6,0,P|394:344|412:285,1,72,10|10,0:1|0:1,0:0:0:0:
458,265,222290,1,2,0:1:0:0:
458,265,222454,1,0,3:0:0:0:
408,191,222618,6,0,B|369:203|357:168|359:167|359:166|348:131|296:137,1,118.800003625488,14|0,3:1|0:0,0:0:0:0:
303,127,222946,2,0,P|311:91|324:58,1,72,2|0,3:1|0:0,0:0:0:0:
220,26,223273,1,10,3:1:0:0:
220,26,223437,2,0,P|186:39|151:46,1,72,2|0,0:1|3:0,0:0:0:0:
61,95,223765,1,2,0:1:0:0:
103,182,223929,1,10,3:1:0:0:
103,182,224093,1,2,0:1:0:0:
194,140,224257,6,0,B|223:178|243:198|243:198|219:224|194:254,1,144,2|10,3:1|3:1,0:0:0:0:
149,356,224749,1,2,0:1:0:0:
149,356,224913,2,0,P|98:330|69:321,1,72,2|0,3:1|0:0,0:0:0:0:
43,255,225241,1,10,3:1:0:0:
290,312,225569,6,0,P|351:285|436:266,1,144,2|10,3:1|0:1,0:0:0:0:
491,208,226060,2,0,B|446:189|442:141|442:141|441:179|408:203,1,144,2|2,3:1|3:1,0:0:0:0:
324,198,226552,2,0,P|310:162|279:116,1,72,8|0,0:1|0:0,0:0:0:0:
247,231,226880,2,0,P|233:195|202:149,1,72,0|2,3:0|3:1,0:0:0:0:
225,87,227208,1,8,0:1:0:0:
225,87,227372,1,10,0:1:0:0:
154,29,227536,6,0,P|122:29|91:77,1,72,6|0,3:1|0:0,0:0:0:0:
0,96,227864,2,0,P|25:132|44:180,1,72,8|0,3:1|0:0,0:0:0:0:
121,199,228191,1,2,3:2:0:0:
121,199,228355,1,0,0:0:0:0:
25,296,228519,2,0,P|66:278|115:268,1,72,8|0,3:1|0:0,0:0:0:0:
194,175,228847,6,0,P|228:184|261:199,1,72,2|0,3:2|0:0,0:0:0:0:
341,315,229175,2,0,P|292:310|283:264,1,72,8|0,3:1|0:0,0:0:0:0:
350,233,229503,1,0,3:0:0:0:
409,176,229667,2,0,P|400:145|377:83,1,72,2|8,0:1|3:1,0:0:0:0:
390,19,229995,1,2,0:1:0:0:
307,52,230159,6,0,B|261:43|239:79|239:79|235:128|186:143,1,144,2|8,3:1|3:1,0:0:0:0:
116,93,230650,1,2,0:0:0:0:
116,93,230814,2,0,B|81:101|81:101|56:143,1,72,0|2,3:0|0:0,0:0:0:0:
0,194,231142,2,0,B|18:225|18:225|53:233,1,72,8|0,3:1|0:0,0:0:0:0:
178,232,231470,6,0,B|223:234|235:277|233:277|231:277|236:329|296:321,1,144,2|8,3:2|3:1,0:0:0:0:
350,271,231962,1,0,0:0:0:0:
411,329,232126,2,0,P|431:332|456:341,2,36,2|8|0,3:2|3:0|3:0,0:0:0:0:
350,271,232454,1,8,0:1:0:0:
410,213,232618,5,8,0:1:0:0:
410,213,232700,1,8,0:1:0:0:
410,213,232782,2,0,P|457:156|424:97,1,129.599996044922,4|10,3:1|0:1,0:0:0:0:
408,6,233273,2,0,P|351:45|285:79,1,129.599996044922,2|2,3:1|3:1,0:0:0:0:
239,161,233765,1,10,0:1:0:0:
239,161,233929,2,0,P|170:125|94:106,1,129.599996044922,2|2,3:1|3:1,0:0:0:0:
43,92,234421,1,10,0:1:0:0:
42,169,234585,2,0,P|26:199|47:244,1,64.799998022461,2|0,3:1|0:0,0:0:0:0:
45,258,234831,1,8,0:1:0:0:
45,258,234913,2,0,B|78:236|99:221|99:221|142:283,1,129.599996044922,2|10,3:1|0:1,0:0:0:0:
220,343,235405,6,0,B|235:292|235:292|284:259|311:309,1,144,4|2,3:2|3:1,0:0:0:0:
398,347,235896,1,2,3:1:0:0:
446,268,236060,1,0,3:0:0:0:
363,229,236224,2,0,P|353:204|341:171,3,36,0|0|0|0,3:2|3:2|3:2|3:2,0:0:0:0:
353,237,236552,5,0,3:0:0:0:
9,50,238028,6,0,P|70:72|137:106,1,129.599996044922,4|0,3:1|0:0,0:0:0:0:
208,57,238683,2,0,B|244:59|267:30|267:30|249:58|268:98,1,129.599996044922,2|0,3:0|0:0,0:0:0:0:
290,176,239339,1,2,3:0:0:0:
453,88,239667,1,0,3:0:0:0:
267,76,239995,2,0,P|263:63|258:53,2,21.5999993408203,2|0|0,3:2|0:0|0:0,0:0:0:0:
346,23,240323,1,2,0:0:0:0:
464,100,240650,6,0,P|480:141|427:202,1,129.599996044922,4|8,3:1|3:2,0:0:0:0:
380,275,241142,1,2,0:0:0:0:
380,275,241306,2,0,P|338:258|293:250,1,64.799998022461,2|0,3:2|0:0,0:0:0:0:
285,151,241634,2,0,P|253:159|224:172,1,64.799998022461,10|0,3:2|0:0,0:0:0:0:
177,246,241962,1,0,3:0:0:0:
90,207,242126,1,2,0:0:0:0:
90,207,242290,2,0,B|75:175|75:175|97:127,1,64.799998022461,8|2,3:2|0:0,0:0:0:0:
31,35,242618,2,0,P|62:43|91:56,1,64.799998022461,2|0,3:2|0:0,0:0:0:0:
191,133,242946,2,0,P|220:119|251:111,1,64.799998022461,10|0,3:2|0:0,0:0:0:0:
323,25,243273,6,0,B|363:26|374:59|374:62|374:63|373:111|437:107,1,129.599996044922,2|8,3:2|3:2,0:0:0:0:
495,165,243765,1,2,0:0:0:0:
495,165,243929,2,0,P|460:172|429:208,1,64.799998022461,2|0,3:2|0:0,0:0:0:0:
335,181,244257,2,0,P|353:215|368:254,1,64.799998022461,10|0,3:2|0:0,0:0:0:0:
289,318,244585,2,0,P|255:300|215:297,1,64.799998022461,0|2,3:0|0:0,0:0:0:0:
82,354,244913,2,0,P|111:340|127:313,1,64.799998022461,10|2,3:2|0:0,0:0:0:0:
73,238,245241,2,0,P|51:231|28:226,2,32.3999990112305,2|8|0,3:2|3:2|3:0,0:0:0:0:
124,163,245569,1,10,0:0:0:0:
216,196,245732,1,8,0:0:0:0:
216,196,245814,1,8,0:0:0:0:
216,196,245896,6,0,B|244:159|256:144|256:144|194:77,1,129.599996044922,4|8,3:1|3:2,0:0:0:0:
137,26,246388,1,2,0:0:0:0:
137,26,246552,2,0,P|100:34|72:50,1,64.799998022461,2|0,3:2|0:0,0:0:0:0:
0,122,246880,2,0,P|36:130|65:146,1,64.799998022461,10|0,3:2|0:0,0:0:0:0:
108,226,247208,1,0,3:0:0:0:
26,261,247372,1,2,0:0:0:0:
26,261,247536,2,0,P|5:286|12:338,1,64.799998022461,8|2,3:2|0:0,0:0:0:0:
126,362,247864,2,0,P|146:337|142:299,1,64.799998022461,2|0,3:2|0:0,0:0:0:0:
108,212,248191,2,0,P|161:202|230:183,1,97.1999970336915,10|0,3:2|0:0,0:0:0:0:
214,206,248519,6,0,P|263:212|302:256,1,97.1999970336915,2|8,3:2|0:0,0:0:0:0:
299,255,248847,1,0,3:0:0:0:
443,359,249011,2,0,P|423:313|442:257,1,97.1999970336915,10|8,0:0|0:0,0:0:0:0:
444,262,249339,1,0,3:0:0:0:
399,177,249503,1,10,0:2:0:0:
399,177,249667,2,0,P|363:159|323:151,1,64.799998022461,8|0,0:0|3:0,0:0:0:0:
290,79,249995,1,2,0:0:0:0:
290,79,250159,2,0,P|254:97|214:105,1,64.799998022461,8|2,3:2|0:0,0:0:0:0:
375,26,250487,2,0,P|394:47|382:108,1,64.799998022461,2|0,3:2|3:0,0:0:0:0:
458,150,250814,1,10,0:0:0:0:
383,205,250978,5,8,0:0:0:0:
383,205,251060,1,8,0:0:0:0:
383,205,251142,2,0,P|314:230|260:262,1,129.599996044922,4|8,3:1|3:2,0:0:0:0:
210,336,251634,1,2,0:0:0:0:
210,336,251798,2,0,P|176:313|144:310,1,64.799998022461,2|0,3:2|0:0,0:0:0:0:
10,384,252126,2,0,P|46:366|65:339,1,64.799998022461,10|0,3:2|0:0,0:0:0:0:
82,256,252454,1,0,3:0:0:0:
0,227,252618,1,2,0:0:0:0:
0,227,252782,2,0,P|3:190|39:163,1,64.799998022461,8|2,3:2|0:0,0:0:0:0:
32,82,253110,2,0,P|69:105|104:116,1,64.799998022461,2|0,3:2|0:0,0:0:0:0:
158,186,253437,2,0,P|187:173|214:155,1,64.799998022461,10|0,3:2|0:0,0:0:0:0:
223,64,253765,1,2,3:2:0:0:
465,88,254093,6,0,P|466:55|420:27,2,64.799998022461,8|2|2,3:2|0:0|3:2,0:0:0:0:
452,191,254585,2,0,P|497:172|527:164,2,64.799998022461,0|10|0,0:0|3:2|0:0,0:0:0:0:
365,93,255077,2,0,P|352:122|342:153,1,64.799998022461,0|2,3:0|0:0,0:0:0:0:
253,172,255405,2,0,P|266:199|282:257,1,64.799998022461,10|2,3:2|0:0,0:0:0:0:
361,279,255732,2,0,P|382:288|396:298,2,32.3999990112305,2|8|0,3:2|3:2|3:0,0:0:0:0:
303,350,256060,1,10,0:0:0:0:
223,304,256224,5,8,0:0:0:0:
223,304,256306,1,8,0:0:0:0:
223,304,256388,2,0,B|187:320|162:282|163:280|164:281|143:237|86:269,1,129.599996044922,4|8,3:1|3:2,0:0:0:0:
16,263,256880,1,2,0:0:0:0:
16,263,257044,2,0,P|28:226|35:190,1,64.799998022461,2|0,3:2|0:0,0:0:0:0:
145,146,257372,2,0,P|132:109|126:73,1,64.799998022461,10|0,3:2|0:0,0:0:0:0:
196,7,257700,1,0,3:0:0:0:
281,54,257864,1,2,0:0:0:0:
281,54,258028,2,0,P|327:67|338:99,1,64.799998022461,8|2,3:2|0:0,0:0:0:0:
430,78,258355,2,0,P|416:107|404:145,1,64.799998022461,2|0,3:2|0:0,0:0:0:0:
263,142,258683,2,0,P|276:171|289:209,1,64.799998022461,10|0,3:2|0:0,0:0:0:0:
394,271,259011,6,0,P|453:283|483:231,1,129.599996044922,2|8,3:2|3:2,0:0:0:0:
499,120,259503,1,2,0:0:0:0:
499,120,259667,2,0,P|467:139|430:146,1,64.799998022461,2|0,3:2|0:0,0:0:0:0:
345,80,259995,2,0,P|317:62|286:54,1,64.799998022461,10|0,3:2|0:0,0:0:0:0:
231,135,260323,1,0,3:0:0:0:
151,84,260487,1,10,0:0:0:0:
151,84,260650,2,0,P|161:50|171:13,1,64.799998022461,8|2,3:2|0:0,0:0:0:0:
35,76,260978,2,0,P|44:107|53:139,1,64.799998022461,2|0,3:2|0:0,0:0:0:0:
136,192,261306,1,10,3:2:0:0:
84,278,261470,1,0,0:0:0:0:
0,227,261634,5,2,0:3:0:0:
256,192,264093,12,2,265569,0:0:0:0:
