osu file format v14

[General]
AudioFilename: audio.mp3
AudioLeadIn: 0
PreviewTime: 125968
Countdown: 0
SampleSet: Soft
StackLeniency: 0.3
Mode: 0
LetterboxInBreaks: 0
WidescreenStoryboard: 0

[Editor]
Bookmarks: 22772,82772,94247,111624,127198,136050
DistanceSpacing: 0.7
BeatDivisor: 4
GridSize: 32
TimelineZoom: 1.5

[Metadata]
Title:Kakumei no bullet
TitleUnicode:革命のbullet
Artist:ShinRa-Bansho
ArtistUnicode:森羅万象
Creator:original3s
Version:Expert
Source:東方永夜抄 ~ Imperishable Night.
Tags:casper casperisapotato Baack UberFazz touhou pop japanese kaztora revolutionary 清水"カルロス"宥人 あよ team shanghai alice zun 少女綺想曲 ~ Dream Battle ayo shoujo kisoukyoku maiden's capriccio in th08 eiyashou eternal night vignette from the east 博麗 霊夢 j-pop jpop reimu hakurei 上海アリス幻樂団 太田 順也 TH 東方Project
BeatmapID:3248149
BeatmapSetID:1590256

[Difficulty]
HPDrainRate:6
CircleSize:4.3
OverallDifficulty:9
ApproachRate:9.3
SliderMultiplier:1.98
SliderTickRate:1

[Events]
//Background and Video events
0,0,"z.jpg",0,0
//Break Periods
2,95277,98293
2,160850,170588
2,187080,196818
//Storyboard Layer 0 (Background)
//Storyboard Layer 1 (Fail)
//Storyboard Layer 2 (Pass)
//Storyboard Layer 3 (Foreground)
//Storyboard Layer 4 (Overlay)
//Storyboard Sound Samples

[TimingPoints]
651,327.868852459016,4,2,1,40,1,0
1962,-166.666666666667,4,2,1,40,0,0
7208,-111.111111111111,4,2,1,40,0,0
7536,-142.857142857143,4,2,1,40,0,0
9831,-166.666666666667,4,2,1,40,0,0
11798,-250.000000000001,4,2,1,40,0,0
12372,-250.000000000001,4,2,1,5,0,0
12454,-166.666666666667,4,2,1,40,0,0
15896,-125,4,2,1,40,0,0
17208,-111.111111111111,4,2,1,50,0,0
17290,-111.111111111111,4,2,1,5,0,0
17372,-250.000000000001,4,2,1,60,0,0
17618,-250.000000000001,4,2,1,5,0,0
17700,-100,4,2,1,70,0,0
17946,-100,4,2,1,5,0,0
18028,-111.111111111111,4,2,1,70,0,0
18273,-111.111111111111,4,2,1,5,0,0
18355,-111.111111111111,4,2,1,70,0,0
19913,-111.111111111111,4,2,1,5,0,0
19995,-142.857142857143,4,2,1,70,0,0
20241,-142.857142857143,4,2,1,5,0,0
20323,-100,4,2,1,70,0,0
20569,-100,4,2,1,5,0,0
20650,-111.111111111111,4,2,1,70,0,0
20896,-111.111111111111,4,2,1,5,0,0
20978,-111.111111111111,4,2,1,70,0,0
22946,-90.9090909090911,4,2,1,70,0,0
23191,-90.9090909090911,4,2,1,5,0,0
23273,-100,4,2,1,70,0,0
23519,-100,4,2,1,5,0,0
23601,-100,4,2,1,70,0,0
25159,-100,4,2,1,5,0,0
25241,-125,4,2,1,70,0,0
25487,-125,4,2,1,5,0,0
25569,-90.9090909090911,4,2,1,70,0,0
25814,-90.9090909090911,4,2,1,5,0,0
25896,-100,4,2,1,70,0,0
26142,-100,4,2,1,5,0,0
26224,-100,4,2,1,70,0,0
26798,-100,4,2,1,5,0,0
26880,-100,4,2,1,70,0,0
28191,-166.666666666667,4,2,1,70,0,0
28273,-166.666666666667,4,2,1,5,0,0
30814,-166.666666666667,4,2,1,70,0,0
30896,-166.666666666667,4,2,1,5,0,0
33437,-166.666666666667,4,2,1,70,0,0
33519,-166.666666666667,4,2,1,5,0,0
33929,-166.666666666667,4,2,1,70,0,0
34011,-166.666666666667,4,2,1,5,0,0
36060,-166.666666666667,4,2,1,70,0,0
36142,-166.666666666667,4,2,1,5,0,0
36880,-166.666666666667,4,2,1,70,0,0
37372,-125,4,2,1,70,0,0
37864,-111.111111111111,4,2,1,70,0,0
38683,-99.9999999999999,4,2,1,70,0,0
39011,-125,4,2,1,70,0,0
41224,-125,4,2,1,5,0,0
41306,-125,4,2,1,70,0,0
42290,-166.666666666667,4,2,1,70,0,0
42536,-166.666666666667,4,2,1,5,0,0
42618,-125,4,2,1,70,0,0
43519,-125,4,2,1,5,0,0
43601,-125,4,2,1,70,0,0
47700,-90.9090909090909,4,2,1,70,0,0
47946,-90.9090909090909,4,2,1,70,0,0
48028,-90.9090909090909,4,2,1,70,0,0
48519,-76.9230769230769,4,2,1,70,0,0
48683,-125,4,2,1,70,0,0
49175,-100,4,2,1,70,0,0
49421,-100,4,2,1,70,0,0
49503,-142.857142857143,4,2,1,70,0,0
50487,-111.111111111111,4,2,1,70,0,0
50732,-111.111111111111,4,2,1,70,0,0
50814,-142.857142857143,4,2,1,70,0,0
51552,-142.857142857143,4,2,1,5,0,0
51634,-90.909090909091,4,2,1,70,0,0
51962,-200,4,2,1,70,0,0
52044,-200,4,2,1,5,0,0
52126,-76.923076923077,4,2,1,70,0,0
52372,-76.923076923077,4,2,1,5,0,0
52454,-100,4,2,1,70,0,0
52536,-100,4,2,1,5,0,0
52618,-100,4,2,1,70,0,0
52946,-142.857142857143,4,2,1,70,0,0
53765,-100,4,2,1,70,0,0
54667,-100,4,2,1,5,0,0
54749,-83.3333333333333,4,2,1,70,0,0
54995,-83.3333333333333,4,2,1,70,0,0
55077,-83.3333333333333,4,2,1,70,0,0
55569,-125,4,2,1,70,0,0
55814,-125,4,2,1,5,0,0
55896,-100,4,2,1,70,0,0
56060,-100,4,2,1,5,0,0
56142,-90.9090909090909,4,2,1,70,0,0
56306,-90.9090909090909,4,2,1,5,0,0
56388,-83.3333333333333,4,2,1,70,0,0
56552,-83.3333333333333,4,2,1,5,0,0
56607,-76.9230769230769,4,2,1,70,0,0
56716,-76.9230769230769,4,2,1,5,0,0
56825,-71.4285714285714,4,2,1,70,0,0
56935,-71.4285714285714,4,2,1,5,0,0
57044,-71.4285714285714,4,2,1,70,0,0
59011,-100,4,2,1,70,0,0
59995,-166.666666666667,4,2,1,70,0,0
60978,-76.923076923077,4,2,1,80,0,0
61224,-76.923076923077,4,2,1,5,0,0
61306,-90.909090909091,4,2,1,80,0,0
63601,-76.9230769230769,4,2,1,80,0,0
63847,-76.9230769230769,4,2,1,5,0,0
63929,-90.909090909091,4,2,1,80,0,0
66224,-76.9230769230769,4,2,1,80,0,0
66470,-76.9230769230769,4,2,1,5,0,0
66552,-90.909090909091,4,2,1,80,0,0
68929,-90.909090909091,4,2,1,5,0,0
69011,-90.909090909091,4,2,1,80,0,0
69421,-90.909090909091,4,2,1,5,0,0
69503,-90.909090909091,4,2,1,80,0,0
70077,-90.909090909091,4,2,1,5,0,0
70159,-90.909090909091,4,2,1,80,0,0
71306,-83.3333333333333,4,2,1,80,0,0
71470,-76.9230769230769,4,2,1,80,0,0
71716,-76.9230769230769,4,2,1,5,0,0
71798,-90.909090909091,4,2,1,80,0,0
74093,-76.9230769230769,4,2,1,80,0,0
74339,-76.9230769230769,4,2,1,5,0,0
74421,-90.909090909091,4,2,1,80,0,0
75077,-166.666666666667,4,2,1,80,0,0
75159,-166.666666666667,4,2,1,5,0,0
75241,-71.4285714285714,4,2,1,80,0,0
75487,-71.4285714285714,4,2,1,5,0,0
75569,-90.909090909091,4,2,1,80,0,0
76716,-76.9230769230769,4,2,1,80,0,0
76798,-76.9230769230769,4,2,1,5,0,0
76880,-76.9230769230769,4,2,1,80,0,0
77126,-76.9230769230769,4,2,1,5,0,0
77208,-71.4285714285714,4,2,1,80,0,0
77454,-71.4285714285714,4,2,1,5,0,0
77536,-100,4,2,1,80,0,0
77618,-100,4,2,1,5,0,0
77700,-100,4,2,1,80,0,0
77864,-69.9300699300699,4,2,1,80,0,0
78110,-69.9300699300699,4,2,1,5,0,0
78191,-76.9230769230769,4,2,1,80,0,0
78601,-76.9230769230769,4,2,1,5,0,0
78683,-76.9230769230769,4,2,1,80,0,0
79339,-90.9090909090909,4,2,1,80,0,0
80077,-90.9090909090909,4,2,1,5,0,0
80159,-90.9090909090909,4,2,1,80,0,0
80487,-83.3333333333333,4,2,1,80,0,0
80732,-83.3333333333333,4,2,1,5,0,0
80814,-90.9090909090909,4,2,1,80,0,0
81142,-76.9230769230769,4,2,1,80,0,0
81306,-90.9090909090909,4,2,1,80,0,0
81962,-66.6666666666667,4,2,1,80,0,0
82618,-74.0740740740741,4,2,1,80,0,0
82782,-71.4285714285714,4,2,1,80,0,0
82946,-68.9655172413793,4,2,1,80,0,0
83110,-66.6666666666667,4,2,1,80,0,0
83191,-66.6666666666667,4,2,1,5,0,0
84585,-90.9090909090909,4,2,1,80,0,0
84831,-90.9090909090909,4,2,1,5,0,0
84913,-111.111111111111,4,2,1,80,0,0
85487,-111.111111111111,4,2,1,5,0,0
85569,-111.111111111111,4,2,1,80,0,0
87208,-90.9090909090908,4,2,1,80,0,0
87454,-90.9090909090908,4,2,1,5,0,0
87536,-111.111111111111,4,2,1,80,0,0
88110,-111.111111111111,4,2,1,5,0,0
88191,-111.111111111111,4,2,1,80,0,0
89667,-90.9090909090908,4,2,1,80,0,0
89831,-83.3333333333333,4,2,1,80,0,0
90569,-83.3333333333333,4,2,1,80,0,0
90650,-166.666666666667,4,2,1,80,0,0
90732,-166.666666666667,4,2,1,5,0,0
90814,-76.9230769230769,4,2,1,80,0,0
91060,-76.9230769230769,4,2,1,80,0,0
91142,-142.857142857143,4,2,1,80,0,0
91224,-142.857142857143,4,2,1,5,0,0
91306,-71.4285714285714,4,2,1,80,0,0
91552,-71.4285714285714,4,2,1,80,0,0
91634,-125,4,2,1,80,0,0
91716,-125,4,2,1,5,0,0
91798,-125,4,2,1,80,0,0
92126,-250.000000000001,4,2,1,80,0,0
93683,-250.000000000001,4,2,1,5,0,0
93765,-125,4,2,1,80,0,0
94093,-166.666666666667,4,2,1,80,0,0
99667,-100,4,2,1,70,0,0
99831,-100,4,2,1,5,0,0
99913,-111.111111111111,4,2,1,70,0,0
100077,-111.111111111111,4,2,1,5,0,0
100159,-125,4,2,1,70,0,0
100241,-125,4,2,1,5,0,0
100323,-100,4,2,1,70,0,0
100569,-100,4,2,1,5,0,0
100650,-125,4,2,1,70,0,0
101224,-125,4,2,1,5,0,0
101306,-125,4,2,1,70,0,0
101388,-125,4,2,1,5,0,0
101470,-125,4,2,1,70,0,0
101552,-125,4,2,1,5,0,0
101634,-125,4,2,1,70,0,0
101798,-111.111111111111,4,2,1,70,0,0
101880,-111.111111111111,4,2,1,5,0,0
102126,-100,4,2,1,70,0,0
102946,-90.9090909090909,4,2,1,70,0,0
103273,-125,4,2,1,70,0,0
105487,-125,4,2,1,5,0,0
105569,-83.3333333333333,4,2,1,70,0,0
105650,-83.3333333333333,4,2,1,5,0,0
105732,-166.666666666667,4,2,1,70,0,0
106060,-83.3333333333333,4,2,1,70,0,0
106142,-83.3333333333333,4,2,1,5,0,0
106224,-166.666666666667,4,2,1,70,0,0
106552,-83.3333333333333,4,2,1,70,0,0
106634,-83.3333333333333,4,2,1,5,0,0
106716,-166.666666666667,4,2,1,70,0,0
107044,-83.3333333333334,4,2,1,70,0,0
107126,-83.3333333333334,4,2,1,5,0,0
107208,-166.666666666667,4,2,1,70,0,0
107536,-83.3333333333334,4,2,1,70,0,0
107618,-83.3333333333334,4,2,1,5,0,0
107700,-166.666666666667,4,2,1,70,0,0
108028,-83.3333333333334,4,2,1,70,0,0
108110,-83.3333333333334,4,2,1,5,0,0
108191,-166.666666666667,4,2,1,70,0,0
108683,-125,4,2,1,70,0,0
108765,-125,4,2,1,5,0,0
109175,-125,4,2,1,70,0,0
109257,-125,4,2,1,5,0,0
109667,-125,4,2,1,70,0,0
109749,-125,4,2,1,5,0,0
109995,-125,4,2,1,70,0,0
110487,-111.111111111111,4,2,1,70,0,0
110732,-111.111111111111,4,2,1,5,0,0
110814,-90.9090909090909,4,2,1,70,0,0
111142,-111.111111111111,4,2,1,70,0,0
111962,-90.9090909090908,4,2,1,70,0,0
112208,-90.9090909090908,4,2,1,5,0,0
112290,-166.666666666667,4,2,1,70,0,0
112372,-166.666666666667,4,2,1,5,0,0
112454,-76.9230769230769,4,2,1,70,0,0
112700,-76.9230769230769,4,2,1,70,0,0
112782,-76.9230769230769,4,2,1,70,0,0
113273,-90.9090909090909,4,2,1,70,0,0
113683,-90.9090909090909,4,2,1,5,0,0
113765,-111.111111111111,4,2,1,70,0,0
114585,-90.9090909090908,4,2,1,70,0,0
114913,-111.111111111111,4,2,1,70,0,0
115732,-166.666666666666,4,2,1,70,0,0
115814,-166.666666666666,4,2,1,5,0,0
115896,-83.3333333333333,4,2,1,70,0,0
116142,-83.3333333333333,4,2,1,5,0,0
116224,-166.666666666667,4,2,1,70,0,0
116306,-166.666666666667,4,2,1,5,0,0
116388,-76.9230769230769,4,2,1,70,0,0
116716,-99.9999999999999,4,2,1,70,0,0
116798,-99.9999999999999,4,2,1,5,0,0
116880,-99.9999999999999,4,2,1,70,0,0
117208,-111.111111111111,4,2,1,70,0,0
118028,-100,4,2,1,70,0,0
118683,-90.9090909090909,4,2,1,70,0,0
118929,-90.9090909090909,4,2,1,5,0,0
119011,-83.3333333333333,4,2,1,70,0,0
119339,-90.9090909090909,4,2,1,70,0,0
119831,-83.3333333333333,4,2,1,70,0,0
120077,-83.3333333333333,4,2,1,5,0,0
120159,-71.4285714285714,4,2,1,70,0,0
120241,-71.4285714285714,4,2,1,5,0,0
120323,-76.9230769230769,4,2,1,70,0,0
120814,-76.9230769230769,4,2,1,5,0,0
120896,-71.4285714285714,4,2,1,70,0,0
121060,-71.4285714285714,4,2,1,5,0,0
121142,-66.6666666666667,4,2,1,70,0,0
121224,-66.6666666666667,4,2,1,5,0,0
121306,-100,4,2,1,70,0,0
124913,-142.857142857143,4,2,1,70,0,0
124995,-142.857142857143,4,2,1,5,0,0
125077,-100,4,2,1,70,0,0
125323,-100,4,2,1,5,0,0
125405,-142.857142857143,4,2,1,70,0,0
125487,-142.857142857143,4,2,1,5,0,0
125569,-90.9090909090909,4,2,1,70,0,0
125814,-90.9090909090909,4,2,1,5,0,0
125896,-90.9090909090909,4,2,1,70,0,0
126552,-76.9230769230769,4,2,1,80,0,0
126798,-76.9230769230769,4,2,1,5,0,0
126880,-90.9090909090909,4,2,1,80,0,0
129175,-76.9230769230769,4,2,1,80,0,0
129421,-76.9230769230769,4,2,1,5,0,0
129503,-90.9090909090909,4,2,1,80,0,0
131798,-76.9230769230769,4,2,1,80,0,0
132044,-76.9230769230769,4,2,1,5,0,0
132126,-90.9090909090909,4,2,1,80,0,0
134503,-90.9090909090909,4,2,1,5,0,0
134585,-90.9090909090909,4,2,1,80,0,0
134995,-90.9090909090909,4,2,1,5,0,0
135077,-90.9090909090909,4,2,1,80,0,0
135650,-90.9090909090909,4,2,1,5,0,0
135732,-90.9090909090909,4,2,1,80,0,0
136142,-90.9090909090909,4,2,1,5,0,0
136224,-90.9090909090909,4,2,1,80,0,0
136880,-83.3333333333333,4,2,1,80,0,0
137044,-76.9230769230769,4,2,1,85,0,0
137290,-76.9230769230769,4,2,1,5,0,0
137372,-90.9090909090909,4,2,1,85,0,0
139667,-76.9230769230769,4,2,1,85,0,0
139913,-76.9230769230769,4,2,1,5,0,0
139995,-90.9090909090909,4,2,1,85,0,0
140650,-166.666666666667,4,2,1,85,0,0
140732,-166.666666666667,4,2,1,5,0,0
140814,-76.9230769230769,4,2,1,85,0,0
141060,-76.9230769230769,4,2,1,5,0,0
141142,-76.9230769230769,4,2,1,85,0,0
142372,-76.9230769230769,4,2,1,5,0,0
142454,-76.9230769230769,4,2,1,85,0,0
142700,-76.9230769230769,4,2,1,5,0,0
142782,-71.4285714285714,4,2,1,85,0,0
143028,-71.4285714285714,4,2,1,5,0,0
143110,-71.4285714285714,4,2,1,85,0,0
143191,-71.4285714285714,4,2,1,5,0,0
143273,-71.4285714285714,4,2,1,85,0,0
143437,-66.6666666666667,4,2,1,85,0,0
143683,-66.6666666666667,4,2,1,5,0,0
143765,-76.9230769230769,4,2,1,85,0,0
144175,-76.9230769230769,4,2,1,5,0,0
144257,-76.9230769230769,4,2,1,85,0,0
144913,-90.9090909090909,4,2,1,85,0,0
145405,-83.3333333333333,4,2,1,85,0,0
145650,-83.3333333333333,4,2,1,5,0,0
145732,-83.3333333333333,4,2,1,85,0,0
146306,-83.3333333333333,4,2,1,5,0,0
146388,-83.3333333333333,4,2,1,85,0,0
146716,-76.9230769230769,4,2,1,85,0,0
147454,-76.9230769230769,4,2,1,5,0,0
147536,-66.6666666666667,4,2,1,85,0,0
148028,-76.9230769230769,4,2,1,85,0,0
148847,-76.9230769230769,4,2,1,5,0,0
150159,-76.9230769230769,4,2,1,75,0,0
150405,-76.9230769230769,4,2,1,5,0,0
150487,-125,4,2,1,75,0,0
152044,-125,4,2,1,5,0,0
152126,-111.111111111111,4,2,1,75,0,0
152372,-111.111111111111,4,2,1,5,0,0
152454,-100,4,2,1,75,0,0
152700,-100,4,2,1,5,0,0
152782,-90.9090909090909,4,2,1,75,0,0
153028,-90.9090909090909,4,2,1,5,0,0
153110,-125,4,2,1,75,0,0
153847,-125,4,2,1,5,0,0
153929,-125,4,2,1,75,0,0
154339,-125,4,2,1,5,0,0
154421,-125,4,2,1,75,0,0
155405,-90.9090909090909,4,2,1,75,0,0
155650,-90.9090909090909,4,2,1,5,0,0
155732,-83.3333333333333,4,2,1,75,0,0
156060,-111.111111111111,4,2,1,75,0,0
156962,-111.111111111111,4,2,1,5,0,0
157044,-111.111111111111,4,2,1,75,0,0
158028,-142.857142857143,4,2,1,75,0,0
158110,-142.857142857143,4,2,1,45,0,0
171142,-142.857142857143,4,2,1,70,0,0
173765,-111.111111111111,4,2,1,72,0,0
174093,-142.857142857143,4,2,1,72,0,0
176388,-111.111111111111,4,2,1,74,0,0
176716,-142.857142857143,4,2,1,74,0,0
179011,-111.111111111111,4,2,1,76,0,0
179339,-142.857142857143,4,2,1,76,0,0
181470,-117.647058823529,4,2,1,76,0,0
181634,-100,4,2,1,78,0,0
182454,-90.9090909090909,4,2,1,78,0,0
182782,-83.3333333333333,4,2,1,78,0,0
184257,-100,4,2,1,80,0,0
185077,-125,4,2,1,80,0,0
185405,-166.666666666667,4,2,1,80,0,0
185569,-125,4,2,1,80,0,0
186224,-166.666666666667,4,2,1,80,0,0
186880,-166.666666666667,4,2,1,60,0,0
197372,-125,4,2,1,70,0,0
200241,-125,4,2,1,70,0,0
200323,-125,4,2,1,70,0,0
200650,-100,4,2,1,70,0,0
201142,-83.3333333333333,4,2,1,70,0,0
201224,-83.3333333333333,4,2,1,5,0,0
201470,-83.3333333333333,4,2,1,70,0,0
201552,-83.3333333333333,4,2,1,5,0,0
201798,-100,4,2,1,70,0,0
201880,-100,4,2,1,5,0,0
201962,-83.3333333333333,4,2,1,70,0,0
202044,-83.3333333333333,4,2,1,5,0,0
202126,-100,4,2,1,70,0,0
202208,-100,4,2,1,5,0,0
202290,-100,4,2,1,70,0,0
202372,-100,4,2,1,5,0,0
202454,-100,4,2,1,70,0,0
203683,-100,4,2,1,5,0,0
203765,-83.3333333333333,4,2,1,70,0,0
204011,-83.3333333333333,4,2,1,5,0,0
204093,-100,4,2,1,70,0,0
204913,-90.9090909090909,4,2,1,70,0,0
205159,-90.9090909090909,4,2,1,5,0,0
205241,-83.3333333333333,4,2,1,70,0,0
205323,-83.3333333333333,4,2,1,5,0,0
205405,-83.3333333333333,4,2,1,70,0,0
205732,-71.4285714285714,4,2,1,70,0,0
205978,-71.4285714285714,4,2,1,5,0,0
206060,-66.6666666666667,4,2,1,70,0,0
206306,-66.6666666666667,4,2,1,5,0,0
206388,-76.9230769230769,4,2,1,70,0,0
206880,-90.9090909090909,4,2,1,70,0,0
207454,-90.9090909090909,4,2,1,5,0,0
207700,-76.9230769230769,4,2,1,75,0,0
207782,-76.9230769230769,4,2,1,5,0,0
207864,-76.9230769230769,4,2,1,75,0,0
210241,-76.9230769230769,4,2,1,5,0,0
210323,-76.9230769230769,4,2,1,75,0,0
210405,-76.9230769230769,4,2,1,5,0,0
211798,-71.4285714285714,4,2,1,80,0,0
212044,-71.4285714285714,4,2,1,5,0,0
212126,-66.6666666666667,4,2,1,80,0,0
212372,-66.6666666666667,4,2,1,5,0,0
212454,-76.9230769230769,4,2,1,80,0,0
212618,-76.9230769230769,4,2,1,5,0,0
212700,-71.4285714285714,4,2,1,80,0,0
212864,-71.4285714285714,4,2,1,5,0,0
212946,-62.5,4,2,1,80,0,0
213028,-62.5,4,2,1,5,0,0
213273,-76.9230769230769,4,2,1,80,0,0
213355,-76.9230769230769,4,2,1,5,0,0
213437,-71.4285714285714,4,2,1,80,0,0
213765,-76.9230769230769,4,2,1,80,0,0
213929,-76.9230769230769,4,2,1,5,0,0
214011,-71.4285714285714,4,2,1,80,0,0
214175,-71.4285714285714,4,2,1,5,0,0
214257,-71.4285714285714,4,2,1,80,0,0
214421,-66.6666666666667,4,2,1,80,0,0
214667,-66.6666666666667,4,2,1,5,0,0
214749,-66.6666666666667,4,2,1,80,0,0
214995,-66.6666666666667,4,2,1,5,0,0
215077,-71.4285714285714,4,2,1,80,0,0
215241,-71.4285714285714,4,2,1,5,0,0
215323,-66.6666666666667,4,2,1,80,0,0
215487,-66.6666666666667,4,2,1,5,0,0
215569,-62.5,4,2,1,80,0,0
215732,-62.5,4,2,1,5,0,0
216552,-83.3333333333333,4,2,1,80,0,0
216634,-83.3333333333333,4,2,1,5,0,0
216716,-166.666666666667,4,2,1,80,0,0
216962,-166.666666666667,4,2,1,5,0,0
217044,-76.923076923077,4,2,1,85,0,0
217290,-76.923076923077,4,2,1,5,0,0
217372,-90.909090909091,4,2,1,85,0,0
219749,-90.909090909091,4,2,1,5,0,0
219831,-90.909090909091,4,2,1,85,0,0
220241,-90.909090909091,4,2,1,5,0,0
220487,-90.909090909091,4,2,1,85,0,0
220896,-90.909090909091,4,2,1,5,0,0
221142,-90.909090909091,4,2,1,85,0,0
221388,-90.909090909091,4,2,1,5,0,0
221470,-90.909090909091,4,2,1,85,0,0
222126,-76.9230769230769,4,2,1,85,0,0
222618,-66.6666666666667,4,2,1,85,0,0
222864,-66.6666666666667,4,2,1,5,0,0
222946,-90.9090909090909,4,2,1,85,0,0
224913,-76.9230769230769,4,2,1,85,0,0
225159,-76.9230769230769,4,2,1,5,0,0
225241,-90.9090909090909,4,2,1,85,0,0
225896,-166.666666666667,4,2,1,85,0,0
225978,-166.666666666667,4,2,1,5,0,0
226060,-76.9230769230769,4,2,1,85,0,0
226306,-76.9230769230769,4,2,1,5,0,0
226388,-90.9090909090909,4,2,1,85,0,0
227536,-76.9230769230769,4,2,1,85,0,0
227782,-76.9230769230769,4,2,1,5,0,0
227864,-90.9090909090909,4,2,1,85,0,0
228847,-76.9230769230769,4,2,1,85,0,0
229093,-76.9230769230769,4,2,1,5,0,0
229175,-90.9090909090909,4,2,1,85,0,0
230159,-76.9230769230769,4,2,1,85,0,0
230405,-76.9230769230769,4,2,1,5,0,0
230487,-111.111111111111,4,2,1,85,0,0
230569,-111.111111111111,4,2,1,5,0,0
230650,-111.111111111111,4,2,1,85,0,0
231142,-100,4,2,1,85,0,0
231224,-100,4,2,1,5,0,0
231306,-90.9090909090909,4,2,1,85,0,0
231716,-90.9090909090909,4,2,1,5,0,0
231798,-90.9090909090909,4,2,1,85,0,0
232618,-83.3333333333333,4,2,1,85,0,0
232782,-90.9090909090909,4,2,1,85,0,0
233519,-90.9090909090909,4,2,1,5,0,0
233601,-90.9090909090909,4,2,1,85,0,0
234175,-90.9090909090909,4,2,1,5,0,0
234257,-90.9090909090909,4,2,1,85,0,0
235405,-76.9230769230769,4,2,1,85,0,0
235650,-76.9230769230769,4,2,1,5,0,0
235732,-90.9090909090909,4,2,1,85,0,0
236716,-90.9090909090909,4,2,1,5,0,0
238028,-111.111111111111,4,2,1,85,0,0
238601,-111.111111111111,4,2,1,5,0,0
238683,-100,4,2,1,85,0,0
239257,-100,4,2,1,5,0,0
239339,-90.9090909090909,4,2,1,85,0,0
239585,-90.9090909090909,4,2,1,5,0,0
239667,-111.111111111111,4,2,1,85,0,0
240323,-200,4,2,1,85,0,0
240650,-90.9090909090908,4,2,1,80,0,0
240896,-90.9090909090908,4,2,1,5,0,0
240978,-111.111111111111,4,2,1,80,0,0
241224,-111.111111111111,4,2,1,5,0,0
241306,-111.111111111111,4,2,1,80,0,0
242864,-111.111111111111,4,2,1,5,0,0
242946,-142.857142857143,4,2,1,80,0,0
243191,-142.857142857143,4,2,1,5,0,0
243273,-90.9090909090908,4,2,1,80,0,0
243519,-90.9090909090908,4,2,1,5,0,0
243601,-111.111111111111,4,2,1,80,0,0
243847,-111.111111111111,4,2,1,5,0,0
243929,-111.111111111111,4,2,1,80,0,0
245896,-90.9090909090908,4,2,1,82,0,0
246142,-90.9090909090908,4,2,1,5,0,0
246224,-111.111111111111,4,2,1,82,0,0
246470,-111.111111111111,4,2,1,5,0,0
246552,-111.111111111111,4,2,1,82,0,0
248110,-111.111111111111,4,2,1,5,0,0
248191,-142.857142857143,4,2,1,82,0,0
248437,-142.857142857143,4,2,1,5,0,0
248519,-90.9090909090908,4,2,1,82,0,0
250978,-76.9230769230769,4,2,1,82,0,0
251142,-83.3333333333333,4,2,1,84,0,0
251388,-83.3333333333333,4,2,1,5,0,0
251470,-100,4,2,1,84,0,0
251716,-100,4,2,1,5,0,0
251798,-100,4,2,1,84,0,0
253355,-100,4,2,1,5,0,0
253437,-125,4,2,1,84,0,0
253683,-125,4,2,1,5,0,0
253765,-100,4,2,1,84,0,0
256388,-83.3333333333333,4,2,1,86,0,0
256634,-83.3333333333333,4,2,1,5,0,0
256716,-100,4,2,1,86,0,0
256962,-100,4,2,1,5,0,0
257044,-100,4,2,1,86,0,0
258601,-100,4,2,1,5,0,0
258683,-125,4,2,1,86,0,0
258929,-125,4,2,1,5,0,0
259011,-83.3333333333333,4,2,1,86,0,0
259257,-83.3333333333333,4,2,1,5,0,0
259339,-100,4,2,1,86,0,0
259585,-100,4,2,1,5,0,0
259667,-100,4,2,1,86,0,0
261388,-100,4,2,1,5,0,0
261470,-100,4,2,1,86,0,0
261552,-100,4,2,1,5,0,0
261634,-100,4,2,1,76,0,0
262454,-125,4,2,1,76,0,0
263355,-125,4,2,1,5,0,0
263437,-125,4,2,1,76,0,0
264093,-166.666666666667,4,2,1,76,0,0
264257,-166.666666666667,4,2,1,50,0,0
264585,-166.666666666667,4,2,1,30,0,0
264913,-166.666666666667,4,2,1,10,0,0
265241,-166.666666666667,4,2,1,10,0,0
265323,-166.666666666667,4,2,1,55,0,0

[Colours]
Combo1 : 252,139,139
Combo2 : 232,202,140
Combo3 : 222,142,122
Combo4 : 245,192,230
Combo5 : 170,205,240
Combo6 : 249,77,72

[HitObjects]
447,229,1962,6,0,B|461:226|473:209|473:209|452:244|443:288,1,118.799996374512,6|2,3:2|0:0,0:0:0:0:
413,161,2454,1,0,0:0:0:0:
351,266,2618,2,0,P|307:275|264:288,1,89.0999972808839,2|0,0:0|0:0,0:0:0:0:
221,246,2946,2,0,L|278:259,1,59.3999981872559,2|2,0:0|0:0,0:0:0:0:
161,369,3273,5,0,0:0:0:0:
102,295,3437,1,2,0:0:0:0:
36,320,3601,1,2,0:0:0:0:
0,384,3765,1,2,0:0:0:0:
108,297,3929,6,0,B|173:290|138:236|200:233,1,118.799996374512,2|0,0:0|0:0,0:0:0:0:
265,288,4421,1,0,0:0:0:0:
474,217,4585,6,0,P|416:202|359:186,1,118.799996374512,2|2,0:2|0:0,0:0:0:0:
303,121,5077,1,0,0:0:0:0:
420,85,5241,2,0,B|472:85|450:50|494:45,1,89.0999972808839,2|0,0:0|0:0,0:0:0:0:
512,120,5569,2,0,P|483:112|455:105,1,59.3999981872559,2|2,0:0|0:0,0:0:0:0:
332,9,5896,5,0,0:0:0:0:
303,121,6060,1,2,0:0:0:0:
239,176,6224,1,2,0:0:0:0:
161,154,6388,1,2,0:0:0:0:
245,180,6552,6,0,P|261:237|275:294,1,118.799996374512,2|0,0:0|0:0,0:0:0:0:
387,148,7044,2,0,P|382:162|378:177,1,29.699999093628,2|0,0:3|0:0,0:0:0:0:
512,384,7208,6,0,B|423:368|488:296|382:267,1,178.199994561768,4|2,3:2|0:0,0:0:0:0:
275,294,7700,1,0,0:0:0:0:
108,368,7864,2,0,B|118:330|118:330|140:315|140:315|150:278,1,103.949996827698,2|0,0:0|0:0,0:0:0:0:
59,307,8191,2,0,B|88:298|88:298|94:289|94:289|120:282,1,69.2999978851319,2|2,0:0|0:0,0:0:0:0:
200,162,8519,5,0,0:0:0:0:
108,93,8683,1,2,0:0:0:0:
39,126,8847,1,2,0:0:0:0:
5,192,9011,1,2,0:0:0:0:
203,78,9175,6,0,B|241:78|256:46|256:46|246:92|279:118,1,138.599995770264,2|0,0:0|0:0,0:0:0:0:
190,5,9667,1,0,0:0:0:0:
283,123,9831,6,0,B|287:64|339:89|344:22,1,118.8,2|2,0:0|0:0,0:0:0:0:
272,0,10323,1,0,0:0:0:0:
374,136,10487,2,0,P|417:127|460:116,1,89.0999972808839,2|0,0:0|0:0,0:0:0:0:
388,144,10814,2,0,P|417:150|445:158,1,59.3999981872559,2|2,0:0|0:0,0:0:0:0:
498,237,11142,5,0,0:0:0:0:
456,314,11306,1,2,0:0:0:0:
392,349,11470,1,2,0:0:0:0:
345,339,11634,1,2,0:0:0:0:
512,384,11798,6,0,P|493:308|470:235,1,138.6,2|0,0:0|0:0,0:0:0:0:
401,226,12454,6,0,B|404:200|422:187|422:187|364:224|305:184|305:128|349:94|386:119,1,237.599992749024,2|0,0:3|0:0,0:0:0:0:
256,192,13191,12,2,15077,0:3:0:0:
475,45,15896,6,0,P|470:65|465:84,2,39.6,2|2|0,0:3|0:3|0:0,0:0:0:0:
475,45,16224,6,0,P|470:65|465:84,1,39.6,2|0,0:3|0:0,0:0:0:0:
470,234,16388,2,0,P|495:202|471:145,2,79.2,2|0|0,0:3|0:0|0:0,0:0:0:0:
342,177,16880,6,0,P|367:169|393:163,2,39.6,2|2|0,0:3|0:3|0:0,0:0:0:0:
91,116,17208,6,0,P|104:109|132:100,1,44.5499986404419,0|0,3:0|0:0,0:0:0:0:
109,61,17372,6,0,P|136:73|164:81,1,59.4,8|0,0:1|0:0,0:0:0:0:
219,136,17700,6,0,B|259:114|291:139|291:139|302:183|340:188,1,148.5,4|0,3:1|0:0,0:0:0:0:
396,133,18028,1,8,3:2:0:0:
512,48,18191,2,0,P|507:69|495:109,1,44.5499986404419,2|0,0:0|0:0,0:0:0:0:
471,183,18355,2,0,P|477:152|494:96,1,89.0999972808839,2|0,3:2|0:0,0:0:0:0:
492,307,18683,5,10,3:2:0:0:
373,269,18847,1,0,0:0:0:0:
351,275,18928,1,0,0:0:0:0:
329,279,19010,1,0,3:0:0:0:
188,369,19175,6,0,P|155:338|175:282,1,89.0999972808839,2|8,0:0|3:2,0:0:0:0:
308,285,19503,1,2,0:0:0:0:
42,242,19667,2,0,P|94:226|196:200,1,133.649995921326,2|0,3:2|0:0,0:0:0:0:
224,137,19995,2,0,B|174:131|204:90|134:87,1,103.949996827698,10|0,3:2|0:0,0:0:0:0:
239,19,20323,6,0,P|261:94|285:169,1,148.5,2|0,3:2|0:0,0:0:0:0:
250,229,20650,1,8,3:2:0:0:
378,52,20814,2,0,P|399:57|418:68,1,44.5499986404419,2|0,0:0|0:0,0:0:0:0:
489,51,20978,2,0,B|450:66|468:98|422:112,1,89.0999972808839,2|0,3:2|0:0,0:0:0:0:
366,271,21306,5,10,3:2:0:0:
371,179,21470,1,0,0:0:0:0:
394,180,21551,1,0,0:0:0:0:
412,194,21633,5,0,3:0:0:0:
486,298,21798,1,2,0:0:0:0:
495,214,21962,5,10,3:2:0:0:
406,359,22126,1,2,0:0:0:0:
228,162,22290,5,2,3:2:0:0:
217,155,22372,2,0,P|223:176|229:197,1,44.5499986404419,8|0,0:3|0:3,0:0:0:0:
336,268,22618,2,0,P|327:288|320:309,1,44.5499986404419,8|0,3:0|0:0,0:0:0:0:
50,321,22782,1,8,0:0:0:0:
38,332,22864,1,8,0:0:0:0:
31,347,22946,6,0,B|118:329|56:256|151:236,1,163.350004985047,4|0,3:2|0:0,0:0:0:0:
228,162,23273,1,8,3:2:0:0:
122,126,23437,2,0,P|98:120|77:108,1,49.5,2|0,0:0|0:0,0:0:0:0:
14,187,23601,2,0,P|56:162|103:149,1,99,2|0,3:2|0:0,0:0:0:0:
285,2,23929,5,10,3:2:0:0:
202,83,24093,1,0,0:0:0:0:
193,60,24175,1,0,0:0:0:0:
188,36,24256,1,0,3:0:0:0:
370,70,24421,6,0,B|405:59|405:59|419:42|419:42|466:26,1,99,2|8,0:0|3:2,0:0:0:0:
285,2,24749,1,2,0:0:0:0:
299,194,24913,2,0,B|286:173|259:170|259:170|316:144|348:211,1,148.5,2|0,3:2|0:0,0:0:0:0:
398,259,25241,2,0,P|445:244|411:169,1,118.8,10|0,3:2|0:0,0:0:0:0:
502,378,25569,6,0,B|427:373|470:282|341:264,1,163.350004985047,2|0,3:2|0:0,0:0:0:0:
290,279,25896,1,8,3:2:0:0:
423,121,26060,6,0,P|431:144|438:167,1,49.5,2|0,0:0|0:0,0:0:0:0:
512,103,26224,2,0,P|464:88|418:71,1,99,2|0,3:2|0:0,0:0:0:0:
209,161,26552,2,0,B|193:149|160:152|160:152|205:144|253:123,1,148.5,10|0,3:2|0:0,0:0:0:0:
289,47,26880,1,0,3:0:0:0:
120,16,27044,6,0,P|75:29|64:74,1,99,8|0,0:0|3:0,0:0:0:0:
1,157,27372,1,0,0:0:0:0:
11,164,27454,1,0,0:0:0:0:
22,171,27536,1,0,3:0:0:0:
83,236,27700,5,2,0:0:0:0:
170,141,27864,5,10,3:2:0:0:
255,262,28028,5,2,0:0:0:0:
366,98,28191,6,0,P|380:93|394:88,1,29.699999093628,4|0,3:2|0:0,0:0:0:0:
132,58,30814,6,0,P|117:62|103:65,1,29.699999093628,4|0,3:2|0:0,0:0:0:0:
364,342,33437,6,0,P|367:327|370:313,1,29.699999093628,4|0,3:2|0:0,0:0:0:0:
368,354,33929,6,0,P|371:339|374:325,1,29.699999093628,4|0,3:2|0:0,0:0:0:0:
89,81,36060,6,0,P|92:95|95:110,1,29.699999093628,4|0,3:2|0:0,0:0:0:0:
225,368,36880,6,0,P|209:304|197:243,1,118.799996374512,0|0,3:0|3:0,0:0:0:0:
321,181,37372,6,0,P|340:173|363:166,1,39.6,8|0,0:2|0:0,0:0:0:0:
411,97,37536,2,0,P|430:105|453:112,1,39.6,0|0,3:0|0:0,0:0:0:0:
483,177,37700,1,0,3:0:0:0:
343,3,37864,6,0,P|331:46|320:89,1,89.0999972808839,8|0,0:1|3:0,0:0:0:0:
233,173,38191,2,0,P|211:167|189:161,1,44.5499986404419,8|0,0:1|0:0,0:0:0:0:
55,52,38355,1,2,3:2:0:0:
61,50,38437,1,0,3:0:0:0:
67,47,38519,2,0,P|88:52|110:58,1,44.5499986404419,8|0,0:0|0:0,0:0:0:0:
0,252,38683,6,0,B|60:255|94:203|94:203|60:255|86:308,1,198,4|0,3:1|3:0,0:0:0:0:
175,354,39175,1,2,0:0:0:0:
256,254,39339,2,0,P|217:262|179:273,1,79.2,0|0,3:0|0:0,0:0:0:0:
397,378,39667,6,0,B|361:344|331:324|331:324|366:295|408:247,1,158.4,2|0,3:2|3:0,0:0:0:0:
415,134,40159,1,2,0:0:0:0:
512,183,40323,2,0,B|480:191|480:191|473:202|473:202|441:211,1,79.2,0|2,3:0|0:0,0:0:0:0:
403,30,40650,2,0,P|441:32|467:63,1,79.2,2|0,3:2|0:0,0:0:0:0:
269,233,40978,6,0,P|293:180|315:124,1,118.8,2|0,3:2|0:0,0:0:0:0:
276,58,41306,2,0,P|237:68|199:76,1,79.2,0|0,3:0|0:0,0:0:0:0:
26,6,41634,5,0,3:0:0:0:
99,24,41797,1,0,0:0:0:0:
3,90,41962,2,0,P|19:125|34:162,1,79.2,0|0,3:0|0:0,0:0:0:0:
51,369,42290,6,0,P|11:343|36:296,1,89.0999972808839,2|0,3:2|0:0,0:0:0:0:
63,247,42618,2,0,B|97:259|97:259|98:266|98:266|137:281,1,79.2,2|0,3:2|0:0,0:0:0:0:
173,350,42864,1,2,0:0:0:0:
184,357,42946,2,0,P|221:345|260:335,1,79.2,0|2,3:0|0:0,0:0:0:0:
510,373,43273,6,0,B|447:355|486:320|430:292,1,118.8,2|2,3:2|0:0,0:0:0:0:
373,238,43601,2,0,P|403:200|440:204,1,79.2,0|2,3:0|0:0,0:0:0:0:
333,364,43929,2,0,P|298:345|260:334,1,79.2,0|0,3:0|0:0,0:0:0:0:
117,233,44257,5,0,3:0:0:0:
41,269,44421,1,0,0:0:0:0:
158,313,44585,5,0,3:0:0:0:
102,227,44749,1,0,0:0:0:0:
141,113,44913,1,0,3:0:0:0:
0,0,45077,5,2,0:0:0:0:
35,65,45241,2,0,P|91:94|138:122,1,79.2,2|0,3:2|0:0,0:0:0:0:
220,92,45487,1,2,0:0:0:0:
226,97,45569,2,0,P|262:84|271:47,1,79.2,0|2,3:0|0:0,0:0:0:0:
296,169,45896,6,0,P|333:155|371:146,1,79.2,2|0,3:2|0:0,0:0:0:0:
442,185,46142,1,2,0:0:0:0:
448,194,46224,2,0,P|512:227|517:249,1,79.2,0|2,3:2|0:0,0:0:0:0:
471,351,46552,5,2,3:2:0:0:
411,289,46716,1,0,0:0:0:0:
300,249,46880,1,8,3:2:0:0:
477,380,47044,5,0,3:0:0:0:
84,292,47372,5,10,3:2:0:0:
12,320,47536,1,10,3:2:0:0:
115,200,47700,6,0,B|164:199|193:154|193:154|174:194|190:228,1,163.350004985047,2|0,3:2|0:0,0:0:0:0:
278,333,48028,2,0,B|175:325|224:212|72:211,1,217.800006646729,2|0,3:0|3:0,0:0:0:0:
18,87,48519,6,0,B|8:103|-12:108|-12:108|40:130|66:79,1,128.699994108582,8|0,3:1|0:0,0:0:0:0:
117,23,48765,1,2,0:0:0:0:
126,17,48847,2,0,B|158:25|158:25|164:35|164:35|214:50,1,79.2,8|2,3:2|0:0,0:0:0:0:
444,122,49175,6,0,B|399:122|381:78|381:78|390:115|362:145,1,148.5,4|0,3:1|0:0,0:0:0:0:
347,221,49503,2,0,P|314:210|280:203,1,69.2999978851319,0|0,3:0|0:0,0:0:0:0:
461,57,49831,2,0,P|477:124|495:191,1,138.599995770264,2|0,3:2|3:0,0:0:0:0:
506,306,50323,1,0,0:0:0:0:
350,364,50487,6,0,B|279:357|318:294|227:286,1,133.649995921326,2|0,3:2|0:0,0:0:0:0:
159,246,50814,2,0,B|142:276|119:299|119:299|153:320|178:341,1,138.599995770264,0|2,3:0|3:2,0:0:0:0:
298,201,51306,1,0,0:0:0:0:
300,191,51470,6,0,P|295:174|291:157,1,34.649998942566,10|0,0:2|0:0,0:0:0:0:
8,69,51634,2,0,B|46:51|83:81|83:81|95:129|138:140,1,163.350004985047,2|0,3:2|0:0,0:0:0:0:
192,85,51962,6,0,P|194:72|197:60,1,24.75,8|0,0:2|0:0,0:0:0:0:
457,108,52126,2,0,B|399:132|352:86|352:86|394:130|367:212,1,193.049991162873,0|0,3:0|0:0,0:0:0:0:
420,38,52454,2,0,P|440:31|468:24,1,49.5,0|0,3:0|0:0,0:0:0:0:
291,157,52618,2,0,P|275:142|255:121,1,49.5,0|0,3:0|3:0,0:0:0:0:
470,215,52782,1,10,0:2:0:0:
223,273,52946,6,0,B|151:285|191:345|118:354,1,138.599995770264,6|0,3:2|3:0,0:0:0:0:
240,360,53355,1,0,3:0:0:0:
247,367,53437,2,0,B|277:358|277:358|282:353|282:353|311:345,1,69.2999978851319,8|0,0:2|0:0,0:0:0:0:
511,318,53765,6,0,P|490:362|443:361,1,99,2|0,3:2|0:0,0:0:0:0:
407,291,54011,2,0,P|422:243|434:195,1,99,2|0,3:2|0:0,0:0:0:0:
367,157,54257,1,2,3:2:0:0:
311,345,54421,5,2,0:0:0:0:
301,343,54585,6,0,P|276:348|253:357,1,49.5,0|0,3:0|0:0,0:0:0:0:
81,246,54749,2,0,B|69:280|39:284|39:284|105:308|135:243,1,178.199994561768,8|0,0:2|0:0,0:0:0:0:
207,128,55077,5,2,3:2:0:0:
223,116,55159,5,0,3:2:0:0:
238,139,55241,5,2,3:2:0:0:
287,106,55323,5,0,3:2:0:0:
338,153,55405,5,10,0:2:0:0:
144,74,55569,6,0,B|118:84|97:87|97:87|87:108|87:108|64:112|42:121,1,118.8,6|0,3:2|0:0,0:0:0:0:
43,33,55896,6,0,B|24:13|29:-13|29:-13|22:12|0:24,1,99,2|0,3:0|0:0,0:0:0:0:
167,132,56142,6,0,B|175:104|204:94|204:94|175:102|153:84,1,108.900003323364,2|0,3:0|0:0,0:0:0:0:
170,289,56388,6,0,B|200:282|225:303|225:303|202:280|207:249,1,118.799996374512,2|0,3:0|0:0,0:0:0:0:
65,205,56607,6,0,B|90:198|97:177|97:177|93:200|110:221,1,85.7999960723879,2|0,3:0|0:0,0:0:0:0:
14,345,56825,6,0,B|-8:330|-28:338|-28:338|-9:329|2:294,1,92.3999971801759,2|0,3:0|0:0,0:0:0:0:
73,297,57044,5,4,3:2:0:0:
77,143,58355,5,2,3:2:0:0:
160,56,58519,1,2,0:2:0:0:
269,86,58683,1,2,3:2:0:0:
42,38,58847,5,2,0:0:0:0:
198,225,59011,2,0,P|204:201|211:177,1,49.5,8|0,0:1|0:0,0:0:0:0:
160,56,59175,2,0,P|153:80|147:103,1,49.5,8|0,0:2|0:0,0:0:0:0:
98,291,59339,2,0,P|74:297|50:303,1,49.5,8|0,0:2|0:0,0:0:0:0:
208,333,59503,2,0,P|225:350|242:368,1,49.5,8|0,0:2|0:0,0:0:0:0:
389,284,59667,6,0,L|365:290,6,24.75,8|0|0|0|0|0|0,3:2|0:0|0:0|0:0|0:0|0:0|0:0,0:0:0:0:
419,210,59995,6,0,L|434:214,6,14.849999546814,8|0|0|0|0|0|0,3:1|0:0|0:0|0:0|0:0|0:0|0:0,0:0:0:0:
359,159,60323,5,2,0:2:0:0:
359,159,60650,1,2,0:2:0:0:
136,32,60978,6,0,B|123:6|100:2|100:2|172:4|137:76|215:75,1,193.049991162873,6|0,3:1|0:0,0:0:0:0:
311,105,61306,2,0,B|341:61|341:61|279:12,1,108.900003323364,10|0,3:1|0:0,0:0:0:0:
72,90,61634,2,0,P|83:142|94:196,1,108.900003323364,2|0,3:1|0:0,0:0:0:0:
168,245,61880,1,2,0:1:0:0:
174,248,61962,2,0,B|232:238|203:199|258:183,1,108.900003323364,8|2,3:1|0:1,0:0:0:0:
0,165,62290,1,0,3:0:0:0:
15,283,62454,5,2,0:1:0:0:
94,196,62618,1,10,3:1:0:0:
174,377,62782,1,2,0:1:0:0:
377,295,62946,2,0,P|344:253|286:281,1,108.900003323364,2|0,3:1|0:0,0:0:0:0:
339,384,63191,1,2,0:1:0:0:
345,374,63273,2,0,P|326:324|301:268,1,108.900003323364,8|2,3:1|0:1,0:0:0:0:
415,80,63601,6,0,B|471:79|497:23|497:23|475:76|525:125,1,193.049991162873,2|0,3:1|0:0,0:0:0:0:
411,0,63929,2,0,P|358:13|287:33,1,108.900003323364,10|0,3:1|0:0,0:0:0:0:
434,299,64257,2,0,P|448:246|461:193,1,108.900003323364,2|0,3:1|0:0,0:0:0:0:
395,160,64503,1,2,0:1:0:0:
387,159,64585,2,0,B|358:152|342:119|342:119|348:148|334:173,1,108.900003323364,8|2,3:1|0:1,0:0:0:0:
482,361,64913,1,0,3:0:0:0:
427,288,65077,5,2,0:1:0:0:
324,371,65241,1,10,3:1:0:0:
250,215,65405,1,2,0:1:0:0:
240,209,65569,6,0,P|213:215|187:223,1,54.4500016616822,2|8,3:1|0:3,0:0:0:0:
29,362,65732,1,4,0:3:0:0:
36,357,65896,6,0,P|44:331|50:304,1,54.4500016616822,8|0,3:1|0:0,0:0:0:0:
2,122,66060,2,0,P|20:141|40:160,1,54.4500016616822,8|4,3:0|0:3,0:0:0:0:
335,367,66224,6,0,P|352:304|391:176,1,193.049991162873,6|0,3:1|0:0,0:0:0:0:
448,125,66552,2,0,P|503:139|502:197,1,108.900003323364,10|0,3:1|0:0,0:0:0:0:
331,39,66880,2,0,P|293:49|216:72,1,108.900003323364,2|0,3:1|0:0,0:0:0:0:
151,10,67126,1,2,0:1:0:0:
144,18,67208,2,0,B|125:43|104:57|104:57|127:80|151:123,1,108.900003323364,8|2,3:1|0:1,0:0:0:0:
417,0,67536,1,0,3:0:0:0:
330,124,67700,5,2,0:1:0:0:
505,195,67864,1,8,3:1:0:0:
340,304,68028,2,0,P|314:296|288:290,1,54.4500016616822,2|0,0:1|0:0,0:0:0:0:
457,372,68191,2,0,P|503:347|473:282,1,108.900003323364,2|0,3:1|0:0,0:0:0:0:
496,203,68437,1,0,0:0:0:0:
489,209,68519,2,0,P|436:225|365:242,1,108.900003323364,8|0,3:1|0:0,0:0:0:0:
116,362,68847,6,0,P|125:331|134:295,1,54.4500016616822,6|0,3:1|0:0,0:0:0:0:
53,242,69011,1,0,0:0:0:0:
265,175,69175,1,10,0:1:0:0:
94,37,69339,2,0,P|100:63|108:89,1,54.4500016616822,6|0,3:1|0:0,0:0:0:0:
108,89,69667,5,2,3:1:0:0:
28,262,69831,1,10,0:1:0:0:
225,306,69995,2,0,P|217:279|210:253,1,54.4500016616822,6|0,3:1|0:0,0:0:0:0:
369,195,70323,5,2,3:1:0:0:
373,201,70405,1,0,3:0:0:0:
377,207,70487,2,0,P|350:200|324:192,1,54.4500016616822,10|0,3:1|0:0,0:0:0:0:
130,310,70650,1,2,3:1:0:0:
388,115,70814,2,0,P|442:98|496:84,1,108.900003323364,10|0,0:1|3:0,0:0:0:0:
495,80,71142,6,0,P|467:86|441:95,1,54.4500016616822,10|0,0:1|0:0,0:0:0:0:
349,278,71306,2,0,P|320:268|291:260,1,59.3999981872559,10|0,0:1|0:0,0:0:0:0:
117,124,71470,6,0,B|82:123|67:83|67:83|82:123|108:213,1,193.049991162873,6|0,3:1|0:0,0:0:0:0:
135,49,71798,2,0,B|175:38|175:38|191:17|191:17|230:6,1,108.900003323364,10|0,3:1|0:0,0:0:0:0:
96,282,72126,2,0,P|40:284|18:237,1,108.900003323364,2|0,3:1|0:0,0:0:0:0:
132,345,72372,1,2,0:1:0:0:
139,351,72454,2,0,P|188:362|258:383,1,108.900003323364,8|2,3:1|0:1,0:0:0:0:
104,201,72782,1,0,3:0:0:0:
189,258,72946,5,2,0:1:0:0:
296,174,73110,1,10,3:1:0:0:
380,340,73273,1,2,0:1:0:0:
491,251,73437,2,0,B|505:226|524:207|524:207|503:196|441:146,1,108.900003323364,2|0,3:1|0:0,0:0:0:0:
395,229,73683,1,2,0:1:0:0:
391,246,73765,2,0,P|408:292|436:370,1,108.900003323364,8|2,3:1|0:1,0:0:0:0:
512,86,74093,6,0,B|446:78|432:26|432:26|447:82|392:121,1,193.049991162873,2|0,3:1|0:0,0:0:0:0:
296,174,74421,2,0,P|311:121|324:68,1,108.900003323364,10|0,3:1|0:0,0:0:0:0:
169,313,74749,5,2,3:1:0:0:
92,105,74913,1,0,0:0:0:0:
181,116,75077,6,0,P|195:111|209:107,1,29.699999093628,10|0,3:1|0:0,0:0:0:0:
13,180,75241,6,0,P|112:148|213:122,1,207.899993655396,6|0,3:1|0:0,0:0:0:0:
250,33,75569,1,2,3:1:0:0:
92,243,75732,5,8,3:1:0:0:
170,352,75896,1,0,0:0:0:0:
12,379,76060,5,0,3:0:0:0:
21,353,76141,1,0,3:0:0:0:
32,328,76223,1,2,3:1:0:0:
217,290,76388,5,8,3:1:0:0:
173,222,76552,2,0,P|156:198|136:172,1,54.4500016616822,10|0,3:1|0:0,0:0:0:0:
30,39,76716,6,0,B|31:23|23:7|23:7|32:22|45:28,1,64.3499970542909,6|0,3:1|0:0,0:0:0:0:
120,69,76880,2,0,B|87:103|124:157|124:157|88:104|44:120,1,193.049991162873,2|0,3:2|0:0,0:0:0:0:
126,257,77208,6,0,B|162:245|217:291|217:291|193:223|222:190,1,207.899993655396,4|0,3:2|0:0,0:0:0:0:
123,156,77536,6,0,L|94:115,1,49.5,0|0,3:0|0:0,0:0:0:0:
23,9,77700,1,8,0:1:0:0:
217,290,77864,6,0,L|67:77,1,212.355002916252,2|0,3:2|0:0,0:0:0:0:
137,17,78191,1,0,3:0:0:0:
291,100,78355,6,0,B|358:81|358:81|386:49|386:49|464:28,1,193.049991162873,8|0,0:1|0:0,0:0:0:0:
498,100,78683,5,2,3:2:0:0:
474,178,78847,1,2,0:0:0:0:
297,124,79011,5,8,3:1:0:0:
257,18,79175,1,2,0:2:0:0:
129,196,79339,6,0,B|174:196|189:135|189:135|176:210|243:235,1,217.800006646729,4|10,3:1|0:1,0:0:0:0:
135,300,79831,2,0,B|51:312|88:377|2:385,1,163.350004985047,2|0,3:1|0:0,0:0:0:0:
8,296,80159,1,2,3:1:0:0:
151,379,80323,1,10,0:1:0:0:
54,169,80487,6,0,P|24:85|0:0,1,178.199994561768,4|0,3:2|0:0,0:0:0:0:
55,64,80814,1,2,3:1:0:0:
160,21,80978,1,10,0:1:0:0:
246,125,81142,6,0,B|288:136|288:136|306:161|306:161|360:176,1,128.699994108582,2|0,3:1|0:0,0:0:0:0:
424,119,81388,1,8,0:2:0:0:
433,117,81470,2,0,P|472:76|447:29,1,108.900003323364,2|0,3:1|3:0,0:0:0:0:
265,0,81798,2,0,P|273:25|279:52,1,54.4500016616822,8|8,0:2|0:2,0:0:0:0:
207,224,81962,6,0,B|159:223|138:182|138:182|160:224|134:264,1,148.500005664826,4|0,3:2|0:0,0:0:0:0:
2,122,82290,1,2,3:1:0:0:
214,143,82454,6,0,P|245:149|292:167,1,74.2500028324128,10|0,3:1|0:0,0:0:0:0:
38,208,82618,2,0,P|30:173|20:140,1,66.8250002549171,8|0,3:2|0:0,0:0:0:0:
322,252,82782,6,0,P|358:240|396:231,1,69.2999978851319,8|0,3:2|0:0,0:0:0:0:
122,15,82946,2,0,P|113:51|102:87,1,71.7750021903992,8|0,3:2|0:0,0:0:0:0:
180,369,83110,6,0,B|176:351|188:335|188:335|175:352|154:354,1,74.2500028324128,8|0,3:2|0:0,0:0:0:0:
21,273,84585,6,0,P|97:301|184:346,1,163.350004985047,4|0,3:1|0:0,0:0:0:0:
218,274,84913,2,0,P|260:275|282:239,1,89.0999972808839,8|0,3:1|0:0,0:0:0:0:
435,372,85241,2,0,P|412:306|384:212,1,133.649995921326,2|0,3:2|0:0,0:0:0:0:
422,158,85569,2,0,B|461:142|461:142|493:176,1,89.0999972808839,8|2,3:1|0:0,0:0:0:0:
273,231,85896,1,0,3:0:0:0:
453,384,86060,5,2,0:0:0:0:
422,312,86224,1,8,3:1:0:0:
394,228,86388,1,2,0:0:0:0:
469,108,86552,2,0,P|502:134|493:176,1,89.0999972808839,2|0,3:2|0:0,0:0:0:0:
405,221,86798,1,2,0:0:0:0:
394,227,86880,2,0,P|355:207|313:192,1,89.0999972808839,8|2,3:1|0:0,0:0:0:0:
108,116,87208,6,0,B|193:116|163:34|262:36,1,163.350004985047,2|0,3:2|0:0,0:0:0:0:
325,4,87536,2,0,P|346:44|361:86,1,89.0999972808839,8|0,3:1|0:0,0:0:0:0:
144,228,87864,2,0,P|74:236|44:181,1,133.649995921326,2|0,3:2|0:0,0:0:0:0:
157,219,88191,2,0,P|196:239|238:254,1,89.0999972808839,8|2,3:1|0:2,0:0:0:0:
117,101,88519,1,0,3:0:0:0:
325,4,88683,5,2,0:2:0:0:
323,87,88847,1,8,3:1:0:0:
273,156,89011,1,2,0:2:0:0:
401,296,89175,5,2,3:2:0:0:
403,288,89257,2,0,P|396:266|390:245,1,44.5499986404419,8|0,3:0|3:0,0:0:0:0:
221,22,89503,6,0,P|226:43|233:64,1,44.5499986404419,0|0,3:0|0:0,0:0:0:0:
456,118,89667,2,0,P|448:144|439:171,1,54.4500016616822,8|0,0:0|0:0,0:0:0:0:
217,309,89831,5,4,3:1:0:0:
323,87,89995,1,0,3:0:0:0:
390,245,90159,1,8,0:1:0:0:
27,123,90323,6,0,B|86:117|114:81|114:81|86:117|100:156,1,178.199994561768,4|0,3:1|0:0,0:0:0:0:
40,43,90650,2,0,P|25:38|11:34,1,29.699999093628,8|0,0:1|0:0,0:0:0:0:
183,130,90814,6,0,B|215:187|266:191|266:191|215:187|189:219,1,193.049991162873,4|0,3:2|0:0,0:0:0:0:
267,105,91142,2,0,P|263:87|258:70,1,34.649998942566,8|0,0:1|0:0,0:0:0:0:
252,273,91306,6,0,B|216:334|245:381|245:381|216:334|169:335,1,207.899993655396,4|0,3:1|0:0,0:0:0:0:
331,327,91634,2,0,P|348:311|364:294,1,39.6,8|0,0:1|0:0,0:0:0:0:
62,272,91798,5,4,3:2:0:0:
470,76,92126,6,0,B|490:55|525:51|525:51|453:40|389:14|389:14|289:50|322:168,1,376.2,4|0,3:1|0:0,0:0:0:0:
379,203,93765,6,0,P|373:222|368:241,3,39.6
430,292,94093,2,0,P|424:311|419:330,1,29.699999093628
318,152,94257,5,4,3:2:0:0:
9,379,94585,5,2,0:0:0:0:
41,356,94749,1,2,0:0:0:0:
74,289,94913,1,2,0:0:0:0:
58,200,95077,5,4,0:1:0:0:
485,31,98847,6,0,P|470:35|456:39,1,29.699999093628,2|0,0:0|0:0,0:0:0:0:
400,94,99011,5,2,0:0:0:0:
311,34,99257,1,2,0:0:0:0:
303,30,99339,1,0,0:0:0:0:
477,110,99503,1,2,0:0:0:0:
340,279,99667,6,0,P|301:250|306:203,1,99,6|0,3:2|0:0,0:0:0:0:
434,279,99913,6,0,P|431:321|395:345,1,89.0999972808839,6|0,3:2|0:0,0:0:0:0:
404,189,100159,6,0,P|423:190|440:199,1,39.6,6|0,3:2|0:0,0:0:0:0:
160,374,100323,6,0,P|105:366|96:276,1,148.5,4|0,3:1|0:0,0:0:0:0:
126,210,100650,2,0,P|115:172|105:133,1,79.2,0|8,3:0|0:0,0:0:0:0:
24,22,100978,1,0,3:0:0:0:
197,135,101142,6,0,P|216:139|235:145,1,39.6,2|0,3:2|0:0,0:0:0:0:
33,102,101306,2,0,P|19:116|6:130,1,39.6,10|0,3:2|0:0,0:0:0:0:
256,55,101470,6,0,L|245:16,1,39.6,2|0,3:2|0:0,0:0:0:0:
249,53,101798,6,0,L|237:10,1,44.5499986404419,2|0,3:2|0:0,0:0:0:0:
0,0,102126,5,2,3:2:0:0:
33,102,102290,1,8,0:0:0:0:
110,52,102454,1,2,3:2:0:0:
126,210,102618,5,10,0:0:0:0:
249,53,102782,1,8,0:0:0:0:
399,281,102946,6,0,B|385:255|356:237|356:237|363:187|426:143|481:167,1,217.800006646729,4|0,3:1|3:0,0:0:0:0:
434,356,103437,1,2,0:0:0:0:
320,316,103601,2,0,P|282:303|243:295,1,79.2,0|0,3:0|0:0,0:0:0:0:
72,372,103929,6,0,B|43:343|17:326|17:326|47:304|94:253,1,158.4,2|0,3:2|3:0,0:0:0:0:
241,152,104421,1,2,0:0:0:0:
236,158,104503,1,0,0:0:0:0:
231,163,104585,2,0,P|193:175|154:184,1,79.2,0|0,3:0|0:0,0:0:0:0:
46,23,104913,2,0,P|85:21|112:48,1,79.2,2|0,3:2|0:0,0:0:0:0:
0,236,105241,2,0,P|16:178|31:121,1,118.8,2|0,3:2|0:0,0:0:0:0:
224,27,105569,6,0,P|231:55|239:84,1,59.3999981872559,2|0,3:0|0:0,0:0:0:0:
241,152,105732,2,0,P|234:123|225:94,1,59.3999981872559,2|0,0:0|3:0,0:0:0:0:
428,243,106060,6,0,P|400:235|371:227,1,59.3999981872559,2|0,0:3|0:0,0:0:0:0:
311,195,106224,2,0,P|339:203|369:210,1,59.3999981872559,2|0,3:2|0:0,0:0:0:0:
130,325,106552,6,0,P|150:304|172:283,1,59.3999981872559,2|0,3:0|0:0,0:0:0:0:
230,247,106716,2,0,P|209:267|188:289,1,59.3999981872559,2|0,0:0|3:0,0:0:0:0:
86,239,106962,1,0,0:0:0:0:
74,228,107044,6,0,P|66:199|59:170,1,59.3999981872559,2|0,0:3|0:0,0:0:0:0:
56,102,107208,2,0,P|63:130|72:159,1,59.3999981872559,2|0,3:2|0:0,0:0:0:0:
291,194,107454,1,0,0:0:0:0:
287,209,107536,6,0,P|265:230|244:250,1,59.3999981872559,2|0,3:0|0:0,0:0:0:0:
188,288,107700,2,0,P|208:267|229:245,1,59.3999981872559,2|0,0:0|3:0,0:0:0:0:
169,47,107946,1,0,0:0:0:0:
184,42,108028,6,0,P|213:49|241:58,1,59.3999981872559,2|0,0:3|0:0,0:0:0:0:
302,89,108192,2,0,P|274:81|244:74,1,59.3999981872559,2|0,3:2|0:0,0:0:0:0:
181,152,108437,5,0,0:0:0:0:
184,162,108519,1,0,3:0:0:0:
375,145,108683,6,0,P|394:140|413:134,1,39.6,10|0,3:2|0:0,0:0:0:0:
101,330,109175,6,0,P|95:348|90:368,1,39.6,2|0,3:2|0:0,0:0:0:0:
89,28,109667,6,0,P|75:13|61:0,1,39.6,2|0,3:2|0:0,0:0:0:0:
186,172,109995,5,0,3:0:0:0:
192,170,110077,1,0,3:0:0:0:
198,168,110159,2,0,P|237:157|274:150,1,79.2,10|0,3:2|3:0,0:0:0:0:
447,9,110487,2,0,P|427:80|408:165,1,133.649995921326,10|0,3:2|0:0,0:0:0:0:
512,376,110814,6,0,B|408:361|469:261|351:246,1,217.800006646729,4|10,3:1|3:2,0:0:0:0:
107,368,111306,2,0,P|149:353|192:344,1,89.0999972808839,2|0,0:0|3:0,0:0:0:0:
274,149,111634,2,0,P|239:174|238:217,1,89.0999972808839,2|8,0:0|3:2,0:0:0:0:
0,375,111962,6,0,P|37:312|95:200,1,163.350004985047,2|0,3:2|0:0,0:0:0:0:
55,145,112290,2,0,B|44:133|44:133|50:150,1,29.699999093628,0|0,3:0|0:0,0:0:0:0:
257,71,112454,6,0,B|312:63|344:12|344:12|317:58|347:106,1,193.049991162873,12|0,3:2|0:0,0:0:0:0:
204,157,112782,2,0,P|147:98|196:54,1,128.699994108582,6|0,3:2|0:0,0:0:0:0:
463,139,113028,2,0,B|417:151|417:151|398:173|398:173|348:187,1,128.699994108582,6|0,3:2|0:0,0:0:0:0:
420,58,113273,1,4,3:1:0:0:
197,172,113437,6,0,P|215:241|243:371,1,163.350004985047,2|0,0:2|0:0,0:0:0:0:
303,372,113765,2,0,P|344:360|354:315,1,89.0999972808839,0|0,0:0|3:0,0:0:0:0:
472,147,114093,1,8,0:0:0:0:
495,252,114257,2,0,P|453:241|375:224,1,89.0999972808839
117,142,114585,6,0,B|186:132|247:109|247:109|192:131|191:224,1,217.800006646729,0|0,3:0|3:0,0:0:0:0:
64,350,115077,2,0,B|97:308|54:265|48:271|42:277|-1:245|26:190,1,178.199994561768,0|8,0:0|0:0,0:0:0:0:
159,90,115569,1,0,0:0:0:0:
165,83,115732,6,0,L|175:44,1,29.699999093628,10|0,0:2|0:0,0:0:0:0:
387,48,115896,6,0,B|343:16|301:52|301:52|292:98|245:109,1,178.199994561768,2|0,3:2|0:0,0:0:0:0:
165,83,116224,2,0,L|175:44,1,29.699999093628,0|0,3:0|0:0,0:0:0:0:
55,212,116388,2,0,B|86:207|114:226|114:226|71:198|67:147|6:177,1,193.049991162873,8|0,0:0|0:0,0:0:0:0:
66,305,116716,6,0,P|72:328|78:352,1,49.5,2|0,3:2|0:0,0:0:0:0:
199,175,116880,2,0,P|174:169|151:161,1,49.5,2|0,3:2|3:0,0:0:0:0:
6,177,117044,1,8,0:0:0:0:
248,376,117208,6,0,P|317:358|328:240,1,178.199994561768,6|0,3:2|3:0,0:0:0:0:
367,186,117618,1,0,3:0:0:0:
373,179,117700,2,0,B|388:155|417:152|417:152|396:161|389:180,1,89.0999972808839,8|0,0:0|0:0,0:0:0:0:
261,280,118028,6,0,B|232:281|212:253|212:253|233:269|253:265,1,99,2|0,3:2|0:0,0:0:0:0:
403,320,118273,2,0,B|418:348|406:375|406:375|409:352|396:337,1,99,10|0,3:2|0:0,0:0:0:0:
342,263,118519,1,2,3:2:0:0:
265,184,118683,6,0,P|295:120|329:23,1,163.350004985047,4|0,3:1|0:0,0:0:0:0:
250,0,119011,2,0,P|197:1|175:61,1,118.799996374512,8|0,3:2|0:0,0:0:0:0:
0,124,119339,2,0,B|40:134|40:134|54:152|54:152|97:163,1,108.900003323364,0|0,3:0|0:0,0:0:0:0:
167,140,119585,1,0,3:0:0:0:
175,138,119667,1,10,0:2:0:0:
442,221,119831,6,0,B|395:182|351:214|351:214|340:261|296:268,1,178.199994561768,2|0,3:2|0:0,0:0:0:0:
215,247,120159,2,0,B|203:237|203:217|203:217|209:235|223:247,1,69.2999978851319,8|0,3:2|0:0,0:0:0:0:
437,369,120323,2,0,B|445:359|445:359|457:310|505:189,1,193.049991162873,8|0,3:2|0:0,0:0:0:0:
462,62,120650,6,0,B|430:13|372:26|371:71|388:85,1,128.699994108582,8|0,3:2|0:0,0:0:0:0:
442,221,120896,2,0,B|498:229|529:167|485:140|458:145,1,138.599995770264,8|0,0:0|0:0,0:0:0:0:
352,201,121142,2,0,P|366:235|376:270,1,74.2500028324128,8|0,0:0|0:0,0:0:0:0:
462,62,121306,5,4,3:2:0:0:
26,23,122618,5,2,3:2:0:0:
91,66,122782,1,2,0:2:0:0:
133,127,122946,1,2,3:2:0:0:
28,268,123110,5,2,0:0:0:0:
24,257,123191,1,0,0:0:0:0:
23,246,123273,1,8,0:1:0:0:
34,219,123354,1,0,3:0:0:0:
59,205,123436,1,0,3:0:0:0:
88,208,123518,1,0,3:0:0:0:
115,232,123601,5,0,3:0:0:0:
153,210,123683,5,0,3:0:0:0:
197,247,123765,5,0,3:0:0:0:
232,187,123847,6,0,P|252:180|280:170,1,49.5,0|0,3:0|0:0,0:0:0:0:
447,7,124749,5,0,3:0:0:0:
399,80,124913,2,0,P|404:96|409:112,1,34.649998942566,8|0,0:2|0:0,0:0:0:0:
504,304,125077,6,0,B|450:289|450:289|434:256|434:256|413:253|380:241,1,148.5,4|0,3:2|0:0,0:0:0:0:
318,192,125405,2,0,P|323:175|328:159,1,34.649998942566,8|0,0:0|0:0,0:0:0:0:
144,294,125569,6,0,B|166:264|189:227|189:227|217:263|270:323,1,163.350004985047,4|0,3:1|0:0,0:0:0:0:
317,316,125896,5,2,0:2:0:0:
317,316,126224,1,2,0:2:0:0:
481,106,126552,6,0,B|433:82|433:82|389:101|389:101|381:154|328:159,1,193.049991162873,6|0,3:1|0:0,0:0:0:0:
235,175,126880,2,0,B|216:153|197:134|197:134|215:111|228:91,1,108.900003323364,10|0,3:1|0:0,0:0:0:0:
464,196,127208,2,0,B|483:218|502:237|502:237|484:260|471:280,1,108.900003323364,2|0,3:1|0:0,0:0:0:0:
482,364,127454,1,2,0:1:0:0:
468,361,127536,2,0,P|415:345|362:332,1,108.900003323364,8|2,3:1|0:1,0:0:0:0:
315,87,127864,1,0,3:0:0:0:
250,205,128028,5,2,0:1:0:0:
136,89,128191,1,10,3:1:0:0:
54,273,128355,1,2,0:1:0:0:
0,0,128519,2,0,P|50:-4|73:42,1,108.900003323364,2|0,3:1|0:0,0:0:0:0:
129,99,128765,1,2,0:1:0:0:
123,106,128847,2,0,P|107:157|94:211,1,108.900003323364,8|2,3:1|0:1,0:0:0:0:
247,25,129175,6,0,P|321:59|463:114,1,193.049991162873,2|0,3:1|0:0,0:0:0:0:
494,70,129503,2,0,P|496:18|449:0,1,108.900003323364,10|0,3:1|0:0,0:0:0:0:
501,187,129831,2,0,P|450:206|400:228,1,108.900003323364,2|0,3:1|0:0,0:0:0:0:
367,291,130077,1,2,0:1:0:0:
362,298,130159,2,0,P|310:305|284:259,1,108.900003323364,8|2,3:1|0:1,0:0:0:0:
425,100,130487,1,0,3:0:0:0:
321,171,130650,5,2,0:1:0:0:
232,62,130814,1,10,3:1:0:0:
158,251,130978,1,2,0:1:0:0:
156,259,131142,6,0,P|166:285|175:310,1,54.4500016616822,2|8,3:1|0:3,0:0:0:0:
67,138,131306,1,0,3:0:0:0:
60,144,131470,6,0,P|33:138|6:132,1,54.4500016616822,8|0,3:1|0:0,0:0:0:0:
231,138,131634,2,0,P|249:117|267:97,1,54.4500016616822,8|8,3:0|0:3,0:0:0:0:
488,310,131798,6,0,B|433:300|407:242|407:242|427:289|404:320,1,193.049991162873,6|0,3:1|0:0,0:0:0:0:
349,384,132126,2,0,P|303:360|309:299,1,108.900003323364,10|0,3:1|0:0,0:0:0:0:
512,112,132454,2,0,P|495:164|484:217,1,108.900003323364,2|0,3:1|0:0,0:0:0:0:
424,129,132700,1,2,0:1:0:0:
414,136,132782,2,0,P|361:149|308:163,1,108.900003323364,8|2,3:1|0:1,0:0:0:0:
102,320,133110,1,0,3:0:0:0:
8,80,133273,5,2,0:1:0:0:
189,154,133437,1,10,3:1:0:0:
5,267,133601,2,0,P|12:240|17:214,1,54.4500016616822,2|0,0:1|0:0,0:0:0:0:
170,45,133765,6,0,P|220:35|248:78,1,108.900003323364,2|0,3:1|0:0,0:0:0:0:
189,154,134011,1,2,0:1:0:0:
186,162,134093,2,0,P|172:214|161:268,1,108.900003323364,8|2,3:1|0:1,0:0:0:0:
332,363,134421,6,0,P|325:336|319:310,1,54.4500016616822,4|0,3:2|0:0,0:0:0:0:
171,274,134585,1,0,0:0:0:0:
370,147,134749,1,10,0:1:0:0:
252,382,134913,2,0,P|245:355|239:329,1,54.4500016616822,6|0,3:1|0:0,0:0:0:0:
239,329,135241,5,2,3:1:0:0:
356,158,135405,1,10,0:1:0:0:
160,258,135569,2,0,P|134:264|108:271,1,54.4500016616822,4|0,3:2|0:0,0:0:0:0:
0,197,135896,5,2,3:1:0:0:
8,195,135978,1,0,3:0:0:0:
16,193,136060,2,0,P|42:187|68:180,1,54.4500016616822,10|0,3:1|0:0,0:0:0:0:
277,183,136224,1,2,0:1:0:0:
74,29,136388,2,0,P|24:39|26:94,1,108.900003323364,10|0,0:1|3:0,0:0:0:0:
86,23,136716,6,0,P|112:30|138:37,1,54.4500016616822,10|0,0:1|0:0,0:0:0:0:
219,199,136880,2,0,P|247:190|276:183,1,59.3999981872559,10|0,0:1|0:0,0:0:0:0:
512,63,137044,6,0,B|445:63|424:8|424:8|440:61|399:90,1,193.049991162873,6|0,3:1|0:0,0:0:0:0:
319,102,137372,2,0,P|299:55|351:35,1,108.900003323364,10|0,3:1|0:0,0:0:0:0:
475,162,137700,2,0,P|458:219|444:274,1,108.900003323364,2|0,3:1|0:0,0:0:0:0:
508,319,137946,1,2,0:1:0:0:
512,328,138028,2,0,P|494:375|443:373,1,108.900003323364,8|2,3:1|0:1,0:0:0:0:
319,102,138355,1,0,3:0:0:0:
284,191,138519,5,2,0:1:0:0:
143,85,138683,1,10,3:1:0:0:
91,297,138847,1,2,0:1:0:0:
0,167,139011,6,0,P|47:186|99:217,1,108.900003323364,2|0,3:1|0:0,0:0:0:0:
151,161,139257,1,2,0:1:0:0:
160,165,139339,2,0,P|211:156|227:106,1,108.900003323364,8|2,3:1|0:1,0:0:0:0:
449,305,139667,6,0,B|351:305|389:222|285:214,1,193.049991162873,2|0,3:1|0:0,0:0:0:0:
211,247,139995,2,0,P|191:296|162:344,1,108.900003323364,10|0,3:1|0:0,0:0:0:0:
444,221,140323,5,2,3:1:0:0:
336,100,140487,1,0,0:0:0:0:
386,32,140650,6,0,P|407:38|425:42,1,29.699999093628,10|0,0:1|0:0,0:0:0:0:
512,22,140814,6,0,P|422:58|336:101,1,193.049991162873,6|0,3:1|0:0,0:0:0:0:
266,64,141142,1,2,3:1:0:0:
52,133,141306,5,8,0:1:0:0:
103,275,141470,1,0,0:0:0:0:
0,384,141634,1,0,3:0:0:0:
7,352,141715,1,0,3:0:0:0:
16,321,141797,1,10,0:1:0:0:
149,130,141962,5,0,3:0:0:0:
179,215,142126,2,0,P|190:244|204:283,1,64.3499970542909,10|0,0:1|3:0,0:0:0:0:
307,114,142290,6,0,B|320:111|330:104|330:104|330:128|265:135,1,64.3499970542909,6|0,3:1|0:0,0:0:0:0:
204,74,142454,6,0,B|176:86|166:109|166:109|171:56|221:27|267:44,1,193.049991162873,2|0,3:2|0:0,0:0:0:0:
322,226,142782,6,0,B|351:241|377:230|377:230|337:273|268:249|259:186,1,207.899993655396,4|0,3:1|0:0,0:0:0:0:
350,5,143110,2,0,P|381:16|396:46,1,69.2999978851319,0|0,3:0|0:0,0:0:0:0:
307,114,143273,1,8,0:1:0:0:
469,93,143437,6,0,B|487:69|481:37|481:37|517:73|495:156|431:162,1,222.750008497238,4|0,3:2|0:0,0:0:0:0:
307,114,143765,1,0,3:0:0:0:
111,300,143929,6,0,B|206:290|168:195|268:193,1,193.049991162873,8|0,0:1|0:0,0:0:0:0:
333,227,144257,5,2,3:2:0:0:
314,309,144421,1,2,0:0:0:0:
490,384,144585,5,8,3:1:0:0:
441,265,144749,1,2,0:2:0:0:
287,294,144913,6,0,B|217:275|217:275|170:233|170:233|85:211,1,217.800006646729,2|10,3:2|0:1,0:0:0:0:
326,144,145405,2,0,B|402:118|378:18|290:26|288:88,1,178.199994561768,2|0,3:1|0:0,0:0:0:0:
227,113,145732,1,2,3:1:0:0:
379,210,145896,1,10,0:1:0:0:
0,84,146060,6,0,P|93:57|184:23,1,178.199994561768,2|0,3:1|0:0,0:0:0:0:
100,17,146388,1,2,3:1:0:0:
44,149,146552,1,10,0:1:0:0:
170,246,146716,6,0,B|216:258|216:258|239:281|239:281|324:303,1,128.699994108582,2|0,3:1|0:0,0:0:0:0:
355,248,146962,1,8,0:0:0:0:
358,242,147044,2,0,P|330:178|278:197,1,128.699994108582,2|0,3:1|3:0,0:0:0:0:
153,335,147372,2,0,P|121:343|91:353,1,64.3499970542909,10|0,0:1|0:0,0:0:0:0:
34,64,147536,6,0,B|75:61|94:28|94:28|97:27|97:27|78:62|102:113,1,148.500005664826,4|0,3:2|0:0,0:0:0:0:
167,235,147864,1,2,3:1:0:0:
53,217,148028,6,0,P|45:186|36:156,1,64.3499970542909,2|0,3:1|0:0,0:0:0:0:
217,0,148191,2,0,P|247:9|278:17,1,64.3499970542909,0|0,3:0|0:0,0:0:0:0:
303,244,148355,1,0,3:0:0:0:
393,97,148519,5,0,3:0:0:0:
366,107,148601,5,0,3:0:0:0:
321,81,148683,5,0,3:0:0:0:
258,109,148765,6,0,P|227:99|195:92,1,64.3499970542909,0|0,3:0|3:0,0:0:0:0:
23,77,150159,6,0,B|1:64|1:64|26:46|32:2|32:2|64:32|95:30|95:30|87:54,1,193.049991162873,4|0,3:1|0:0,0:0:0:0:
79,129,150487,2,0,B|137:144|137:144|161:168|161:168|229:188,1,158.4,10|0,3:2|0:0,0:0:0:0:
303,83,150978,2,0,P|282:49|250:5,1,79.2,2|0,3:2|0:0,0:0:0:0:
435,93,151306,1,10,3:2:0:0:
443,76,151387,1,0,0:0:0:0:
450,60,151469,1,0,0:0:0:0:
377,219,151634,1,2,3:2:0:0:
468,217,151798,6,0,P|409:234|320:267,1,118.8,10|0,3:2|0:0,0:0:0:0:
296,316,152126,6,0,B|259:322|243:353|243:353|244:318|215:297,1,133.649995921326,2|0,3:2|0:0,0:0:0:0:
330,175,152454,6,0,B|353:202|397:196|397:196|358:218|354:254,1,148.5,8|0,3:2|0:0,0:0:0:0:
187,216,152782,6,0,B|199:181|167:140|167:140|210:170|243:155,1,163.350004985047,2|0,3:2|0:0,0:0:0:0:
271,237,153110,6,0,B|209:253|209:253|192:282|192:282|121:300,1,158.4,10|0,3:2|0:0,0:0:0:0:
0,155,153601,1,2,3:2:0:0:
10,233,153765,2,0,P|31:239|64:247,1,39.6
113,94,153929,2,0,P|120:126|133:171,1,79.2,10|0,3:2|0:0,0:0:0:0:
282,74,154257,6,0,P|262:68|243:62,1,39.6,2|0,3:2|0:0,0:0:0:0:
33,55,154421,2,0,P|49:20|86:14,1,79.2,10|0,3:2|0:0,0:0:0:0:
235,177,154749,1,2,3:2:0:0:
257,170,154831,1,8,3:2:0:0:
280,163,154913,1,2,3:2:0:0:
429,22,155077,5,10,0:2:0:0:
418,40,155159,5,8,0:0:0:0:
436,74,155241,5,8,0:0:0:0:
421,112,155323,5,8,0:0:0:0:
416,116,155405,6,0,P|450:191|484:279,1,163.350004985047,4|0,3:1|0:0,0:0:0:0:
470,341,155732,6,0,B|414:365|346:314|400:285|339:230|252:258,1,237.599992749024,10|0,3:2|0:0,0:0:0:0:
133,384,156224,2,0,P|145:341|155:297,1,89.0999972808839,2|0,3:2|0:0,0:0:0:0:
0,114,156552,5,10,3:2:0:0:
75,189,156716,1,0,0:0:0:0:
184,130,156880,2,0,P|205:124|226:118,1,44.5499986404419,2|0,3:2|0:0,0:0:0:0:
37,265,157044,5,8,3:2:0:0:
177,302,157208,1,0,3:0:0:0:
249,196,157372,1,10,3:2:0:0:
227,201,157453,1,8,3:2:0:0:
206,207,157535,1,0,3:0:0:0:
334,18,157700,6,0,P|327:39|322:60,1,44.5499986404419,10|0,3:2|0:0,0:0:0:0:
468,207,157864,2,0,P|461:186|456:165,1,44.5499986404419,8|0,3:2|0:0,0:0:0:0:
123,192,158028,6,0,B|127:169|141:157|141:157|27:221|-24:191|-24:125|-24:125|-18:125|-18:125|24:82|101:114|109:192|71:209|113:289|177:282,1,554.399983081055,4|2,3:2|0:0,0:0:0:0:
256,192,159421,12,4,160650,3:1:0:0:
160,365,171142,6,0,P|90:356|96:280,1,138.599995770264,4|0,3:1|3:0,0:0:0:0:
81,298,171634,1,2,0:0:0:0:
0,170,171798,2,0,P|66:190|133:206,1,138.599995770264,2|0,3:2|3:0,0:0:0:0:
177,0,172454,2,0,P|192:67|213:133,1,138.599995770264,2|0,3:2|3:0,0:0:0:0:
341,73,172946,1,2,0:0:0:0:
334,77,173028,1,2,0:0:0:0:
329,82,173110,2,0,P|362:89|395:100,1,69.2999978851319,6|2,3:2|0:0,0:0:0:0:
350,0,173437,2,0,P|383:10|417:18,1,69.2999978851319,2|2,3:2|0:0,0:0:0:0:
86,7,173765,6,0,P|115:99|136:194,1,178.199994561768,4|0,3:1|3:0,0:0:0:0:
89,247,174257,1,2,0:0:0:0:
309,252,174421,2,0,B|263:239|241:278|258:290|237:323|189:306,1,138.599995770264,2|0,3:2|3:0,0:0:0:0:
466,384,175077,2,0,B|500:363|531:347|531:347|515:332|494:294,1,138.599995770264,2|0,3:2|3:0,0:0:0:0:
405,184,175569,1,2,0:0:0:0:
409,175,175650,1,2,0:0:0:0:
412,168,175733,2,0,P|422:134|430:101,1,69.2999978851319,6|2,3:2|0:0,0:0:0:0:
512,122,176060,2,0,P|501:155|493:188,1,69.2999978851319,2|2,3:2|0:0,0:0:0:0:
322,110,176388,6,0,B|252:91|252:91|235:61|235:61|165:43,1,178.199994561768,4|0,3:1|3:0,0:0:0:0:
66,86,176880,1,2,0:0:0:0:
119,252,177044,2,0,P|163:232|155:135,1,138.599995770264,2|0,3:2|3:0,0:0:0:0:
221,321,177700,2,0,B|261:331|281:293|263:290|289:254|333:263,1,138.599995770264,2|0,3:2|3:2,0:0:0:0:
509,269,178191,1,2,0:0:0:0:
498,270,178272,1,2,0:0:0:0:
490,271,178355,2,0,P|455:279|422:288,1,69.2999978851319,2|2,3:2|0:0,0:0:0:0:
467,182,178683,2,0,P|433:191|400:199,1,69.2999978851319,2|2,3:2|0:0,0:0:0:0:
162,118,179011,6,0,B|208:87|245:121|245:121|255:167|308:179,1,178.199994561768,4|0,3:1|3:0,0:0:0:0:
407,108,179503,1,2,0:0:0:0:
276,40,179667,2,0,P|259:107|240:173,1,138.599995770264,2|0,3:2|3:0,0:0:0:0:
162,118,180159,1,2,0:0:0:0:
58,2,180323,2,0,P|102:103|147:220,1,207.899993655396,2|0,3:2|3:0,0:0:0:0:
188,34,180978,1,0,3:0:0:0:
177,31,181059,1,0,3:0:0:0:
165,27,181141,1,0,3:0:0:0:
43,36,181306,6,0,P|55:65|68:98,1,34.649998942566,8|0,3:1|0:0,0:0:0:0:
89,144,181470,2,0,P|104:178|119:218,1,42.075000802517,0|0,3:0|0:0,0:0:0:0:
83,371,181634,6,0,P|40:355|40:309,1,99,4|0,3:1|0:0,0:0:0:0:
4,221,181880,1,0,3:0:0:0:
18,227,181962,1,8,3:1:0:0:
201,188,182126,2,0,P|209:233|169:256,1,99,0|0,3:0|0:0,0:0:0:0:
206,353,182454,6,0,P|261:367|314:381,1,108.900003323364,0|8,3:0|0:1,0:0:0:0:
461,128,182782,2,0,B|392:111|359:206|399:200|366:275|303:272,1,237.599992749024,4|0,3:2|3:0,0:0:0:0:
448,336,183273,5,10,0:1:0:0:
453,306,183354,1,2,0:0:0:0:
461,278,183436,1,2,0:0:0:0:
277,113,183601,5,2,3:0:0:0:
287,149,183683,1,2,0:0:0:0:
294,189,183764,1,2,0:0:0:0:
491,29,183929,5,10,3:1:0:0:
479,72,184011,1,2,0:0:0:0:
470,120,184092,1,2,0:0:0:0:
227,1,184257,6,0,P|250:83|282:219,1,198,4|0,3:2|3:0,0:0:0:0:
212,248,184667,5,0,0:0:0:0:
202,241,184749,2,0,P|180:228|157:218,2,49.5,0|0|0,0:0|0:0|3:0,0:0:0:0:
145,353,184995,1,0,0:0:0:0:
148,344,185077,2,0,P|152:319|153:294,2,39.6,0|0|8,0:0|0:0|3:2,0:0:0:0:
30,331,185323,1,0,0:0:0:0:
37,329,185405,2,0,P|61:324|85:317,1,29.699999093628,0|0,3:0|0:0,0:0:0:0:
18,250,185569,6,0,P|13:230|6:212,1,39.6,2|0,3:2|0:0,0:0:0:0:
73,165,185732,2,0,P|77:145|84:127,1,39.6,0|0,3:0|0:0,0:0:0:0:
22,80,185896,1,8,3:2:0:0:
127,13,186060,6,0,P|146:8|164:1,1,39.6,0|0,3:0|0:0,0:0:0:0:
226,49,186224,2,0,P|245:53|263:60,3,29.699999093628,2|0|2|0,3:2|3:0|3:2|3:0,0:0:0:0:
305,4,186552,1,2,3:2:0:0:
18,250,186880,5,4,0:0:0:0:
78,364,197372,6,0,P|12:326|13:250,1,158.4,4|10,3:1|3:2,0:0:0:0:
86,162,197864,1,0,0:0:0:0:
0,155,198028,2,0,P|57:169|114:187,1,118.8,2|2,3:2|0:0,0:0:0:0:
200,183,198355,2,0,P|188:144|179:106,1,79.2,8|2,3:2|0:0,0:0:0:0:
84,286,198683,1,0,3:0:0:0:
80,291,198847,5,2,0:2:0:0:
139,342,199011,1,10,3:2:0:0:
217,371,199175,1,2,0:2:0:0:
307,299,199339,6,0,P|337:281|386:258,1,79.2,2|0,3:2|0:0,0:0:0:0:
460,250,199585,1,2,0:0:0:0:
465,255,199667,2,0,P|471:292|446:321,1,79.2,8|2,3:2|0:0,0:0:0:0:
299,191,199995,6,0,P|315:132|334:51,1,118.8,2|0,3:2|0:0,0:0:0:0:
256,38,200323,2,0,P|246:20|234:4,2,39.6,10|0|0,3:2|0:0|0:0,0:0:0:0:
137,207,200650,6,0,B|78:183|47:238|47:238|54:286|1:324,1,198,2|10,3:2|3:2,0:0:0:0:
211,164,201142,6,0,B|217:150|226:134|226:134|217:145|206:149,1,59.3999981872559,2|0,3:2|0:0,0:0:0:0:
146,297,201470,2,0,B|155:309|164:324|164:324|159:311|160:300,1,59.3999981872559,2|0,3:2|0:0,0:0:0:0:
8,71,201798,6,0,P|15:47|21:23,1,49.5,0|0,3:0|0:0,0:0:0:0:
101,40,201962,2,0,P|91:68|84:97,1,59.3999981872559,8|0,3:2|0:0,0:0:0:0:
238,249,202126,6,0,P|261:242|278:222,1,49.5,2|0,3:2|0:0,0:0:0:0:
359,201,202290,2,0,P|365:177|355:152,1,49.5,8|0,3:2|0:0,0:0:0:0:
292,91,202454,1,2,3:2:0:0:
478,7,202618,5,6,3:2:0:0:
440,86,202782,1,2,0:0:0:0:
488,169,202946,5,8,3:2:0:0:
397,23,203110,1,2,0:0:0:0:
477,152,203273,1,0,3:0:0:0:
470,248,203437,6,0,B|417:267|417:267|403:297|403:297|342:319,1,148.5,2|0,0:0|0:0,0:0:0:0:
205,252,203765,2,0,B|184:226|154:227|154:227|226:204|201:256|255:268,1,178.199994561768,2|0,0:0|0:0,0:0:0:0:
152,301,204093,1,2,0:0:0:0:
292,192,204257,5,10,3:2:0:0:
258,120,204421,1,0,0:0:0:0:
183,68,204585,5,2,3:2:0:0:
154,227,204749,1,0,0:0:0:0:
45,19,204913,6,0,P|72:92|99:200,1,163.350004985047,10|0,3:2|0:0,0:0:0:0:
43,237,205241,2,0,P|12:231|-5:209,1,59.3999981872559,2|0,3:2|0:0,0:0:0:0:
196,68,205405,1,2,3:2:0:0:
184,95,205486,1,0,3:0:0:0:
177,124,205568,1,8,3:2:0:0:
145,312,205732,6,0,B|140:326|131:338|131:338|162:352|197:374|197:374|214:339|235:310|235:310|223:304|211:295,1,207.899993655396,4|0,3:2|0:0,0:0:0:0:
342,197,206060,6,0,B|346:185|354:175|354:175|321:159|281:136|281:136|259:176|238:207|238:207|252:214|265:223,1,222.750008497238,12|0,3:2|0:0,0:0:0:0:
292,384,206388,6,0,P|236:259|172:136,1,257.399988217164,4|0,3:1|3:0,0:0:0:0:
359,80,206880,2,0,P|367:51|384:21,2,54.4500016616822,8|0|0,3:2|0:0|0:0,0:0:0:0:
274,37,207208,1,0,3:0:0:0:
173,156,207372,6,0,P|148:143|122:136,1,54.4500016616822,8|0,3:2|0:0,0:0:0:0:
450,73,207700,6,0,P|481:81|510:95,1,64.3499970542909,8|0,3:2|0:0,0:0:0:0:
504,260,207864,5,4,3:2:0:0:
431,288,208028,1,0,3:0:0:0:
365,210,208191,5,8,3:2:0:0:
258,174,208355,1,2,3:2:0:0:
198,325,208519,5,0,3:0:0:0:
392,197,208683,1,0,3:0:0:0:
179,61,208847,5,8,3:2:0:0:
302,337,209011,1,2,3:2:0:0:
59,268,209175,6,0,P|69:237|80:199,1,64.3499970542909,0|0,3:0|0:0,0:0:0:0:
252,0,209339,2,0,P|261:30|270:61,1,64.3499970542909,8|0,0:2|0:0,0:0:0:0:
255,260,209503,6,0,P|224:250|193:241,1,64.3499970542909,8|0,3:2|0:0,0:0:0:0:
0,50,209667,2,0,P|30:40|61:31,1,64.3499970542909,8|0,3:2|3:0,0:0:0:0:
317,115,209832,5,10,3:2:0:0:
344,98,209913,1,0,3:0:0:0:
361,57,209995,1,8,3:2:0:0:
332,17,210078,1,8,3:2:0:0:
270,61,210160,6,0,P|239:74|201:88,1,64.3499970542909,8|0,3:2|0:0,0:0:0:0:
95,197,210323,2,0,P|64:210|26:224,1,64.3499970542909,0|0,3:0|3:0,0:0:0:0:
77,171,211798,6,0,B|126:169|151:106|151:106|140:173|183:199,1,207.899993655396,10|0,3:2|0:0,0:0:0:0:
159,291,212126,2,0,B|165:302|165:302|117:323|83:356|83:356|70:310|39:269|39:269|50:261,1,222.750008497238,10|0,3:2|0:0,0:0:0:0:
53,75,212454,2,0,B|12:64|-15:37|-15:37|12:65|13:133,1,128.699994108582,10|0,3:2|0:0,0:0:0:0:
252,129,212700,2,0,B|292:139|330:131|330:131|292:140|256:199,1,138.599995770264,10|0,3:2|0:0,0:0:0:0:
133,193,212946,6,0,B|132:211|132:211|118:227|118:227|114:206|114:206|123:190,1,79.2,10|0,3:2|0:0,0:0:0:0:
459,384,213273,6,0,P|444:355|427:327,1,64.3499970542909,10|0,3:2|0:0,0:0:0:0:
325,327,213437,2,0,B|301:302|270:288|270:288|303:268|355:221,1,138.599995770264,10|2,3:2|0:0,0:0:0:0:
512,37,213765,6,0,B|495:35|477:5|477:5|496:37|512:101,1,128.699994108582,10|0,3:2|0:0,0:0:0:0:
381,161,214011,2,0,B|398:163|416:193|416:193|397:161|381:97,1,138.599995770264,10|0,3:2|0:0,0:0:0:0:
387,25,214257,1,10,3:2:0:0:
199,202,214421,6,0,B|129:201|121:276|129:278|136:280|135:352|63:350,1,222.750008497238,10|0,3:2|0:0,0:0:0:0:
33,281,214749,6,0,B|64:234|131:269|128:278|125:285|190:329|233:265,1,222.750008497238,10|0,3:2|0:0,0:0:0:0:
490,100,215077,6,0,B|481:66|481:66|444:55|444:55|474:75|479:113,1,138.599995770264,10|0,3:2|0:0,0:0:0:0:
377,140,215323,6,0,B|336:129|336:129|303:160|303:160|342:142|384:158,1,148.500005664826,10|0,3:2|0:0,0:0:0:0:
348,261,215569,6,0,B|315:294|315:294|326:342|326:342|331:295|370:264,1,158.4,10|0,3:2|0:0,0:0:0:0:
28,103,216552,6,0,P|53:88|88:79,1,59.3999981872559,0|0,3:0|0:0,0:0:0:0:
135,23,216716,6,0,P|167:55|226:69,1,89.0999972808839,8|0,0:1|0:0,0:0:0:0:
255,136,217044,6,0,B|289:90|346:118|346:118|360:177|415:180,1,193.049991162873,6|0,3:1|0:0,0:0:0:0:
497,196,217372,2,0,P|480:144|467:91,1,108.900003323364,10|0,3:1|0:0,0:0:0:0:
292,220,217700,2,0,B|256:262|256:262|306:319,1,108.900003323364,2|0,3:1|0:0,0:0:0:0:
369,285,217946,1,2,0:1:0:0:
380,289,218028,2,0,P|432:301|484:318,1,108.900003323364,8|2,3:1|0:1,0:0:0:0:
346,118,218355,1,0,3:0:0:0:
292,220,218519,5,2,0:1:0:0:
158,110,218683,1,8,3:1:0:0:
76,295,218847,1,2,0:1:0:0:
0,120,219011,6,0,P|17:71|68:71,1,108.900003323364,2|0,3:1|0:0,0:0:0:0:
146,26,219257,1,0,0:0:0:0:
142,35,219339,2,0,P|121:77|99:139,1,108.900003323364,8|0,3:1|0:0,0:0:0:0:
2,298,219667,6,0,P|28:290|54:284,1,54.4500016616822,6|0,3:1|0:0,0:0:0:0:
166,353,219831,1,0,0:0:0:0:
199,128,219995,1,10,0:1:0:0:
19,372,220159,2,0,P|45:365|72:359,1,54.4500016616822,6|0,3:1|0:0,0:0:0:0:
72,359,220487,5,2,3:1:0:0:
199,128,220650,1,10,0:1:0:0:
230,376,220814,2,0,P|223:349|216:323,1,54.4500016616822,2|0,3:1|0:0,0:0:0:0:
296,286,221142,5,2,3:1:0:0:
296,294,221224,1,0,3:0:0:0:
297,301,221306,2,0,P|303:327|310:353,1,54.4500016616822,10|0,3:1|0:0,0:0:0:0:
192,118,221470,1,2,3:1:0:0:
398,304,221634,2,0,P|408:247|427:193,1,108.900003323364,10|0,0:1|3:0,0:0:0:0:
424,187,221962,6,0,P|399:198|374:208,1,54.4500016616822,10|0,0:1|0:0,0:0:0:0:
216,323,222126,2,0,P|186:308|156:296,1,64.3499970542909,10|0,0:1|0:0,0:0:0:0:
276,58,222290,5,2,0:1:0:0:
272,68,222454,1,0,3:0:0:0:
460,89,222618,6,0,B|415:60|415:60|367:81|367:81|357:148|287:157,1,222.750008497238,14|0,3:1|0:0,0:0:0:0:
215,224,222946,2,0,P|202:158|190:115,1,108.900003323364,2|0,3:1|0:0,0:0:0:0:
170,33,223191,1,2,0:1:0:0:
165,31,223273,2,0,P|119:29|93:98,1,108.900003323364,8|2,3:1|0:1,0:0:0:0:
314,260,223601,1,0,3:0:0:0:
377,165,223765,5,2,0:1:0:0:
465,292,223929,1,10,3:1:0:0:
512,103,224093,1,2,0:1:0:0:
286,356,224257,2,0,P|222:338|223:291,1,108.900003323364,2|0,3:1|0:0,0:0:0:0:
150,249,224503,1,2,0:1:0:0:
157,242,224585,2,0,P|186:199|218:141,1,108.900003323364,8|2,3:1|0:1,0:0:0:0:
512,103,224913,6,0,B|452:93|422:47|422:47|448:94|425:129,1,193.049991162873,2|0,3:1|0:0,0:0:0:0:
440,210,225241,2,0,P|384:192|331:181,1,108.900003323364,10|0,3:1|0:0,0:0:0:0:
55,131,225569,5,2,3:1:0:0:
211,8,225732,1,0,0:0:0:0:
288,43,225896,6,0,P|282:56|278:71,1,29.699999093628,10|0,0:1|0:0,0:0:0:0:
213,148,226060,6,0,P|238:241|260:336,1,193.049991162873,2|0,3:1|0:0,0:0:0:0:
346,376,226388,1,2,3:1:0:0:
489,233,226552,5,8,0:1:0:0:
359,117,226716,1,0,0:0:0:0:
487,38,226880,5,0,3:0:0:0:
478,63,226961,1,0,3:0:0:0:
470,89,227043,1,2,3:1:0:0:
316,212,227208,5,8,0:1:0:0:
404,282,227372,2,0,P|433:293|465:310,1,54.4500016616822,10|8,0:1|0:1,0:0:0:0:
227,83,227536,6,0,B|169:61|123:112|158:126|116:182|62:160,1,193.049991162873,6|0,3:1|0:0,0:0:0:0:
0,120,227864,2,0,P|34:67|71:84,1,108.900003323364,8|0,3:1|0:0,0:0:0:0:
214,186,228191,5,2,3:2:0:0:
333,168,228355,1,0,0:0:0:0:
365,55,228519,5,8,3:1:0:0:
282,261,228683,1,0,0:0:0:0:
491,384,228847,6,0,P|453:291|413:201,1,193.049991162873,2|0,3:2|0:0,0:0:0:0:
406,120,229175,2,0,P|456:110|487:151,1,108.900003323364,8|0,3:1|0:0,0:0:0:0:
390,346,229503,1,0,3:0:0:0:
240,165,229667,5,2,0:1:0:0:
280,54,229831,2,0,P|228:70|174:82,1,108.900003323364,8|2,3:1|0:1,0:0:0:0:
29,318,230159,6,0,B|93:311|115:262|115:262|93:312|125:350,1,193.049991162873,2|0,3:1|0:0,0:0:0:0:
191,378,230487,6,0,P|213:366|241:357,1,44.5499986404419,8|0,3:1|0:0,0:0:0:0:
309,345,230650,1,2,0:0:0:0:
232,178,230814,1,0,3:0:0:0:
220,202,230895,1,0,0:0:0:0:
212,228,230977,1,2,0:0:0:0:
458,324,231142,6,0,P|432:314|409:301,1,49.5,8|0,3:1|0:0,0:0:0:0:
326,236,231306,1,0,0:0:0:0:
507,61,231470,6,0,B|457:36|425:67|425:67|418:109|376:117,1,163.350004985047,2|0,3:2|0:0,0:0:0:0:
301,156,231798,2,0,P|264:137|180:112,1,108.900003323364,8|0,3:1|0:0,0:0:0:0:
39,67,232126,1,2,3:2:0:0:
64,56,232208,1,8,3:0:0:0:
88,44,232289,1,0,3:0:0:0:
200,115,232454,6,0,P|192:141|185:167,1,54.4500016616822,8|0,0:1|0:0,0:0:0:0:
52,225,232618,2,0,P|60:253|67:282,1,59.3999981872559,8|0,0:1|0:0,0:0:0:0:
371,339,232782,6,0,B|397:284|335:232|332:271|265:224|306:143,1,217.800006646729,4|10,3:1|0:1,0:0:0:0:
507,80,233273,2,0,B|471:51|445:22|445:22|426:54|392:89,1,163.350004985047,2|0,3:1|0:0,0:0:0:0:
387,156,233601,1,2,3:1:0:0:
233,51,233765,1,10,0:1:0:0:
47,171,233929,6,0,P|104:145|203:114,1,163.350004985047,2|0,3:1|0:0,0:0:0:0:
233,51,234257,1,2,3:1:0:0:
50,0,234421,1,10,0:1:0:0:
166,215,234585,6,0,B|208:225|208:225|224:242|224:242|268:253,1,108.900003323364,2|0,3:1|0:0,0:0:0:0:
358,240,234831,1,8,0:1:0:0:
364,230,234913,2,0,B|379:206|398:186|398:186|382:175|325:121,1,108.900003323364,2|0,3:1|3:0,0:0:0:0:
233,51,235241,2,0,P|221:75|211:101,1,54.4500016616822,10|8,0:1|0:1,0:0:0:0:
79,355,235405,6,0,P|5:301|32:214,1,193.049991162873,4|0,3:2|0:0,0:0:0:0:
57,123,235732,1,2,3:1:0:0:
243,302,235896,6,0,P|252:276|264:251,1,54.4500016616822,2|0,3:1|0:0,0:0:0:0:
159,19,236060,2,0,P|149:44|137:69,1,54.4500016616822,0|0,3:0|0:0,0:0:0:0:
147,280,236224,1,0,3:0:0:0:
313,77,236388,5,0,3:0:0:0:
336,103,236470,5,0,3:0:0:0:
379,63,236552,5,0,3:0:0:0:
423,116,236634,6,0,P|454:125|518:151,1,54.4500016616822,0|0,3:0|0:0,0:0:0:0:
161,110,238028,6,0,B|157:82|172:64|172:64|117:64|79:18|79:18|69:77|21:104|21:104|43:113|55:138,1,311.849990483094,4|0,3:1|0:0,0:0:0:0:
140,232,238683,6,0,B|213:189|301:257|301:257|233:169|275:96,1,346.5,2|0,3:0|0:0,0:0:0:0:
40,238,239339,6,0,P|48:313|123:329,1,163.350004985047,2|0,3:0|0:0,0:0:0:0:
220,384,239667,2,0,P|208:341|197:297,1,89.0999972808839,0|0,3:0|0:0,0:0:0:0:
298,208,239995,2,0,P|303:186|309:165,2,44.5499986404419,2|0|0,3:0|0:0|0:0,0:0:0:0:
352,281,240213,2,0,P|359:270|350:280,1,29.699999093628
347,272,240323,6,0,P|383:278|418:289,1,74.25,2|0,0:0|0:0,0:0:0:0:
339,366,240650,6,0,P|326:311|293:188,1,163.350004985047,4|0,3:1|0:0,0:0:0:0:
231,151,240978,1,8,3:2:0:0:
349,83,241142,2,0,P|370:88|392:94,1,44.5499986404419,2|0,0:0|0:0,0:0:0:0:
477,126,241306,2,0,P|433:114|390:104,1,89.0999972808839,2|0,3:2|0:0,0:0:0:0:
146,23,241634,5,10,3:2:0:0:
231,151,241798,1,0,0:0:0:0:
237,124,241879,1,0,0:0:0:0:
243,99,241961,1,0,3:0:0:0:
6,166,242126,6,0,P|28:203|71:207,1,89.0999972808839,2|8,0:0|3:2,0:0:0:0:
159,105,242454,1,2,0:0:0:0:
101,299,242618,2,0,B|141:305|166:273|147:262|174:232|213:241,1,133.649995921326,2|0,3:2|0:0,0:0:0:0:
300,194,242946,2,0,B|326:218|337:227|337:227|324:244|307:271,1,103.949996827698,10|0,3:2|0:0,0:0:0:0:
383,384,243273,6,0,P|362:305|337:227,1,163.350004985047,2|0,3:2|0:0,0:0:0:0:
376,156,243601,1,8,3:2:0:0:
230,65,243765,2,0,P|251:69|272:77,1,44.5499986404419,2|0,0:0|0:0,0:0:0:0:
373,65,243929,2,0,P|329:56|286:42,1,89.0999972808839,2|0,3:2|0:0,0:0:0:0:
78,125,244257,1,10,3:2:0:0:
197,199,244421,1,0,0:0:0:0:
190,175,244502,1,0,0:0:0:0:
184,153,244584,1,0,3:0:0:0:
47,40,244749,5,2,0:0:0:0:
78,125,244913,1,10,3:2:0:0:
100,211,245077,1,2,0:0:0:0:
27,370,245241,1,2,3:2:0:0:
31,363,245323,2,0,P|40:342|46:321,1,44.5499986404419,8|0,3:2|3:0,0:0:0:0:
0,204,245569,6,0,P|13:222|28:237,1,44.5499986404419,10|0,0:0|0:0,0:0:0:0:
186,347,245732,1,8,0:0:0:0:
196,344,245814,1,8,0:0:0:0:
206,341,245896,6,0,B|259:325|259:325|292:291|292:291|354:275,1,163.350004985047,4|0,3:1|0:0,0:0:0:0:
418,337,246224,1,8,3:2:0:0:
204,257,246388,2,0,P|190:240|187:219,1,44.5499986404419,2|0,0:0|0:0,0:0:0:0:
159,138,246552,2,0,P|195:165|196:214,1,89.0999972808839,2|0,3:2|0:0,0:0:0:0:
336,96,246880,5,10,3:2:0:0:
396,200,247044,1,0,0:0:0:0:
372,192,247125,1,0,0:0:0:0:
348,186,247207,1,0,3:0:0:0:
499,11,247372,6,0,P|446:22|396:30,1,89.0999972808839,2|8,0:0|3:2,0:0:0:0:
336,96,247700,1,2,0:0:0:0:
83,82,247864,2,0,P|122:32|187:56,1,133.649995921326,2|0,3:2|0:0,0:0:0:0:
247,23,248191,2,0,P|226:70|208:119,1,103.949996827698,10|0,3:2|0:0,0:0:0:0:
327,262,248519,6,0,P|375:223|353:174,1,108.900003323364,2|0,3:2|0:0,0:0:0:0:
284,182,248765,1,0,3:0:0:0:
280,190,248847,1,8,0:0:0:0:
175,291,249011,2,0,B|130:302|130:302|116:321|116:321|51:338,1,108.900003323364,10|0,0:0|3:0,0:0:0:0:
31,257,249257,1,8,0:0:0:0:
39,246,249339,1,0,3:0:0:0:
280,384,249503,6,0,P|272:357|263:332,1,54.4500016616822,10|0,0:2|0:0,0:0:0:0:
284,205,249667,2,0,P|275:179|267:153,1,54.4500016616822,8|0,0:0|0:0,0:0:0:0:
159,64,249831,1,0,3:0:0:0:
216,1,249995,5,2,0:0:0:0:
181,144,250159,1,8,3:2:0:0:
157,286,250323,1,2,0:0:0:0:
56,68,250487,1,2,3:2:0:0:
66,93,250568,1,8,3:2:0:0:
76,118,250650,1,0,3:0:0:0:
255,0,250814,6,0,P|245:32|236:77,1,54.4500016616822,10|0,0:0|0:0,0:0:0:0:
118,319,250978,2,0,P|127:286|136:241,1,64.3499970542909,8|8,0:0|0:0,0:0:0:0:
347,68,251142,6,0,B|402:67|425:21|425:21|402:67|423:99,1,178.199994561768,4|0,3:1|0:0,0:0:0:0:
509,40,251470,1,8,3:2:0:0:
349,189,251634,2,0,P|373:183|396:176,1,49.5,2|0,0:0|0:0,0:0:0:0:
512,168,251798,2,0,P|463:179|416:192,1,99,2|0,3:2|0:0,0:0:0:0:
240,51,252126,1,10,3:2:0:0:
180,128,252290,1,0,0:0:0:0:
187,159,252372,1,0,0:0:0:0:
194,190,252453,1,0,3:0:0:0:
26,84,252618,6,0,P|39:37|91:38,1,99,2|8,0:0|3:2,0:0:0:0:
187,159,252946,1,2,0:0:0:0:
31,233,253110,2,0,P|103:251|171:280,1,148.5,2|0,3:2|0:0,0:0:0:0:
264,316,253437,2,0,B|289:289|307:275|307:275|293:265|256:227,1,118.8,10|0,3:2|0:0,0:0:0:0:
311,135,253765,6,0,P|324:85|342:36,1,99,2|0,3:2|0:0,0:0:0:0:
483,243,254093,2,0,P|431:220|376:209,1,99,8|2,3:2|0:0,0:0:0:0:
412,112,254339,1,0,0:0:0:0:
419,119,254421,2,0,P|469:140|524:151,1,99,2|0,3:2|0:0,0:0:0:0:
411,300,254749,1,10,3:2:0:0:
490,68,254913,1,0,0:0:0:0:
400,309,255077,5,0,3:0:0:0:
306,314,255241,1,2,0:0:0:0:
313,341,255323,1,2,0:2:0:0:
320,368,255404,1,10,3:2:0:0:
343,186,255569,1,2,0:0:0:0:
160,137,255732,5,2,3:2:0:0:
149,133,255814,2,0,P|158:163|166:194,1,49.5,8|0,3:2|3:0,0:0:0:0:
137,291,256060,6,0,P|130:267|124:244,1,49.5,10|0,0:0|0:0,0:0:0:0:
234,39,256224,1,8,0:0:0:0:
244,43,256306,1,8,0:0:0:0:
252,47,256388,6,0,B|313:63|313:63|343:102|343:102|431:127,1,178.199994561768,4|0,3:1|0:0,0:0:0:0:
450,53,256716,1,8,3:2:0:0:
321,286,256880,2,0,P|315:260|307:234,1,49.5,2|0,0:0|0:0,0:0:0:0:
269,132,257044,2,0,P|283:184|295:236,1,99,2|0,3:2|0:0,0:0:0:0:
494,128,257372,1,10,3:2:0:0:
499,221,257536,1,0,0:0:0:0:
471,213,257617,1,0,0:0:0:0:
445,206,257699,1,0,3:0:0:0:
241,331,257864,6,0,P|262:373|309:375,1,99,2|8,0:0|3:2,0:0:0:0:
440,311,258191,1,2,0:0:0:0:
293,227,258355,2,0,P|209:250|115:282,1,148.5,2|0,3:2|0:0,0:0:0:0:
78,236,258683,2,0,B|57:216|70:174|70:174|75:209|113:234,1,118.8,10|0,3:2|0:0,0:0:0:0:
0,112,259011,6,0,P|84:140|170:164,1,178.199994561768,2|0,3:2|0:0,0:0:0:0:
246,138,259339,1,8,3:2:0:0:
313,0,259503,2,0,P|281:7|242:21,1,49.5,2|0,0:0|0:0,0:0:0:0:
160,54,259667,2,0,P|207:42|266:22,1,99,2|0,3:2|0:0,0:0:0:0:
406,167,259995,1,10,3:2:0:0:
372,51,260159,1,0,0:0:0:0:
363,80,260241,1,0,0:0:0:0:
354,110,260322,1,0,3:0:0:0:
442,384,260487,6,0,P|454:362|451:338,1,49.5,10|0,0:0|0:0,0:0:0:0:
511,225,260650,2,0,P|498:203|476:193,1,49.5,8|0,3:2|0:0,0:0:0:0:
327,187,260814,1,2,0:0:0:0:
246,296,260978,5,10,3:2:0:0:
238,289,261060,5,8,0:0:0:0:
215,308,261142,5,8,0:0:0:0:
175,281,261224,5,8,0:0:0:0:
167,296,261306,6,0,P|158:264|148:229,1,49.5,10|0,3:2|0:0,0:0:0:0:
192,142,261470,2,0,P|185:118|178:94,1,49.5,0|0,3:0|0:0,0:0:0:0:
54,15,261634,5,2,0:3:0:0:
54,14,262454,6,0,P|59:34|64:53,2,39.6,2|2|0,0:3|0:3|0:0,0:0:0:0:
54,14,262782,6,0,P|59:34|64:53,1,39.6,2|0,0:3|0:0,0:0:0:0:
15,159,262946,6,0,P|30:145|48:136,2,39.6,2|0|0,0:3|0:0|0:0,0:0:0:0:
181,211,263191,5,0,0:0:0:0:
188,209,263273,2,0,P|174:196|148:184,1,39.6
127,117,263437,1,2,0:3:0:0:
82,270,263601,6,0,B|50:278|50:278|40:289|40:289|9:297,2,79.2,2|0|2,0:3|0:0|0:3,0:0:0:0:
243,356,264093,6,0,B|177:339|138:227|264:138|236:248|356:180|322:7|218:23,1,415.799987310791,2|0,0:0|0:0,0:0:0:0:
231,43,265323,6,0,P|209:49|198:58,3,29.699999093628,2|2|2|2,0:0|0:0|0:0|0:0,0:0:0:0:
