osu file format v14

[General]
AudioFilename: audio.ogg
AudioLeadIn: 0
PreviewTime: 125898
Countdown: 0
SampleSet: Soft
StackLeniency: 0.7
Mode: 3
LetterboxInBreaks: 0
SpecialStyle: 0
WidescreenStoryboard: 0

[Editor]
Bookmarks: 16882,263439
DistanceSpacing: 1
BeatDivisor: 4
GridSize: 4
TimelineZoom: 2.799999

[Metadata]
Title:Kakumei no bullet
TitleUnicode:革命のbullet
Artist:ShinRa-Bansho
ArtistUnicode:森羅万象
Creator:Yukari_Sama
Version:Fantasy Seal
Source:東方永夜抄 ~ Imperishable Night.
Tags:atian540 kanon matsubara touhou project 東方project th8 少女綺想曲 ~ Dream Battle Maiden's Capriccio Stage 4 Boss 博麗 霊夢 hakurei reimu theme 上海アリス幻樂団 team shanghai alice ZUN revolutionary bullet みゆい miyui あよ Ayo kaztora 清水"カルロス"宥人 東方紅楼夢16 pop jpop j-pop electronic japanese video game eiyashou eternal night vignette from the east
BeatmapID:3108847
BeatmapSetID:1518728

[Difficulty]
HPDrainRate:8
CircleSize:4
OverallDifficulty:8
ApproachRate:5
SliderMultiplier:1.4
SliderTickRate:1

[Events]
//Background and Video events
0,0,"reimuwu.jpg",0,0
//Break Periods
//Storyboard Layer 0 (Background)
//Storyboard Layer 1 (Fail)
//Storyboard Layer 2 (Pass)
//Storyboard Layer 3 (Foreground)
//Storyboard Layer 4 (Overlay)
//Storyboard Sound Samples
Sample,79177,0,"Splash.wav",60
Sample,144750,0,"Splash.wav",60

[TimingPoints]
1964,327.868852459016,4,2,1,50,1,0
15078,-100,4,2,1,40,0,0
17209,-100,4,2,1,70,0,0
17701,-100,4,2,1,80,0,0
28193,-100,4,2,1,60,0,0
38685,-100,4,2,1,70,0,0
60980,-100,4,2,1,85,0,1
83111,-100,4,2,1,50,0,0
84586,-100,4,2,1,80,0,0
94259,-100,4,2,1,60,0,0
100324,-100,4,2,1,70,0,0
126554,-100,4,2,1,85,0,1
148685,-100,4,2,1,50,0,0
150160,-100,4,2,1,80,0,0
158029,-100,4,2,1,60,0,0
160652,-100,4,2,1,50,0,0
171144,-100,4,2,1,75,0,0
186882,-100,4,2,1,50,0,0
197373,-100,4,2,1,75,0,0
211800,-100,4,2,1,65,0,0
217045,-100,4,2,1,85,0,1
222291,-100,4,2,1,80,0,0
222619,-100,4,2,1,85,0,1
236554,-100,4,2,1,50,0,0
238029,-100,4,2,1,65,0,0
240652,-100,4,2,1,80,0,0
261636,-100,4,2,1,40,0,0
264095,-100,4,2,1,20,0,0

[HitObjects]
64,192,1963,5,2,0:0:0:0:
192,192,1963,1,0,0:0:0:0:
448,192,1963,128,0,3275:0:0:0:0:
320,192,2291,1,0,0:0:0:0:
64,192,2619,1,0,0:0:0:0:
192,192,2865,1,0,0:0:0:0:
320,192,3111,1,0,0:0:0:0:
64,192,3275,1,0,0:0:0:0:
192,192,3275,128,0,4259:0:0:0:0:
448,192,3439,1,0,0:0:0:0:
448,192,3603,1,0,0:0:0:0:
320,192,3767,1,0,0:0:0:0:
64,192,3931,128,0,4259:0:0:0:0:
320,192,4259,1,0,0:0:0:0:
192,192,4423,1,0,0:0:0:0:
64,192,4586,1,0,0:0:0:0:
320,192,4586,128,0,5898:0:0:0:0:
448,192,4914,1,0,0:0:0:0:
64,192,5242,1,0,0:0:0:0:
192,192,5488,1,0,0:0:0:0:
448,192,5734,1,0,0:0:0:0:
64,192,5898,128,0,6882:0:0:0:0:
192,192,5898,1,0,0:0:0:0:
320,192,6062,1,0,0:0:0:0:
320,192,6226,1,0,0:0:0:0:
448,192,6390,1,0,0:0:0:0:
192,192,6554,128,0,6882:0:0:0:0:
448,192,6882,1,0,0:0:0:0:
64,192,7045,1,2,0:0:0:0:
192,192,7045,1,0,0:0:0:0:
64,192,7209,1,2,0:0:0:0:
320,192,7209,128,0,8521:0:0:0:0:
448,192,7209,1,0,0:0:0:0:
192,192,7537,1,0,0:0:0:0:
64,192,7865,1,0,0:0:0:0:
448,192,8111,1,0,0:0:0:0:
192,192,8357,1,0,0:0:0:0:
64,192,8521,1,0,0:0:0:0:
448,192,8521,128,0,9504:0:0:0:0:
192,192,8685,1,0,0:0:0:0:
320,192,8849,128,0,9013:0:0:0:0:
64,192,9177,128,0,9504:0:0:0:0:
192,192,9341,1,0,0:0:0:0:
320,192,9504,1,0,0:0:0:0:
448,192,9668,1,0,0:0:0:0:
64,192,9832,1,0,0:0:0:0:
192,192,9832,128,0,11144:0:0:0:0:
320,192,10160,1,0,0:0:0:0:
448,192,10488,1,0,0:0:0:0:
320,192,10734,1,0,0:0:0:0:
64,192,10980,1,0,0:0:0:0:
320,192,11144,128,0,12455:0:0:0:0:
448,192,11144,1,0,0:0:0:0:
192,192,11308,1,0,0:0:0:0:
64,192,11472,128,0,11636:0:0:0:0:
448,192,11800,128,0,13111:0:0:0:0:
64,192,12455,128,0,14996:0:0:0:0:
192,192,13111,128,0,14996:0:0:0:0:
320,192,13767,128,0,14996:0:0:0:0:
448,192,14259,128,0,14996:0:0:0:0:
64,192,15078,128,0,15406:0:0:0:0:
192,192,15242,128,0,15406:0:0:0:0:
448,192,15570,128,0,15898:0:0:0:0:
320,192,15734,128,0,15898:0:0:0:0:
64,192,15898,1,0,0:0:0:0:
64,192,15980,1,0,0:0:0:0:
320,192,16062,1,0,0:0:0:0:
448,192,16226,1,0,0:0:0:0:
448,192,16308,1,0,0:0:0:0:
192,192,16390,128,0,16718:0:0:0:0:
64,192,16554,128,0,16718:0:0:0:0:
448,192,16882,128,0,17045:0:0:0:0:
320,192,16963,128,0,17045:0:0:0:0:
64,192,17045,128,0,17209:0:0:0:0:
192,192,17045,128,0,17209:0:0:0:0:
320,192,17209,1,2,0:0:0:0:
448,192,17209,1,0,0:0:0:0:
64,192,17373,1,8,0:0:0:0:
192,192,17373,1,0,0:0:0:0:
448,192,17373,1,0,0:0:0:0:
64,192,17701,1,2,0:0:0:0:
320,192,17701,1,4,0:0:0:0:
448,192,17701,128,0,18029:0:0:0:0:
64,192,18029,1,8,0:0:0:0:
192,192,18029,1,0,0:0:0:0:
320,192,18029,1,0,0:0:0:0:
64,192,18193,128,0,18521:0:0:0:0:
320,192,18357,1,2,0:0:0:0:
448,192,18357,1,0,0:0:0:0:
448,192,18521,1,0,0:0:0:0:
64,192,18685,1,8,0:0:0:0:
192,192,18685,1,0,0:0:0:0:
320,192,18685,128,0,19013:0:0:0:0:
64,192,18849,1,0,0:0:0:0:
192,192,19013,1,2,0:0:0:0:
448,192,19013,1,0,0:0:0:0:
448,192,19177,128,0,19341:0:0:0:0:
64,192,19341,1,8,0:0:0:0:
192,192,19341,1,0,0:0:0:0:
320,192,19341,1,0,0:0:0:0:
64,192,19504,128,0,19668:0:0:0:0:
320,192,19668,1,2,0:0:0:0:
448,192,19668,128,0,19996:0:0:0:0:
192,192,19832,1,0,0:0:0:0:
64,192,19996,1,8,0:0:0:0:
192,192,19996,128,0,20324:0:0:0:0:
320,192,19996,1,0,0:0:0:0:
448,192,20160,1,0,0:0:0:0:
320,192,20324,128,2,20652:0:0:0:0:
448,192,20324,1,0,0:0:0:0:
64,192,20488,1,0,0:0:0:0:
64,192,20652,1,8,0:0:0:0:
192,192,20652,1,0,0:0:0:0:
448,192,20652,1,0,0:0:0:0:
448,192,20816,128,0,21144:0:0:0:0:
64,192,20980,1,2,0:0:0:0:
192,192,20980,1,0,0:0:0:0:
192,192,21144,1,0,0:0:0:0:
64,192,21308,128,8,21636:0:0:0:0:
320,192,21308,1,0,0:0:0:0:
448,192,21308,1,0,0:0:0:0:
320,192,21472,1,0,0:0:0:0:
192,192,21636,1,2,0:0:0:0:
448,192,21636,1,0,0:0:0:0:
192,192,21800,128,0,21963:0:0:0:0:
64,192,21963,128,8,22127:0:0:0:0:
320,192,21963,1,0,0:0:0:0:
448,192,21963,1,0,0:0:0:0:
448,192,22127,128,0,22291:0:0:0:0:
64,192,22291,1,2,0:0:0:0:
192,192,22291,1,0,0:0:0:0:
320,192,22373,1,8,0:0:0:0:
448,192,22373,1,0,0:0:0:0:
192,192,22455,1,0,0:0:0:0:
64,192,22619,1,8,0:0:0:0:
320,192,22619,1,2,0:0:0:0:
448,192,22619,1,0,0:0:0:0:
192,192,22783,1,8,0:0:0:0:
448,192,22783,1,0,0:0:0:0:
320,192,22865,1,8,0:0:0:0:
64,192,22947,1,2,0:0:0:0:
192,192,22947,1,4,0:0:0:0:
448,192,22947,128,0,23275:0:0:0:0:
64,192,23275,1,8,0:0:0:0:
192,192,23275,1,0,0:0:0:0:
320,192,23275,1,0,0:0:0:0:
320,192,23439,128,0,23767:0:0:0:0:
64,192,23603,1,2,0:0:0:0:
192,192,23603,1,0,0:0:0:0:
64,192,23767,1,0,0:0:0:0:
192,192,23931,128,8,24259:0:0:0:0:
320,192,23931,1,0,0:0:0:0:
448,192,23931,1,0,0:0:0:0:
448,192,24095,1,0,0:0:0:0:
64,192,24259,1,2,0:0:0:0:
320,192,24259,1,0,0:0:0:0:
64,192,24423,128,0,24586:0:0:0:0:
192,192,24586,1,8,0:0:0:0:
320,192,24586,1,0,0:0:0:0:
448,192,24586,1,0,0:0:0:0:
448,192,24750,128,0,24914:0:0:0:0:
64,192,24914,128,2,25242:0:0:0:0:
192,192,24914,1,0,0:0:0:0:
320,192,25078,1,0,0:0:0:0:
192,192,25242,1,8,0:0:0:0:
320,192,25242,128,0,25570:0:0:0:0:
448,192,25242,1,0,0:0:0:0:
64,192,25406,1,0,0:0:0:0:
64,192,25570,1,2,0:0:0:0:
192,192,25570,128,0,25898:0:0:0:0:
448,192,25734,1,0,0:0:0:0:
64,192,25898,1,8,0:0:0:0:
320,192,25898,1,0,0:0:0:0:
448,192,25898,1,0,0:0:0:0:
320,192,26062,128,0,26390:0:0:0:0:
64,192,26226,1,2,0:0:0:0:
448,192,26226,1,0,0:0:0:0:
64,192,26390,1,0,0:0:0:0:
192,192,26554,1,8,0:0:0:0:
320,192,26554,1,0,0:0:0:0:
448,192,26554,128,0,26882:0:0:0:0:
192,192,26718,1,0,0:0:0:0:
64,192,26882,1,2,0:0:0:0:
320,192,26882,1,0,0:0:0:0:
64,192,27045,1,8,0:0:0:0:
192,192,27045,1,0,0:0:0:0:
320,192,27127,1,8,0:0:0:0:
448,192,27127,1,0,0:0:0:0:
192,192,27209,1,2,0:0:0:0:
320,192,27373,1,0,0:0:0:0:
192,192,27455,1,0,0:0:0:0:
64,192,27537,1,2,0:0:0:0:
448,192,27537,1,0,0:0:0:0:
192,192,27701,128,0,27865:0:0:0:0:
64,192,27865,1,8,0:0:0:0:
320,192,27865,128,0,28029:0:0:0:0:
448,192,27865,1,0,0:0:0:0:
192,192,28029,128,0,28193:0:0:0:0:
64,192,28193,128,2,28521:0:0:0:0:
320,192,28193,1,0,0:0:0:60:Crash 2.wav
448,192,28193,1,0,0:0:0:0:
448,192,28685,128,0,29013:0:0:0:0:
192,192,29177,128,0,29668:0:0:0:0:
448,192,29668,128,0,29996:0:0:0:0:
320,192,29996,128,0,30160:0:0:0:0:
64,192,30160,128,0,30488:0:0:0:0:
192,192,30488,128,0,31308:0:0:0:0:
64,192,30816,1,2,0:0:0:0:
320,192,30816,1,0,0:0:0:60:Crash 2.wav
448,192,30816,1,0,0:0:0:0:
320,192,31636,128,0,31800:0:0:0:0:
448,192,31800,128,0,31963:0:0:0:0:
64,192,31963,128,0,32127:0:0:0:0:
320,192,32291,128,0,32619:0:0:0:0:
64,192,32619,1,0,0:0:0:0:
448,192,32783,128,0,33275:0:0:0:0:
320,192,33029,128,0,33275:0:0:0:0:
64,192,33275,128,0,33931:0:0:0:0:
320,192,33439,1,2,0:0:0:0:
448,192,33439,1,0,0:0:0:60:Crash 2.wav
192,192,33521,1,0,0:0:0:0:
320,192,33603,1,0,0:0:0:0:
448,192,33685,1,0,0:0:0:0:
192,192,33767,1,0,0:0:0:0:
320,192,33849,1,0,0:0:0:0:
192,192,33931,1,2,0:0:0:0:
448,192,33931,1,0,0:0:0:60:Crash 2.wav
448,192,34423,128,0,34586:0:0:0:0:
320,192,34586,128,0,34750:0:0:0:0:
64,192,34750,1,0,0:0:0:0:
192,192,34750,1,0,0:0:0:0:
448,192,34914,128,0,35078:0:0:0:0:
64,192,35078,128,0,35242:0:0:0:0:
192,192,35242,1,0,0:0:0:0:
320,192,35242,1,0,0:0:0:0:
64,192,35406,1,0,0:0:0:0:
192,192,35488,1,0,0:0:0:0:
320,192,35570,1,0,0:0:0:0:
448,192,35652,1,0,0:0:0:0:
64,192,35734,1,0,0:0:0:0:
192,192,35816,1,0,0:0:0:0:
448,192,35898,1,0,0:0:0:0:
320,192,35980,1,0,0:0:0:0:
64,192,36062,1,2,0:0:0:0:
192,192,36062,1,0,0:0:0:60:Crash 2.wav
448,192,36062,128,0,36554:0:0:0:0:
64,192,36718,128,0,36882:0:0:0:0:
320,192,36882,128,2,37209:0:0:0:0:
448,192,36882,1,0,0:0:0:0:
64,192,37209,1,2,0:0:0:0:
448,192,37209,1,0,0:0:0:0:
192,192,37291,1,2,0:0:0:0:
64,192,37373,1,8,0:0:0:0:
320,192,37373,1,0,0:0:0:0:
448,192,37373,1,0,0:0:0:0:
192,192,37537,1,2,0:0:0:0:
320,192,37537,1,0,0:0:0:0:
64,192,37701,1,2,0:0:0:0:
192,192,37701,1,0,0:0:0:0:
64,192,37865,1,8,0:0:0:0:
320,192,37865,1,4,0:0:0:0:
448,192,37865,1,0,0:0:0:0:
192,192,38029,1,2,0:0:0:0:
320,192,38029,1,0,0:0:0:0:
64,192,38193,1,8,0:0:0:0:
192,192,38193,1,0,0:0:0:0:
448,192,38193,1,0,0:0:0:0:
64,192,38357,1,8,0:0:0:0:
320,192,38357,1,0,0:0:0:0:
192,192,38439,1,8,0:0:0:0:
320,192,38521,1,2,0:0:0:0:
448,192,38521,1,0,0:0:0:0:
64,192,38685,1,2,0:0:0:0:
192,192,38685,128,4,38849:0:0:0:0:
448,192,38685,1,0,0:0:0:0:
320,192,38849,128,0,39013:0:0:0:0:
64,192,39013,128,2,39177:0:0:0:0:
192,192,39013,1,0,0:0:0:0:
320,192,39177,128,0,39341:0:0:0:0:
192,192,39341,1,2,0:0:0:0:
448,192,39341,128,0,39504:0:0:0:0:
64,192,39504,128,0,39668:0:0:0:0:
320,192,39668,128,2,39832:0:0:0:0:
448,192,39668,1,0,0:0:0:0:
192,192,39832,128,0,39996:0:0:0:0:
64,192,39996,128,2,40160:0:0:0:0:
448,192,39996,1,0,0:0:0:0:
192,192,40160,1,0,0:0:0:0:
320,192,40242,1,0,0:0:0:0:
64,192,40324,1,2,0:0:0:0:
448,192,40324,128,0,40488:0:0:0:0:
192,192,40488,128,0,40652:0:0:0:0:
320,192,40652,128,2,40816:0:0:0:0:
448,192,40652,1,0,0:0:0:0:
64,192,40816,128,0,40980:0:0:0:0:
192,192,40980,128,2,41144:0:0:0:0:
320,192,40980,1,0,0:0:0:0:
448,192,41144,128,0,41308:0:0:0:0:
64,192,41308,128,2,41472:0:0:0:0:
192,192,41308,1,0,0:0:0:0:
320,192,41472,128,0,41636:0:0:0:0:
64,192,41636,1,2,0:0:0:0:
448,192,41636,1,0,0:0:0:0:
320,192,41718,1,0,0:0:0:0:
192,192,41800,1,0,0:0:0:0:
64,192,41882,1,0,0:0:0:0:
320,192,41963,1,2,0:0:0:0:
448,192,41963,1,0,0:0:0:0:
192,192,42045,1,0,0:0:0:0:
64,192,42127,1,0,0:0:0:0:
448,192,42209,1,0,0:0:0:0:
192,192,42291,1,2,0:0:0:0:
320,192,42291,1,0,0:0:0:0:
64,192,42373,1,0,0:0:0:0:
448,192,42455,1,0,0:0:0:0:
320,192,42537,1,0,0:0:0:0:
64,192,42619,1,2,0:0:0:0:
192,192,42619,1,0,0:0:0:0:
320,192,42783,1,0,0:0:0:0:
192,192,42865,1,0,0:0:0:0:
64,192,42947,1,2,0:0:0:0:
448,192,42947,1,0,0:0:0:0:
192,192,43111,128,0,43275:0:0:0:0:
320,192,43275,128,2,43439:0:0:0:0:
448,192,43275,1,0,0:0:0:0:
64,192,43439,128,0,43603:0:0:0:0:
192,192,43603,1,2,0:0:0:0:
448,192,43603,128,0,43767:0:0:0:0:
320,192,43767,128,0,43931:0:0:0:0:
64,192,43931,1,2,0:0:0:0:
192,192,43931,1,0,0:0:0:0:
320,192,44013,1,0,0:0:0:0:
448,192,44095,1,0,0:0:0:0:
64,192,44177,1,0,0:0:0:0:
192,192,44259,1,2,0:0:0:0:
320,192,44259,1,0,0:0:0:0:
448,192,44341,1,0,0:0:0:0:
64,192,44423,1,0,0:0:0:0:
192,192,44504,1,0,0:0:0:0:
320,192,44586,1,2,0:0:0:0:
448,192,44586,1,0,0:0:0:0:
64,192,44668,1,0,0:0:0:0:
192,192,44750,1,0,0:0:0:0:
320,192,44832,1,0,0:0:0:0:
64,192,44914,1,2,0:0:0:0:
448,192,44914,1,0,0:0:0:0:
192,192,44996,1,0,0:0:0:0:
320,192,45078,1,0,0:0:0:0:
448,192,45160,1,0,0:0:0:0:
64,192,45242,1,2,0:0:0:0:
192,192,45242,1,0,0:0:0:0:
320,192,45406,1,0,0:0:0:0:
192,192,45488,1,0,0:0:0:0:
64,192,45570,1,2,0:0:0:0:
448,192,45570,1,0,0:0:0:0:
320,192,45734,128,0,45898:0:0:0:0:
192,192,45898,1,2,0:0:0:0:
448,192,45898,128,0,46062:0:0:0:0:
64,192,46062,128,0,46226:0:0:0:0:
192,192,46226,128,2,46390:0:0:0:0:
320,192,46226,1,0,0:0:0:0:
448,192,46390,128,0,46554:0:0:0:0:
64,192,46554,1,2,0:0:0:0:
320,192,46554,128,0,46718:0:0:0:0:
192,192,46718,128,0,46882:0:0:0:0:
64,192,46882,128,2,47045:0:0:0:0:
448,192,46882,1,0,0:0:0:0:
320,192,47045,1,2,0:0:0:0:
448,192,47045,1,0,0:0:0:0:
192,192,47127,1,2,0:0:0:0:
64,192,47209,1,2,0:0:0:0:
192,192,47373,1,2,0:0:0:0:
320,192,47373,1,0,0:0:0:0:
64,192,47537,1,8,0:0:0:0:
320,192,47537,1,0,0:0:0:0:
448,192,47537,1,0,0:0:0:0:
64,192,47701,1,2,0:0:0:0:
192,192,47701,1,0,0:0:0:0:
448,192,47701,1,0,0:0:0:0:
64,192,48029,1,2,0:0:0:0:
320,192,48029,1,0,0:0:0:0:
448,192,48029,1,0,0:0:0:0:
64,192,48357,1,2,0:0:0:0:
448,192,48357,1,0,0:0:0:0:
320,192,48439,1,2,0:0:0:0:
64,192,48521,1,8,0:0:0:0:
192,192,48521,1,0,0:0:0:0:
448,192,48521,1,0,0:0:0:0:
192,192,48685,1,2,0:0:0:0:
320,192,48685,1,0,0:0:0:0:
64,192,48849,1,8,0:0:0:0:
320,192,48849,1,0,0:0:0:0:
448,192,48849,1,0,0:0:0:0:
64,192,49013,1,2,0:0:0:0:
192,192,49013,1,0,0:0:0:0:
320,192,49095,1,2,0:0:0:0:
64,192,49177,1,2,0:0:0:0:
192,192,49177,1,4,0:0:0:0:
448,192,49177,128,0,49832:0:0:0:0:
192,192,49504,1,2,0:0:0:0:
320,192,49504,1,0,0:0:0:0:
64,192,49832,1,2,0:0:0:0:
320,192,49832,128,0,50488:0:0:0:0:
64,192,50160,1,2,0:0:0:0:
192,192,50160,1,0,0:0:0:0:
192,192,50488,128,2,51144:0:0:0:0:
448,192,50488,1,0,0:0:0:0:
64,192,50816,1,2,0:0:0:0:
448,192,50816,1,0,0:0:0:0:
64,192,51144,1,2,0:0:0:0:
320,192,51144,1,0,0:0:0:0:
448,192,51308,1,2,0:0:0:0:
320,192,51390,1,2,0:0:0:0:
64,192,51472,1,8,0:0:0:0:
192,192,51472,1,0,0:0:0:0:
448,192,51472,1,0,0:0:0:0:
64,192,51636,128,2,52127:0:0:0:0:
320,192,51636,1,0,0:0:0:0:
320,192,51963,1,2,0:0:0:0:
448,192,51963,1,0,0:0:0:0:
192,192,52127,1,8,0:0:0:0:
320,192,52127,1,0,0:0:0:0:
448,192,52127,1,0,0:0:0:0:
64,192,52291,1,0,0:0:0:0:
320,192,52455,1,2,0:0:0:0:
448,192,52455,1,0,0:0:0:0:
192,192,52619,1,2,0:0:0:0:
320,192,52701,1,2,0:0:0:0:
64,192,52783,1,8,0:0:0:0:
448,192,52783,1,0,0:0:0:0:
192,192,52865,1,2,0:0:0:0:
64,192,52947,1,2,0:0:0:0:
320,192,52947,128,4,53275:0:0:0:0:
448,192,52947,1,0,0:0:0:0:
64,192,53275,1,2,0:0:0:0:
192,192,53275,1,0,0:0:0:0:
320,192,53357,1,2,0:0:0:0:
64,192,53439,128,8,53767:0:0:0:0:
192,192,53439,1,0,0:0:0:0:
448,192,53439,1,0,0:0:0:0:
192,192,53767,128,8,53931:0:0:0:0:
320,192,53767,128,0,53931:0:0:0:0:
448,192,53767,128,0,53931:0:0:0:0:
64,192,54013,128,8,54177:0:0:0:0:
192,192,54013,128,0,54177:0:0:0:0:
320,192,54013,128,0,54177:0:0:0:0:
64,192,54259,128,8,54423:0:0:0:0:
320,192,54259,128,0,54423:0:0:0:0:
448,192,54259,128,0,54423:0:0:0:0:
192,192,54423,1,0,0:0:0:0:
320,192,54586,1,2,0:0:0:0:
448,192,54586,1,0,0:0:0:0:
192,192,54668,1,2,0:0:0:0:
64,192,54750,1,8,0:0:0:0:
320,192,54750,1,4,0:0:0:0:
448,192,54750,1,0,0:0:0:0:
192,192,54914,1,2,0:0:0:0:
320,192,54914,1,0,0:0:0:0:
64,192,55078,1,2,0:0:0:0:
192,192,55078,1,0,0:0:0:0:
320,192,55160,1,2,0:0:0:0:
64,192,55242,1,8,0:0:0:0:
448,192,55242,1,0,0:0:0:0:
192,192,55324,1,8,0:0:0:0:
320,192,55406,1,8,0:0:0:0:
448,192,55406,1,0,0:0:0:0:
64,192,55570,128,2,55816:0:0:0:0:
192,192,55570,128,0,55816:0:0:0:0:
448,192,55570,128,0,55816:0:0:0:0:
64,192,55898,128,2,56007:0:0:0:0:
320,192,55898,128,0,56007:0:0:0:0:
448,192,55898,128,0,56007:0:0:0:0:
64,192,56144,128,2,56253:0:0:0:0:
192,192,56144,128,0,56253:0:0:0:0:
448,192,56144,128,0,56253:0:0:0:0:
64,192,56390,128,2,56499:0:0:0:0:
320,192,56390,128,0,56499:0:0:0:0:
448,192,56390,128,0,56499:0:0:0:0:
192,192,56608,128,2,56718:0:0:0:0:
320,192,56608,128,0,56718:0:0:0:0:
448,192,56608,128,0,56718:0:0:0:0:
64,192,56827,128,2,56936:0:0:0:0:
192,192,56827,128,0,56936:0:0:0:0:
320,192,56827,128,0,56936:0:0:0:0:
64,192,57045,128,2,58357:0:0:0:0:
192,192,57045,1,4,0:0:0:0:
448,192,57045,1,0,0:0:0:0:
192,192,58357,1,8,0:0:0:0:
320,192,58357,1,0,0:0:0:45:soft-hitfinish.wav
448,192,58357,1,0,0:0:0:0:
64,192,58521,1,2,0:0:0:0:
320,192,58521,1,0,0:0:0:0:
64,192,58685,1,8,0:0:0:0:
192,192,58685,1,0,0:0:0:45:soft-hitfinish.wav
448,192,58685,1,0,0:0:0:0:
320,192,58849,1,2,0:0:0:0:
448,192,58931,1,2,0:0:0:0:
64,192,59013,1,8,0:0:0:0:
192,192,59013,1,0,0:0:0:0:
320,192,59095,1,2,0:0:0:0:
192,192,59177,1,8,0:0:0:0:
448,192,59177,1,0,0:0:0:0:
64,192,59259,1,2,0:0:0:0:
320,192,59341,1,8,0:0:0:0:
448,192,59341,1,0,0:0:0:0:
192,192,59423,1,2,0:0:0:0:
64,192,59504,1,8,0:0:0:0:
320,192,59504,1,0,0:0:0:0:
448,192,59586,1,2,0:0:0:0:
64,192,59668,1,8,0:0:0:0:
192,192,59668,1,0,0:0:0:0:
320,192,59750,1,8,0:0:0:0:
448,192,59750,1,0,0:0:0:0:
64,192,59832,1,8,0:0:0:0:
192,192,59832,1,0,0:0:0:0:
320,192,59914,1,8,0:0:0:0:
448,192,59914,1,0,0:0:0:0:
64,192,59996,1,8,0:0:0:0:
192,192,59996,1,0,0:0:0:0:
320,192,60051,1,8,0:0:0:0:
448,192,60106,1,8,0:0:0:0:
64,192,60160,1,8,0:0:0:0:
192,192,60215,1,8,0:0:0:0:
320,192,60270,1,8,0:0:0:0:
64,192,60324,128,0,60898:0:0:0:0:
448,192,60324,1,0,0:0:0:0:
448,192,60652,128,0,60898:0:0:0:0:
64,192,60980,1,2,0:0:0:0:
320,192,60980,128,4,61308:0:0:0:0:
448,192,60980,1,0,0:0:0:0:
192,192,61144,1,0,0:0:0:0:
64,192,61308,128,8,61636:0:0:0:0:
192,192,61308,1,0,0:0:0:0:
448,192,61308,1,0,0:0:0:0:
320,192,61472,1,0,0:0:0:0:
192,192,61636,1,2,0:0:0:0:
448,192,61636,128,0,61800:0:0:0:0:
320,192,61800,1,0,0:0:0:0:
192,192,61882,1,0,0:0:0:0:
64,192,61963,1,8,0:0:0:0:
320,192,61963,1,0,0:0:0:0:
448,192,61963,1,0,0:0:0:0:
192,192,62127,128,0,62291:0:0:0:0:
64,192,62291,1,2,0:0:0:0:
320,192,62291,1,0,0:0:0:0:
448,192,62455,128,0,62619:0:0:0:0:
64,192,62619,128,8,62783:0:0:0:0:
192,192,62619,1,0,0:0:0:0:
320,192,62619,1,0,0:0:0:0:
448,192,62783,128,0,62947:0:0:0:0:
192,192,62947,1,2,0:0:0:0:
320,192,62947,128,0,63111:0:0:0:0:
64,192,63111,1,0,0:0:0:0:
192,192,63193,1,0,0:0:0:0:
64,192,63275,1,8,0:0:0:0:
320,192,63275,1,0,0:0:0:0:
448,192,63275,1,0,0:0:0:0:
192,192,63439,128,0,63603:0:0:0:0:
64,192,63603,128,2,63931:0:0:0:0:
320,192,63603,1,0,0:0:0:0:
448,192,63767,1,0,0:0:0:0:
192,192,63931,1,8,0:0:0:0:
320,192,63931,1,0,0:0:0:0:
448,192,63931,128,0,64259:0:0:0:0:
64,192,64095,1,0,0:0:0:0:
192,192,64259,128,2,64423:0:0:0:0:
320,192,64259,1,0,0:0:0:0:
448,192,64423,1,0,0:0:0:0:
320,192,64504,1,0,0:0:0:0:
64,192,64586,1,8,0:0:0:0:
192,192,64586,1,0,0:0:0:0:
448,192,64586,1,0,0:0:0:0:
320,192,64750,128,0,64914:0:0:0:0:
64,192,64914,1,2,0:0:0:0:
448,192,64914,1,0,0:0:0:0:
192,192,65078,128,0,65242:0:0:0:0:
64,192,65242,1,8,0:0:0:0:
320,192,65242,128,0,65406:0:0:0:0:
448,192,65242,1,0,0:0:0:0:
192,192,65406,128,0,65570:0:0:0:0:
320,192,65570,1,2,0:0:0:0:
448,192,65570,1,0,0:0:0:0:
64,192,65652,1,8,0:0:0:0:
192,192,65652,1,0,0:0:0:0:
448,192,65734,1,0,0:0:0:0:
64,192,65898,1,8,0:0:0:0:
192,192,65898,1,2,0:0:0:0:
320,192,65898,1,0,0:0:0:0:
64,192,66062,1,8,0:0:0:0:
448,192,66062,1,0,0:0:0:0:
320,192,66144,1,8,0:0:0:0:
64,192,66226,128,2,66554:0:0:0:0:
192,192,66226,1,4,0:0:0:0:
448,192,66226,1,0,0:0:0:0:
320,192,66390,1,0,0:0:0:0:
192,192,66554,1,8,0:0:0:0:
320,192,66554,128,0,66882:0:0:0:0:
448,192,66554,1,0,0:0:0:0:
64,192,66718,1,0,0:0:0:0:
192,192,66882,128,2,67045:0:0:0:0:
448,192,66882,1,0,0:0:0:0:
320,192,67045,1,0,0:0:0:0:
448,192,67127,1,0,0:0:0:0:
64,192,67209,1,8,0:0:0:0:
192,192,67209,1,0,0:0:0:0:
320,192,67209,1,0,0:0:0:0:
448,192,67373,128,0,67537:0:0:0:0:
192,192,67537,1,2,0:0:0:0:
320,192,67537,1,0,0:0:0:0:
64,192,67701,128,0,67865:0:0:0:0:
192,192,67865,1,8,0:0:0:0:
320,192,67865,128,0,68029:0:0:0:0:
448,192,67865,1,0,0:0:0:0:
64,192,68029,128,0,68193:0:0:0:0:
320,192,68193,1,2,0:0:0:0:
448,192,68193,128,0,68357:0:0:0:0:
192,192,68357,1,0,0:0:0:0:
320,192,68439,1,0,0:0:0:0:
64,192,68521,1,8,0:0:0:0:
192,192,68521,1,0,0:0:0:0:
448,192,68521,1,0,0:0:0:0:
320,192,68685,1,2,0:0:0:0:
192,192,68767,1,2,0:0:0:0:
64,192,68849,128,2,69177:0:0:0:0:
320,192,68849,1,4,0:0:0:0:
448,192,68849,1,0,0:0:0:0:
192,192,69177,1,8,0:0:0:0:
320,192,69177,1,0,0:0:0:0:
448,192,69177,1,0,0:0:0:0:
64,192,69341,1,2,0:0:0:0:
320,192,69341,1,0,0:0:0:60:Crash 2.wav
448,192,69341,1,0,0:0:0:0:
64,192,69668,1,2,0:0:0:0:
192,192,69668,1,0,0:0:0:60:Crash 2.wav
448,192,69668,1,0,0:0:0:0:
64,192,69832,1,8,0:0:0:0:
320,192,69832,1,0,0:0:0:0:
448,192,69832,1,0,0:0:0:0:
64,192,69996,1,2,0:0:0:0:
192,192,69996,1,0,0:0:0:60:Crash 2.wav
320,192,69996,1,0,0:0:0:0:
320,192,70324,1,2,0:0:0:0:
448,192,70324,1,0,0:0:0:0:
192,192,70406,1,2,0:0:0:0:
64,192,70488,1,8,0:0:0:0:
320,192,70488,1,0,0:0:0:0:
448,192,70488,1,0,0:0:0:0:
64,192,70652,1,2,0:0:0:0:
192,192,70652,1,0,0:0:0:0:
192,192,70816,1,8,0:0:0:0:
320,192,70816,1,0,0:0:0:0:
448,192,70816,1,0,0:0:0:0:
64,192,70980,1,2,0:0:0:0:
320,192,70980,1,0,0:0:0:0:
64,192,71144,128,8,71308:0:0:0:0:
192,192,71144,1,0,0:0:0:0:
448,192,71144,1,0,0:0:0:0:
192,192,71308,128,8,71472:0:0:0:0:
320,192,71308,1,0,0:0:0:0:
448,192,71308,1,0,0:0:0:0:
64,192,71472,1,2,0:0:0:0:
320,192,71472,1,4,0:0:0:0:
448,192,71472,128,0,71800:0:0:0:0:
192,192,71636,1,0,0:0:0:0:
64,192,71800,128,8,72127:0:0:0:0:
192,192,71800,1,0,0:0:0:0:
320,192,71800,1,0,0:0:0:0:
448,192,71963,1,0,0:0:0:0:
192,192,72127,1,2,0:0:0:0:
320,192,72127,128,0,72291:0:0:0:0:
64,192,72291,1,0,0:0:0:0:
192,192,72373,1,0,0:0:0:0:
64,192,72455,1,8,0:0:0:0:
320,192,72455,1,0,0:0:0:0:
448,192,72455,1,0,0:0:0:0:
192,192,72619,128,0,72783:0:0:0:0:
64,192,72783,1,2,0:0:0:0:
448,192,72783,1,0,0:0:0:0:
320,192,72947,128,0,73111:0:0:0:0:
64,192,73111,128,8,73275:0:0:0:0:
192,192,73111,1,0,0:0:0:0:
448,192,73111,1,0,0:0:0:0:
320,192,73275,128,0,73439:0:0:0:0:
64,192,73439,1,2,0:0:0:0:
192,192,73439,128,0,73603:0:0:0:0:
448,192,73603,1,0,0:0:0:0:
320,192,73685,1,0,0:0:0:0:
64,192,73767,1,8,0:0:0:0:
192,192,73767,1,0,0:0:0:0:
448,192,73767,1,0,0:0:0:0:
320,192,73931,128,0,74095:0:0:0:0:
192,192,74095,1,2,0:0:0:0:
448,192,74095,128,0,74259:0:0:0:0:
64,192,74259,1,0,0:0:0:0:
192,192,74423,128,8,74750:0:0:0:0:
320,192,74423,1,0,0:0:0:0:
448,192,74423,1,0,0:0:0:0:
64,192,74586,1,0,0:0:0:0:
320,192,74750,1,2,0:0:0:0:
448,192,74750,128,0,75078:0:0:0:0:
192,192,74914,1,0,0:0:0:0:
64,192,75078,1,8,0:0:0:0:
192,192,75078,1,0,0:0:0:0:
320,192,75078,1,0,0:0:0:0:
64,192,75242,128,2,75570:0:0:0:0:
320,192,75242,1,4,0:0:0:0:
448,192,75242,1,0,0:0:0:0:
192,192,75570,1,2,0:0:0:0:
320,192,75570,1,0,0:0:0:0:
64,192,75734,1,8,0:0:0:0:
192,192,75734,1,0,0:0:0:0:
448,192,75734,128,0,76062:0:0:0:0:
64,192,76062,1,2,0:0:0:0:
320,192,76062,1,0,0:0:0:0:
192,192,76144,1,8,0:0:0:0:
448,192,76144,1,0,0:0:0:0:
320,192,76226,1,2,0:0:0:0:
64,192,76390,1,8,0:0:0:0:
192,192,76390,1,0,0:0:0:0:
320,192,76472,1,8,0:0:0:0:
64,192,76554,1,8,0:0:0:0:
448,192,76554,1,0,0:0:0:0:
192,192,76636,1,8,0:0:0:0:
64,192,76718,1,2,0:0:0:0:
320,192,76718,1,4,0:0:0:0:
448,192,76718,1,0,0:0:0:0:
192,192,76882,1,2,0:0:0:0:
320,192,76882,1,0,0:0:0:0:
64,192,77045,1,8,0:0:0:0:
192,192,77045,1,0,0:0:0:0:
448,192,77045,1,0,0:0:0:0:
64,192,77209,128,2,77455:0:0:0:0:
320,192,77209,128,4,77455:0:0:0:0:
448,192,77209,128,0,77455:0:0:0:0:
192,192,77537,1,2,0:0:0:0:
320,192,77537,1,0,0:0:0:0:
64,192,77701,1,8,0:0:0:0:
320,192,77701,1,0,0:0:0:0:
448,192,77701,1,0,0:0:0:0:
64,192,77865,128,2,78111:0:0:0:0:
192,192,77865,128,4,78111:0:0:0:0:
448,192,77865,128,0,78111:0:0:0:0:
192,192,78193,1,2,0:0:0:0:
320,192,78193,1,0,0:0:0:0:
64,192,78357,1,8,0:0:0:0:
192,192,78357,128,0,78685:0:0:0:0:
448,192,78357,1,0,0:0:0:0:
320,192,78521,1,0,0:0:0:0:
64,192,78685,1,2,0:0:0:0:
448,192,78685,128,0,79013:0:0:0:0:
192,192,78849,1,0,0:0:0:60:Splash.wav
64,192,79013,128,8,79341:0:0:0:0:
192,192,79013,1,0,0:0:0:0:
320,192,79013,1,0,0:0:0:0:
448,192,79177,1,2,0:0:0:0:
320,192,79259,1,2,0:0:0:0:
192,192,79341,128,2,79668:0:0:0:0:
448,192,79341,1,4,0:0:0:0:
64,192,79668,1,8,0:0:0:0:
320,192,79668,1,0,0:0:0:0:
448,192,79668,1,0,0:0:0:0:
192,192,79832,1,2,0:0:0:0:
448,192,79832,128,0,80160:0:0:0:0:
192,192,80160,1,2,0:0:0:0:
320,192,80160,1,0,0:0:0:0:
64,192,80324,1,8,0:0:0:0:
320,192,80324,1,0,0:0:0:0:
448,192,80324,1,0,0:0:0:0:
64,192,80488,128,2,80816:0:0:0:0:
192,192,80488,1,0,0:0:0:0:
320,192,80816,1,2,0:0:0:0:
448,192,80816,1,0,0:0:0:0:
64,192,80980,1,8,0:0:0:0:
192,192,80980,1,0,0:0:0:0:
448,192,80980,1,0,0:0:0:0:
64,192,81144,1,2,0:0:0:0:
320,192,81144,1,0,0:0:0:0:
192,192,81308,1,0,0:0:0:0:
320,192,81390,1,8,0:0:0:0:
448,192,81390,1,0,0:0:0:0:
64,192,81472,1,2,0:0:0:0:
192,192,81472,1,0,0:0:0:0:
64,192,81636,1,8,0:0:0:0:
320,192,81636,1,0,0:0:0:0:
448,192,81636,1,0,0:0:0:0:
192,192,81800,1,8,0:0:0:0:
320,192,81800,1,0,0:0:0:0:
448,192,81882,1,8,0:0:0:0:
64,192,81963,1,2,0:0:0:0:
192,192,81963,1,4,0:0:0:0:
320,192,82045,1,0,0:0:0:0:
64,192,82127,1,2,0:0:0:0:
448,192,82127,1,0,0:0:0:0:
192,192,82209,1,0,0:0:0:0:
320,192,82291,1,2,0:0:0:0:
448,192,82291,1,0,0:0:0:0:
192,192,82373,1,0,0:0:0:0:
64,192,82455,1,2,0:0:0:0:
448,192,82455,1,0,0:0:0:0:
320,192,82537,1,0,0:0:0:0:
64,192,82619,1,2,0:0:0:0:
192,192,82619,1,0,0:0:0:0:
320,192,82701,1,2,0:0:0:0:
448,192,82701,1,0,0:0:0:0:
64,192,82783,1,2,0:0:0:0:
192,192,82783,1,0,0:0:0:0:
320,192,82865,1,2,0:0:0:0:
448,192,82865,1,0,0:0:0:0:
64,192,82947,1,2,0:0:0:0:
192,192,82947,1,0,0:0:0:0:
320,192,83029,1,2,0:0:0:0:
64,192,83111,1,2,0:0:0:0:
192,192,83111,1,0,0:0:0:60:Crash 2.wav
448,192,83111,1,0,0:0:0:0:
320,192,83439,1,0,0:0:0:0:
448,192,83685,1,0,0:0:0:0:
64,192,83767,1,0,0:0:0:0:
192,192,83931,1,0,0:0:0:0:
320,192,84095,1,0,0:0:0:0:
448,192,84259,128,0,84586:0:0:0:0:
64,192,84586,1,2,0:0:0:0:
192,192,84586,128,4,84750:0:0:0:0:
320,192,84586,1,0,0:0:0:0:
448,192,84750,1,0,0:0:0:0:
64,192,84914,1,8,0:0:0:0:
320,192,84914,128,0,85078:0:0:0:0:
448,192,84914,1,0,0:0:0:0:
192,192,85078,1,0,0:0:0:0:
64,192,85242,128,2,85406:0:0:0:0:
320,192,85242,1,8,0:0:0:35:
448,192,85242,1,0,0:0:0:0:
192,192,85406,1,0,0:0:0:0:
320,192,85488,1,0,0:0:0:0:
64,192,85570,1,8,0:0:0:0:
192,192,85570,1,0,0:0:0:0:
448,192,85570,1,0,0:0:0:0:
320,192,85734,128,0,85898:0:0:0:0:
192,192,85898,1,2,0:0:0:0:
448,192,85898,1,0,0:0:0:0:
64,192,86062,1,0,0:0:0:0:
64,192,86226,1,8,0:0:0:0:
320,192,86226,1,0,0:0:0:0:
448,192,86226,1,0,0:0:0:0:
64,192,86390,1,0,0:0:0:0:
64,192,86554,128,2,86718:0:0:0:0:
320,192,86554,1,0,0:0:0:0:
448,192,86718,1,0,0:0:0:0:
320,192,86800,1,0,0:0:0:0:
64,192,86882,1,8,0:0:0:0:
192,192,86882,1,0,0:0:0:0:
448,192,86882,1,0,0:0:0:0:
320,192,87045,128,0,87209:0:0:0:0:
64,192,87209,128,2,87373:0:0:0:0:
448,192,87209,1,0,0:0:0:0:
192,192,87373,1,0,0:0:0:0:
64,192,87537,1,8,0:0:0:0:
320,192,87537,128,0,87701:0:0:0:0:
448,192,87537,1,0,0:0:0:0:
192,192,87701,1,0,0:0:0:0:
320,192,87865,1,2,0:0:0:0:
448,192,87865,128,0,88029:0:0:0:0:
64,192,88029,1,0,0:0:0:0:
192,192,88111,1,0,0:0:0:0:
64,192,88193,1,8,0:0:0:0:
320,192,88193,1,0,0:0:0:0:
448,192,88193,1,0,0:0:0:0:
192,192,88357,128,0,88521:0:0:0:0:
64,192,88521,1,2,0:0:0:0:
320,192,88521,1,0,0:0:0:0:
448,192,88685,1,0,0:0:0:0:
64,192,88849,1,8,0:0:0:0:
192,192,88849,1,0,0:0:0:0:
448,192,88849,1,0,0:0:0:0:
448,192,89013,1,0,0:0:0:0:
320,192,89177,1,2,0:0:0:0:
448,192,89177,1,0,0:0:0:0:
64,192,89259,1,8,0:0:0:0:
192,192,89259,1,0,0:0:0:0:
320,192,89341,1,2,0:0:0:0:
192,192,89423,1,0,0:0:0:0:
64,192,89504,1,8,0:0:0:0:
320,192,89504,1,0,0:0:0:0:
448,192,89504,1,0,0:0:0:0:
192,192,89668,128,8,89832:0:0:0:0:
64,192,89832,1,2,0:0:0:0:
320,192,89832,1,4,0:0:0:0:
448,192,89832,1,0,0:0:0:0:
192,192,89996,1,2,0:0:0:0:
320,192,89996,1,0,0:0:0:0:
64,192,90160,1,8,0:0:0:0:
192,192,90160,1,0,0:0:0:0:
448,192,90160,1,0,0:0:0:0:
64,192,90324,128,2,90570:0:0:0:0:
320,192,90324,128,4,90570:0:0:0:0:
448,192,90324,128,0,90570:0:0:0:0:
64,192,90652,1,8,0:0:0:0:
320,192,90652,1,0,0:0:0:0:
448,192,90652,1,0,0:0:0:0:
64,192,90816,128,2,91062:0:0:0:0:
192,192,90816,128,4,91062:0:0:0:0:
448,192,90816,128,0,91062:0:0:0:0:
64,192,91144,1,8,0:0:0:0:
192,192,91144,1,0,0:0:0:0:
448,192,91144,1,0,0:0:0:0:
64,192,91308,128,2,91554:0:0:0:0:
320,192,91308,128,4,91554:0:0:0:0:
448,192,91308,128,0,91554:0:0:0:0:
64,192,91636,1,8,0:0:0:0:
320,192,91636,1,0,0:0:0:0:
448,192,91636,1,0,0:0:0:0:
64,192,91800,1,2,0:0:0:0:
192,192,91800,1,0,0:0:0:60:Crash 2.wav
448,192,91800,1,0,0:0:0:0:
64,192,92127,1,2,0:0:0:0:
320,192,92127,1,4,0:0:0:0:
448,192,92127,128,0,93767:0:0:0:0:
192,192,92291,1,0,0:0:0:0:
320,192,92455,1,0,0:0:0:0:
64,192,92947,1,0,0:0:0:0:
320,192,93439,1,0,0:0:0:0:
64,192,93603,1,0,0:0:0:0:
320,192,93767,1,0,0:0:0:0:
192,192,93849,1,0,0:0:0:0:
64,192,93931,1,0,0:0:0:0:
448,192,94013,1,0,0:0:0:0:
320,192,94095,1,0,0:0:0:0:
192,192,94177,1,0,0:0:0:0:
64,192,94259,1,2,0:0:0:0:
320,192,94259,1,0,0:0:0:60:Crash 2.wav
448,192,94259,1,0,0:0:0:0:
192,192,94586,128,0,94750:0:0:0:0:
64,192,94750,128,0,94914:0:0:0:0:
320,192,94914,128,0,95078:0:0:0:0:
64,192,95078,1,0,0:0:0:55:Boom.wav
448,192,95078,128,0,95406:0:0:0:0:
192,192,95242,1,0,0:0:0:0:
320,192,95406,1,0,0:0:0:0:
64,192,95570,128,0,95898:0:0:0:0:
448,192,95570,1,0,0:0:0:0:
320,192,95898,1,0,0:0:0:0:
192,192,96062,128,0,96390:0:0:0:0:
448,192,96062,1,0,0:0:0:0:
64,192,96226,1,0,0:0:0:0:
64,192,96554,128,0,96882:0:0:0:0:
448,192,96554,1,0,0:0:0:0:
320,192,96718,1,0,0:0:0:0:
192,192,96882,1,0,0:0:0:0:
64,192,97045,1,0,0:0:0:0:
448,192,97045,128,0,97373:0:0:0:0:
320,192,97209,1,0,0:0:0:0:
64,192,97373,1,0,0:0:0:0:
192,192,97373,128,0,97701:0:0:0:0:
448,192,97537,1,0,0:0:0:0:
64,192,97701,1,0,0:0:0:0:
320,192,97701,1,0,0:0:0:0:
192,192,97865,1,0,0:0:0:0:
448,192,98029,1,0,0:0:0:0:
64,192,98193,1,0,0:0:0:40:Boom.wav
192,192,98193,1,0,0:0:0:0:
320,192,98275,1,0,0:0:0:0:
448,192,98357,1,0,0:0:0:0:
64,192,98439,1,0,0:0:0:0:
192,192,98521,1,0,0:0:0:0:
448,192,98603,1,0,0:0:0:0:
320,192,98685,1,0,0:0:0:0:
64,192,98767,1,0,0:0:0:0:
192,192,98849,1,0,0:0:0:0:
320,192,98931,1,0,0:0:0:0:
448,192,99013,128,0,99259:0:0:0:0:
64,192,99259,128,0,99504:0:0:0:0:
448,192,99504,1,0,0:0:0:0:
192,192,99668,128,2,99832:0:0:0:0:
320,192,99668,128,0,99832:0:0:0:60:Crash 2.wav
448,192,99668,128,0,99832:0:0:0:0:
64,192,99914,128,2,100078:0:0:0:0:
192,192,99914,128,0,100078:0:0:0:60:Crash 2.wav
320,192,99914,128,0,100078:0:0:0:0:
64,192,100160,1,2,0:0:0:0:
192,192,100160,1,0,0:0:0:60:Crash 2.wav
448,192,100160,1,0,0:0:0:0:
64,192,100324,1,2,0:0:0:0:
320,192,100324,1,4,0:0:0:0:
448,192,100324,1,0,0:0:0:0:
320,192,100488,1,0,0:0:0:0:
64,192,100652,1,8,0:0:0:0:
192,192,100652,1,0,0:0:0:0:
448,192,100652,1,0,0:0:0:0:
192,192,100816,1,0,0:0:0:0:
64,192,100980,1,2,0:0:0:0:
320,192,100980,1,0,0:0:0:0:
192,192,101144,1,2,0:0:0:0:
320,192,101144,1,0,0:0:0:0:
64,192,101308,1,8,0:0:0:0:
192,192,101308,1,0,0:0:0:0:
448,192,101308,1,0,0:0:0:0:
64,192,101472,1,2,0:0:0:0:
320,192,101472,1,0,0:0:0:0:
448,192,101472,1,0,0:0:0:0:
64,192,101800,1,2,0:0:0:0:
192,192,101800,1,0,0:0:0:0:
448,192,101800,1,0,0:0:0:0:
320,192,102127,1,2,0:0:0:0:
448,192,102127,1,0,0:0:0:0:
64,192,102291,1,8,0:0:0:0:
192,192,102291,1,0,0:0:0:0:
448,192,102291,1,0,0:0:0:0:
192,192,102455,1,2,0:0:0:0:
320,192,102455,1,0,0:0:0:0:
64,192,102619,1,8,0:0:0:0:
320,192,102619,1,0,0:0:0:0:
448,192,102619,1,0,0:0:0:0:
64,192,102783,1,2,0:0:0:0:
192,192,102783,1,0,0:0:0:0:
192,192,102947,1,2,0:0:0:0:
320,192,102947,128,4,103111:0:0:0:0:
448,192,102947,1,0,0:0:0:0:
64,192,103111,128,0,103275:0:0:0:0:
320,192,103275,1,2,0:0:0:0:
448,192,103275,128,0,103439:0:0:0:0:
192,192,103439,128,0,103603:0:0:0:0:
64,192,103603,128,2,103767:0:0:0:0:
320,192,103603,1,0,0:0:0:0:
448,192,103767,128,0,103931:0:0:0:0:
64,192,103931,1,2,0:0:0:0:
192,192,103931,128,0,104095:0:0:0:0:
320,192,104095,128,0,104259:0:0:0:0:
64,192,104259,1,2,0:0:0:0:
448,192,104259,128,0,104423:0:0:0:0:
192,192,104423,1,0,0:0:0:0:
320,192,104504,1,0,0:0:0:0:
64,192,104586,1,2,0:0:0:0:
448,192,104586,1,0,0:0:0:0:
320,192,104750,128,0,104914:0:0:0:0:
64,192,104914,1,2,0:0:0:0:
192,192,104914,128,0,105078:0:0:0:0:
448,192,105078,128,0,105242:0:0:0:0:
192,192,105242,1,2,0:0:0:0:
320,192,105242,128,0,105406:0:0:0:0:
64,192,105406,128,0,105570:0:0:0:0:
192,192,105570,1,2,0:0:0:0:
320,192,105570,128,8,105734:0:0:0:0:
448,192,105570,1,0,0:0:0:60:Crash 2.wav
192,192,105734,1,0,0:0:0:0:
64,192,105898,1,2,0:0:0:0:
448,192,105898,1,0,0:0:0:0:
64,192,106062,1,8,0:0:0:0:
192,192,106062,128,0,106226:0:0:0:60:Crash 2.wav
320,192,106062,1,0,0:0:0:0:
320,192,106226,1,2,0:0:0:0:
448,192,106226,1,0,0:0:0:0:
192,192,106390,1,0,0:0:0:0:
64,192,106554,1,2,0:0:0:0:
320,192,106554,1,8,0:0:0:0:
448,192,106554,128,0,106718:0:0:0:60:Crash 2.wav
192,192,106718,1,0,0:0:0:0:
64,192,106882,1,2,0:0:0:0:
448,192,106882,1,0,0:0:0:0:
320,192,106963,1,0,0:0:0:0:
64,192,107045,128,8,107209:0:0:0:0:
192,192,107045,1,0,0:0:0:60:Crash 2.wav
448,192,107045,1,0,0:0:0:0:
192,192,107209,1,2,0:0:0:0:
320,192,107209,1,0,0:0:0:0:
448,192,107373,1,0,0:0:0:0:
320,192,107455,1,0,0:0:0:0:
64,192,107537,1,2,0:0:0:0:
192,192,107537,128,8,107701:0:0:0:0:
448,192,107537,1,0,0:0:0:60:Crash 2.wav
320,192,107701,1,0,0:0:0:0:
64,192,107865,1,2,0:0:0:0:
192,192,107865,1,0,0:0:0:0:
320,192,107947,1,0,0:0:0:0:
64,192,108029,128,8,108193:0:0:0:0:
192,192,108029,1,0,0:0:0:60:Crash 2.wav
448,192,108029,1,0,0:0:0:0:
320,192,108193,1,2,0:0:0:0:
448,192,108193,1,0,0:0:0:0:
192,192,108275,1,2,0:0:0:0:
64,192,108357,1,2,0:0:0:0:
448,192,108357,1,0,0:0:0:0:
320,192,108439,1,2,0:0:0:0:
64,192,108521,1,8,0:0:0:0:
192,192,108521,1,0,0:0:0:0:
448,192,108521,1,0,0:0:0:0:
64,192,108685,128,2,108767:0:0:0:0:
192,192,108685,128,0,108767:0:0:0:60:Crash 2.wav
320,192,108685,128,0,108767:0:0:0:0:
192,192,109177,128,2,109259:0:0:0:0:
320,192,109177,128,0,109259:0:0:0:60:Crash 2.wav
448,192,109177,128,0,109259:0:0:0:0:
64,192,109668,128,2,109750:0:0:0:0:
320,192,109668,128,0,109750:0:0:0:60:Crash 2.wav
448,192,109668,128,0,109750:0:0:0:0:
192,192,109996,1,2,0:0:0:0:
448,192,109996,1,0,0:0:0:0:
320,192,110078,1,2,0:0:0:0:
64,192,110160,1,8,0:0:0:0:
192,192,110160,1,0,0:0:0:60:Crash 2.wav
448,192,110160,1,0,0:0:0:0:
64,192,110324,1,2,0:0:0:0:
320,192,110324,1,0,0:0:0:0:
192,192,110406,1,2,0:0:0:0:
64,192,110488,1,8,0:0:0:0:
320,192,110488,1,0,0:0:0:60:Crash 2.wav
448,192,110488,1,0,0:0:0:0:
192,192,110652,1,2,0:0:0:0:
448,192,110652,1,0,0:0:0:0:
64,192,110816,128,2,110980:0:0:0:0:
192,192,110816,1,4,0:0:0:0:
320,192,110816,1,0,0:0:0:0:
320,192,110980,1,0,0:0:0:0:
64,192,111144,1,8,0:0:0:0:
192,192,111144,1,0,0:0:0:0:
448,192,111144,1,0,0:0:0:0:
320,192,111308,128,0,111636:0:0:0:0:
64,192,111472,1,2,0:0:0:0:
448,192,111472,1,0,0:0:0:0:
192,192,111636,128,0,111800:0:0:0:0:
64,192,111800,1,8,0:0:0:0:
320,192,111800,1,0,0:0:0:0:
448,192,111800,1,0,0:0:0:0:
192,192,111963,1,2,0:0:0:0:
448,192,111963,128,0,112291:0:0:0:0:
64,192,112291,1,2,0:0:0:0:
320,192,112291,1,0,0:0:0:0:
64,192,112455,128,2,112783:0:0:0:0:
448,192,112455,1,0,0:0:0:0:
192,192,112783,128,8,112947:0:0:0:0:
320,192,112783,128,0,112947:0:0:0:60:Crash 2.wav
448,192,112783,128,0,112947:0:0:0:0:
64,192,113029,128,8,113193:0:0:0:0:
192,192,113029,128,0,113193:0:0:0:60:Crash 2.wav
320,192,113029,128,0,113193:0:0:0:0:
64,192,113275,1,2,0:0:0:0:
320,192,113275,1,4,0:0:0:0:
448,192,113275,128,0,115406:0:0:0:0:
64,192,113931,1,2,0:0:0:0:
192,192,113931,1,0,0:0:0:0:
64,192,114095,1,8,0:0:0:0:
192,192,114095,1,0,0:0:0:0:
320,192,114095,1,0,0:0:0:0:
64,192,114586,1,2,0:0:0:0:
320,192,114586,1,0,0:0:0:0:
192,192,114914,1,2,0:0:0:0:
320,192,114914,1,0,0:0:0:0:
64,192,115242,1,2,0:0:0:0:
192,192,115242,1,0,0:0:0:0:
64,192,115406,1,8,0:0:0:0:
192,192,115406,1,0,0:0:0:0:
320,192,115406,1,0,0:0:0:0:
320,192,115570,1,0,0:0:0:0:
64,192,115734,1,8,0:0:0:0:
192,192,115734,1,0,0:0:0:0:
448,192,115734,1,0,0:0:0:0:
64,192,115898,128,2,116226:0:0:0:0:
320,192,115898,1,0,0:0:0:0:
320,192,116226,1,2,0:0:0:0:
448,192,116226,1,0,0:0:0:0:
64,192,116390,1,8,0:0:0:0:
192,192,116390,1,0,0:0:0:0:
448,192,116390,1,0,0:0:0:0:
320,192,116554,1,0,0:0:0:0:
64,192,116718,1,2,0:0:0:0:
192,192,116718,1,0,0:0:0:0:
320,192,116882,1,2,0:0:0:0:
192,192,116963,1,2,0:0:0:0:
64,192,117045,1,8,0:0:0:0:
448,192,117045,1,0,0:0:0:0:
320,192,117127,1,2,0:0:0:0:
64,192,117209,1,2,0:0:0:0:
192,192,117209,1,4,0:0:0:0:
448,192,117209,128,0,117537:0:0:0:0:
64,192,117537,1,2,0:0:0:0:
192,192,117537,1,0,0:0:0:0:
320,192,117619,1,2,0:0:0:0:
64,192,117701,1,8,0:0:0:0:
192,192,117701,1,0,0:0:0:0:
448,192,117701,1,0,0:0:0:0:
448,192,117865,1,2,0:0:0:0:
64,192,118029,128,2,118193:0:0:0:0:
192,192,118029,128,0,118193:0:0:0:0:
320,192,118029,128,0,118193:0:0:0:0:
192,192,118275,128,2,118439:0:0:0:0:
320,192,118275,128,0,118439:0:0:0:0:
448,192,118275,128,0,118439:0:0:0:0:
64,192,118521,1,2,0:0:0:0:
192,192,118521,1,0,0:0:0:0:
448,192,118521,1,0,0:0:0:0:
64,192,118685,128,2,118849:0:0:0:0:
320,192,118685,1,4,0:0:0:0:
448,192,118685,1,0,0:0:0:0:
320,192,118849,1,0,0:0:0:0:
64,192,119013,1,8,0:0:0:0:
192,192,119013,128,0,119177:0:0:0:0:
448,192,119013,1,0,0:0:0:0:
320,192,119177,1,0,0:0:0:0:
64,192,119341,1,2,0:0:0:0:
448,192,119341,128,0,119504:0:0:0:0:
192,192,119504,1,0,0:0:0:0:
320,192,119586,1,8,0:0:0:0:
448,192,119586,1,0,0:0:0:0:
64,192,119668,1,2,0:0:0:0:
192,192,119668,1,0,0:0:0:0:
64,192,119832,128,8,119996:0:0:0:0:
320,192,119832,1,0,0:0:0:0:
448,192,119832,1,0,0:0:0:0:
192,192,119996,1,2,0:0:0:0:
320,192,119996,1,0,0:0:0:0:
64,192,120160,1,8,0:0:0:0:
192,192,120160,1,0,0:0:0:0:
448,192,120160,1,0,0:0:0:0:
64,192,120324,1,8,0:0:0:0:
320,192,120324,1,0,0:0:0:0:
448,192,120324,1,0,0:0:0:0:
192,192,120488,1,0,0:0:0:0:
64,192,120652,128,8,120734:0:0:0:0:
320,192,120652,128,0,120734:0:0:0:60:Crash 2.wav
448,192,120652,128,0,120734:0:0:0:0:
64,192,120898,128,8,120980:0:0:0:0:
192,192,120898,128,0,120980:0:0:0:60:Crash 2.wav
448,192,120898,128,0,120980:0:0:0:0:
64,192,121144,128,8,121226:0:0:0:0:
320,192,121144,128,0,121226:0:0:0:60:Crash 2.wav
448,192,121144,128,0,121226:0:0:0:0:
64,192,121308,1,2,0:0:0:0:
192,192,121308,1,4,0:0:0:0:
448,192,121308,128,0,122619:0:0:0:0:
64,192,122619,1,8,0:0:0:0:
192,192,122619,1,4,0:0:0:0:
320,192,122619,128,0,122947:0:0:0:0:
64,192,122947,128,8,123275:0:0:0:0:
192,192,122947,1,4,0:0:0:0:
448,192,122947,1,0,0:0:0:0:
320,192,123275,1,8,0:0:0:0:
448,192,123275,1,0,0:0:0:0:
64,192,123357,1,8,0:0:0:0:
192,192,123357,1,0,0:0:0:0:
320,192,123439,1,8,0:0:0:0:
448,192,123439,1,0,0:0:0:0:
64,192,123521,1,8,0:0:0:0:
192,192,123521,1,0,0:0:0:0:
320,192,123603,1,8,0:0:0:0:
448,192,123603,1,0,0:0:0:0:
192,192,123657,1,8,0:0:0:0:
64,192,123712,1,8,0:0:0:0:
448,192,123767,1,8,0:0:0:0:
320,192,123821,1,8,0:0:0:0:
192,192,123876,1,8,0:0:0:0:
64,192,123931,128,0,124259:0:0:0:0:
448,192,123931,1,0,0:0:0:0:
192,192,124095,128,0,124259:0:0:0:0:
448,192,124259,128,0,124586:0:0:0:0:
320,192,124423,128,0,124586:0:0:0:0:
64,192,124586,128,0,124832:0:0:0:0:
192,192,124586,128,0,124832:0:0:0:0:
320,192,124750,128,2,124832:0:0:0:0:
448,192,124750,128,0,124832:0:0:0:0:
64,192,124914,1,8,0:0:0:0:
192,192,124914,1,0,0:0:0:0:
448,192,124914,1,0,0:0:0:0:
64,192,125078,128,2,125406:0:0:0:0:
320,192,125078,1,4,0:0:0:0:
448,192,125078,128,0,125406:0:0:0:0:
192,192,125406,1,2,0:0:0:0:
320,192,125406,1,0,0:0:0:0:
192,192,125570,128,2,125898:0:0:0:0:
320,192,125570,128,0,125898:0:0:0:60:Crash 2.wav
448,192,125570,1,0,0:0:0:0:
448,192,125898,128,0,126390:0:0:0:0:
64,192,126226,128,0,126472:0:0:0:0:
192,192,126308,128,0,126472:0:0:0:0:
320,192,126390,128,0,126472:0:0:0:0:
448,192,126472,1,0,0:0:0:0:
64,192,126554,1,2,0:0:0:0:
192,192,126554,128,4,126882:0:0:0:0:
320,192,126554,1,0,0:0:0:0:
448,192,126718,1,0,0:0:0:0:
64,192,126882,1,8,0:0:0:0:
320,192,126882,1,0,0:0:0:0:
448,192,126882,128,0,127209:0:0:0:0:
192,192,127045,1,0,0:0:0:0:
64,192,127209,128,2,127373:0:0:0:0:
320,192,127209,1,0,0:0:0:0:
192,192,127373,1,0,0:0:0:0:
320,192,127455,1,0,0:0:0:0:
64,192,127537,1,8,0:0:0:0:
192,192,127537,1,0,0:0:0:0:
448,192,127537,1,0,0:0:0:0:
320,192,127701,128,0,127865:0:0:0:0:
192,192,127865,1,2,0:0:0:0:
448,192,127865,1,0,0:0:0:0:
64,192,128029,128,0,128193:0:0:0:0:
192,192,128193,1,8,0:0:0:0:
320,192,128193,1,0,0:0:0:0:
448,192,128193,128,0,128357:0:0:0:0:
64,192,128357,128,0,128521:0:0:0:0:
192,192,128521,128,2,128685:0:0:0:0:
320,192,128521,1,0,0:0:0:0:
448,192,128685,1,0,0:0:0:0:
320,192,128767,1,0,0:0:0:0:
64,192,128849,1,8,0:0:0:0:
192,192,128849,1,0,0:0:0:0:
448,192,128849,1,0,0:0:0:0:
320,192,129013,128,0,129177:0:0:0:0:
192,192,129177,1,2,0:0:0:0:
448,192,129177,128,0,129504:0:0:0:0:
64,192,129341,1,0,0:0:0:0:
64,192,129504,128,8,129832:0:0:0:0:
192,192,129504,1,0,0:0:0:0:
320,192,129504,1,0,0:0:0:0:
448,192,129668,1,0,0:0:0:0:
192,192,129832,1,2,0:0:0:0:
320,192,129832,128,0,129996:0:0:0:0:
64,192,129996,1,0,0:0:0:0:
192,192,130078,1,0,0:0:0:0:
64,192,130160,1,8,0:0:0:0:
320,192,130160,1,0,0:0:0:0:
448,192,130160,1,0,0:0:0:0:
192,192,130324,128,0,130488:0:0:0:0:
64,192,130488,1,2,0:0:0:0:
320,192,130488,1,0,0:0:0:0:
448,192,130652,128,0,130816:0:0:0:0:
64,192,130816,128,8,130980:0:0:0:0:
192,192,130816,1,0,0:0:0:0:
320,192,130816,1,0,0:0:0:0:
448,192,130980,128,0,131144:0:0:0:0:
64,192,131144,1,2,0:0:0:0:
192,192,131144,1,0,0:0:0:0:
320,192,131226,1,8,0:0:0:0:
448,192,131226,1,0,0:0:0:0:
192,192,131308,1,2,0:0:0:0:
64,192,131472,1,8,0:0:0:0:
320,192,131472,1,2,0:0:0:0:
448,192,131472,1,0,0:0:0:0:
64,192,131636,1,8,0:0:0:0:
192,192,131636,1,0,0:0:0:0:
320,192,131718,1,8,0:0:0:0:
64,192,131800,128,2,132127:0:0:0:0:
192,192,131800,1,4,0:0:0:0:
448,192,131800,1,0,0:0:0:0:
320,192,131963,1,0,0:0:0:0:
192,192,132127,128,8,132455:0:0:0:0:
320,192,132127,1,0,0:0:0:0:
448,192,132127,1,0,0:0:0:0:
448,192,132291,1,0,0:0:0:0:
64,192,132455,1,2,0:0:0:0:
320,192,132455,128,0,132619:0:0:0:0:
192,192,132619,1,0,0:0:0:0:
64,192,132701,1,0,0:0:0:0:
192,192,132783,1,8,0:0:0:0:
320,192,132783,1,0,0:0:0:0:
448,192,132783,1,0,0:0:0:0:
64,192,132947,128,0,133111:0:0:0:0:
192,192,133111,1,2,0:0:0:0:
320,192,133111,1,0,0:0:0:0:
448,192,133275,128,0,133439:0:0:0:0:
64,192,133439,1,8,0:0:0:0:
192,192,133439,128,0,133603:0:0:0:0:
320,192,133439,1,0,0:0:0:0:
448,192,133603,128,0,133767:0:0:0:0:
64,192,133767,128,2,133931:0:0:0:0:
192,192,133767,1,0,0:0:0:0:
320,192,133931,1,0,0:0:0:0:
192,192,134013,1,0,0:0:0:0:
64,192,134095,1,8,0:0:0:0:
320,192,134095,1,0,0:0:0:0:
448,192,134095,1,0,0:0:0:0:
192,192,134259,1,2,0:0:0:0:
320,192,134341,1,2,0:0:0:0:
64,192,134423,1,2,0:0:0:0:
192,192,134423,1,4,0:0:0:0:
448,192,134423,128,0,134750:0:0:0:0:
64,192,134750,1,8,0:0:0:0:
192,192,134750,1,0,0:0:0:0:
320,192,134750,1,0,0:0:0:0:
64,192,134914,1,2,0:0:0:0:
192,192,134914,1,0,0:0:0:60:Crash 2.wav
448,192,134914,1,0,0:0:0:0:
64,192,135242,1,2,0:0:0:0:
320,192,135242,1,0,0:0:0:60:Crash 2.wav
448,192,135242,1,0,0:0:0:0:
64,192,135406,1,8,0:0:0:0:
192,192,135406,1,0,0:0:0:0:
448,192,135406,1,0,0:0:0:0:
192,192,135570,1,2,0:0:0:0:
320,192,135570,1,0,0:0:0:60:Crash 2.wav
448,192,135570,1,0,0:0:0:0:
64,192,135898,1,2,0:0:0:0:
192,192,135898,1,0,0:0:0:0:
320,192,135980,1,2,0:0:0:0:
64,192,136062,1,8,0:0:0:0:
192,192,136062,1,0,0:0:0:0:
448,192,136062,1,0,0:0:0:0:
320,192,136226,1,2,0:0:0:0:
448,192,136226,1,0,0:0:0:0:
64,192,136390,1,8,0:0:0:0:
192,192,136390,1,0,0:0:0:0:
320,192,136390,1,0,0:0:0:0:
192,192,136554,1,2,0:0:0:0:
448,192,136554,1,0,0:0:0:0:
64,192,136718,1,8,0:0:0:0:
320,192,136718,1,0,0:0:0:0:
448,192,136718,128,0,136882:0:0:0:0:
64,192,136882,1,8,0:0:0:0:
192,192,136882,1,0,0:0:0:0:
320,192,136882,128,0,137045:0:0:0:0:
64,192,137045,128,2,137373:0:0:0:0:
192,192,137045,1,4,0:0:0:0:
448,192,137045,1,0,0:0:0:0:
320,192,137209,1,0,0:0:0:0:
192,192,137373,1,8,0:0:0:0:
320,192,137373,1,0,0:0:0:0:
448,192,137373,128,0,137701:0:0:0:0:
64,192,137537,1,0,0:0:0:0:
192,192,137701,128,2,137865:0:0:0:0:
320,192,137701,1,0,0:0:0:0:
448,192,137865,1,0,0:0:0:0:
320,192,137947,1,0,0:0:0:0:
64,192,138029,1,8,0:0:0:0:
192,192,138029,1,0,0:0:0:0:
448,192,138029,1,0,0:0:0:0:
320,192,138193,128,0,138357:0:0:0:0:
64,192,138357,1,2,0:0:0:0:
448,192,138357,1,0,0:0:0:0:
192,192,138521,128,0,138685:0:0:0:0:
64,192,138685,1,8,0:0:0:0:
320,192,138685,1,0,0:0:0:0:
448,192,138685,128,0,138849:0:0:0:0:
192,192,138849,128,0,139013:0:0:0:0:
320,192,139013,128,2,139177:0:0:0:0:
448,192,139013,1,0,0:0:0:0:
64,192,139177,1,0,0:0:0:0:
192,192,139259,1,0,0:0:0:0:
64,192,139341,1,8,0:0:0:0:
320,192,139341,1,0,0:0:0:0:
448,192,139341,1,0,0:0:0:0:
192,192,139504,128,0,139668:0:0:0:0:
64,192,139668,128,2,139832:0:0:0:0:
320,192,139668,1,0,0:0:0:0:
448,192,139832,1,0,0:0:0:0:
64,192,139996,1,8,0:0:0:0:
192,192,139996,1,0,0:0:0:0:
320,192,139996,128,0,140324:0:0:0:0:
448,192,140160,1,0,0:0:0:0:
64,192,140324,128,2,140652:0:0:0:0:
192,192,140324,1,0,0:0:0:0:
320,192,140488,1,0,0:0:0:0:
192,192,140652,1,8,0:0:0:0:
320,192,140652,1,0,0:0:0:0:
448,192,140652,1,0,0:0:0:0:
64,192,140816,1,2,0:0:0:0:
192,192,140816,1,4,0:0:0:0:
448,192,140816,128,0,141144:0:0:0:0:
192,192,141144,1,2,0:0:0:0:
320,192,141144,1,0,0:0:0:0:
64,192,141308,128,8,141636:0:0:0:0:
320,192,141308,1,0,0:0:0:0:
448,192,141308,1,0,0:0:0:0:
192,192,141636,1,2,0:0:0:0:
448,192,141636,1,0,0:0:0:0:
64,192,141718,1,8,0:0:0:0:
320,192,141718,1,0,0:0:0:0:
192,192,141800,1,2,0:0:0:0:
320,192,141963,1,8,0:0:0:0:
448,192,141963,1,0,0:0:0:0:
192,192,142045,1,8,0:0:0:0:
64,192,142127,1,8,0:0:0:0:
448,192,142127,1,0,0:0:0:0:
320,192,142209,1,8,0:0:0:0:
64,192,142291,1,2,0:0:0:0:
192,192,142291,1,4,0:0:0:0:
448,192,142291,1,0,0:0:0:0:
192,192,142455,1,2,0:0:0:0:
320,192,142455,1,0,0:0:0:0:
64,192,142619,1,8,0:0:0:0:
320,192,142619,1,0,0:0:0:0:
448,192,142619,1,0,0:0:0:0:
64,192,142783,128,2,143029:0:0:0:0:
192,192,142783,128,4,143029:0:0:0:0:
448,192,142783,128,0,143029:0:0:0:0:
192,192,143111,1,2,0:0:0:0:
320,192,143111,1,0,0:0:0:0:
64,192,143275,1,8,0:0:0:0:
192,192,143275,1,0,0:0:0:0:
448,192,143275,1,0,0:0:0:0:
64,192,143439,128,2,143685:0:0:0:0:
320,192,143439,128,4,143685:0:0:0:0:
448,192,143439,128,0,143685:0:0:0:0:
192,192,143767,1,2,0:0:0:0:
320,192,143767,1,0,0:0:0:0:
64,192,143931,1,8,0:0:0:0:
320,192,143931,128,0,144259:0:0:0:0:
448,192,143931,1,0,0:0:0:0:
192,192,144095,1,0,0:0:0:0:
64,192,144259,128,2,144586:0:0:0:0:
448,192,144259,1,0,0:0:0:0:
320,192,144423,1,0,0:0:0:60:Splash.wav
192,192,144586,1,8,0:0:0:0:
320,192,144586,1,0,0:0:0:0:
448,192,144586,128,0,144914:0:0:0:0:
64,192,144750,1,2,0:0:0:0:
192,192,144832,1,2,0:0:0:0:
64,192,144914,1,2,0:0:0:0:
320,192,144914,128,4,145242:0:0:0:0:
64,192,145242,1,8,0:0:0:0:
192,192,145242,1,0,0:0:0:0:
448,192,145242,1,0,0:0:0:0:
64,192,145406,128,2,145734:0:0:0:0:
320,192,145406,1,0,0:0:0:0:
192,192,145734,1,2,0:0:0:0:
320,192,145734,1,0,0:0:0:0:
64,192,145898,1,8,0:0:0:0:
192,192,145898,1,0,0:0:0:0:
448,192,145898,1,0,0:0:0:0:
320,192,146062,1,2,0:0:0:0:
448,192,146062,128,0,146390:0:0:0:0:
64,192,146390,1,2,0:0:0:0:
192,192,146390,1,0,0:0:0:0:
64,192,146554,1,8,0:0:0:0:
320,192,146554,1,0,0:0:0:0:
448,192,146554,1,0,0:0:0:0:
192,192,146718,1,2,0:0:0:0:
448,192,146718,1,0,0:0:0:0:
320,192,146882,1,0,0:0:0:0:
64,192,146963,1,8,0:0:0:0:
192,192,146963,1,0,0:0:0:0:
320,192,147045,1,2,0:0:0:0:
448,192,147045,1,0,0:0:0:0:
64,192,147209,1,8,0:0:0:0:
192,192,147209,1,0,0:0:0:0:
448,192,147209,1,0,0:0:0:0:
192,192,147373,1,8,0:0:0:0:
320,192,147373,1,0,0:0:0:0:
64,192,147455,1,8,0:0:0:0:
320,192,147537,1,2,0:0:0:0:
448,192,147537,1,4,0:0:0:0:
192,192,147619,1,0,0:0:0:0:
64,192,147701,1,2,0:0:0:0:
448,192,147701,1,0,0:0:0:0:
320,192,147783,1,0,0:0:0:0:
64,192,147865,1,2,0:0:0:0:
192,192,147865,1,0,0:0:0:0:
320,192,147947,1,0,0:0:0:0:
64,192,148029,1,2,0:0:0:0:
448,192,148029,1,0,0:0:0:0:
192,192,148111,1,0,0:0:0:0:
320,192,148193,1,2,0:0:0:0:
448,192,148193,1,0,0:0:0:0:
64,192,148275,1,2,0:0:0:0:
192,192,148275,1,0,0:0:0:0:
320,192,148357,1,2,0:0:0:0:
448,192,148357,1,0,0:0:0:0:
64,192,148439,1,2,0:0:0:0:
192,192,148439,1,0,0:0:0:0:
320,192,148521,1,2,0:0:0:0:
448,192,148521,1,0,0:0:0:0:
192,192,148603,1,2,0:0:0:0:
64,192,148685,1,2,0:0:0:0:
320,192,148685,1,0,0:0:0:60:Crash 2.wav
448,192,148685,1,0,0:0:0:0:
64,192,149504,128,0,150078:0:0:0:0:
192,192,149832,128,0,150078:0:0:0:0:
64,192,150160,1,2,0:0:0:0:
320,192,150160,1,4,0:0:0:0:
448,192,150160,128,0,150324:0:0:0:0:
64,192,150488,128,8,150816:0:0:0:0:
192,192,150488,1,0,0:0:0:0:
448,192,150488,1,0,0:0:0:0:
64,192,150980,1,2,0:0:0:0:
192,192,150980,128,0,151144:0:0:0:0:
192,192,151308,1,8,0:0:0:0:
320,192,151308,1,0,0:0:0:0:
448,192,151308,128,0,151472:0:0:0:0:
64,192,151636,1,2,0:0:0:0:
320,192,151636,128,0,151800:0:0:0:0:
64,192,151800,1,8,0:0:0:0:
192,192,151800,128,0,151963:0:0:0:0:
448,192,151800,1,0,0:0:0:0:
320,192,151963,128,0,152127:0:0:0:0:
192,192,152127,1,2,0:0:0:0:
448,192,152127,128,0,152455:0:0:0:0:
64,192,152455,1,8,0:0:0:0:
192,192,152455,128,0,152783:0:0:0:0:
320,192,152455,1,0,0:0:0:0:
320,192,152783,128,2,152947:0:0:0:0:
448,192,152783,1,0,0:0:0:0:
64,192,153111,128,8,153439:0:0:0:0:
192,192,153111,1,0,0:0:0:0:
320,192,153111,1,0,0:0:0:0:
64,192,153603,1,2,0:0:0:0:
448,192,153603,128,0,153767:0:0:0:0:
192,192,153767,128,0,153931:0:0:0:0:
64,192,153931,128,8,154095:0:0:0:0:
320,192,153931,1,0,0:0:0:0:
448,192,153931,1,0,0:0:0:0:
192,192,154259,1,2,0:0:0:0:
320,192,154259,128,0,154423:0:0:0:0:
64,192,154423,128,8,154586:0:0:0:0:
192,192,154423,1,0,0:0:0:0:
448,192,154423,1,0,0:0:0:0:
320,192,154586,128,0,154750:0:0:0:0:
64,192,154750,1,2,0:0:0:0:
192,192,154750,1,0,0:0:0:0:
320,192,154832,1,8,0:0:0:0:
448,192,154832,1,0,0:0:0:0:
192,192,154914,1,2,0:0:0:0:
320,192,155078,1,8,0:0:0:0:
448,192,155078,1,0,0:0:0:0:
64,192,155160,1,8,0:0:0:0:
192,192,155160,1,0,0:0:0:0:
320,192,155242,1,8,0:0:0:0:
448,192,155242,1,0,0:0:0:0:
192,192,155324,1,8,0:0:0:0:
64,192,155406,128,2,155570:0:0:0:0:
320,192,155406,1,4,0:0:0:0:
448,192,155406,1,0,0:0:0:0:
64,192,155734,1,8,0:0:0:0:
192,192,155734,1,0,0:0:0:0:
320,192,155734,128,0,156062:0:0:0:0:
64,192,156226,128,2,156390:0:0:0:0:
448,192,156226,1,0,0:0:0:0:
192,192,156554,1,8,0:0:0:0:
320,192,156554,1,0,0:0:0:0:
448,192,156554,128,0,156718:0:0:0:0:
64,192,156882,128,2,157045:0:0:0:0:
320,192,156882,1,0,0:0:0:0:
192,192,157045,1,8,0:0:0:0:
320,192,157045,128,0,157209:0:0:0:0:
448,192,157045,1,0,0:0:0:0:
64,192,157209,1,2,0:0:0:0:
192,192,157209,128,0,157373:0:0:0:0:
320,192,157373,1,2,0:0:0:0:
448,192,157373,1,0,0:0:0:0:
64,192,157455,1,8,0:0:0:0:
192,192,157455,1,0,0:0:0:0:
320,192,157537,1,2,0:0:0:0:
448,192,157619,1,2,0:0:0:0:
64,192,157701,1,8,0:0:0:0:
192,192,157701,1,0,0:0:0:0:
320,192,157783,1,8,0:0:0:0:
448,192,157783,1,0,0:0:0:0:
64,192,157865,1,8,0:0:0:0:
192,192,157865,1,0,0:0:0:0:
320,192,157947,1,8,0:0:0:0:
64,192,158029,1,2,0:0:0:0:
192,192,158029,1,4,0:0:0:0:
448,192,158029,128,0,159341:0:0:0:0:
192,192,159341,128,0,160652:0:0:0:0:
448,192,159996,128,0,160652:0:0:0:0:
64,192,160652,128,0,162619:0:0:0:55:Boom.wav
320,192,160652,128,0,161144:0:0:0:0:
448,192,161144,128,0,161308:0:0:0:0:
192,192,161308,128,0,161800:0:0:0:0:
448,192,161963,128,0,162455:0:0:0:0:
192,192,162455,1,0,0:0:0:0:
320,192,162537,1,0,0:0:0:0:
192,192,162619,128,0,163275:0:0:0:0:
448,192,162619,128,0,162783:0:0:0:0:
320,192,162783,128,0,162947:0:0:0:0:
448,192,162947,128,0,163111:0:0:0:0:
64,192,163111,128,0,163275:0:0:0:0:
320,192,163275,128,0,163767:0:0:0:0:
448,192,163275,128,0,165898:0:0:0:0:
192,192,163767,128,0,163931:0:0:0:0:
64,192,163931,128,0,165078:0:0:0:0:
320,192,164586,128,0,165078:0:0:0:0:
192,192,165078,128,0,165242:0:0:0:0:
320,192,165242,128,0,165898:0:0:0:0:
64,192,165898,128,0,166390:0:0:0:0:
192,192,165898,128,0,167865:0:0:0:0:
448,192,166390,128,0,166554:0:0:0:0:
320,192,166554,128,0,167045:0:0:0:0:
448,192,167209,128,0,167701:0:0:0:0:
320,192,167701,1,0,0:0:0:0:
64,192,167783,1,0,0:0:0:0:
320,192,167865,128,0,168521:0:0:0:0:
448,192,167865,128,0,168029:0:0:0:0:
192,192,168029,128,0,168193:0:0:0:0:
64,192,168193,128,0,168357:0:0:0:0:
192,192,168357,128,0,168521:0:0:0:0:
64,192,168521,128,0,169013:0:0:0:0:
448,192,168521,128,0,169832:0:0:0:0:
192,192,169013,128,0,169177:0:0:0:0:
320,192,169177,128,0,170324:0:0:0:0:
64,192,169832,128,0,170980:0:0:0:0:
192,192,169832,128,0,170324:0:0:0:0:
448,192,170324,128,0,171144:0:0:0:0:
320,192,170488,128,0,171144:0:0:0:0:
64,192,171144,1,2,0:0:0:0:
192,192,171144,1,4,0:0:0:0:
192,192,171308,1,0,0:0:0:0:
320,192,171472,1,2,0:0:0:0:
448,192,171472,1,0,0:0:0:0:
320,192,171636,1,0,0:0:0:0:
64,192,171800,1,2,0:0:0:0:
448,192,171800,1,0,0:0:0:0:
64,192,171963,1,0,0:0:0:0:
192,192,172127,1,2,0:0:0:0:
448,192,172127,1,0,0:0:0:0:
448,192,172291,1,0,0:0:0:0:
192,192,172455,1,2,0:0:0:0:
320,192,172455,1,0,0:0:0:0:
192,192,172619,1,0,0:0:0:0:
64,192,172783,1,2,0:0:0:0:
320,192,172783,1,0,0:0:0:0:
320,192,172947,1,0,0:0:0:0:
192,192,173029,1,0,0:0:0:0:
64,192,173111,1,2,0:0:0:0:
320,192,173111,1,4,0:0:0:0:
448,192,173111,1,0,0:0:0:0:
64,192,173275,1,0,0:0:0:0:
192,192,173439,1,2,0:0:0:0:
320,192,173439,1,0,0:0:0:0:
320,192,173603,1,0,0:0:0:0:
64,192,173767,1,2,0:0:0:0:
192,192,173767,1,4,0:0:0:0:
448,192,173767,1,0,0:0:0:0:
192,192,173931,1,0,0:0:0:0:
64,192,174095,1,2,0:0:0:0:
448,192,174095,1,0,0:0:0:0:
448,192,174259,1,0,0:0:0:0:
64,192,174423,1,2,0:0:0:0:
320,192,174423,1,0,0:0:0:0:
320,192,174586,1,0,0:0:0:0:
192,192,174750,1,2,0:0:0:0:
448,192,174750,1,0,0:0:0:0:
192,192,174914,1,0,0:0:0:0:
64,192,175078,1,2,0:0:0:0:
320,192,175078,1,0,0:0:0:0:
64,192,175242,1,0,0:0:0:0:
192,192,175406,1,2,0:0:0:0:
448,192,175406,1,0,0:0:0:0:
192,192,175570,1,0,0:0:0:0:
320,192,175652,1,0,0:0:0:0:
64,192,175734,1,2,0:0:0:0:
192,192,175734,1,4,0:0:0:0:
448,192,175734,1,0,0:0:0:0:
448,192,175898,1,0,0:0:0:0:
64,192,176062,1,2,0:0:0:0:
192,192,176062,1,0,0:0:0:0:
64,192,176226,1,0,0:0:0:0:
192,192,176390,1,2,0:0:0:0:
320,192,176390,1,4,0:0:0:0:
448,192,176390,1,0,0:0:0:0:
448,192,176554,1,0,0:0:0:0:
64,192,176718,1,2,0:0:0:0:
320,192,176718,1,0,0:0:0:0:
320,192,176882,1,0,0:0:0:0:
192,192,177045,1,2,0:0:0:0:
448,192,177045,1,0,0:0:0:0:
192,192,177209,1,0,0:0:0:0:
64,192,177373,1,2,0:0:0:0:
448,192,177373,1,0,0:0:0:0:
64,192,177537,1,0,0:0:0:0:
192,192,177701,1,2,0:0:0:0:
320,192,177701,1,4,0:0:0:0:
448,192,177701,1,0,0:0:0:0:
320,192,177865,1,0,0:0:0:0:
64,192,178029,1,2,0:0:0:0:
448,192,178029,1,0,0:0:0:0:
64,192,178193,1,0,0:0:0:0:
192,192,178275,1,0,0:0:0:0:
320,192,178357,1,2,0:0:0:0:
448,192,178357,1,0,0:0:0:0:
448,192,178521,1,0,0:0:0:0:
64,192,178685,1,2,0:0:0:0:
192,192,178685,1,0,0:0:0:0:
64,192,178849,1,0,0:0:0:0:
192,192,179013,1,2,0:0:0:0:
320,192,179013,1,4,0:0:0:0:
448,192,179013,1,0,0:0:0:0:
448,192,179177,1,0,0:0:0:0:
192,192,179341,1,2,0:0:0:0:
320,192,179341,1,0,0:0:0:0:
192,192,179504,1,0,0:0:0:0:
64,192,179668,1,2,0:0:0:0:
320,192,179668,1,0,0:0:0:0:
320,192,179832,1,0,0:0:0:0:
64,192,179996,1,2,0:0:0:0:
448,192,179996,1,0,0:0:0:0:
64,192,180160,1,0,0:0:0:0:
192,192,180324,1,2,0:0:0:0:
320,192,180324,1,0,0:0:0:0:
192,192,180488,1,0,0:0:0:0:
64,192,180652,1,2,0:0:0:0:
320,192,180652,1,0,0:0:0:0:
320,192,180816,1,0,0:0:0:0:
64,192,180980,1,2,0:0:0:0:
448,192,180980,1,0,0:0:0:0:
320,192,181062,1,2,0:0:0:0:
192,192,181144,1,2,0:0:0:0:
64,192,181226,1,2,0:0:0:0:
320,192,181308,1,2,0:0:0:0:
448,192,181308,1,0,0:0:0:0:
192,192,181390,1,2,0:0:0:0:
64,192,181472,1,2,0:0:0:0:
320,192,181554,1,2,0:0:0:0:
64,192,181636,1,2,0:0:0:0:
192,192,181636,128,4,181882:0:0:0:0:
448,192,181636,1,0,0:0:0:0:
320,192,181882,1,2,0:0:0:0:
448,192,181882,1,0,0:0:0:0:
64,192,181963,128,8,182127:0:0:0:0:
192,192,181963,1,0,0:0:0:0:
320,192,182127,1,2,0:0:0:0:
448,192,182127,128,0,182455:0:0:0:0:
192,192,182455,1,2,0:0:0:0:
320,192,182455,1,0,0:0:0:0:
64,192,182619,1,8,0:0:0:0:
320,192,182619,1,0,0:0:0:0:
448,192,182619,1,0,0:0:0:0:
64,192,182783,128,2,183767:0:0:0:0:
192,192,182783,1,4,0:0:0:0:
448,192,182783,1,0,0:0:0:0:
320,192,183111,1,2,0:0:0:0:
448,192,183111,1,0,0:0:0:0:
192,192,183275,1,8,0:0:0:0:
320,192,183275,1,0,0:0:0:0:
448,192,183439,1,2,0:0:0:0:
192,192,183603,1,2,0:0:0:0:
320,192,183603,1,0,0:0:0:0:
448,192,183767,1,2,0:0:0:0:
320,192,183849,1,2,0:0:0:0:
64,192,183931,1,8,0:0:0:0:
192,192,183931,1,0,0:0:0:0:
320,192,184013,1,2,0:0:0:0:
448,192,184095,1,2,0:0:0:0:
192,192,184177,1,2,0:0:0:0:
64,192,184259,128,2,184586:0:0:0:0:
320,192,184259,1,4,0:0:0:0:
448,192,184259,1,0,0:0:0:0:
320,192,184586,1,2,0:0:0:0:
448,192,184586,1,0,0:0:0:0:
192,192,184668,1,0,0:0:0:0:
64,192,184750,1,0,0:0:0:0:
320,192,184832,1,0,0:0:0:0:
192,192,184914,1,2,0:0:0:0:
448,192,184914,1,0,0:0:0:0:
64,192,184996,1,0,0:0:0:0:
320,192,185078,1,0,0:0:0:0:
448,192,185160,1,0,0:0:0:0:
64,192,185242,1,2,0:0:0:0:
192,192,185242,1,0,0:0:0:0:
320,192,185324,1,0,0:0:0:0:
192,192,185406,1,2,0:0:0:0:
448,192,185406,1,0,0:0:0:0:
64,192,185488,1,0,0:0:0:0:
320,192,185570,1,2,0:0:0:0:
448,192,185570,1,0,0:0:0:0:
192,192,185652,1,0,0:0:0:0:
64,192,185734,1,2,0:0:0:0:
320,192,185734,1,0,0:0:0:0:
448,192,185816,1,0,0:0:0:0:
64,192,185898,1,2,0:0:0:0:
192,192,185898,1,0,0:0:0:0:
320,192,185980,1,0,0:0:0:0:
192,192,186062,1,2,0:0:0:0:
448,192,186062,1,0,0:0:0:0:
64,192,186144,1,0,0:0:0:0:
320,192,186226,1,2,0:0:0:0:
448,192,186226,1,0,0:0:0:0:
64,192,186308,1,2,0:0:0:0:
192,192,186308,1,0,0:0:0:0:
320,192,186390,1,2,0:0:0:0:
448,192,186390,128,0,186882:0:0:0:0:
64,192,186472,1,0,0:0:0:0:
192,192,186554,1,0,0:0:0:0:
320,192,186636,1,0,0:0:0:0:
64,192,186718,1,0,0:0:0:0:
192,192,186800,1,0,0:0:0:0:
64,192,186882,128,0,188193:0:0:0:30:Boom.wav
320,192,186882,1,0,0:0:0:0:
192,192,187045,1,0,0:0:0:0:
448,192,187209,1,0,0:0:0:0:
320,192,187373,128,0,187701:0:0:0:0:
448,192,187701,1,0,0:0:0:0:
192,192,187865,1,0,0:0:0:0:
320,192,188029,1,0,0:0:0:0:
192,192,188193,1,0,0:0:0:0:
448,192,188193,128,0,189504:0:0:0:0:
64,192,188357,1,0,0:0:0:0:
320,192,188521,1,0,0:0:0:0:
192,192,188685,128,0,189013:0:0:0:0:
64,192,189013,1,0,0:0:0:0:
320,192,189177,1,0,0:0:0:0:
192,192,189341,1,0,0:0:0:0:
64,192,189504,1,0,0:0:0:0:
320,192,189504,128,0,190816:0:0:0:0:
448,192,189668,1,0,0:0:0:0:
192,192,189832,1,0,0:0:0:0:
64,192,189996,128,0,190324:0:0:0:0:
448,192,190324,1,0,0:0:0:0:
192,192,190488,1,0,0:0:0:0:
64,192,190652,1,0,0:0:0:0:
192,192,190816,128,0,191472:0:0:0:0:
448,192,190816,1,0,0:0:0:0:
320,192,190980,1,0,0:0:0:0:
64,192,191144,1,0,0:0:0:0:
320,192,191308,1,0,0:0:0:0:
64,192,191472,128,0,192127:0:0:0:0:
448,192,191472,1,0,0:0:0:0:
192,192,191636,1,0,0:0:0:0:
320,192,191800,1,0,0:0:0:0:
192,192,191963,1,0,0:0:0:0:
320,192,192127,1,0,0:0:0:0:
448,192,192127,128,0,193439:0:0:0:0:
64,192,192291,1,0,0:0:0:0:
192,192,192455,1,0,0:0:0:0:
320,192,192619,1,0,0:0:0:0:
64,192,192783,128,0,193111:0:0:0:0:
320,192,193111,1,0,0:0:0:0:
192,192,193275,1,0,0:0:0:0:
64,192,193439,1,0,0:0:0:0:
320,192,193439,128,0,194750:0:0:0:0:
448,192,193603,1,0,0:0:0:0:
192,192,193767,1,0,0:0:0:0:
64,192,193931,1,0,0:0:0:0:
448,192,194095,1,0,0:0:0:0:
64,192,194259,1,0,0:0:0:0:
192,192,194423,1,0,0:0:0:0:
448,192,194586,1,0,0:0:0:0:
64,192,194750,1,0,0:0:0:0:
192,192,194750,128,0,195242:0:0:0:0:
320,192,194914,1,0,0:0:0:0:
448,192,195078,1,0,0:0:0:0:
64,192,195242,1,0,0:0:0:0:
320,192,195242,128,0,195570:0:0:0:0:
192,192,195570,1,0,0:0:0:0:
448,192,195570,128,0,195898:0:0:0:0:
64,192,195898,128,0,196226:0:0:0:0:
320,192,195898,1,0,0:0:0:0:
192,192,196226,128,0,196554:0:0:0:0:
448,192,196226,1,0,0:0:0:0:
64,192,196554,1,0,0:0:0:0:
320,192,196554,128,0,197045:0:0:0:0:
448,192,196882,128,0,197045:0:0:0:0:
64,192,197045,1,0,0:0:0:0:
192,192,197045,128,0,197373:0:0:0:0:
64,192,197373,1,2,0:0:0:0:
320,192,197373,1,4,0:0:0:0:
448,192,197373,1,0,0:0:0:0:
320,192,197537,1,0,0:0:0:0:
64,192,197701,1,2,0:0:0:0:
192,192,197701,1,0,0:0:0:0:
192,192,197865,1,0,0:0:0:0:
320,192,198029,1,2,0:0:0:0:
448,192,198029,1,0,0:0:0:0:
448,192,198193,1,0,0:0:0:0:
64,192,198357,1,2,0:0:0:0:
320,192,198357,1,0,0:0:0:0:
64,192,198521,1,0,0:0:0:0:
192,192,198685,1,2,0:0:0:0:
448,192,198685,1,0,0:0:0:0:
192,192,198849,1,0,0:0:0:0:
64,192,199013,1,2,0:0:0:0:
320,192,199013,1,0,0:0:0:0:
320,192,199177,1,0,0:0:0:0:
192,192,199341,1,2,0:0:0:0:
448,192,199341,1,0,0:0:0:0:
448,192,199504,1,0,0:0:0:0:
192,192,199668,1,2,0:0:0:0:
320,192,199668,1,0,0:0:0:0:
192,192,199832,1,0,0:0:0:0:
64,192,199996,1,2,0:0:0:0:
448,192,199996,1,0,0:0:0:0:
64,192,200160,1,0,0:0:0:0:
320,192,200324,1,2,0:0:0:0:
448,192,200324,1,0,0:0:0:0:
448,192,200488,1,0,0:0:0:0:
64,192,200652,1,2,0:0:0:0:
192,192,200652,128,0,200980:0:0:0:0:
320,192,200980,1,2,0:0:0:0:
448,192,200980,1,0,0:0:0:0:
64,192,201144,1,2,0:0:0:0:
192,192,201144,1,0,0:0:0:60:Crash 2.wav
448,192,201144,1,0,0:0:0:0:
64,192,201472,1,2,0:0:0:0:
320,192,201472,1,0,0:0:0:60:Crash 2.wav
448,192,201472,1,0,0:0:0:0:
64,192,201800,1,2,0:0:0:0:
192,192,201800,1,4,0:0:0:0:
64,192,201963,1,8,0:0:0:0:
320,192,201963,1,0,0:0:0:0:
448,192,201963,1,0,0:0:0:0:
192,192,202127,1,2,0:0:0:0:
320,192,202127,1,0,0:0:0:0:
64,192,202291,1,8,0:0:0:0:
192,192,202291,1,0,0:0:0:0:
448,192,202291,1,0,0:0:0:0:
320,192,202455,1,2,0:0:0:0:
448,192,202455,1,0,0:0:0:0:
64,192,202619,128,2,204586:0:0:0:0:
192,192,202619,1,4,0:0:0:0:
320,192,202619,1,0,0:0:0:0:
192,192,202783,1,0,0:0:0:0:
320,192,202947,1,2,0:0:0:0:
448,192,202947,1,0,0:0:0:0:
448,192,203111,1,0,0:0:0:0:
192,192,203275,1,2,0:0:0:0:
320,192,203275,1,0,0:0:0:0:
320,192,203439,1,0,0:0:0:0:
192,192,203603,1,2,0:0:0:0:
448,192,203603,1,0,0:0:0:0:
192,192,203767,1,0,0:0:0:0:
320,192,203931,1,2,0:0:0:0:
448,192,203931,1,0,0:0:0:0:
320,192,204095,1,0,0:0:0:0:
192,192,204259,1,2,0:0:0:0:
448,192,204259,1,0,0:0:0:0:
448,192,204423,1,0,0:0:0:0:
192,192,204586,1,2,0:0:0:0:
320,192,204586,1,0,0:0:0:0:
192,192,204750,1,0,0:0:0:0:
64,192,204914,1,2,0:0:0:0:
448,192,204914,1,0,0:0:0:0:
64,192,205078,1,0,0:0:0:0:
320,192,205242,1,2,0:0:0:0:
448,192,205242,1,0,0:0:0:0:
192,192,205406,1,2,0:0:0:0:
448,192,205406,1,0,0:0:0:0:
320,192,205488,1,2,0:0:0:0:
64,192,205570,1,2,0:0:0:0:
192,192,205570,1,0,0:0:0:0:
64,192,205734,1,8,0:0:0:0:
320,192,205734,1,0,0:0:0:60:Crash 2.wav
448,192,205734,1,0,0:0:0:0:
192,192,206062,1,8,0:0:0:0:
320,192,206062,1,0,0:0:0:60:Crash 2.wav
448,192,206062,1,0,0:0:0:0:
64,192,206390,1,2,0:0:0:0:
192,192,206390,128,4,206718:0:0:0:0:
320,192,206390,1,0,0:0:0:0:
320,192,206718,1,2,0:0:0:0:
448,192,206718,1,0,0:0:0:0:
64,192,206882,1,2,0:0:0:0:
448,192,206882,1,0,0:0:0:0:
320,192,206963,1,2,0:0:0:0:
192,192,207045,1,2,0:0:0:0:
64,192,207127,1,2,0:0:0:0:
320,192,207209,1,2,0:0:0:0:
448,192,207209,1,0,0:0:0:0:
64,192,207373,1,8,0:0:0:0:
192,192,207373,1,0,0:0:0:60:Crash 2.wav
448,192,207373,1,0,0:0:0:0:
64,192,207701,1,2,0:0:0:0:
448,192,207701,1,0,0:0:0:0:
64,192,207865,1,8,0:0:0:0:
192,192,207865,1,4,0:0:0:0:
320,192,207865,1,0,0:0:0:0:
320,192,208029,1,2,0:0:0:0:
448,192,208029,1,0,0:0:0:0:
64,192,208193,1,8,0:0:0:0:
192,192,208193,1,0,0:0:0:0:
448,192,208193,1,0,0:0:0:0:
192,192,208357,1,2,0:0:0:0:
320,192,208357,1,0,0:0:0:0:
64,192,208521,1,8,0:0:0:0:
320,192,208521,1,0,0:0:0:0:
448,192,208521,1,0,0:0:0:0:
64,192,208685,1,2,0:0:0:0:
192,192,208685,1,0,0:0:0:0:
192,192,208849,1,8,0:0:0:0:
320,192,208849,1,0,0:0:0:0:
448,192,208849,1,0,0:0:0:0:
64,192,209013,1,2,0:0:0:0:
448,192,209013,1,0,0:0:0:0:
64,192,209177,1,8,0:0:0:0:
192,192,209177,1,0,0:0:0:0:
320,192,209259,1,2,0:0:0:0:
448,192,209341,1,8,0:0:0:0:
64,192,209423,1,2,0:0:0:0:
192,192,209504,1,8,0:0:0:0:
320,192,209504,1,0,0:0:0:0:
448,192,209586,1,2,0:0:0:0:
64,192,209668,1,8,0:0:0:0:
192,192,209750,1,2,0:0:0:0:
320,192,209832,1,8,0:0:0:0:
448,192,209832,1,0,0:0:0:0:
64,192,209914,1,2,0:0:0:0:
192,192,209996,1,8,0:0:0:0:
448,192,209996,1,0,0:0:0:0:
320,192,210078,1,2,0:0:0:0:
64,192,210160,1,8,0:0:0:0:
192,192,210160,1,0,0:0:0:0:
448,192,210242,1,8,0:0:0:0:
64,192,210324,1,8,0:0:0:0:
320,192,210324,1,0,0:0:0:0:
192,192,210406,1,8,0:0:0:0:
320,192,210488,1,2,0:0:0:0:
64,192,211800,128,8,211882:0:0:0:0:
320,192,211800,128,0,211882:0:0:0:50:Crash 2.wav
448,192,211800,128,0,211882:0:0:0:0:
64,192,212127,128,8,212209:0:0:0:0:
192,192,212127,128,0,212209:0:0:0:50:Crash 2.wav
448,192,212127,128,0,212209:0:0:0:0:
64,192,212455,128,8,212537:0:0:0:0:
320,192,212455,128,0,212783:0:0:0:50:Crash 2.wav
448,192,212455,128,0,212537:0:0:0:0:
64,192,212701,128,8,213029:0:0:0:0:
192,192,212701,128,0,212783:0:0:0:50:Crash 2.wav
448,192,212701,128,0,212783:0:0:0:0:
192,192,212947,128,8,213029:0:0:0:0:
320,192,212947,128,0,213029:0:0:0:50:Crash 2.wav
448,192,212947,128,0,213029:0:0:0:0:
64,192,213275,128,8,213357:0:0:0:0:
192,192,213275,128,0,213357:0:0:0:50:Crash 2.wav
320,192,213275,128,0,213357:0:0:0:0:
192,192,213439,128,8,213521:0:0:0:0:
320,192,213439,128,0,213521:0:0:0:50:Crash 2.wav
448,192,213439,128,0,213521:0:0:0:0:
64,192,213603,128,0,213849:0:0:0:0:
192,192,213767,128,8,213849:0:0:0:0:
320,192,213767,128,0,213849:0:0:0:50:Crash 2.wav
448,192,213767,128,0,213849:0:0:0:0:
64,192,214013,128,8,214095:0:0:0:0:
192,192,214013,128,0,214095:0:0:0:50:Crash 2.wav
448,192,214013,128,0,214095:0:0:0:0:
64,192,214259,128,8,214341:0:0:0:0:
320,192,214259,128,0,214341:0:0:0:50:Crash 2.wav
448,192,214259,128,0,214341:0:0:0:0:
64,192,214423,128,8,214504:0:0:0:0:
192,192,214423,128,0,214504:0:0:0:50:Crash 2.wav
448,192,214423,128,0,214504:0:0:0:0:
64,192,214750,128,8,214832:0:0:0:0:
320,192,214750,128,0,214832:0:0:0:50:Crash 2.wav
448,192,214750,128,0,214832:0:0:0:0:
64,192,215078,128,8,215160:0:0:0:0:
192,192,215078,128,0,215406:0:0:0:50:Crash 2.wav
448,192,215078,128,0,215160:0:0:0:0:
64,192,215324,128,8,215406:0:0:0:0:
320,192,215324,128,0,215406:0:0:0:50:Crash 2.wav
448,192,215324,128,0,215652:0:0:0:0:
64,192,215570,128,8,215652:0:0:0:0:
192,192,215570,128,0,215652:0:0:0:50:Crash 2.wav
320,192,215570,128,0,215652:0:0:0:0:
448,192,215898,128,0,216390:0:0:0:0:
320,192,216062,128,0,216390:0:0:0:0:
192,192,216226,128,0,216390:0:0:0:0:
64,192,216390,128,0,216636:0:0:0:0:
320,192,216554,1,2,0:0:0:0:
448,192,216554,1,0,0:0:0:0:
192,192,216636,1,2,0:0:0:0:
64,192,216718,1,8,0:0:0:0:
320,192,216718,1,0,0:0:0:0:
448,192,216718,1,0,0:0:0:0:
64,192,217045,1,2,0:0:0:0:
192,192,217045,128,4,217373:0:0:0:0:
448,192,217045,1,0,0:0:0:0:
320,192,217209,1,0,0:0:0:0:
64,192,217373,1,8,0:0:0:0:
320,192,217373,128,0,217701:0:0:0:0:
448,192,217373,1,0,0:0:0:0:
192,192,217537,1,0,0:0:0:0:
64,192,217701,1,2,0:0:0:0:
448,192,217701,128,0,217865:0:0:0:0:
320,192,217865,1,0,0:0:0:0:
192,192,217947,1,0,0:0:0:0:
64,192,218029,1,8,0:0:0:0:
320,192,218029,1,0,0:0:0:0:
448,192,218029,1,0,0:0:0:0:
192,192,218193,128,0,218357:0:0:0:0:
320,192,218357,1,2,0:0:0:0:
448,192,218357,1,0,0:0:0:0:
64,192,218521,128,0,218685:0:0:0:0:
192,192,218685,1,8,0:0:0:0:
320,192,218685,128,0,218849:0:0:0:0:
448,192,218685,1,0,0:0:0:0:
64,192,218849,128,0,219013:0:0:0:0:
192,192,219013,128,2,219177:0:0:0:0:
320,192,219013,1,0,0:0:0:0:
448,192,219177,1,0,0:0:0:0:
320,192,219259,1,0,0:0:0:0:
64,192,219341,1,8,0:0:0:0:
192,192,219341,1,0,0:0:0:0:
448,192,219341,1,0,0:0:0:0:
320,192,219504,1,2,0:0:0:0:
192,192,219586,1,2,0:0:0:0:
64,192,219668,1,2,0:0:0:0:
320,192,219668,128,4,219996:0:0:0:0:
448,192,219668,1,0,0:0:0:0:
64,192,219996,1,8,0:0:0:0:
192,192,219996,1,0,0:0:0:0:
448,192,219996,1,0,0:0:0:0:
64,192,220160,1,2,0:0:0:0:
320,192,220160,1,0,0:0:0:60:Crash 2.wav
448,192,220160,1,0,0:0:0:0:
64,192,220488,1,2,0:0:0:0:
192,192,220488,1,0,0:0:0:60:Crash 2.wav
320,192,220488,1,0,0:0:0:0:
64,192,220652,1,8,0:0:0:0:
320,192,220652,1,0,0:0:0:0:
448,192,220652,1,0,0:0:0:0:
192,192,220816,1,2,0:0:0:0:
320,192,220816,1,0,0:0:0:60:Crash 2.wav
448,192,220816,1,0,0:0:0:0:
192,192,221144,1,2,0:0:0:0:
448,192,221144,1,0,0:0:0:0:
320,192,221226,1,2,0:0:0:0:
64,192,221308,1,8,0:0:0:0:
192,192,221308,1,0,0:0:0:0:
448,192,221308,1,0,0:0:0:0:
64,192,221472,1,2,0:0:0:0:
320,192,221472,1,0,0:0:0:0:
192,192,221636,1,8,0:0:0:0:
320,192,221636,1,0,0:0:0:0:
448,192,221636,1,0,0:0:0:0:
64,192,221800,1,2,0:0:0:0:
192,192,221800,1,0,0:0:0:0:
64,192,221963,128,8,222127:0:0:0:0:
320,192,221963,1,0,0:0:0:0:
448,192,221963,1,0,0:0:0:0:
192,192,222127,1,8,0:0:0:0:
320,192,222127,128,0,222291:0:0:0:0:
448,192,222127,1,0,0:0:0:0:
192,192,222291,128,0,222619:0:0:0:0:
320,192,222455,1,2,0:0:0:0:
448,192,222455,1,0,0:0:0:0:
64,192,222619,128,8,222947:0:0:0:0:
320,192,222619,1,4,0:0:0:0:
448,192,222619,1,0,0:0:0:0:
192,192,222783,1,0,0:0:0:0:
320,192,222947,1,2,0:0:0:0:
448,192,222947,128,0,223111:0:0:0:0:
64,192,223111,1,0,0:0:0:0:
192,192,223193,1,0,0:0:0:0:
64,192,223275,1,8,0:0:0:0:
320,192,223275,1,0,0:0:0:0:
448,192,223275,1,0,0:0:0:0:
192,192,223439,128,0,223603:0:0:0:0:
64,192,223603,1,2,0:0:0:0:
448,192,223603,1,0,0:0:0:0:
320,192,223767,128,0,223931:0:0:0:0:
64,192,223931,128,8,224095:0:0:0:0:
192,192,223931,1,0,0:0:0:0:
448,192,223931,1,0,0:0:0:0:
320,192,224095,128,0,224259:0:0:0:0:
64,192,224259,1,2,0:0:0:0:
192,192,224259,128,0,224423:0:0:0:0:
448,192,224423,1,0,0:0:0:0:
320,192,224504,1,0,0:0:0:0:
64,192,224586,1,8,0:0:0:0:
192,192,224586,1,0,0:0:0:0:
448,192,224586,1,0,0:0:0:0:
320,192,224750,128,0,224914:0:0:0:0:
192,192,224914,1,2,0:0:0:0:
448,192,224914,128,0,225078:0:0:0:0:
64,192,225078,1,0,0:0:0:0:
192,192,225242,128,8,225570:0:0:0:0:
320,192,225242,1,0,0:0:0:0:
448,192,225242,1,0,0:0:0:0:
64,192,225406,1,0,0:0:0:0:
320,192,225570,1,2,0:0:0:0:
448,192,225570,128,0,225898:0:0:0:0:
192,192,225734,1,0,0:0:0:0:
64,192,225898,1,8,0:0:0:0:
192,192,225898,1,0,0:0:0:0:
320,192,225898,1,0,0:0:0:0:
64,192,226062,128,2,226390:0:0:0:0:
320,192,226062,1,4,0:0:0:0:
448,192,226062,1,0,0:0:0:0:
192,192,226226,1,0,0:0:0:0:
320,192,226390,1,2,0:0:0:0:
448,192,226390,1,0,0:0:0:0:
64,192,226554,1,8,0:0:0:0:
192,192,226554,128,0,226882:0:0:0:0:
448,192,226554,1,0,0:0:0:0:
320,192,226718,1,0,0:0:0:0:
320,192,226882,1,2,0:0:0:0:
448,192,226882,1,0,0:0:0:0:
64,192,226963,1,8,0:0:0:0:
192,192,226963,1,0,0:0:0:0:
448,192,227045,1,2,0:0:0:0:
64,192,227209,1,8,0:0:0:0:
192,192,227209,1,0,0:0:0:0:
320,192,227291,1,8,0:0:0:0:
64,192,227373,1,8,0:0:0:0:
448,192,227373,1,0,0:0:0:0:
192,192,227455,1,8,0:0:0:0:
64,192,227537,1,2,0:0:0:0:
320,192,227537,1,4,0:0:0:0:
448,192,227537,128,0,229504:0:0:0:0:
192,192,227701,1,0,0:0:0:0:
64,192,227865,1,8,0:0:0:0:
192,192,227865,1,0,0:0:0:0:
320,192,227865,1,0,0:0:0:0:
64,192,228029,1,0,0:0:0:0:
192,192,228193,1,2,0:0:0:0:
320,192,228193,1,0,0:0:0:0:
64,192,228357,1,0,0:0:0:0:
64,192,228521,1,8,0:0:0:0:
192,192,228521,1,0,0:0:0:0:
320,192,228521,1,0,0:0:0:0:
320,192,228685,1,0,0:0:0:0:
64,192,228849,1,2,0:0:0:0:
192,192,228849,1,0,0:0:0:0:
320,192,229013,1,0,0:0:0:0:
64,192,229177,1,8,0:0:0:0:
192,192,229177,1,0,0:0:0:0:
320,192,229177,1,0,0:0:0:0:
192,192,229341,1,0,0:0:0:0:
64,192,229504,1,2,0:0:0:0:
320,192,229504,1,0,0:0:0:0:
448,192,229668,1,0,0:0:0:0:
64,192,229832,1,8,0:0:0:0:
192,192,229832,1,0,0:0:0:0:
320,192,229832,1,0,0:0:0:0:
448,192,229996,1,0,0:0:0:0:
64,192,230160,128,2,232127:0:0:0:0:
192,192,230160,1,0,0:0:0:0:
320,192,230324,1,0,0:0:0:0:
192,192,230488,1,8,0:0:0:0:
320,192,230488,1,0,0:0:0:0:
448,192,230488,1,0,0:0:0:0:
448,192,230652,1,0,0:0:0:0:
192,192,230816,1,2,0:0:0:0:
320,192,230816,1,0,0:0:0:0:
448,192,230980,1,0,0:0:0:0:
192,192,231144,1,8,0:0:0:0:
320,192,231144,1,0,0:0:0:0:
448,192,231144,1,0,0:0:0:0:
320,192,231308,1,0,0:0:0:0:
192,192,231472,1,2,0:0:0:0:
448,192,231472,1,0,0:0:0:0:
320,192,231636,1,0,0:0:0:0:
192,192,231800,1,8,0:0:0:0:
320,192,231800,1,0,0:0:0:0:
448,192,231800,1,0,0:0:0:0:
192,192,231963,1,0,0:0:0:0:
320,192,232127,1,2,0:0:0:0:
448,192,232127,1,0,0:0:0:0:
64,192,232209,1,8,0:0:0:0:
192,192,232209,1,0,0:0:0:0:
448,192,232291,1,2,0:0:0:0:
64,192,232455,1,8,0:0:0:0:
192,192,232455,1,0,0:0:0:0:
320,192,232455,1,0,0:0:0:0:
320,192,232619,1,8,0:0:0:0:
448,192,232619,1,0,0:0:0:0:
192,192,232701,1,8,0:0:0:0:
64,192,232783,1,2,0:0:0:0:
320,192,232783,128,4,233111:0:0:0:0:
448,192,232783,1,0,0:0:0:0:
64,192,233111,1,8,0:0:0:0:
192,192,233111,1,0,0:0:0:0:
448,192,233111,1,0,0:0:0:0:
64,192,233275,128,2,233603:0:0:0:0:
320,192,233275,1,0,0:0:0:0:
192,192,233603,1,2,0:0:0:0:
320,192,233603,1,0,0:0:0:0:
64,192,233767,1,8,0:0:0:0:
320,192,233767,1,0,0:0:0:0:
448,192,233767,1,0,0:0:0:0:
192,192,233931,1,2,0:0:0:0:
448,192,233931,128,0,234259:0:0:0:0:
192,192,234259,1,2,0:0:0:0:
320,192,234259,1,0,0:0:0:0:
64,192,234423,1,8,0:0:0:0:
192,192,234423,1,0,0:0:0:0:
448,192,234423,1,0,0:0:0:0:
64,192,234586,1,2,0:0:0:0:
320,192,234586,1,0,0:0:0:0:
192,192,234750,1,0,0:0:0:0:
320,192,234832,1,8,0:0:0:0:
448,192,234832,1,0,0:0:0:0:
64,192,234914,1,2,0:0:0:0:
192,192,234914,1,0,0:0:0:0:
64,192,235078,1,8,0:0:0:0:
320,192,235078,1,0,0:0:0:0:
448,192,235078,1,0,0:0:0:0:
192,192,235242,1,8,0:0:0:0:
320,192,235242,1,0,0:0:0:0:
448,192,235324,1,8,0:0:0:0:
64,192,235406,1,2,0:0:0:0:
192,192,235406,1,4,0:0:0:0:
320,192,235488,1,0,0:0:0:0:
64,192,235570,1,2,0:0:0:0:
448,192,235570,1,0,0:0:0:0:
192,192,235652,1,0,0:0:0:0:
320,192,235734,1,2,0:0:0:0:
448,192,235734,1,0,0:0:0:0:
192,192,235816,1,0,0:0:0:0:
64,192,235898,1,2,0:0:0:0:
448,192,235898,1,0,0:0:0:0:
320,192,235980,1,0,0:0:0:0:
64,192,236062,1,2,0:0:0:0:
192,192,236062,1,0,0:0:0:0:
320,192,236144,1,2,0:0:0:0:
448,192,236144,1,0,0:0:0:0:
64,192,236226,1,2,0:0:0:0:
192,192,236226,1,0,0:0:0:0:
320,192,236308,1,2,0:0:0:0:
448,192,236308,1,0,0:0:0:0:
64,192,236390,1,2,0:0:0:0:
192,192,236390,1,0,0:0:0:0:
320,192,236472,1,2,0:0:0:0:
64,192,236554,1,2,0:0:0:0:
192,192,236554,1,0,0:0:0:55:Crash 2.wav
448,192,236554,1,0,0:0:0:0:
320,192,236882,1,0,0:0:0:0:
448,192,237127,1,0,0:0:0:0:
64,192,237209,1,0,0:0:0:0:
192,192,237373,1,0,0:0:0:0:
448,192,237537,1,0,0:0:0:0:
320,192,237701,128,0,238029:0:0:0:0:
64,192,238029,128,2,239177:0:0:0:0:
192,192,238029,128,4,238521:0:0:0:0:
448,192,238029,128,0,238521:0:0:0:0:
320,192,238685,128,2,239177:0:0:0:0:
448,192,238685,128,0,239177:0:0:0:0:
192,192,239177,128,0,239341:0:0:0:0:
320,192,239341,128,2,239504:0:0:0:0:
448,192,239341,128,0,239996:0:0:0:0:
192,192,239668,128,2,239832:0:0:0:0:
320,192,239668,128,0,239996:0:0:0:0:
64,192,239996,1,2,0:0:0:0:
192,192,239996,1,0,0:0:0:0:
320,192,240160,1,0,0:0:0:0:
192,192,240242,1,0,0:0:0:0:
64,192,240324,128,0,240652:0:0:0:0:
192,192,240652,1,2,0:0:0:0:
320,192,240652,1,4,0:0:0:0:
448,192,240652,128,0,240980:0:0:0:0:
64,192,240980,1,8,0:0:0:0:
192,192,240980,1,0,0:0:0:0:
320,192,240980,1,0,0:0:0:0:
64,192,241144,128,0,241472:0:0:0:0:
320,192,241308,1,2,0:0:0:0:
448,192,241308,1,0,0:0:0:0:
448,192,241472,1,0,0:0:0:0:
64,192,241636,1,8,0:0:0:0:
192,192,241636,1,0,0:0:0:0:
320,192,241636,128,0,241963:0:0:0:0:
64,192,241800,1,0,0:0:0:0:
192,192,241963,1,2,0:0:0:0:
448,192,241963,1,0,0:0:0:0:
448,192,242127,128,0,242291:0:0:0:0:
64,192,242291,1,8,0:0:0:0:
192,192,242291,1,0,0:0:0:0:
320,192,242291,1,0,0:0:0:0:
64,192,242455,128,0,242619:0:0:0:0:
320,192,242619,1,2,0:0:0:0:
448,192,242619,128,0,242947:0:0:0:0:
192,192,242783,1,0,0:0:0:0:
64,192,242947,1,8,0:0:0:0:
192,192,242947,128,0,243275:0:0:0:0:
320,192,242947,1,0,0:0:0:0:
448,192,243111,1,0,0:0:0:0:
320,192,243275,128,2,243603:0:0:0:0:
448,192,243275,1,0,0:0:0:0:
64,192,243439,1,0,0:0:0:0:
64,192,243603,1,8,0:0:0:0:
192,192,243603,1,0,0:0:0:0:
448,192,243603,1,0,0:0:0:0:
448,192,243767,128,0,244095:0:0:0:0:
64,192,243931,1,2,0:0:0:0:
192,192,243931,1,0,0:0:0:0:
192,192,244095,1,0,0:0:0:0:
64,192,244259,128,8,244586:0:0:0:0:
320,192,244259,1,0,0:0:0:0:
448,192,244259,1,0,0:0:0:0:
448,192,244423,1,0,0:0:0:0:
192,192,244586,1,2,0:0:0:0:
320,192,244586,1,0,0:0:0:0:
192,192,244750,128,0,244914:0:0:0:0:
64,192,244914,1,8,0:0:0:0:
320,192,244914,128,0,245078:0:0:0:0:
448,192,244914,1,0,0:0:0:0:
64,192,245078,128,0,245242:0:0:0:0:
320,192,245242,1,2,0:0:0:0:
448,192,245242,1,0,0:0:0:0:
64,192,245324,1,8,0:0:0:0:
192,192,245324,1,0,0:0:0:0:
448,192,245406,1,2,0:0:0:0:
64,192,245570,1,8,0:0:0:0:
192,192,245570,1,2,0:0:0:0:
320,192,245570,1,0,0:0:0:0:
320,192,245734,1,8,0:0:0:0:
448,192,245734,1,0,0:0:0:0:
192,192,245816,1,8,0:0:0:0:
64,192,245898,1,2,0:0:0:0:
320,192,245898,1,4,0:0:0:0:
448,192,245898,128,0,246226:0:0:0:0:
64,192,246226,1,8,0:0:0:0:
192,192,246226,1,0,0:0:0:0:
320,192,246226,1,0,0:0:0:0:
320,192,246390,128,0,246718:0:0:0:0:
64,192,246554,1,2,0:0:0:0:
192,192,246554,1,0,0:0:0:0:
64,192,246718,1,0,0:0:0:0:
192,192,246882,128,8,247209:0:0:0:0:
320,192,246882,1,0,0:0:0:0:
448,192,246882,1,0,0:0:0:0:
448,192,247045,1,0,0:0:0:0:
64,192,247209,1,2,0:0:0:0:
320,192,247209,1,0,0:0:0:0:
64,192,247373,128,0,247537:0:0:0:0:
192,192,247537,1,8,0:0:0:0:
320,192,247537,1,0,0:0:0:0:
448,192,247537,1,0,0:0:0:0:
448,192,247701,128,0,247865:0:0:0:0:
64,192,247865,128,2,248193:0:0:0:0:
192,192,247865,1,0,0:0:0:0:
320,192,248029,1,0,0:0:0:0:
192,192,248193,128,8,248521:0:0:0:0:
320,192,248193,1,0,0:0:0:0:
448,192,248193,1,0,0:0:0:0:
448,192,248357,1,0,0:0:0:0:
64,192,248521,1,2,0:0:0:0:
320,192,248521,1,4,0:0:0:0:
192,192,248685,1,0,0:0:0:0:
320,192,248767,1,8,0:0:0:0:
448,192,248767,1,0,0:0:0:0:
64,192,248849,1,2,0:0:0:0:
192,192,248849,1,0,0:0:0:0:
64,192,249013,1,8,0:0:0:0:
320,192,249013,1,0,0:0:0:0:
448,192,249013,1,0,0:0:0:0:
192,192,249177,1,2,0:0:0:0:
448,192,249177,1,0,0:0:0:0:
64,192,249259,1,8,0:0:0:0:
320,192,249259,1,0,0:0:0:0:
192,192,249341,1,0,0:0:0:0:
64,192,249504,1,8,0:0:0:0:
320,192,249504,1,0,0:0:0:0:
448,192,249504,1,0,0:0:0:0:
192,192,249668,1,8,0:0:0:0:
448,192,249668,1,0,0:0:0:0:
64,192,249832,1,2,0:0:0:0:
192,192,249832,1,4,0:0:0:0:
320,192,249832,1,0,0:0:0:0:
64,192,249996,1,8,0:0:0:0:
448,192,249996,1,0,0:0:0:0:
192,192,250078,1,8,0:0:0:0:
64,192,250160,1,2,0:0:0:0:
320,192,250160,1,0,0:0:0:0:
448,192,250160,1,0,0:0:0:0:
192,192,250324,1,8,0:0:0:0:
320,192,250324,1,0,0:0:0:0:
64,192,250406,1,8,0:0:0:0:
448,192,250406,1,0,0:0:0:0:
192,192,250488,1,2,0:0:0:0:
320,192,250570,1,8,0:0:0:0:
448,192,250570,1,0,0:0:0:0:
64,192,250652,1,2,0:0:0:0:
192,192,250734,1,8,0:0:0:0:
320,192,250816,1,8,0:0:0:0:
448,192,250816,1,0,0:0:0:0:
64,192,250898,1,8,0:0:0:0:
192,192,250898,1,0,0:0:0:0:
320,192,250980,1,8,0:0:0:0:
448,192,250980,1,0,0:0:0:0:
192,192,251062,1,8,0:0:0:0:
64,192,251144,1,2,0:0:0:0:
320,192,251144,1,4,0:0:0:0:
448,192,251144,128,0,251472:0:0:0:0:
64,192,251472,1,8,0:0:0:0:
192,192,251472,1,0,0:0:0:0:
320,192,251472,1,0,0:0:0:0:
64,192,251636,128,0,251963:0:0:0:0:
320,192,251800,1,2,0:0:0:0:
448,192,251800,1,0,0:0:0:0:
448,192,251963,1,0,0:0:0:0:
64,192,252127,1,8,0:0:0:0:
192,192,252127,1,0,0:0:0:0:
320,192,252127,128,0,252455:0:0:0:0:
64,192,252291,1,0,0:0:0:0:
192,192,252455,1,2,0:0:0:0:
448,192,252455,1,0,0:0:0:0:
448,192,252619,128,0,252783:0:0:0:0:
64,192,252783,1,8,0:0:0:0:
192,192,252783,1,0,0:0:0:0:
320,192,252783,1,0,0:0:0:0:
64,192,252947,128,0,253111:0:0:0:0:
320,192,253111,1,2,0:0:0:0:
448,192,253111,128,0,253439:0:0:0:0:
192,192,253275,1,0,0:0:0:0:
64,192,253439,1,8,0:0:0:0:
192,192,253439,128,0,253767:0:0:0:0:
320,192,253439,1,0,0:0:0:0:
448,192,253603,1,0,0:0:0:0:
320,192,253767,128,2,254095:0:0:0:0:
448,192,253767,1,0,0:0:0:0:
64,192,253931,1,0,0:0:0:0:
64,192,254095,1,8,0:0:0:0:
192,192,254095,1,0,0:0:0:0:
448,192,254095,1,0,0:0:0:0:
448,192,254259,128,0,254586:0:0:0:0:
64,192,254423,1,2,0:0:0:0:
192,192,254423,1,0,0:0:0:0:
192,192,254586,1,0,0:0:0:0:
64,192,254750,128,8,255078:0:0:0:0:
320,192,254750,1,0,0:0:0:0:
448,192,254750,1,0,0:0:0:0:
448,192,254914,1,0,0:0:0:0:
192,192,255078,1,2,0:0:0:0:
320,192,255078,1,0,0:0:0:0:
320,192,255242,128,0,255406:0:0:0:0:
64,192,255406,1,8,0:0:0:0:
192,192,255406,1,0,0:0:0:0:
448,192,255406,128,0,255570:0:0:0:0:
64,192,255570,128,0,255734:0:0:0:0:
320,192,255734,1,2,0:0:0:0:
448,192,255734,1,0,0:0:0:0:
64,192,255816,1,8,0:0:0:0:
192,192,255816,1,0,0:0:0:0:
320,192,255898,1,0,0:0:0:0:
64,192,256062,1,8,0:0:0:0:
192,192,256062,1,2,0:0:0:0:
448,192,256062,1,0,0:0:0:0:
320,192,256226,1,8,0:0:0:0:
448,192,256226,1,0,0:0:0:0:
192,192,256308,1,8,0:0:0:0:
64,192,256390,128,2,256718:0:0:0:0:
320,192,256390,1,4,0:0:0:0:
448,192,256390,1,0,0:0:0:0:
192,192,256718,1,8,0:0:0:0:
320,192,256718,1,0,0:0:0:0:
448,192,256718,1,0,0:0:0:0:
192,192,256882,128,0,257209:0:0:0:0:
320,192,257045,1,2,0:0:0:0:
448,192,257045,1,0,0:0:0:0:
448,192,257209,1,0,0:0:0:0:
64,192,257373,1,8,0:0:0:0:
192,192,257373,1,0,0:0:0:0:
320,192,257373,128,0,257701:0:0:0:0:
64,192,257537,1,0,0:0:0:0:
192,192,257701,1,2,0:0:0:0:
448,192,257701,1,0,0:0:0:0:
448,192,257865,128,0,258029:0:0:0:0:
64,192,258029,1,8,0:0:0:0:
192,192,258029,1,0,0:0:0:0:
320,192,258029,1,0,0:0:0:0:
64,192,258193,128,0,258357:0:0:0:0:
320,192,258357,1,2,0:0:0:0:
448,192,258357,128,0,258685:0:0:0:0:
192,192,258521,1,0,0:0:0:0:
64,192,258685,1,8,0:0:0:0:
192,192,258685,128,0,259013:0:0:0:0:
320,192,258685,1,0,0:0:0:0:
448,192,258849,1,0,0:0:0:0:
320,192,259013,128,2,259341:0:0:0:0:
448,192,259013,1,0,0:0:0:0:
64,192,259177,1,0,0:0:0:0:
64,192,259341,1,8,0:0:0:0:
192,192,259341,1,0,0:0:0:0:
448,192,259341,1,0,0:0:0:0:
192,192,259504,128,0,259832:0:0:0:0:
64,192,259668,1,2,0:0:0:0:
448,192,259668,1,0,0:0:0:0:
448,192,259832,1,0,0:0:0:0:
64,192,259996,128,8,260324:0:0:0:0:
192,192,259996,1,0,0:0:0:0:
320,192,259996,1,0,0:0:0:0:
320,192,260160,1,0,0:0:0:0:
192,192,260324,1,2,0:0:0:0:
448,192,260324,1,0,0:0:0:0:
64,192,260488,1,8,0:0:0:0:
320,192,260488,128,0,260652:0:0:0:0:
64,192,260652,1,2,0:0:0:0:
192,192,260652,1,8,0:0:0:0:
448,192,260652,1,0,0:0:0:0:
448,192,260816,128,0,260980:0:0:0:0:
64,192,260980,1,2,0:0:0:0:
192,192,260980,128,0,261308:0:0:0:0:
320,192,261144,1,0,0:0:0:0:
64,192,261308,128,8,261636:0:0:0:0:
320,192,261308,1,0,0:0:0:0:
448,192,261308,1,0,0:0:0:0:
192,192,261472,1,0,0:0:0:0:
448,192,261636,128,0,261963:0:0:0:0:
320,192,261800,128,0,261963:0:0:0:0:
64,192,262127,128,0,262455:0:0:0:0:
192,192,262291,128,0,262455:0:0:0:0:
448,192,262455,1,0,0:0:0:0:
448,192,262537,1,0,0:0:0:0:
192,192,262619,1,0,0:0:0:0:
64,192,262783,1,0,0:0:0:0:
64,192,262865,1,0,0:0:0:0:
320,192,262947,128,0,263275:0:0:0:0:
448,192,263111,128,0,263275:0:0:0:0:
64,192,263439,128,0,263603:0:0:0:0:
192,192,263521,128,0,263603:0:0:0:0:
320,192,263603,128,0,263767:0:0:0:0:
448,192,263603,128,0,263767:0:0:0:0:
192,192,263767,128,0,264095:0:0:0:0:
64,192,263931,128,0,264095:0:0:0:0:
320,192,264095,128,0,265160:0:0:0:0:
448,192,264095,128,0,269504:0:0:0:0:
192,192,265160,1,0,0:0:0:0:
320,192,265242,1,0,0:0:0:0:
64,192,265324,1,0,0:0:0:0:
192,192,265406,1,0,0:0:0:0:
320,192,265488,1,0,0:0:0:0:
64,192,265570,128,0,269504:0:0:0:0:
192,192,265570,128,0,269504:0:0:0:0:
