osu file format v14

[General]
AudioFilename: audio.mp3
AudioLeadIn: 0
PreviewTime: 186812
Countdown: 0
SampleSet: Soft
StackLeniency: 0.3
Mode: 0
LetterboxInBreaks: 0
WidescreenStoryboard: 1

[Editor]
Bookmarks: 2017,17755,28246,38738,49230,58410,61033,71525,83246,84640,95132,100378,113492,118738,126607,137099,150214,160705,171197,186935,197427,211853,217099,222673,238083,240705,251197,261689
DistanceSpacing: 1.3
BeatDivisor: 4
GridSize: 32
TimelineZoom: 5.199998

[Metadata]
Title:Kakumei no bullet
TitleUnicode:革命のbullet
Artist:ShinRa-Bansho
ArtistUnicode:森羅万象
Creator:Asagi
Version:Revolution
Source:東方永夜抄 ~ Imperishable Night.
Tags:japanese j-pop jpop touhou project toho 2hu th kaztora ayo あよ 少女綺想曲 ~ Dream Battle shoujo kisoukyoku maiden's capriccio eiyashou eternal night vignette from the east IN hakurei reimu 博麗 霊夢 上海アリス幻樂団 太田 順也 清水"カルロス"宥人 ZUN team shanghai alice revolutionary
BeatmapID:3358620
BeatmapSetID:1645394

[Difficulty]
HPDrainRate:5.5
CircleSize:4
OverallDifficulty:9.3
ApproachRate:9.6
SliderMultiplier:2.43
SliderTickRate:1

[Events]
//Background and Video events
0,0,"reimu.jpg",0,0
//Break Periods
2,95332,99182
2,160905,170657
2,187134,196887
//Storyboard Layer 0 (Background)
//Storyboard Layer 1 (Fail)
//Storyboard Layer 2 (Pass)
//Storyboard Layer 3 (Foreground)
//Storyboard Layer 4 (Overlay)
//Storyboard Sound Samples

[TimingPoints]
706,327.868852459016,4,2,1,75,1,0
2017,-200,4,2,1,45,0,0
7263,-142.857142857143,4,2,1,60,0,0
15132,-142.857142857143,4,2,1,40,0,0
17099,-142.857142857143,4,2,1,70,0,0
17263,-66.6666666666667,4,2,1,85,0,0
17427,-58.8235294117647,4,2,2,95,0,0
17509,-52.6315789473684,4,2,1,75,0,0
17755,-90.9090909090909,4,2,2,95,0,0
17837,-90.9090909090909,4,2,1,75,0,0
28246,-166.666666666667,4,2,2,75,0,0
28328,-166.666666666667,4,2,1,75,0,0
32837,-166.666666666667,4,2,1,55,0,0
33492,-166.666666666667,4,2,1,75,0,0
33656,-166.666666666667,4,2,1,55,0,0
33984,-166.666666666667,4,2,1,75,0,0
34640,-166.666666666667,4,2,1,55,0,0
36115,-166.666666666667,4,2,1,75,0,0
36771,-166.666666666667,4,2,1,55,0,0
36935,-125,4,2,1,75,0,0
38246,-125,4,2,1,55,0,0
38738,-125,4,2,2,95,0,0
38820,-125,4,2,1,65,0,0
44312,-111.111111111111,4,2,1,65,0,0
44476,-100,4,2,1,65,0,0
44640,-90.9090909090909,4,2,1,65,0,0
44804,-83.3333333333333,4,2,1,65,0,0
44968,-76.9230769230769,4,2,1,65,0,0
45296,-125,4,2,1,65,0,0
47427,-125,4,2,1,65,0,0
47755,-66.6666666666667,4,2,1,85,0,0
48410,-100,4,2,1,65,0,0
53820,-153.846153846154,4,2,1,75,0,0
54804,-66.6666666666667,4,2,1,75,0,0
54968,-100,4,2,1,55,0,0
55132,-100,4,2,1,65,0,0
55296,-100,4,2,1,75,0,0
55460,-100,4,2,1,75,0,0
55624,-100,4,2,1,85,0,0
55951,-55.5555555555556,4,2,1,95,0,0
57099,-55.5555555555556,4,2,1,75,0,0
57591,-100,4,2,1,55,0,0
58410,-76.9230769230769,4,2,1,95,0,0
59066,-66.6666666666667,4,2,1,75,0,0
60050,-66.6666666666667,4,2,1,60,0,0
60214,-66.6666666666667,4,2,1,75,0,0
60378,-66.6666666666667,4,2,5,85,0,0
61033,-83.3333333333333,4,2,2,100,0,1
61115,-83.3333333333333,4,2,1,75,0,1
68246,-100,4,2,1,75,0,1
68738,-83.3333333333333,4,2,1,85,0,1
68902,-74.0740740740741,4,2,1,75,0,1
69394,-66.6666666666667,4,2,1,85,0,1
70869,-66.6666666666667,4,2,2,100,0,1
70951,-66.6666666666667,4,2,2,75,0,1
71197,-66.6666666666667,4,2,1,75,0,0
71525,-83.3333333333333,4,2,2,100,0,1
71607,-83.3333333333333,4,2,1,75,0,1
76771,-74.0740740740741,4,2,2,100,0,1
76853,-74.0740740740741,4,2,1,85,0,1
82017,-74.0740740740741,4,2,1,65,0,1
82345,-68.9655172413793,4,2,1,75,0,1
82673,-62.5,4,2,1,85,0,1
83001,-57.1428571428571,4,2,1,95,0,1
83246,-57.1428571428571,4,2,6,95,0,1
83328,-57.1428571428571,4,2,1,75,0,0
84640,-90.9090909090909,4,2,2,100,0,1
84722,-90.9090909090909,4,2,1,75,0,0
89886,-76.9230769230769,4,2,1,90,0,0
91361,-125,4,2,1,90,0,0
91853,-66.6666666666667,4,2,1,90,0,0
94312,-76.9230769230769,4,2,6,55,0,0
95132,-76.9230769230769,4,2,2,85,0,0
95214,-76.9230769230769,4,2,2,75,0,0
99722,-76.9230769230769,4,2,1,75,0,0
100378,-100,4,2,1,75,0,0
101525,-66.6666666666667,4,2,1,85,0,0
102181,-100,4,2,1,75,0,0
102509,-83.3333333333333,4,2,1,75,0,0
103001,-100,4,2,2,100,0,0
103083,-100,4,2,1,75,0,0
105624,-76.9230769230769,4,2,1,75,0,0
106279,-100,4,2,1,75,0,0
106607,-76.9230769230769,4,2,1,75,0,0
108246,-100,4,2,1,75,0,0
108738,-58.8235294117647,4,2,1,75,0,0
110050,-76.9230769230769,4,2,1,65,0,0
110869,-100,4,2,1,95,0,0
110951,-100,4,2,1,75,0,0
112017,-66.6666666666667,4,2,1,95,0,0
112509,-83.3333333333333,4,2,1,75,0,0
112837,-66.6666666666667,4,2,1,85,0,0
113328,-166.666666666667,4,2,2,85,0,0
113410,-166.666666666667,4,2,1,65,0,0
115951,-100,4,2,1,75,0,0
118738,-66.6666666666667,4,2,1,85,0,0
120378,-62.5,4,2,1,85,0,0
120705,-55.5555555555556,4,2,1,85,0,0
121853,-100,4,2,1,55,0,0
122673,-76.9230769230769,4,2,1,95,0,0
123328,-66.6666666666667,4,2,1,75,0,0
124804,-100,4,2,1,75,0,0
124968,-52.6315789473684,4,2,1,75,0,0
125132,-57.1428571428571,4,2,1,95,0,0
125624,-57.1428571428571,4,2,6,75,0,0
126279,-100,4,2,1,30,0,0
126361,-100,4,2,1,45,0,0
126443,-100,4,2,1,60,0,0
126525,-100,4,2,1,75,0,0
126607,-74.0740740740741,4,2,2,100,0,1
126689,-74.0740740740741,4,2,1,75,0,1
126935,-83.3333333333333,4,2,1,75,0,1
133820,-100,4,2,1,75,0,1
134476,-74.0740740740741,4,2,1,75,0,1
134968,-66.6666666666667,4,2,1,85,0,1
136443,-62.5,4,2,2,100,0,1
136525,-62.5,4,2,1,75,0,1
136771,-66.6666666666667,4,2,1,75,0,1
137099,-83.3333333333333,4,2,2,100,0,1
137181,-83.3333333333333,4,2,1,75,0,1
142345,-74.0740740740741,4,2,2,100,0,1
142427,-74.0740740740741,4,2,1,85,0,1
147591,-74.0740740740741,4,2,1,65,0,1
147919,-68.9655172413793,4,2,1,75,0,1
148246,-62.5,4,2,1,85,0,1
148574,-57.1428571428571,4,2,1,95,0,1
148820,-57.1428571428571,4,2,6,95,0,1
148902,-57.1428571428571,4,2,1,75,0,0
150214,-66.6666666666667,4,2,2,100,0,0
150296,-66.6666666666667,4,2,1,75,0,0
150542,-83.3333333333333,4,2,1,75,0,0
151033,-66.6666666666667,4,2,1,75,0,0
151361,-83.3333333333333,4,2,1,75,0,0
151689,-66.6666666666667,4,2,1,75,0,0
151853,-83.3333333333333,4,2,1,75,0,0
154312,-66.6666666666667,4,2,1,75,0,0
154476,-83.3333333333333,4,2,1,75,0,0
155460,-66.6666666666667,4,2,2,100,0,0
155542,-66.6666666666667,4,2,1,75,0,0
155787,-83.3333333333333,4,2,1,75,0,0
156279,-66.6666666666667,4,2,1,75,0,0
156607,-83.3333333333333,4,2,1,75,0,0
156935,-66.6666666666667,4,2,1,75,0,0
157099,-83.3333333333333,4,2,1,75,0,0
157427,-83.3333333333333,4,2,1,75,0,0
158083,-200,4,2,1,75,0,0
158738,-200,4,2,1,65,0,0
159394,-200,4,2,1,55,0,0
160050,-200,4,2,1,45,0,0
160705,-200,4,2,2,75,0,0
171197,-125,4,2,2,85,0,0
171279,-125,4,2,1,60,0,0
176443,-125,4,2,2,85,0,0
176525,-125,4,2,1,60,0,0
180378,-125,4,2,6,95,0,0
180460,-125,4,2,1,60,0,0
181033,-125,4,2,1,15,0,0
181115,-125,4,2,1,35,0,0
181197,-125,4,2,1,55,0,0
181279,-125,4,2,1,75,0,0
181361,-133.333333333333,4,2,1,75,0,0
181689,-60.6060606060606,4,2,2,100,0,1
181771,-60.6060606060606,4,2,1,90,0,1
186279,-60.6060606060606,4,2,1,80,0,1
186443,-100,4,2,5,75,0,0
186525,-100,4,2,2,25,0,0
186607,-100,4,2,2,35,0,0
186689,-100,4,2,2,45,0,0
186771,-100,4,2,2,55,0,0
186935,-100,4,2,2,75,0,0
197427,-125,4,2,2,90,0,0
197509,-125,4,2,1,65,0,0
201197,-66.6666666666667,4,2,1,85,0,0
201853,-76.9230769230769,4,2,1,75,0,0
202673,-125,4,2,1,65,0,0
205787,-62.5,4,2,1,85,0,0
206443,-76.9230769230769,4,2,2,100,0,0
206525,-76.9230769230769,4,2,1,75,0,0
206935,-83.3333333333333,4,2,1,75,0,0
207263,-83.3333333333333,4,2,1,85,0,0
207427,-45.4545454545455,4,2,1,75,0,0
207755,-66.6666666666667,4,2,1,75,0,0
207919,-83.3333333333333,4,2,1,75,0,0
209066,-71.4285714285714,4,2,1,75,0,0
209394,-83.3333333333333,4,2,1,75,0,0
209722,-74.0740740740741,4,2,1,85,0,0
210050,-66.6666666666667,4,2,1,100,0,0
211853,-50,4,2,1,95,0,1
215624,-50,4,2,6,100,0,0
216771,-50,4,2,2,100,0,0
217099,-76.9230769230769,4,2,2,100,0,1
217181,-76.9230769230769,4,2,1,75,0,1
219558,-76.9230769230769,4,2,1,85,0,1
219722,-76.9230769230769,4,2,1,75,0,1
220214,-62.5,4,2,1,95,0,1
221197,-76.9230769230769,4,2,1,75,0,1
221689,-58.8235294117647,4,2,2,100,0,1
221771,-58.8235294117647,4,2,1,75,0,1
222345,-76.9230769230769,4,2,1,75,0,0
222509,-76.9230769230769,4,2,1,100,0,0
222673,-57.1428571428571,4,2,2,100,0,1
222755,-57.1428571428571,4,2,1,75,0,1
223001,-76.9230769230769,4,2,1,75,0,1
227591,-76.9230769230769,4,2,2,100,0,1
227673,-76.9230769230769,4,2,1,75,0,1
232837,-71.4285714285714,4,2,2,100,0,1
232919,-71.4285714285714,4,2,1,75,0,1
235460,-71.4285714285714,4,2,1,70,0,1
235787,-64.5161290322581,4,2,1,80,0,1
236115,-58.8235294117647,4,2,1,90,0,1
236443,-54.054054054054,4,2,1,100,0,1
236771,-54.054054054054,4,2,1,75,0,0
238083,-200,4,2,1,75,0,0
239394,-83.3333333333333,4,2,6,75,0,0
239476,-83.3333333333333,4,2,1,75,0,0
240050,-58.8235294117647,4,2,1,75,0,0
240214,-90.9090909090909,4,2,1,75,0,0
240378,-142.857142857143,4,2,1,75,0,0
240705,-58.8235294117647,4,2,2,100,0,1
240787,-66.6666666666667,4,2,1,75,0,0
241197,-90.909090909091,4,2,1,75,0,0
248902,-76.9230769230769,4,2,1,75,0,0
249886,-90.9090909090909,4,2,1,75,0,0
250214,-90.9090909090909,4,2,6,75,0,0
250296,-90.9090909090909,4,2,1,75,0,0
251197,-83.3333333333333,4,2,2,100,0,1
251279,-83.3333333333333,4,2,1,75,0,0
261361,-66.6666666666667,4,2,2,100,0,1
261443,-66.6666666666667,4,2,2,75,0,0
261689,-125,4,2,1,40,0,0
264148,-166.666666666667,4,2,1,50,0,0
265190,434.782608695652,4,2,1,75,1,0
265190,-181.818181818182,4,2,1,5,0,0
265262,-125,4,2,1,40,0,0
265624,327.868852459016,4,2,1,75,1,0
266935,-200,4,2,1,30,0,0
268246,-200,4,2,1,20,0,0
269558,-200,4,2,1,10,0,0
270869,-200,4,2,1,5,0,0

[Colours]
Combo1 : 198,88,85
Combo2 : 255,51,51

[HitObjects]
17,262,2017,6,0,P|77:267|138:262,1,121.5,2|2,0:0|0:0,0:0:0:0:
138,263,2673,2,0,P|131:308|136:353,2,91.125,2|2|2,0:0|0:0|0:0,0:0:0:0:
268,199,3328,5,0,0:0:0:0:
296,309,3492,1,2,0:0:0:0:
296,309,3656,2,0,P|265:307|235:309,1,60.75,2|0,0:0|0:0,0:0:0:0:
205,136,3984,2,0,P|265:143|325:134,1,121.5,2|0,0:0|0:0,0:0:0:0:
325,134,4640,6,0,P|340:193|333:253,1,121.5,2|2,0:0|0:0,0:0:0:0:
333,252,5296,2,0,P|379:248|424:252,2,91.125,2|2|2,0:0|0:0|0:0,0:0:0:0:
156,343,5951,5,0,0:0:0:0:
232,215,6115,1,2,0:0:0:0:
232,215,6279,2,0,P|236:245|234:275,1,60.75,2|0,0:0|0:0,0:0:0:0:
33,323,6607,2,0,P|25:263|32:203,1,121.5,2|0,0:0|0:0,0:0:0:0:
32,203,7099,1,0,3:0:0:0:
187,35,7263,6,0,P|250:43|315:37,1,127.57499610672,6|0,3:2|0:0,0:0:0:0:
313,36,7591,2,0,P|308:79|311:121,1,85.0499974044801,2|0,0:0|0:0,0:0:0:0:
138,266,7919,2,0,P|143:202|139:138,2,127.57499610672,2|2|2,0:0|0:0|0:0,0:0:0:0:
113,48,8574,5,2,0:3:0:0:
41,203,8738,1,2,0:0:0:0:
240,139,8902,2,0,P|282:133|324:136,1,85.0499974044801,2|0,0:0|0:0,0:0:0:0:
97,26,9230,2,0,P|54:31|12:28,1,85.0499974044801,2|0,0:0|0:0,0:0:0:0:
200,6,9558,6,0,P|202:27|201:48,1,42.52499870224
96,135,9722,2,0,P|93:156|94:177,1,42.52499870224,2|0,0:0|0:0,0:0:0:0:
265,325,9886,6,0,P|270:261|265:197,1,127.57499610672,2|0,0:0|0:0,0:0:0:0:
266,198,10214,2,0,P|308:201|350:196,1,85.0499974044801,2|0,0:0|0:0,0:0:0:0:
486,364,10542,2,0,P|422:356|359:363,2,127.57499610672,2|2|2,0:0|0:0|0:0,0:0:0:0:
448,158,11197,5,2,0:3:0:0:
354,278,11361,1,2,0:0:0:0:
226,199,11525,2,0,P|221:156|223:114,1,85.0499974044801,2|0,0:0|0:0,0:0:0:0:
367,292,11853,5,0,0:0:0:0:
256,192,11935,12,0,14968,0:0:0:0:
70,152,15132,6,0,B|164:152|164:152|142:178,1,127.57499610672,0|0,3:0|3:0,0:0:0:0:
142,178,15624,2,0,L|142:135,1,42.52499870224,8|0,0:0|0:0,0:0:0:0:
32,324,15787,1,0,3:0:0:0:
304,252,15951,5,0,3:0:0:0:
304,240,16033,1,8,0:0:0:0:
304,228,16115,1,0,3:0:0:0:
124,96,16279,1,8,0:0:0:0:
124,108,16361,1,8,0:0:0:0:
124,120,16443,6,0,L|124:206,1,85.0499974044801,0|0,3:0|0:0,0:0:0:0:
108,236,16689,1,0,3:0:0:0:
451,98,16935,1,0,3:0:0:0:
467,68,17017,1,0,3:0:0:0:
456,35,17099,1,8,0:0:0:0:
259,132,17263,6,0,B|241:175|241:175|256:216,1,91.125003476143,0|0,3:0|0:0,0:0:0:0:
281,353,17427,6,0,B|252:268|281:188|346:224|379:137|345:70,1,309.825005909443,8|0,0:0|0:0,0:0:0:0:
70,0,17755,6,0,P|50:103|75:214,1,200.475006118012,4|0,3:2|0:0,0:0:0:0:
134,241,18083,1,8,0:0:0:0:
351,99,18246,2,0,P|285:104|218:100,1,133.650004078674,2|0,0:0|3:0,0:0:0:0:
253,349,18574,1,0,0:0:0:0:
0,242,18738,2,0,P|67:236|134:241,1,133.650004078674,10|0,0:2|0:0,0:0:0:0:
408,114,19066,5,0,3:0:0:0:
334,315,19230,2,0,P|264:309|221:258,1,133.650004078674,2|8,0:0|0:0,0:0:0:0:
413,29,19558,2,0,P|411:63|413:96,1,66.8250020393372,2|0,0:0|0:0,0:0:0:0:
310,226,19722,2,0,P|322:126|314:26,1,200.475006118012,2|0,3:2|0:0,0:0:0:0:
194,2,20050,2,0,P|250:37|315:26,1,133.650004078674,8|0,0:2|0:0,0:0:0:0:
512,249,20378,6,0,P|416:233|359:307,1,200.475006118012,2|0,3:2|0:0,0:0:0:0:
345,384,20705,1,8,0:0:0:0:
481,135,20869,2,0,P|493:70|479:6,1,133.650004078674,2|0,0:0|3:0,0:0:0:0:
261,28,21197,1,0,0:0:0:0:
91,273,21361,2,0,P|74:208|85:143,1,133.650004078674,10|0,0:0|0:0,0:0:0:0:
368,51,21689,5,0,3:0:0:0:
284,313,21853,1,2,0:0:0:0:
98,122,22017,1,10,0:0:0:0:
366,183,22181,1,2,0:0:0:0:
107,273,22345,5,2,3:2:0:0:
107,273,22427,1,8,0:0:0:0:
107,273,22509,1,0,3:0:0:0:
289,62,22673,1,10,0:0:0:0:
435,355,22837,1,8,0:0:0:0:
435,355,22919,1,8,0:0:0:0:
435,355,23001,6,0,P|336:345|237:357,1,200.475006118012,6|0,0:0|0:0,0:0:0:0:
172,309,23328,1,8,0:0:0:0:
284,81,23492,2,0,P|350:86|417:80,1,133.650004078674,2|0,0:0|3:0,0:0:0:0:
182,1,23820,1,0,0:0:0:0:
114,256,23984,2,0,P|48:252|1:207,1,133.650004078674,10|0,0:0|0:0,0:0:0:0:
318,179,24312,5,0,3:0:0:0:
104,22,24476,2,0,P|81:84|89:150,1,133.650004078674,2|8,0:0|0:0,0:0:0:0:
297,77,24804,1,0,0:0:0:0:
434,353,24968,2,0,P|469:261|454:163,1,200.475006118012,2|0,3:2|0:0,0:0:0:0:
321,162,25296,2,0,P|387:170|454:162,1,133.650004078674,10|0,0:0|0:0,0:0:0:0:
238,353,25624,6,0,P|139:338|38:351,1,200.475006118012,2|0,3:2|0:0,0:0:0:0:
3,277,25951,1,8,0:0:0:0:
262,241,26115,2,0,P|321:267|345:327,1,133.650004078674,2|0,0:0|3:0,0:0:0:0:
16,247,26443,1,0,0:0:0:0:
205,84,26607,2,0,P|271:90|337:83,1,133.650004078674,10|0,0:0|0:0,0:0:0:0:
440,111,26853,1,0,3:0:0:0:
441,111,26935,6,0,P|438:145|440:178,1,66.8250020393372,0|0,3:0|0:0,0:0:0:0:
225,280,27099,2,0,P|227:247|225:214,1,66.8250020393372,0|0,3:0|0:0,0:0:0:0:
338,83,27263,2,0,P|331:146|338:219,1,133.650004078674,8|0,0:0|3:0,0:0:0:0:
400,290,27509,1,0,3:0:0:0:
400,290,27591,6,0,P|436:288|467:291,1,66.8250020393372,0|0,3:0|0:0,0:0:0:0:
226,119,27755,2,0,P|190:121|155:119,1,66.8250020393372,0|0,3:0|0:0,0:0:0:0:
223,371,27919,6,0,P|256:370|289:372,1,66.8250020393372,8|0,0:0|0:0,0:0:0:0:
103,230,28083,2,0,P|70:229|36:232,1,66.8250020393372,0|0,3:0|0:0,0:0:0:0:
384,64,28246,5,4,3:2:0:0:
384,64,30869,5,4,3:2:0:0:
383,63,32837,2,0,P|440:71|491:64,2,109.349996662903,2|2|2,0:0|0:0|0:0,0:0:0:0:
70,145,33492,5,4,3:2:0:0:
146,30,33656,2,2,L|150:67,3,36.4499988876343
180,303,33984,5,4,3:2:0:0:
180,303,34640,1,2,0:0:0:0:
45,358,34804,6,0,P|49:303|46:249,1,109.349996662903,2|0,0:0|0:0,0:0:0:0:
21,219,35132,1,0,0:0:0:0:
153,128,35296,1,2,0:0:0:0:
43,57,35460,2,2,P|24:59|6:58,3,36.4499988876343
77,32,35787,1,2,0:0:0:0:
413,354,36115,5,4,3:2:0:0:
413,354,36771,2,0,P|412:335|413:317,1,36.4499988876343,0|0,3:0|0:0,0:0:0:0:
425,268,36935,6,0,P|354:280|282:271,1,145.8,0|0,3:0|0:0,0:0:0:0:
221,218,37263,1,0,3:0:0:0:
501,309,37427,5,8,0:0:0:0:
222,324,37591,1,0,3:0:0:0:
222,324,37755,1,0,3:0:0:0:
491,205,37919,5,8,0:0:0:0:
221,218,38083,1,0,3:0:0:0:
323,8,38246,5,8,0:0:0:0:
341,63,38328,1,8,0:0:0:0:
347,120,38410,1,8,0:0:0:0:
349,178,38492,1,8,0:0:0:0:
347,236,38574,1,8,0:0:0:0:
338,294,38656,1,8,0:0:0:0:
321,350,38738,6,0,P|274:354|234:328,1,97.2,4|0,3:2|0:0,0:0:0:0:
169,110,39066,1,0,3:0:0:0:
30,257,39230,2,0,P|77:249|126:254,1,97.2,2|0,0:0|3:0,0:0:0:0:
316,117,39558,1,0,0:0:0:0:
212,12,39722,2,0,P|202:108|209:205,1,194.4,2|0,3:2|3:0,0:0:0:0:
422,98,40214,6,0,P|373:102|325:98,1,97.2,2|0,0:0|3:0,0:0:0:0:
233,236,40542,1,2,0:0:0:0:
78,47,40705,2,0,P|125:45|161:76,1,97.2,2|0,3:2|0:0,0:0:0:0:
36,271,41033,2,0,P|40:223|36:175,1,97.2,2|0,3:2|0:0,0:0:0:0:
270,14,41361,6,0,P|265:62|269:110,1,97.2,0|0,3:0|0:0,0:0:0:0:
433,271,41689,2,0,P|386:269|350:300,1,97.2,0|0,3:0|0:0,0:0:0:0:
262,347,41935,1,0,0:0:0:0:
262,347,42017,2,0,P|263:323|261:299,1,48.6,2|0,3:2|0:0,0:0:0:0:
78,179,42181,2,0,P|76:203|77:227,1,48.6,2|0,0:2|0:0,0:0:0:0:
168,368,42345,2,0,P|173:319|169:271,1,97.2,0|0,3:0|0:0,0:0:0:0:
24,54,42673,6,0,P|64:79|120:77,1,97.2,2|0,3:2|0:0,0:0:0:0:
184,31,42919,1,2,0:0:0:0:
184,31,43001,2,0,P|232:25|294:33,1,97.2,0|2,3:2|0:0,0:0:0:0:
466,121,43328,2,0,P|396:129|343:83,1,145.8,2|2,3:2|0:0,0:0:0:0:
281,30,43656,2,0,P|284:77|281:127,1,97.2,0|2,3:2|0:0,0:0:0:0:
428,368,43984,6,0,P|423:318|428:268,1,97.2,0|0,3:2|0:0,0:0:0:0:
453,178,44230,1,0,0:0:0:0:
453,178,44312,2,0,P|425:181|398:178,1,54.6749983314515,2|0,3:2|0:0,0:0:0:0:
271,308,44476,2,0,P|300:305|332:308,1,60.75,2|0,0:0|0:0,0:0:0:0:
280,126,44640,6,0,P|248:130|208:126,1,66.8250020393372,2|0,3:2|0:0,0:0:0:0:
108,358,44804,2,0,P|144:355|180:358,1,72.8999977752686,2|0,0:0|0:0,0:0:0:0:
84,90,44968,6,0,P|0:166|14:279,1,236.924989154435,2|0,3:2|0:0,0:0:0:0:
96,268,45296,6,0,P|147:263|193:268,1,97.2,2|0,3:2|0:0,0:0:0:0:
255,320,45542,1,2,0:0:0:0:
255,320,45624,2,0,P|252:271|258:223,1,97.2,0|2,3:0|0:0,0:0:0:0:
406,45,45951,2,0,P|439:110|427:180,1,145.8,2|2,3:2|0:0,0:0:0:0:
354,226,46279,2,0,P|306:218|258:224,1,97.2,0|0,3:0|0:0,0:0:0:0:
12,49,46607,6,0,P|88:57|162:49,1,145.8,0|0,3:0|0:0,0:0:0:0:
225,10,46935,1,0,3:0:0:0:
43,193,47099,1,0,3:0:0:0:
43,193,47181,1,0,3:0:0:0:
43,193,47263,1,0,3:0:0:0:
194,257,47427,1,8,0:0:0:0:
53,61,47591,1,0,3:0:0:0:
434,18,47755,6,0,L|426:108,1,91.125003476143,12|0,0:0|0:0,0:0:0:0:
78,366,48083,6,0,L|86:276,1,91.125003476143,12|0,0:0|0:0,0:0:0:0:
317,16,48410,5,0,3:0:0:0:
512,142,48574,2,0,L|507:205,1,60.75,10|0,0:0|0:0,0:0:0:0:
373,378,48738,1,0,3:0:0:0:
376,341,48820,1,0,3:0:0:0:
380,304,48902,6,0,L|385:241,1,60.75,10|0,0:0|0:0,0:0:0:0:
292,11,49066,1,0,3:0:0:0:
285,65,49148,1,0,3:0:0:0:
281,119,49230,5,4,3:2:0:0:
273,198,49558,1,0,3:0:0:0:
265,277,49886,1,0,3:0:0:0:
255,356,50214,1,0,3:0:0:0:
0,228,50542,5,0,3:0:0:0:
15,149,50869,1,0,3:0:0:0:
31,70,51197,1,0,3:0:0:0:
257,22,51361,5,0,3:0:0:0:
257,22,51443,1,0,3:0:0:0:
257,22,51525,2,0,P|287:25|317:21,1,60.75,10|0,0:0|0:0,0:0:0:0:
414,143,51689,6,0,B|285:123|325:212|183:186,1,243,0|0,3:0|3:0,0:0:0:0:
359,370,52181,2,0,P|384:315|378:255,1,121.5,8|0,0:0|0:0,0:0:0:0:
113,141,52509,1,0,3:0:0:0:
81,177,52591,1,0,3:0:0:0:
77,225,52673,1,0,3:0:0:0:
99,268,52755,1,0,3:0:0:0:
140,292,52837,2,0,P|171:288|201:290,1,60.75,8|0,0:0|0:0,0:0:0:0:
408,30,53001,6,0,P|293:18|239:121,1,243,4|0,3:2|3:0,0:0:0:0:
297,187,53410,1,0,3:0:0:0:
297,187,53492,2,0,P|356:178|424:187,1,121.5,8|0,0:0|0:0,0:0:0:0:
75,39,53820,6,0,P|79:97|78:157,2,118.462494577217,2|2|2,3:0|3:0|3:0,0:0:0:0:
75,39,54640,6,0,P|96:40|116:39,1,39.4874981924058,0|0,3:0|3:0,0:0:0:0:
250,97,54804,6,0,P|205:98|170:126,1,91.125003476143,8|0,0:0|0:0,0:0:0:0:
313,338,54968,5,0,3:0:0:0:
355,314,55050,1,0,3:0:0:0:
388,270,55132,1,0,3:0:0:0:
403,211,55214,1,0,3:0:0:0:
390,145,55296,1,0,3:0:0:0:
342,89,55378,1,0,3:0:0:0:
264,71,55460,1,0,3:0:0:0:
181,90,55542,1,0,3:0:0:0:
123,151,55624,6,0,P|213:154|297:189,1,182.25,4|0,0:0|0:0,0:0:0:0:
420,384,55951,6,0,L|430:276,1,109.349996662903,8|0,0:0|0:0,0:0:0:0:
106,9,56197,6,0,L|97:118,1,109.349996662903,8|0,0:0|0:0,0:0:0:0:
453,77,56443,6,0,L|381:72,1,72.8999977752686,8|0,0:0|0:0,0:0:0:0:
54,201,56662,6,0,L|126:206,1,72.8999977752686,8|0,0:0|0:0,0:0:0:0:
479,179,56880,6,0,L|407:174,1,72.8999977752686,8|0,0:0|0:0,0:0:0:0:
95,336,57099,5,4,0:0:0:0:
396,75,57591,2,2,L|391:23,4,40.5
396,75,58410,6,0,P|278:81|165:47,1,236.924989154435,0|0,3:0|0:0,0:0:0:0:
116,310,58738,2,0,P|233:303|346:337,1,236.924989154435,0|0,3:0|0:0,0:0:0:0:
413,255,59066,6,0,P|431:214|426:169,1,91.125003476143,8|0,0:0|0:0,0:0:0:0:
98,129,59230,2,0,P|80:169|85:214,1,91.125003476143,0|0,3:0|0:0,0:0:0:0:
400,254,59394,6,0,P|418:213|413:168,1,91.125003476143,8|0,0:0|0:0,0:0:0:0:
112,131,59558,2,0,P|94:171|99:216,1,91.125003476143,0|0,3:0|0:0,0:0:0:0:
427,44,59722,5,0,3:0:0:0:
386,7,59804,1,0,3:0:0:0:
331,0,59886,1,0,3:0:0:0:
279,17,59968,1,0,3:0:0:0:
243,58,60050,5,8,0:0:0:0:
249,139,60132,1,8,0:0:0:0:
256,220,60214,1,8,0:0:0:0:
262,301,60296,1,8,0:0:0:0:
268,382,60378,5,4,0:0:0:0:
488,60,61033,6,0,P|384:53|328:141,1,218.699993325806,6|0,3:2|0:0,0:0:0:0:
327,357,61361,2,0,P|341:249|328:141,1,218.699993325806,10|0,0:0|0:0,0:0:0:0:
116,187,61689,2,0,P|162:240|233:240,1,145.799995550537,2|0,3:2|0:0,0:0:0:0:
236,27,61935,1,2,0:0:0:0:
236,27,62017,2,0,P|198:30|157:23,1,72.8999977752686,8|0,0:0|0:0,0:0:0:0:
262,234,62181,2,0,P|335:227|406:236,1,145.799995550537,2|0,0:0|3:0,0:0:0:0:
446,0,62509,5,2,0:0:0:0:
210,152,62673,1,8,0:0:0:0:
440,123,62837,2,0,P|476:119|512:122,1,72.8999977752686,2|0,0:0|0:0,0:0:0:0:
335,54,63001,2,0,P|340:117|337:199,1,145.799995550537,2|0,3:2|0:0,0:0:0:0:
265,260,63246,1,2,0:0:0:0:
265,260,63328,2,0,P|227:257|190:261,1,72.8999977752686,8|0,0:0|0:0,0:0:0:0:
102,42,63492,1,2,0:0:0:0:
36,343,63656,6,0,P|139:350|193:261,1,218.699993325806,2|0,3:2|0:0,0:0:0:0:
102,42,63984,2,0,P|81:151|97:257,1,218.699993325806,10|0,0:0|0:0,0:0:0:0:
315,217,64312,2,0,P|244:212|193:261,1,145.799995550537,2|0,3:2|0:0,0:0:0:0:
380,351,64558,1,2,0:0:0:0:
380,351,64640,2,0,P|415:346|463:352,1,72.8999977752686,8|0,0:0|0:0,0:0:0:0:
496,109,64804,2,0,P|431:113|349:105,1,145.799995550537,2|0,0:0|3:0,0:0:0:0:
179,337,65132,5,2,0:0:0:0:
509,241,65296,1,8,0:0:0:0:
194,135,65460,1,2,0:0:0:0:
298,384,65624,1,2,3:2:0:0:
331,354,65705,2,0,P|346:283|337:212,1,145.799995550537,8|0,0:0|0:0,0:0:0:0:
213,171,65951,2,0,P|266:218|336:212,1,145.799995550537,8|0,0:0|3:0,0:0:0:0:
509,117,66197,1,0,3:0:0:0:
464,49,66279,6,0,P|360:36|303:122,1,218.699993325806,6|0,0:2|0:0,0:0:0:0:
303,339,66607,2,0,P|314:231|303:122,1,218.699993325806,10|0,0:0|0:0,0:0:0:0:
122,38,66935,2,0,P|101:106|120:176,1,145.799995550537,2|0,3:2|0:0,0:0:0:0:
286,104,67181,1,2,0:0:0:0:
286,104,67263,2,0,P|250:106|214:104,1,72.8999977752686,8|0,0:0|0:0,0:0:0:0:
56,302,67427,2,0,P|128:294|200:300,1,145.799995550537,2|0,0:0|3:0,0:0:0:0:
466,328,67755,5,2,0:0:0:0:
318,91,67919,1,10,3:2:0:0:
286,355,68083,1,2,0:0:0:0:
481,158,68246,6,2,B|390:147|408:208|306:196,1,182.25,2|0,3:2|0:0,0:0:0:0:
248,136,68574,1,8,0:0:0:0:
468,257,68738,2,0,P|474:293|467:328,1,72.8999977752686,0|8,3:0|0:0,0:0:0:0:
99,384,68902,6,0,P|45:276|75:159,1,246.037500938559,4|0,0:0|0:0,0:0:0:0:
140,112,69230,1,8,0:0:0:0:
475,351,69394,6,0,L|385:360,1,91.125003476143,12|0,0:0|0:0,0:0:0:0:
37,33,69722,6,0,L|127:24,1,91.125003476143,12|0,0:0|0:0,0:0:0:0:
494,262,70050,6,0,L|394:268,1,91.125003476143,12|0,0:0|0:0,0:0:0:0:
37,33,70378,5,0,3:0:0:0:
39,53,70460,1,0,3:0:0:0:
41,73,70542,2,0,L|47:167,1,91.125003476143,8|0,0:0|0:0,0:0:0:0:
262,380,70705,1,0,3:0:0:0:
396,111,70869,6,0,B|294:59|204:118|204:118|246:114|286:146,1,273.375010428429,8|0,0:0|0:0,0:0:0:0:
225,293,71197,6,0,P|209:250|212:203,1,91.125003476143,8|0,0:0|0:0,0:0:0:0:
471,58,71361,2,0,P|486:100|483:147,1,91.125003476143,8|0,0:0|0:0,0:0:0:0:
139,368,71525,6,0,P|107:265|118:157,1,218.699993325806,6|0,3:2|0:0,0:0:0:0:
292,76,71853,2,0,P|224:157|119:156,1,218.699993325806,10|0,0:0|0:0,0:0:0:0:
12,24,72181,2,0,P|83:14|126:68,1,145.799995550537,2|0,3:2|0:0,0:0:0:0:
72,232,72427,1,2,0:0:0:0:
72,232,72509,2,0,P|35:227|0:232,1,72.8999977752686,8|0,0:0|0:0,0:0:0:0:
249,384,72673,2,0,P|277:317|268:246,1,145.799995550537,2|0,0:2|3:0,0:0:0:0:
39,351,73001,5,2,0:0:0:0:
236,143,73165,2,0,P|306:139|358:188,1,145.799995550537,10|0,0:0|0:0,0:0:0:0:
54,339,73492,2,0,P|63:267|57:195,1,145.799995550537,2|0,3:2|0:0,0:0:0:0:
17,97,73738,1,2,0:0:0:0:
17,97,73820,2,0,P|51:100|89:96,1,72.8999977752686,8|0,0:0|0:0,0:0:0:0:
373,9,73984,1,2,0:0:0:0:
308,306,74148,6,0,P|237:301|192:246,1,145.799995550537,2|0,3:2|0:0,0:0:0:0:
253,37,74476,2,0,P|362:45|419:139,1,218.699993325806,10|0,0:0|0:0,0:0:0:0:
419,275,74804,2,0,P|411:203|418:131,1,145.799995550537,2|0,3:2|0:0,0:0:0:0:
229,60,75132,1,8,0:0:0:0:
383,371,75296,6,0,P|453:377|506:330,1,145.799995550537,6|0,3:2|0:0,0:0:0:0:
327,80,75624,1,2,3:2:0:0:
511,219,75787,2,0,P|403:205|294:214,1,218.699993325806,8|0,0:0|0:0,0:0:0:0:
208,260,76115,1,0,3:0:0:0:
208,260,76197,1,0,3:0:0:0:
208,260,76279,1,10,0:0:0:0:
419,44,76443,1,0,3:0:0:0:
334,324,76607,1,8,0:0:0:0:
176,59,76771,6,0,P|216:62|257:59,1,82.0125003128529,6|0,3:2|0:0,0:0:0:0:
81,301,76935,2,0,P|40:297|0:300,1,82.0125003128529,0|0,3:0|0:0,0:0:0:0:
270,84,77099,1,8,0:0:0:0:
456,381,77263,2,0,P|510:278|483:153,1,246.037500938559,0|0,3:0|0:0,0:0:0:0:
409,90,77591,1,0,3:0:0:0:
276,384,77755,1,8,0:0:0:0:
0,186,77919,6,0,B|187:164|120:290|304:267,1,328.050001251412,4|0,3:2|3:0,0:0:0:0:
498,8,78410,2,0,P|376:23|254:8,1,246.037500938559,8|0,0:0|0:0,0:0:0:0:
165,53,78738,1,0,3:0:0:0:
343,306,78902,6,0,P|384:301|425:306,1,82.0125003128529,2|0,0:3|0:0,0:0:0:0:
98,177,79066,1,8,0:0:0:0:
381,108,79230,6,0,P|389:147|382:187,1,82.0125003128529,2|0,0:3|0:0,0:0:0:0:
215,358,79394,1,4,3:2:0:0:
185,49,79558,5,0,3:0:0:0:
215,358,79722,1,8,0:0:0:0:
0,204,79886,2,0,P|81:196|162:205,1,164.025000625706,0|0,3:2|0:0,0:0:0:0:
375,283,80214,1,0,3:0:0:0:
176,89,80378,1,8,0:0:0:0:
444,367,80542,6,0,P|491:254|473:134,1,246.037500938559,4|0,3:2|0:0,0:0:0:0:
395,74,80869,1,0,3:0:0:0:
239,335,81033,1,8,0:0:0:0:
93,12,81197,2,0,P|65:87|92:165,1,164.025000625706,0|0,3:0|0:0,0:0:0:0:
256,88,81443,1,0,3:0:0:0:
256,88,81525,2,0,P|216:82|176:88,1,82.0125003128529,8|0,0:0|0:0,0:0:0:0:
0,206,81689,1,8,0:0:0:0:
220,284,81853,1,0,3:0:0:0:
220,284,81935,1,8,0:0:0:0:
220,284,82017,6,0,L|213:203,1,82.0125003128529,4|0,3:2|0:0,0:0:0:0:
53,65,82181,2,0,L|60:149,1,82.0125003128529,0|0,3:0|0:0,0:0:0:0:
327,315,82345,6,0,L|317:227,1,88.0875026882173,0|0,3:0|0:0,0:0:0:0:
149,1,82509,2,0,L|158:88,1,88.0875026882173,0|0,3:0|0:0,0:0:0:0:
419,27,82673,6,0,L|322:38,1,97.2,0|0,3:0|0:0,0:0:0:0:
112,252,82837,2,0,L|209:241,1,97.2,0|0,3:0|0:0,0:0:0:0:
512,134,83001,6,0,L|406:145,1,106.312501013875,0|0,3:0|0:0,0:0:0:0:
192,360,83165,2,0,L|297:348,1,106.312501013875,0|4,3:0|0:0,0:0:0:0:
512,197,84640,6,0,P|413:185|313:195,1,200.475006118012,4|0,3:2|0:0,0:0:0:0:
206,251,84968,2,0,P|270:246|313:196,1,133.650004078674,10|0,0:0|0:0,0:0:0:0:
82,4,85296,2,0,P|67:68|78:134,1,133.650004078674,2|0,3:2|0:0,0:0:0:0:
161,168,85542,1,2,0:0:0:0:
161,168,85624,2,0,P|193:163|229:168,1,66.8250020393372,8|0,0:0|0:0,0:0:0:0:
427,30,85787,2,0,P|360:35|294:28,1,133.650004078674,2|0,0:0|3:0,0:0:0:0:
193,257,86115,5,2,0:0:0:0:
456,177,86279,1,10,0:0:0:0:
208,86,86443,1,2,0:0:0:0:
309,330,86607,2,0,P|373:332|419:284,1,133.650004078674,2|0,3:2|0:0,0:0:0:0:
378,217,86853,1,2,0:0:0:0:
377,217,86935,2,0,P|344:220|311:217,1,66.8250020393372,8|0,0:0|0:0,0:0:0:0:
143,356,87099,2,0,P|176:353|209:355,1,66.8250020393372,2|0,0:0|0:0,0:0:0:0:
195,157,87263,6,0,P|100:142|41:218,1,200.475006118012,4|0,3:2|0:0,0:0:0:0:
40,349,87591,2,0,P|48:282|41:216,1,133.650004078674,10|0,0:0|0:0,0:0:0:0:
2,14,87919,2,0,P|61:48|126:35,1,133.650004078674,2|0,3:2|0:0,0:0:0:0:
214,5,88165,1,2,0:0:0:0:
213,5,88246,2,0,P|210:38|212:71,1,66.8250020393372,8|0,0:0|0:0,0:0:0:0:
282,209,88410,2,0,P|215:202|149:209,1,133.650004078674,2|0,0:0|3:0,0:0:0:0:
386,83,88738,5,2,0:0:0:0:
336,346,88902,1,10,0:0:0:0:
218,102,89066,1,2,0:0:0:0:
442,304,89230,1,2,3:2:0:0:
474,279,89312,2,0,P|489:214|479:148,1,133.650004078674,8|0,0:0|0:0,0:0:0:0:
440,61,89558,2,0,P|473:65|507:63,1,66.8250020393372,10|0,0:0|0:0,0:0:0:0:
252,208,89722,1,0,3:0:0:0:
350,23,89886,6,0,P|348:62|351:101,1,78.9749963848116,4|0,3:2|0:0,0:0:0:0:
124,233,90050,2,0,P|126:193|123:154,1,78.9749963848116,0|0,3:0|0:0,0:0:0:0:
334,336,90214,1,8,0:0:0:0:
185,70,90378,6,0,P|72:61|14:158,1,236.924989154435,4|0,3:2|0:0,0:0:0:0:
41,253,90705,1,8,0:0:0:0:
328,32,90869,6,0,P|440:23|498:120,1,236.924989154435,4|0,3:2|0:0,0:0:0:0:
472,214,91197,1,8,0:0:0:0:
95,313,91361,6,0,P|77:242|90:171,1,145.8,4|0,3:2|0:0,0:0:0:0:
138,113,91689,1,8,0:0:0:0:
512,304,91853,6,0,B|364:282|415:391|227:359,1,273.375010428429,4|0,3:2|0:0,0:0:0:0:
169,228,92181,1,0,3:0:0:0:
256,192,92263,12,4,94312,0:0:0:0:
256,192,95132,5,4,0:0:0:0:
426,114,99722,6,0,P|447:229|424:345,2,236.924989154435,8|8|8,0:0|0:0|0:0,0:0:0:0:
98,32,100378,6,0,P|74:119|88:209,1,182.25,4|0,3:2|0:0,0:0:0:0:
208,210,100705,2,0,P|147:202|87:209,1,121.5,8|0,0:0|0:0,0:0:0:0:
292,316,101033,1,0,3:0:0:0:
292,316,101197,1,2,3:2:0:0:
345,84,101361,1,10,0:0:0:0:
151,294,101525,6,0,L|158:384,1,91.125003476143,12|0,0:0|0:0,0:0:0:0:
361,90,101853,6,0,L|354:0,1,91.125003476143,12|0,0:0|0:0,0:0:0:0:
20,154,102181,6,0,P|106:137|164:203,1,182.25,6|0,3:2|0:0,0:0:0:0:
107,277,102509,2,0,P|71:274|35:276,1,72.8999977752686,2|0,3:2|0:0,0:0:0:0:
243,112,102673,2,0,P|279:114|315:112,1,72.8999977752686,10|0,0:0|0:0,0:0:0:0:
436,345,102837,2,0,P|399:342|363:344,1,72.8999977752686,0|0,3:0|0:0,0:0:0:0:
188,222,103001,6,0,P|284:230|372:220,1,182.25,4|0,3:2|0:0,0:0:0:0:
432,177,103328,1,8,0:0:0:0:
338,7,103492,2,0,P|281:13|204:3,1,121.5,2|0,0:0|3:0,0:0:0:0:
127,272,103820,1,0,0:0:0:0:
0,88,103984,6,0,P|116:85|176:184,1,243,10|0,0:2|3:0,0:0:0:0:
368,359,104476,2,0,P|364:299|368:238,1,121.5,2|8,0:0|0:0,0:0:0:0:
476,118,104804,1,0,0:0:0:0:
248,311,104968,2,0,P|188:308|139:273,1,121.5,2|0,3:2|0:0,0:0:0:0:
330,104,105296,2,0,P|390:108|451:104,1,121.5,10|0,0:2|0:0,0:0:0:0:
158,10,105624,6,0,P|153:49|158:88,1,78.9749963848116,4|0,3:2|0:0,0:0:0:0:
270,277,105787,1,2,0:0:0:0:
248,52,105951,1,0,3:0:0:0:
53,284,106115,6,0,P|92:279|131:284,1,78.9749963848116,8|0,0:0|0:0,0:0:0:0:
159,184,106279,2,0,P|99:175|38:180,1,121.5,2|0,3:2|0:0,0:0:0:0:
271,23,106607,6,0,P|310:25|349:21,1,78.9749963848116,4|0,0:0|0:0,0:0:0:0:
245,239,106771,1,0,0:0:0:0:
103,20,106935,5,2,3:2:0:0:
103,20,107017,1,2,0:0:0:0:
103,20,107099,2,0,P|93:57|102:99,1,78.9749963848116,4|0,0:0|0:0,0:0:0:0:
273,274,107263,1,0,3:2:0:0:
424,79,107427,5,2,0:0:0:0:
424,79,107509,1,2,0:0:0:0:
424,79,107591,2,0,P|433:116|425:158,1,78.9749963848116,12|0,0:0|0:0,0:0:0:0:
246,306,107755,1,0,0:2:0:0:
91,119,107919,5,2,3:2:0:0:
91,119,108001,1,2,0:0:0:0:
91,119,108083,2,0,P|81:156|90:198,1,78.9749963848116,4|0,0:0|0:0,0:0:0:0:
339,376,108246,6,0,P|351:314|343:256,1,121.5,0|0,3:2|0:0,0:0:0:0:
275,212,108492,1,2,0:0:0:0:
275,212,108574,1,2,0:0:0:0:
13,309,108738,6,0,L|116:309,1,103.275001969814,12|0,0:0|0:0,0:0:0:0:
116,309,109230,6,0,L|13:309,1,103.275001969814,12|0,0:0|0:0,0:0:0:0:
13,309,109722,6,0,L|116:309,1,103.275001969814,12|0,0:0|0:0,0:0:0:0:
42,48,110050,5,0,3:0:0:0:
42,48,110132,1,0,3:0:0:0:
42,47,110214,2,0,P|29:84|39:122,1,78.9749963848116,10|0,0:0|0:0,0:0:0:0:
219,121,110378,1,0,3:0:0:0:
219,121,110460,1,0,3:0:0:0:
219,121,110542,2,0,P|225:82|212:45,1,78.9749963848116,10|0,0:0|0:0,0:0:0:0:
32,239,110705,1,0,3:2:0:0:
32,239,110787,1,8,0:2:0:0:
31,239,110869,6,0,P|121:228|211:237,1,182.25,4|0,0:0|0:0,0:0:0:0:
303,302,111197,2,0,P|246:286|212:237,1,121.5,10|2,0:2|0:0,0:0:0:0:
399,23,111525,1,0,3:0:0:0:
296,217,111689,1,2,3:2:0:0:
253,3,111853,1,8,0:0:0:0:
511,212,112017,6,0,P|466:204|420:208,1,91.125003476143,0|0,3:0|0:0,0:0:0:0:
44,33,112345,6,0,P|88:40|134:36,1,91.125003476143,0|0,3:0|0:0,0:0:0:0:
356,142,112509,2,0,P|252:132|197:220,1,218.699993325806,12|0,0:0|0:0,0:0:0:0:
127,365,112837,6,0,P|195:308|197:220,1,182.250006952286,12|0,0:0|0:0,0:0:0:0:
81,168,113083,2,0,P|12:224|10:312,1,182.250006952286,12|0,0:0|0:0,0:0:0:0:
105,265,113328,6,0,B|252:263|192:351|340:338,1,255.14999221344,4|0,0:0|0:0,0:0:0:0:
340,337,113984,1,0,3:0:0:0:
440,172,114148,2,0,P|371:159|307:246,1,182.249994438172,8|0,0:0|0:0,0:0:0:0:
307,238,114640,6,0,P|316:166|306:94,2,145.799995550537,0|0|0,3:0|3:0|3:0,0:0:0:0:
94,168,115460,2,0,P|148:173|202:169,1,109.349996662903,8|0,0:0|0:0,0:0:0:0:
202,169,115787,1,2,3:2:0:0:
349,11,115951,6,0,P|262:7|216:81,1,182.25,4|0,3:2|0:0,0:0:0:0:
216,81,116279,1,0,3:0:0:0:
371,258,116443,2,0,P|431:254|491:260,1,121.5,8|0,0:0|0:0,0:0:0:0:
312,93,116771,5,0,3:0:0:0:
312,93,116853,1,0,3:0:0:0:
312,93,116935,2,0,P|307:122|311:152,1,60.75,0|0,3:0|0:0,0:0:0:0:
478,149,117099,2,0,P|483:119|479:89,1,60.75,10|0,0:2|0:0,0:0:0:0:
199,9,117263,6,0,P|176:127|199:246,1,243,2|0,3:2|3:0,0:0:0:0:
243,333,117673,1,0,3:0:0:0:
243,334,117755,2,0,P|212:331|181:334,1,60.75,8|0,0:0|0:0,0:0:0:0:
306,162,117919,1,0,3:0:0:0:
306,162,118001,1,0,3:0:0:0:
306,162,118083,2,0,P|366:164|407:221,1,121.5,2|0,3:2|0:0,0:0:0:0:
495,176,118328,1,2,3:2:0:0:
500,150,118410,6,2,L|511:104,7,30.375,10|2|2|2|2|2|2|2,0:0|0:0|0:0|0:0|3:2|0:0|3:2|0:0,0:0:0:0:
512,97,118738,6,0,P|386:69|307:172,1,273.375010428429,4|0,0:0|0:0,0:0:0:0:
302,349,119066,2,0,P|323:261|307:172,1,182.250006952286,8|0,0:0|0:0,0:0:0:0:
1,54,119394,2,0,P|89:33|178:50,1,182.250006952286,8|0,0:0|0:0,0:0:0:0:
307,172,119640,2,0,P|255:97|178:50,1,182.250006952286,10|0,0:2|0:0,0:0:0:0:
178,50,119886,6,0,P|162:186|178:322,1,273.375010428429,10|0,0:0|0:0,0:0:0:0:
178,321,120214,2,0,P|133:318|98:289,1,91.125003476143,8|0,0:0|0:0,0:0:0:0:
98,290,120378,2,0,P|190:274|260:337,1,194.4,8|0,0:0|0:0,0:0:0:0:
502,54,120705,6,0,L|393:38,1,109.349996662903,12|0,0:0|0:0,0:0:0:0:
1,152,120951,6,0,L|110:168,1,109.349996662903,12|0,0:0|0:0,0:0:0:0:
453,370,121197,6,0,L|344:354,1,109.349996662903,12|0,0:0|0:0,0:0:0:0:
149,45,121361,5,4,0:0:0:0:
406,278,121853,2,2,L|401:319,3,40.5
406,278,122673,6,0,P|297:251|229:340,1,236.924989154435,0|0,3:0|0:0,0:0:0:0:
111,155,123001,2,0,P|219:128|287:217,1,236.924989154435,0|0,3:0|0:0,0:0:0:0:
214,344,123328,6,0,P|168:339|123:343,1,91.125003476143,0|0,3:0|0:0,0:0:0:0:
372,135,123492,2,0,P|417:138|463:135,1,91.125003476143,0|0,3:0|0:0,0:0:0:0:
214,40,123656,6,0,P|168:44|123:40,1,91.125003476143,8|0,0:0|0:0,0:0:0:0:
371,249,123820,2,0,P|416:245|461:249,1,91.125003476143,8|0,0:0|0:0,0:0:0:0:
461,249,124640,5,2,0:3:0:0:
329,87,124804,2,0,P|299:81|269:86,1,60.75,0|0,3:0|0:0,0:0:0:0:
41,295,124968,6,0,B|96:317|96:317|148:294,1,115.42499691782,8|0,0:0|0:0,0:0:0:0:
170,45,125132,6,0,B|145:119|166:198|249:172|281:251|254:333,1,318.937503041625,0|0,3:0|0:0,0:0:0:0:
187,376,125460,1,0,3:0:0:0:
257,21,125624,1,4,3:2:0:0:
257,21,126279,6,2,L|257:51,7,30.375
241,85,126607,6,0,P|364:74|441:162,1,246.037500938559,6|0,3:2|0:0,0:0:0:0:
437,375,126935,2,0,P|452:267|440:159,1,218.699993325806,10|0,0:0|0:0,0:0:0:0:
175,180,127263,2,0,P|164:251|173:323,1,145.799995550537,2|0,3:2|0:0,0:0:0:0:
256,358,127509,1,2,0:0:0:0:
256,358,127591,2,0,P|289:355|332:358,1,72.8999977752686,8|0,0:0|0:0,0:0:0:0:
210,90,127755,2,0,P|139:85|88:134,1,145.799995550537,2|0,0:0|3:0,0:0:0:0:
318,265,128083,5,2,0:0:0:0:
359,6,128246,1,10,0:0:0:0:
512,158,128410,2,0,P|475:162|437:157,1,72.8999977752686,2|0,0:0|0:0,0:0:0:0:
240,299,128574,2,0,P|310:291|364:336,1,145.799995550537,2|0,3:2|0:0,0:0:0:0:
449,384,128820,1,2,0:0:0:0:
448,383,128902,2,0,P|447:347|450:311,1,72.8999977752686,8|0,0:0|0:0,0:0:0:0:
305,78,129066,1,2,0:0:0:0:
161,356,129230,6,0,P|58:348|15:253,1,218.699993325806,2|0,3:2|0:0,0:0:0:0:
17,35,129558,2,0,P|26:144|15:253,1,218.699993325806,10|0,0:0|0:0,0:0:0:0:
126,64,129886,2,0,P|195:55|242:108,1,145.799995550537,2|0,3:2|0:0,0:0:0:0:
194,258,130132,1,2,0:0:0:0:
194,257,130214,2,0,P|157:252|122:256,1,72.8999977752686,8|0,0:0|0:0,0:0:0:0:
355,35,130378,2,0,P|348:107|353:180,1,145.799995550537,2|0,0:0|3:0,0:0:0:0:
155,357,130705,5,2,0:0:0:0:
241,107,130869,1,10,0:0:0:0:
311,384,131033,1,2,0:0:0:0:
512,295,131197,1,2,3:2:0:0:
479,222,131279,2,0,P|408:208|349:270,1,145.799995550537,8|0,0:0|0:0,0:0:0:0:
269,298,131525,2,0,P|271:261|269:225,1,72.8999977752686,8|0,0:0|0:0,0:0:0:0:
36,5,131689,1,0,3:0:0:0:
36,5,131771,1,0,3:0:0:0:
36,5,131853,6,0,P|0:93|36:218,1,218.699993325806,6|0,3:2|0:0,0:0:0:0:
189,273,132181,2,0,P|131:188|30:209,1,218.699993325806,10|0,0:0|0:0,0:0:0:0:
1,332,132509,2,0,P|53:380|124:376,1,145.799995550537,2|0,3:2|0:0,0:0:0:0:
294,257,132755,1,2,0:0:0:0:
294,257,132837,2,0,P|291:293|292:329,1,72.8999977752686,8|0,0:0|0:0,0:0:0:0:
144,160,133001,2,0,P|147:87|142:14,1,145.799995550537,2|0,0:0|3:0,0:0:0:0:
379,99,133328,5,2,0:0:0:0:
170,316,133492,1,10,0:0:0:0:
248,27,133656,1,2,0:0:0:0:
309,276,133820,6,0,B|403:269|406:326|489:309,1,182.25,2|2,3:2|0:0,0:0:0:0:
502,297,134148,2,0,P|516:238|501:180,1,121.5,8|0,0:0|3:0,0:0:0:0:
362,25,134394,1,8,0:2:0:0:
362,25,134476,6,0,P|241:17|176:119,1,246.037500938559,4|0,0:0|0:0,0:0:0:0:
181,196,134804,1,8,0:2:0:0:
461,95,134968,6,0,L|471:5,1,91.125003476143,12|0,0:0|0:0,0:0:0:0:
42,289,135296,6,0,L|32:379,1,91.125003476143,12|0,0:0|0:0,0:0:0:0:
359,120,135624,6,0,L|369:30,1,91.125003476143,12|0,0:0|0:0,0:0:0:0:
148,330,135951,5,0,3:0:0:0:
175,332,136033,1,0,3:0:0:0:
202,334,136115,2,0,L|292:344,1,91.125003476143,8|0,0:0|0:0,0:0:0:0:
8,166,136279,1,0,3:0:0:0:
256,19,136443,6,0,B|311:66|323:138|314:216|239:225|191:176|226:101,1,291.6,8|0,0:0|0:0,0:0:0:0:
381,39,136771,6,0,P|396:82|399:127,1,91.125003476143,8|0,0:0|0:0,0:0:0:0:
138,227,136935,2,0,P|124:183|121:138,1,91.125003476143,8|0,0:0|0:0,0:0:0:0:
472,3,137099,6,0,P|499:108|475:213,1,218.699993325806,6|0,3:2|0:0,0:0:0:0:
319,307,137427,2,0,P|370:216|475:213,1,218.699993325806,10|0,0:0|0:0,0:0:0:0:
469,358,137755,2,0,P|466:285|475:213,1,145.799995550537,2|0,3:2|0:0,0:0:0:0:
223,259,138001,1,2,0:0:0:0:
223,259,138083,2,0,P|225:298|220:347,1,72.8999977752686,8|0,0:0|0:0,0:0:0:0:
413,114,138246,2,0,P|340:119|268:110,1,145.799995550537,2|0,0:0|3:0,0:0:0:0:
9,17,138574,5,2,0:0:0:0:
129,287,138738,1,10,0:0:0:0:
196,7,138902,1,2,0:0:0:0:
0,173,139066,2,0,P|70:165|145:172,1,145.799995550537,2|0,3:2|0:0,0:0:0:0:
231,214,139312,1,2,0:0:0:0:
231,214,139394,2,0,P|229:178|234:139,1,72.8999977752686,8|0,0:0|0:0,0:0:0:0:
449,79,139558,1,2,0:0:0:0:
254,320,139722,6,0,P|182:319|131:269,1,145.799995550537,0|0,3:0|0:0,0:0:0:0:
180,25,140050,2,0,P|285:27|352:116,1,218.699993325806,10|0,0:0|0:0,0:0:0:0:
347,256,140378,2,0,P|342:183|351:111,1,145.799995550537,2|0,3:2|0:0,0:0:0:0:
467,350,140705,1,8,0:0:0:0:
175,118,140869,6,0,P|103:122|55:174,1,145.799995550537,6|0,3:2|0:0,0:0:0:0:
238,384,141197,1,2,3:2:0:0:
0,272,141361,2,0,P|108:261|216:275,1,218.699993325806,8|0,0:0|0:0,0:0:0:0:
314,330,141689,1,0,3:0:0:0:
314,330,141771,1,0,3:0:0:0:
314,330,141853,1,8,0:0:0:0:
229,74,142017,2,0,P|226:37|229:1,1,72.8999977752686,0|0,3:0|0:0,0:0:0:0:
416,156,142181,1,10,0:0:0:0:
416,156,142263,1,0,3:0:0:0:
416,156,142345,6,0,P|376:152|335:156,1,82.0125003128529,6|0,3:2|0:0,0:0:0:0:
26,48,142509,2,0,P|67:50|108:49,1,82.0125003128529,0|0,3:0|0:0,0:0:0:0:
371,245,142673,1,8,0:0:0:0:
229,2,142837,2,0,P|217:124|227:246,1,246.037500938559,0|0,3:0|0:0,0:0:0:0:
304,309,143165,1,0,3:0:0:0:
340,48,143328,1,8,0:0:0:0:
175,369,143492,6,0,P|39:295|59:142,1,328.050001251412,4|0,3:2|3:0,0:0:0:0:
368,25,143984,2,0,P|464:93|462:212,1,246.037500938559,8|0,0:0|0:0,0:0:0:0:
363,273,144312,1,0,3:0:0:0:
145,100,144476,6,0,P|140:59|146:18,1,82.0125003128529,2|0,0:3|0:0,0:0:0:0:
352,144,144640,1,8,0:0:0:0:
175,284,144804,6,0,P|134:291|94:284,1,82.0125003128529,2|0,0:3|0:0,0:0:0:0:
255,63,144968,1,4,3:2:0:0:
308,384,145132,5,0,3:0:0:0:
255,63,145296,1,8,0:0:0:0:
498,231,145460,2,0,P|417:218|335:226,1,164.025000625706,0|0,3:0|0:0,0:0:0:0:
45,324,145787,1,0,3:0:0:0:
277,104,145951,1,8,0:0:0:0:
212,384,146115,6,0,P|163:272|183:152,1,246.037500938559,4|0,3:2|0:0,0:0:0:0:
277,104,146443,1,0,3:0:0:0:
0,0,146607,1,8,0:0:0:0:
259,220,146771,2,0,P|338:206|381:138,1,164.025000625706,0|0,3:0|0:0,0:0:0:0:
319,7,147017,1,8,0:0:0:0:
319,7,147099,2,0,P|279:11|220:3,1,82.0125003128529,0|0,3:0|0:0,0:0:0:0:
14,120,147263,6,0,P|93:113|147:171,1,164.025000625706,8|0,0:0|3:0,0:0:0:0:
150,278,147509,1,8,0:0:0:0:
150,278,147591,6,0,L|142:359,1,82.0125003128529,4|0,3:2|0:0,0:0:0:0:
368,206,147755,2,0,L|375:124,1,82.0125003128529,0|0,3:0|0:0,0:0:0:0:
59,198,147919,6,0,L|51:285,1,88.0875026882173,0|0,3:0|0:0,0:0:0:0:
275,107,148083,2,0,L|282:19,1,88.0875026882173,0|0,3:0|0:0,0:0:0:0:
316,308,148246,6,0,L|412:318,1,97.2,0|0,3:0|0:0,0:0:0:0:
173,117,148410,2,0,L|76:106,1,97.2,0|0,3:0|0:0,0:0:0:0:
368,206,148574,6,0,L|473:217,1,106.312501013875,0|0,3:0|0:0,0:0:0:0:
170,17,148738,2,0,L|64:5,1,106.312501013875,0|4,3:0|0:0,0:0:0:0:
42,209,150214,6,0,P|48:164|42:119,1,91.125003476143,4|0,3:2|0:0,0:0:0:0:
42,119,150542,2,0,P|175:123|185:255,1,291.599991101075,12|0,0:0|0:0,0:0:0:0:
185,256,151033,6,0,P|140:250|95:256,1,91.125003476143,0|0,3:0|0:0,0:0:0:0:
95,254,151361,2,0,P|153:171|252:198,1,218.699993325806,12|0,0:0|0:0,0:0:0:0:
253,198,151689,6,0,P|245:242|248:288,1,91.125003476143,0|0,3:0|0:0,0:0:0:0:
436,376,151853,2,0,P|500:291|482:186,1,218.699993325806,12|0,0:0|0:0,0:0:0:0:
480,41,152181,2,0,P|475:114|482:186,1,145.799995550537,0|0,3:0|0:0,0:0:0:0:
91,150,152509,6,0,P|94:114|90:78,1,72.8999977752686,12|0,0:0|0:0,0:0:0:0:
260,233,152673,1,0,3:0:0:0:
260,233,152755,1,0,3:0:0:0:
260,233,152837,6,0,P|224:229|188:233,1,72.8999977752686,0|0,3:0|0:0,0:0:0:0:
193,20,153001,2,0,P|230:24|266:20,1,72.8999977752686,0|0,3:0|0:0,0:0:0:0:
475,69,153165,2,0,B|320:52|345:146|196:129,1,291.599991101075,12|0,0:2|0:0,0:0:0:0:
196,129,153656,6,0,P|190:166|195:202,1,72.8999977752686,0|0,3:0|0:0,0:0:0:0:
20,377,153820,2,0,P|25:340|20:304,1,72.8999977752686,0|0,3:0|0:0,0:0:0:0:
97,136,153984,2,0,B|77:249|130:249|122:352,1,218.699993325806,12|0,0:0|0:0,0:0:0:0:
122,350,154312,6,0,P|166:342|211:350,1,91.125003476143,0|0,3:0|0:0,0:0:0:0:
424,185,154476,2,0,P|352:193|280:185,1,145.799995550537,12|0,0:0|0:0,0:0:0:0:
399,29,154804,1,0,3:0:0:0:
399,29,154886,1,8,0:0:0:0:
399,29,154968,1,0,3:0:0:0:
316,299,155132,1,8,0:0:0:0:
163,90,155296,1,8,0:0:0:0:
163,90,155378,1,8,0:0:0:0:
163,90,155460,6,0,P|209:83|254:89,1,91.125003476143,4|0,3:2|0:0,0:0:0:0:
253,89,155787,2,0,P|129:49|93:175,1,291.599991101075,12|0,0:0|0:0,0:0:0:0:
93,175,156279,6,0,P|138:165|182:174,1,91.125003476143,0|0,3:0|0:0,0:0:0:0:
181,173,156607,2,0,P|84:145|28:231,1,218.699993325806,12|0,0:0|0:0,0:0:0:0:
28,232,156935,6,0,P|73:224|118:232,1,91.125003476143,0|0,3:0|0:0,0:0:0:0:
116,23,157099,2,0,P|79:25|43:22,1,72.8999977752686,12|0,0:0|0:0,0:0:0:0:
264,130,157263,1,0,3:0:0:0:
512,94,157427,5,8,0:0:0:0:
512,94,157509,1,8,0:0:0:0:
512,94,157591,2,0,P|510:58|512:22,1,72.8999977752686,0|0,3:0|0:0,0:0:0:0:
405,232,157755,2,0,P|408:268|404:304,1,72.8999977752686,8|0,0:0|0:0,0:0:0:0:
400,103,157919,1,8,3:2:0:0:
400,103,158001,1,8,0:0:0:0:
400,103,158083,6,0,B|393:34|343:-18|250:-9|211:31|184:82|192:146|227:206|269:191|307:176|340:209|336:282|318:338|274:382|234:393|171:391|132:382|95:352|50:274|56:207|152:173|152:173|100:207|98:270,1,972,4|4,0:0|0:0,0:0:0:0:
71,149,171197,6,0,P|140:137|191:185,1,145.8,6|0,3:2|0:0,0:0:0:0:
277,239,171525,2,0,P|274:190|277:142,1,97.2,0|2,3:0|0:0,0:0:0:0:
115,221,171853,2,0,P|117:269|114:317,1,97.2,2|0,3:2|0:0,0:0:0:0:
75,53,172181,2,0,P|123:56|171:53,1,97.2,0|0,3:0|0:0,0:0:0:0:
414,143,172509,6,0,P|343:149|287:104,1,145.8,2|0,3:2|0:0,0:0:0:0:
284,27,172837,1,0,3:0:0:0:
503,110,173001,1,2,0:2:0:0:
503,110,173083,1,2,0:2:0:0:
503,110,173165,1,8,0:0:0:0:
287,219,173328,1,2,0:0:0:0:
445,267,173492,1,2,3:2:0:0:
400,121,173656,1,2,0:0:0:0:
220,346,173820,6,0,P|292:339|364:347,1,145.8,6|0,3:2|0:0,0:0:0:0:
440,372,174148,2,0,P|455:325|447:278,1,97.2,0|0,3:0|0:0,0:0:0:0:
272,115,174476,2,0,P|258:161|265:209,1,97.2,0|0,3:0|0:0,0:0:0:0:
467,167,174804,2,0,P|421:171|366:165,1,97.2,0|0,3:0|0:0,0:0:0:0:
77,238,175132,6,0,P|147:237|189:293,1,145.8,2|0,3:2|0:0,0:0:0:0:
197,372,175460,1,0,3:0:0:0:
296,182,175624,1,0,3:0:0:0:
296,182,175705,1,0,3:0:0:0:
296,182,175787,1,8,0:2:0:0:
103,327,175951,1,0,3:0:0:0:
168,103,176115,1,2,3:0:0:0:
266,308,176279,1,0,3:0:0:0:
207,24,176443,6,0,P|137:16|85:64,1,145.8,4|0,3:2|0:0,0:0:0:0:
86,143,176771,1,0,3:0:0:0:
283,92,176935,1,2,0:0:0:0:
123,265,177099,2,0,P|74:260|26:263,1,97.2,2|0,3:2|0:0,0:0:0:0:
310,187,177427,2,0,P|358:191|406:188,1,97.2,0|0,3:0|0:0,0:0:0:0:
217,370,177755,6,0,P|221:297|217:224,1,145.8,2|0,3:2|0:0,0:0:0:0:
160,173,178083,1,0,3:0:0:0:
354,46,178246,1,2,0:0:0:0:
354,46,178328,1,2,0:0:0:0:
354,46,178410,1,8,0:0:0:0:
317,267,178574,1,2,0:0:0:0:
221,47,178738,1,2,3:2:0:0:
389,172,178902,1,2,0:0:0:0:
83,144,179066,6,0,P|155:135|227:142,1,145.8,6|0,3:2|0:0,0:0:0:0:
296,97,179394,1,0,3:0:0:0:
101,28,179558,1,0,0:0:0:0:
213,235,179722,2,0,P|260:234|299:205,1,97.2,0|0,3:0|0:0,0:0:0:0:
449,23,180050,2,0,P|445:71|447:119,1,97.2,0|0,3:0|0:0,0:0:0:0:
501,358,180378,6,0,P|453:305|383:305,1,145.8,4|0,3:2|0:0,0:0:0:0:
305,326,180705,2,0,P|308:351|305:375,1,48.6,0|0,3:0|3:0,0:0:0:0:
277,177,180869,2,0,P|301:179|325:178,1,48.6,0|0,3:0|0:0,0:0:0:0:
213,346,181033,2,2,P|200:344|188:345,7,24.3,2|2|2|2|2|2|2|2,3:2|0:0|0:0|0:0|0:0|0:0|0:0|0:0,0:0:0:0:
169,329,181361,6,0,P|234:318|272:263,1,136.687505214215,4|0,0:0|0:0,0:0:0:0:
186,30,181689,6,0,P|172:128|183:228,1,200.475001911879,6|0,3:2|0:0,0:0:0:0:
396,112,181935,1,2,3:2:0:0:
396,112,182017,2,0,P|344:120|283:113,1,100.237500955939,8|0,0:0|0:0,0:0:0:0:
39,275,182181,6,0,P|183:252|267:370,1,300.712502867818,2|0,3:2|0:0,0:0:0:0:
186,30,182509,2,0,P|89:20|30:98,1,200.475001911879,2|8,3:2|0:0,0:0:0:0:
31,94,182837,6,0,B|196:76|152:203|304:193,1,300.712502867818,6|0,3:2|0:0,0:0:0:0:
356,18,183165,2,0,P|377:62|374:111,1,100.237500955939,0|0,3:0|0:0,0:0:0:0:
119,382,183328,2,0,P|66:300|75:202,1,200.475001911879,8|0,0:0|0:0,0:0:0:0:
364,302,183656,6,0,P|314:296|264:302,1,100.237500955939,0|0,3:0|0:0,0:0:0:0:
35,81,183820,2,0,P|84:86|134:80,1,100.237500955939,0|0,3:0|0:0,0:0:0:0:
380,134,183984,2,0,B|278:129|298:197|190:187,1,200.475001911879,8|0,0:0|3:0,0:0:0:0:
459,220,184230,1,0,3:0:0:0:
459,220,184312,6,0,P|480:81|356:16,1,300.712502867818,4|0,3:2|0:0,0:0:0:0:
51,162,184640,2,0,P|30:301|155:367,1,300.712502867818,8|0,0:0|0:0,0:0:0:0:
305,311,184968,5,0,3:0:0:0:
208,98,185132,1,0,3:0:0:0:
189,350,185296,5,8,0:0:0:0:
324,28,185460,1,8,0:0:0:0:
100,149,185624,6,0,L|0:155,1,100.237500955939,2|0,3:2|0:0,0:0:0:0:
397,258,185787,2,0,L|497:250,1,100.237500955939,0|0,3:0|0:0,0:0:0:0:
140,38,185951,6,0,L|39:44,1,100.237500955939,0|0,3:0|0:0,0:0:0:0:
413,149,186115,2,0,L|513:141,1,100.237500955939,0|0,3:0|0:0,0:0:0:0:
254,376,186279,5,2,3:2:0:0:
255,355,186361,1,0,3:0:0:0:
257,333,186443,2,2,L|262:282,12,30.375,4|2|2|2|2|2|2|2|2|2|2|2|6,0:2|0:0|0:0|0:0|3:2|0:0|0:0|0:0|0:0|0:0|0:0|0:0|0:0,0:0:0:0:
143,40,197427,6,0,P|150:111|141:199,1,145.8,6|0,3:2|0:0,0:0:0:0:
92,268,197755,2,0,P|140:264|188:269,1,97.2,2|0,3:2|0:0,0:0:0:0:
477,206,198083,2,0,P|407:194|355:242,1,145.8,2|2,3:2|0:0,0:0:0:0:
270,295,198410,2,0,P|273:270|271:246,1,48.6,0|0,3:0|0:0,0:0:0:0:
438,280,198574,2,0,P|434:328|436:376,1,97.2,2|0,0:0|3:0,0:0:0:0:
324,142,198902,5,2,0:0:0:0:
503,50,199066,1,2,3:2:0:0:
503,218,199230,1,2,0:0:0:0:
412,10,199394,2,0,P|406:58|411:106,1,97.2,2|0,3:2|0:0,0:0:0:0:
462,198,199640,1,2,0:0:0:0:
462,198,199722,2,0,P|414:193|366:197,1,97.2,0|2,3:0|0:0,0:0:0:0:
191,50,200050,6,0,P|239:55|287:51,1,97.2,2|0,3:2|0:0,0:0:0:0:
82,212,200378,2,0,P|34:204|-5:165,1,97.2,2|0,3:2|0:0,0:0:0:0:
89,4,200705,2,0,P|82:52|87:100,1,97.2,2|0,3:2|0:0,0:0:0:0:
233,299,201033,1,0,3:0:0:0:
494,61,201197,6,0,L|403:52,1,91.125003476143,12|0,0:0|0:0,0:0:0:0:
18,323,201525,6,0,L|109:332,1,91.125003476143,12|0,0:0|0:0,0:0:0:0:
289,19,201853,5,0,3:0:0:0:
147,162,202017,2,0,P|138:201|146:240,1,78.9749963848116,8|0,0:0|0:0,0:0:0:0:
311,62,202181,1,0,3:0:0:0:
415,305,202345,6,0,P|423:266|415:227,1,78.9749963848116,8|0,0:0|0:0,0:0:0:0:
213,86,202509,1,0,3:0:0:0:
213,86,202591,1,0,3:0:0:0:
213,86,202673,5,4,3:2:0:0:
265,320,202837,1,0,0:0:0:0:
462,136,203001,2,0,P|414:140|366:137,1,97.2,2|0,3:2|0:0,0:0:0:0:
345,362,203328,1,0,3:0:0:0:
161,226,203492,2,0,P|209:221|257:224,1,97.2,2|0,0:0|3:0,0:0:0:0:
106,48,203820,6,0,P|59:51|24:84,1,97.2,2|0,0:0|3:0,0:0:0:0:
205,135,204148,1,0,0:0:0:0:
59,275,204312,2,0,P|62:223|59:177,1,97.2,2|0,3:2|0:0,0:0:0:0:
322,10,204640,2,0,P|317:83|323:156,1,145.8,2|0,3:2|0:0,0:0:0:0:
368,224,204968,2,0,P|415:227|456:202,1,97.2,2|0,3:2|0:0,0:0:0:0:
168,78,205296,5,2,3:2:0:0:
324,369,205460,1,2,3:2:0:0:
324,369,205542,1,0,3:0:0:0:
324,369,205624,1,0,3:0:0:0:
495,115,205787,6,0,B|353:120|407:227|233:217,1,291.6,12|0,0:0|0:0,0:0:0:0:
18,9,206115,2,0,B|159:14|105:121|279:111,1,291.6,12|0,0:0|0:0,0:0:0:0:
82,382,206443,6,0,P|-5:306|1:191,1,236.924989154435,8|0,0:0|0:0,0:0:0:0:
47,108,206771,1,0,3:0:0:0:
427,181,206935,5,10,0:2:0:0:
167,261,207099,1,0,3:0:0:0:
167,261,207181,1,2,3:2:0:0:
167,261,207263,2,0,B|132:269|132:269|87:256,1,72.8999977752686,0|0,3:0|0:0,0:0:0:0:
80,234,207427,6,0,P|146:227|213:236,1,133.650004078674,8|0,0:0|0:0,0:0:0:0:
213,236,207755,6,0,P|204:280|211:324,1,91.125003476143,12|0,0:0|0:0,0:0:0:0:
496,367,207919,5,0,3:2:0:0:
354,66,208083,1,2,0:0:0:0:
304,380,208246,1,10,0:0:0:0:
512,212,208410,2,0,P|444:218|366:211,1,145.799995550537,6|0,0:0|0:0,0:0:0:0:
254,29,208738,5,2,0:0:0:0:
194,313,208902,1,10,0:0:0:0:
0,84,209066,2,0,P|80:77|127:143,1,170.09999480896,6|0,3:2|0:0,0:0:0:0:
210,195,209312,1,0,3:0:0:0:
210,195,209394,6,0,L|217:122,1,72.8999977752686,2|0,3:2|0:0,0:0:0:0:
410,72,209558,2,0,L|417:-1,1,72.8999977752686,0|0,3:0|0:0,0:0:0:0:
314,191,209722,6,0,L|322:272,1,82.0125003128529,2|0,3:2|0:0,0:0:0:0:
504,303,209886,2,0,L|512:384,1,82.0125003128529,2|0,3:2|0:0,0:0:0:0:
512,174,210050,6,0,L|421:181,1,91.125003476143,0|0,3:0|0:0,0:0:0:0:
141,367,210214,2,0,L|231:359,1,91.125003476143,2|0,3:2|0:0,0:0:0:0:
410,72,210378,2,0,L|319:79,1,91.125003476143,0|0,3:0|0:0,0:0:0:0:
75,233,211853,6,0,P|221:295|253:139,1,364.5,8|0,0:0|0:0,0:0:0:0:
437,85,212181,2,0,P|291:20|256:176,1,364.5,8|0,0:0|0:0,0:0:0:0:
295,377,212509,2,0,B|323:285|305:199|199:216|190:118|233:43,2,364.5,8|8|8,0:0|0:0|0:0,0:0:0:0:
295,377,213328,6,0,P|237:355|172:357,1,121.5,8|0,0:0|0:0,0:0:0:0:
90,40,213492,2,0,P|266:82|448:74,1,364.5,8|0,0:0|0:0,0:0:0:0:
416,379,213820,2,0,P|242:325|61:327,2,364.5,8|8|8,0:0|0:0|0:0,0:0:0:0:
351,159,214476,6,0,P|224:77|218:228,1,364.5,8|0,0:0|0:0,0:0:0:0:
416,379,214804,2,0,P|493:216|467:38,1,364.5,8|0,0:0|0:0,0:0:0:0:
96,5,215132,2,0,P|18:167|44:345,2,364.5,8|8|12,0:0|0:0|0:0,0:0:0:0:
493,155,216607,5,0,3:0:0:0:
493,155,216689,1,0,3:0:0:0:
493,155,216771,2,0,P|363:93|430:250,1,364.5,8|0,0:0|0:0,0:0:0:0:
409,167,217099,6,0,P|291:156|173:171,1,236.924989154435,6|0,3:2|0:0,0:0:0:0:
3,269,217427,2,0,P|116:268|174:171,1,236.924989154435,10|0,0:0|0:0,0:0:0:0:
56,5,217755,2,0,P|44:82|57:160,1,157.949992769623,2|0,3:2|0:0,0:0:0:0:
285,318,218001,1,2,0:0:0:0:
285,318,218083,2,0,P|246:315|206:317,1,78.9749963848116,8|0,0:0|0:0,0:0:0:0:
169,59,218246,2,0,P|247:67|326:62,1,157.949992769623,2|0,0:0|3:0,0:0:0:0:
505,336,218574,5,2,0:0:0:0:
247,198,218738,1,10,0:0:0:0:
487,60,218902,1,2,0:0:0:0:
370,367,219066,2,0,P|382:249|370:131,1,236.924989154435,2|0,3:2|0:0,0:0:0:0:
315,45,219394,1,8,0:0:0:0:
481,215,219558,2,0,P|485:254|481:293,1,78.9749963848116,0|8,3:0|0:2,0:0:0:0:
203,50,219722,6,0,P|89:50|35:154,1,236.924989154435,6|0,3:2|0:0,0:0:0:0:
74,260,220050,1,8,0:0:0:0:
406,107,220214,6,0,L|417:-14,1,97.2,12|0,0:0|0:0,0:0:0:0:
98,275,220542,6,0,L|91:402,1,97.2,12|0,0:0|0:0,0:0:0:0:
501,176,220869,6,0,L|512:79,1,97.2,12|0,0:0|0:0,0:0:0:0:
19,78,221197,5,0,3:0:0:0:
44,82,221279,1,0,3:0:0:0:
71,86,221361,2,0,L|149:93,1,78.9749963848116,8|0,0:0|0:0,0:0:0:0:
350,324,221525,1,0,3:0:0:0:
261,31,221689,6,0,B|206:152|266:260|266:260|271:219|291:193,1,309.825005909443,8|0,0:0|0:0,0:0:0:0:
374,135,222017,6,0,P|391:183|387:234,1,103.275001969814,8|0,0:0|0:0,0:0:0:0:
157,383,222181,2,0,P|139:334|143:283,1,103.275001969814,8|0,0:0|0:0,0:0:0:0:
261,31,222345,5,0,1:0:0:0:
105,201,222509,2,0,P|144:196|183:200,1,78.9749963848116,0|0,3:0|0:0,0:0:0:0:
424,29,222673,6,0,B|252:12|310:125|124:99,1,318.937503041625,6|0,0:0|0:0,0:0:0:0:
4,38,223001,6,0,P|80:37|124:99,1,157.949992769623,2|0,3:2|0:0,0:0:0:0:
0,252,223246,1,2,0:0:0:0:
0,252,223328,2,0,P|2:212|0:173,1,78.9749963848116,8|0,0:0|0:0,0:0:0:0:
227,2,223492,2,0,P|219:80|223:159,1,157.949992769623,2|0,0:2|3:0,0:0:0:0:
439,384,223820,5,2,0:0:0:0:
321,85,223984,1,10,0:0:0:0:
221,376,224148,1,2,0:0:0:0:
512,235,224312,2,0,P|436:226|354:233,1,157.949992769623,2|0,3:2|0:0,0:0:0:0:
398,127,224558,1,2,0:0:0:0:
398,127,224640,2,0,P|439:132|484:126,1,78.9749963848116,8|0,0:0|0:0,0:0:0:0:
267,10,224804,1,2,0:0:0:0:
142,259,224968,6,0,P|70:235|47:163,1,157.949992769623,2|0,3:2|0:0,0:0:0:0:
285,25,225296,2,0,P|297:142|287:260,1,236.924989154435,10|0,0:2|0:0,0:0:0:0:
323,346,225624,2,0,P|400:346|449:287,1,157.949992769623,2|0,3:2|0:0,0:0:0:0:
132,184,225951,1,8,0:0:0:0:
443,31,226115,6,0,P|471:104|469:182,1,157.949992769623,6|0,3:2|0:0,0:0:0:0:
234,45,226443,1,2,3:2:0:0:
90,375,226607,2,0,P|26:277|41:162,1,236.924989154435,8|0,0:0|0:0,0:0:0:0:
100,77,226935,1,0,3:0:0:0:
100,77,227017,1,0,3:0:0:0:
100,77,227099,1,8,0:0:0:0:
254,276,227263,1,0,3:0:0:0:
412,51,227427,2,0,P|408:87|411:136,1,78.9749963848116,10|0,0:2|3:0,0:0:0:0:
262,364,227591,6,0,P|274:246|262:129,1,236.924989154435,6|0,3:2|0:0,0:0:0:0:
204,49,227919,2,0,P|127:46|72:100,1,157.949992769623,8|0,0:0|0:0,0:0:0:0:
165,310,228246,1,0,3:0:0:0:
300,51,228410,1,0,3:0:0:0:
50,199,228574,1,8,0:0:0:0:
278,378,228738,1,0,3:0:0:0:
278,378,228820,1,0,3:0:0:0:
277,378,228902,6,0,P|395:366|513:374,1,236.924989154435,0|0,3:0|0:0,0:0:0:0:
468,267,229230,2,0,P|389:261|311:270,1,157.949992769623,8|0,0:0|0:0,0:0:0:0:
0,377,229558,1,0,3:0:0:0:
165,234,229722,1,2,0:0:0:0:
165,234,229804,1,0,3:0:0:0:
165,234,229886,2,0,P|162:273|164:312,1,78.9749963848116,8|0,0:0|0:0,0:0:0:0:
0,185,230050,2,0,P|2:145|-1:106,1,78.9749963848116,2|0,3:2|0:0,0:0:0:0:
219,25,230214,6,0,P|330:10|396:102,1,236.924989154435,4|0,3:2|0:0,0:0:0:0:
503,190,230542,2,0,P|499:111|506:32,1,157.949992769623,8|0,0:0|0:0,0:0:0:0:
357,310,230869,1,2,3:2:0:0:
303,325,230951,1,2,0:0:0:0:
249,309,231033,1,2,0:2:0:0:
214,266,231115,1,2,0:0:0:0:
205,211,231197,2,0,P|249:215|302:212,1,78.9749963848116,10|2,0:0|0:0,0:0:0:0:
480,56,231361,2,0,P|439:51|386:60,1,78.9749963848116,2|2,3:2|0:0,0:0:0:0:
303,324,231525,6,0,P|314:207|307:89,1,236.924989154435,4|0,3:2|0:0,0:0:0:0:
186,26,231853,2,0,P|231:88|307:88,1,157.949992769623,8|0,0:0|0:0,0:0:0:0:
415,14,232181,1,0,3:0:0:0:
415,14,232263,1,8,0:0:0:0:
415,14,232345,2,0,P|410:51|415:111,1,78.9749963848116,0|0,3:0|0:0,0:0:0:0:
208,262,232509,2,0,P|210:225|207:183,1,78.9749963848116,8|0,0:0|0:0,0:0:0:0:
485,306,232673,2,0,P|480:345|480:384,1,78.9749963848116,8|0,0:0|0:0,0:0:0:0:
455,177,232837,6,0,P|412:182|370:177,1,85.0499974044801,4|0,3:2|0:0,0:0:0:0:
221,375,233001,2,0,P|263:370|305:373,1,85.0499974044801,0|0,3:0|0:0,0:0:0:0:
225,97,233165,1,8,0:0:0:0:
36,377,233328,2,0,P|-4:257|23:134,1,255.14999221344,2|0,3:2|0:0,0:0:0:0:
99,51,233656,1,0,3:0:0:0:
399,262,233820,1,8,0:0:0:0:
281,10,233984,6,0,B|315:196|198:150|226:337,1,340.19998961792,4|0,3:2|3:2,0:0:0:0:
99,51,234476,1,10,0:0:0:0:
355,349,234640,2,0,P|438:351|493:289,1,170.09999480896,2|0,3:2|0:0,0:0:0:0:
454,164,234886,1,8,0:0:0:0:
454,164,234968,2,0,P|410:168|347:154,1,85.0499974044801,2|0,3:2|0:0,0:0:0:0:
150,291,235132,1,8,0:0:0:0:
414,84,235296,1,0,3:0:0:0:
414,84,235378,1,8,0:0:0:0:
414,84,235460,6,0,L|423:0,1,85.0499974044801,6|0,3:2|0:0,0:0:0:0:
148,193,235624,2,0,L|137:281,1,85.0499974044801,0|0,3:0|0:0,0:0:0:0:
316,121,235787,6,0,L|327:28,1,94.1625007184029,2|0,3:2|0:0,0:0:0:0:
46,235,235951,2,0,L|32:333,1,94.1625007184029,2|0,3:2|0:0,0:0:0:0:
144,40,236115,6,0,L|41:29,1,103.275001969814,0|0,3:0|0:0,0:0:0:0:
400,260,236279,2,0,L|519:274,1,103.275001969814,0|0,3:0|0:0,0:0:0:0:
149,135,236443,6,0,L|8:119,1,112.387499571276,0|0,3:0|0:0,0:0:0:0:
401,356,236607,2,0,L|520:373,1,112.387499571276,0|0,3:0|0:0,0:0:0:0:
167,38,238083,6,0,P|268:29|332:109,1,212.625,0|0,3:0|0:0,0:0:0:0:
332,109,238738,2,0,P|230:99|167:179,1,212.625,0|0,3:0|0:0,0:0:0:0:
167,179,239394,6,0,P|271:174|334:258,1,218.699993325806,4|0,3:2|0:0,0:0:0:0:
334,259,239722,2,0,P|229:253|166:337,1,218.699993325806,0|0,3:0|0:0,0:0:0:0:
166,336,240050,6,0,P|217:348|266:338,1,103.275001969814,0|0,3:0|0:0,0:0:0:0:
361,143,240214,2,2,P|363:126|362:109,1,33.4125010196686,2|0,0:0|0:0,0:0:0:0:
353,75,240296,2,2,P|347:59|338:45,1,33.4125010196686,2|0,0:0|0:0,0:0:0:0:
308,32,240378,6,0,P|256:72|255:134,1,127.57499610672,0|0,3:0|0:0,0:0:0:0:
288,367,240705,6,0,B|316:207|200:216|235:69,1,309.825005909443,6|0,3:2|0:0,0:0:0:0:
153,12,241033,1,8,0:0:0:0:
408,245,241197,2,0,P|472:239|512:187,1,133.650004078674,2|0,0:0|3:0,0:0:0:0:
153,120,241525,1,0,0:0:0:0:
419,7,241689,2,0,P|431:72|423:138,1,133.650004078674,10|0,0:0|0:0,0:0:0:0:
101,247,242017,5,0,3:0:0:0:
284,79,242181,1,2,0:2:0:0:
298,346,242345,1,10,0:2:0:0:
57,155,242509,2,0,P|90:157|123:154,1,66.8250020393372,2|0,0:0|0:0,0:0:0:0:
345,255,242673,2,0,P|248:258|194:338,1,200.475006118012,2|0,3:2|0:0,0:0:0:0:
103,380,243001,2,0,P|106:313|100:246,1,133.650004078674,10|0,0:0|0:0,0:0:0:0:
0,30,243328,6,0,P|99:42|198:28,1,200.475006118012,2|0,3:2|0:0,0:0:0:0:
263,91,243656,1,8,0:0:0:0:
505,10,243820,2,0,P|518:77|510:145,1,133.650004078674,2|0,0:0|3:0,0:0:0:0:
289,6,244148,1,0,0:0:0:0:
128,269,244312,2,0,P|115:202|123:134,1,133.650004078674,10|0,0:0|0:0,0:0:0:0:
417,282,244640,5,0,3:0:0:0:
239,69,244804,1,2,0:0:0:0:
262,376,244968,1,10,0:0:0:0:
392,120,245132,1,2,0:0:0:0:
143,298,245296,5,2,3:2:0:0:
143,298,245378,1,8,0:0:0:0:
143,298,245460,1,0,3:0:0:0:
248,32,245624,1,10,0:0:0:0:
358,360,245787,1,0,3:0:0:0:
358,360,245869,1,8,0:0:0:0:
358,360,245951,6,0,P|453:346|490:257,1,200.475006118012,6|0,0:0|0:0,0:0:0:0:
476,165,246279,1,8,0:0:0:0:
117,246,246443,2,0,P|107:312|118:378,1,133.650004078674,2|0,0:0|3:0,0:0:0:0:
150,45,246771,1,0,0:0:0:0:
380,133,246935,2,0,P|389:199|379:265,1,133.650004078674,10|0,0:0|0:0,0:0:0:0:
116,141,247263,5,0,3:0:0:0:
319,22,247427,1,2,0:0:0:0:
284,310,247591,1,10,0:0:0:0:
28,107,247755,1,2,3:2:0:0:
28,107,247837,1,0,3:0:0:0:
28,106,247919,2,0,P|134:113|242:99,1,200.475006118012,2|0,3:2|0:0,0:0:0:0:
319,22,248246,2,0,P|312:82|320:170,1,133.650004078674,10|0,0:0|0:0,0:0:0:0:
121,371,248574,6,0,P|56:367|19:314,1,133.650004078674,6|0,3:2|0:0,0:0:0:0:
244,229,248820,1,8,0:0:0:0:
244,229,248902,2,0,P|241:269|243:308,1,78.9749963848116,0|0,3:0|0:0,0:0:0:0:
33,211,249066,2,0,P|39:132|33:53,1,157.949992769623,10|0,0:0|3:0,0:0:0:0:
334,7,249312,5,8,0:0:0:0:
334,7,249394,2,0,P|331:46|333:85,1,78.9749963848116,0|0,3:0|0:0,0:0:0:0:
133,181,249558,2,0,P|135:141|133:102,1,78.9749963848116,10|0,0:0|0:0,0:0:0:0:
422,285,249722,2,0,P|419:324|422:363,1,78.9749963848116,8|0,0:0|0:0,0:0:0:0:
236,63,249886,5,4,3:2:0:0:
208,378,250050,1,0,3:0:0:0:
488,194,250214,2,0,P|422:183|356:192,1,133.650004078674,12|0,0:0|3:0,0:0:0:0:
94,271,250542,5,0,3:0:0:0:
68,262,250624,1,0,3:0:0:0:
34,240,250705,1,0,3:0:0:0:
12,190,250787,1,0,3:0:0:0:
13,123,250869,5,8,0:0:0:0:
56,63,250951,1,8,0:0:0:0:
133,42,251033,1,8,0:0:0:0:
217,63,251115,1,8,0:0:0:0:
274,141,251197,6,0,P|282:250|274:363,1,218.699993325806,6|0,3:2|0:0,0:0:0:0:
189,384,251525,1,8,0:0:0:0:
367,92,251689,2,0,P|434:99|483:161,1,145.799995550537,2|0,0:0|3:0,0:0:0:0:
134,234,252017,1,0,0:0:0:0:
390,333,252181,2,0,P|399:260|393:188,1,145.799995550537,10|0,0:0|0:0,0:0:0:0:
64,36,252509,5,0,3:0:0:0:
175,342,252673,1,2,0:0:0:0:
264,46,252837,1,10,0:0:0:0:
12,242,253001,2,0,P|48:236|87:241,1,72.8999977752686,2|0,0:0|0:0,0:0:0:0:
335,129,253165,2,0,P|229:143|154:70,1,218.699993325806,2|0,3:2|0:0,0:0:0:0:
53,1,253492,2,0,P|58:64|51:153,1,145.799995550537,10|0,0:2|0:0,0:0:0:0:
435,345,253820,6,0,P|427:236|438:127,1,218.699993325806,2|0,3:2|0:0,0:0:0:0:
508,20,254148,1,8,0:0:0:0:
196,160,254312,2,0,P|124:147|51:145,1,145.799995550537,2|0,0:0|3:0,0:0:0:0:
501,114,254640,5,0,0:0:0:0:
182,257,254804,2,0,P|110:244|37:242,1,145.799995550537,10|0,0:0|0:0,0:0:0:0:
491,209,255132,5,0,3:0:0:0:
165,356,255296,2,0,P|93:343|20:341,1,145.799995550537,2|10,0:0|0:0,0:0:0:0:
319,39,255624,5,2,0:0:0:0:
282,354,255787,1,2,3:2:0:0:
282,354,255869,1,8,0:0:0:0:
282,354,255951,1,0,3:0:0:0:
106,69,256115,1,10,0:0:0:0:
414,181,256279,1,0,3:0:0:0:
414,181,256361,1,8,0:0:0:0:
414,181,256443,6,0,B|280:171|338:243|178:225,1,218.699993325806,6|0,3:2|0:0,0:0:0:0:
113,165,256771,1,8,0:0:0:0:
484,381,256935,2,0,P|505:312|491:241,1,145.799995550537,2|0,0:0|3:0,0:0:0:0:
328,62,257263,1,0,0:0:0:0:
109,320,257427,2,0,P|87:250|101:179,1,145.799995550537,10|0,0:0|0:0,0:0:0:0:
413,129,257755,5,0,3:0:0:0:
222,330,257919,1,2,0:0:0:0:
187,30,258083,1,10,0:0:0:0:
0,210,258246,1,0,3:0:0:0:
0,210,258328,1,0,3:0:0:0:
0,210,258410,2,0,P|111:198|219:216,1,218.699993325806,2|0,3:2|0:0,0:0:0:0:
323,290,258738,2,0,P|254:275|216:215,1,145.799995550537,10|0,0:0|0:0,0:0:0:0:
481,6,259066,6,0,P|494:111|475:225,1,218.699993325806,2|0,3:2|0:0,0:0:0:0:
419,297,259394,1,8,0:0:0:0:
272,20,259558,2,0,P|343:21|395:73,1,145.799995550537,2|0,0:0|3:0,0:0:0:0:
298,370,259886,1,0,0:0:0:0:
155,113,260050,2,0,P|228:122|300:116,1,145.799995550537,10|0,0:0|0:0,0:0:0:0:
161,381,260378,5,0,3:0:0:0:
28,101,260542,1,2,3:2:0:0:
28,101,260624,1,0,3:0:0:0:
28,101,260705,2,0,P|30:65|27:29,1,72.8999977752686,8|0,3:2|0:0,0:0:0:0:
234,219,260869,2,0,P|231:255|234:291,1,72.8999977752686,2|0,3:2|0:0,0:0:0:0:
193,61,261033,6,0,P|229:65|270:62,1,72.8999977752686,2|0,3:2|0:0,0:0:0:0:
72,255,261197,2,0,P|35:253|-1:256,1,72.8999977752686,0|0,3:0|0:0,0:0:0:0:
343,148,261361,6,0,P|462:185|433:306,1,273.375010428429,8|0,0:0|0:0,0:0:0:0:
413,315,261689,6,0,B|310:315|310:315|345:341,1,145.8,0|0,3:0|3:0,0:0:0:0:
345,341,262181,2,0,L|345:285,1,48.6,8|0,0:0|0:0,0:0:0:0:
156,231,262345,1,0,3:0:0:0:
268,136,262509,1,0,3:0:0:0:
268,156,262591,1,8,0:0:0:0:
268,176,262673,1,0,3:0:0:0:
45,315,262837,1,8,0:0:0:0:
46,295,262919,1,8,0:0:0:0:
46,275,263001,6,0,L|46:174,1,97.2,0|0,3:0|0:0,0:0:0:0:
67,152,263246,1,0,3:0:0:0:
289,343,263492,5,0,3:0:0:0:
271,342,263574,1,0,3:0:0:0:
251,342,263656,1,8,0:0:0:0:
158,203,263820,1,0,3:0:0:0:
370,271,263984,1,8,0:0:0:0:
316,39,264148,6,0,B|281:19|237:16|190:43|158:99|183:157|211:197|271:226|360:192|351:143|342:117|342:117|333:143|302:166,1,461.699985910035,4|0,0:0|0:0,0:0:0:0:
310,202,265262,2,2,P|316:216|320:232,4,32.4
299,271,265624,5,2,0:0:0:0:
256,192,265705,12,0,270869,0:0:0:0:
