osu file format v14

[General]
AudioFilename: audio.mp3
AudioLeadIn: 0
PreviewTime: 186812
Countdown: 0
SampleSet: Soft
StackLeniency: 0.5
Mode: 0
LetterboxInBreaks: 0
WidescreenStoryboard: 1

[Editor]
Bookmarks: 2017,17755,28246,38738,49230,58410,61033,71525,83246,84640,95132,100378,113492,118738,126607,137099,150214,160705,171197,186935,197427,211853,217099,222673,238083,240705,251197,261689
DistanceSpacing: 1
BeatDivisor: 4
GridSize: 32
TimelineZoom: 2.6

[Metadata]
Title:Kakumei no bullet
TitleUnicode:革命のbullet
Artist:ShinRa-Bansho
ArtistUnicode:森羅万象
Creator:Asagi
Version:Normal
Source:東方永夜抄 ~ Imperishable Night.
Tags:japanese j-pop jpop touhou project toho 2hu th kaztora ayo あよ 少女綺想曲 ~ Dream Battle shoujo kisoukyoku maiden's capriccio eiyashou eternal night vignette from the east IN hakurei reimu 博麗 霊夢 上海アリス幻樂団 太田 順也 清水"カルロス"宥人 ZUN team shanghai alice revolutionary
BeatmapID:3547595
BeatmapSetID:1645394

[Difficulty]
HPDrainRate:4
CircleSize:3.2
OverallDifficulty:4.5
ApproachRate:5.2
SliderMultiplier:1.03
SliderTickRate:1

[Events]
//Background and Video events
0,0,"reimu.jpg",0,0
//Break Periods
2,28446,37538
2,95132,98522
2,160905,169997
2,187135,196227
//Storyboard Layer 0 (Background)
//Storyboard Layer 1 (Fail)
//Storyboard Layer 2 (Pass)
//Storyboard Layer 3 (Foreground)
//Storyboard Layer 4 (Overlay)
//Storyboard Sound Samples

[TimingPoints]
706,327.868852459016,4,2,1,75,1,0
2017,-100,4,2,1,45,0,0
7263,-100,4,2,1,60,0,0
15132,-100,4,2,1,40,0,0
17427,-100,4,2,2,95,0,0
17509,-100,4,2,1,75,0,0
17755,-100,4,2,2,95,0,0
17837,-100,4,2,1,75,0,0
28246,-100,4,2,2,75,0,0
28328,-100,4,2,1,75,0,0
38738,-100,4,2,2,95,0,0
38820,-100,4,2,1,65,0,0
47755,-100,4,2,1,85,0,0
48410,-100,4,2,1,65,0,0
49230,-100,4,2,1,65,0,0
53820,-100,4,2,1,75,0,0
58410,-100,4,2,1,95,0,0
59066,-100,4,2,1,75,0,0
60378,-100,4,2,5,85,0,0
61033,-100,4,2,2,100,0,1
61115,-100,4,2,1,75,0,1
69394,-100,4,2,1,85,0,1
70869,-100,4,2,2,100,0,1
70951,-100,4,2,2,75,0,1
71197,-100,4,2,1,75,0,0
71525,-100,4,2,2,100,0,1
71607,-100,4,2,1,75,0,1
76771,-100,4,2,2,100,0,1
76853,-100,4,2,1,85,0,1
82017,-100,4,2,1,65,0,1
82345,-100,4,2,1,75,0,1
82673,-100,4,2,1,85,0,1
83001,-100,4,2,1,95,0,1
83165,-100,4,2,6,95,0,1
83246,-100,4,2,1,75,0,0
84640,-100,4,2,2,100,0,1
84722,-100,4,2,1,75,0,0
89886,-100,4,2,1,90,0,0
94312,-100,4,2,6,55,0,0
99722,-100,4,2,1,75,0,0
103001,-100,4,2,2,100,0,0
103083,-100,4,2,1,75,0,0
110869,-100,4,2,1,95,0,0
110951,-100,4,2,1,75,0,0
112837,-100,4,2,1,85,0,0
113328,-100,4,2,2,85,0,0
113410,-100,4,2,1,65,0,0
115951,-100,4,2,1,75,0,0
118738,-100,4,2,1,85,0,0
122673,-100,4,2,1,95,0,0
123328,-100,4,2,1,75,0,0
125624,-100,4,2,6,75,0,0
126607,-100,4,2,2,100,0,1
126689,-100,4,2,1,75,0,1
134968,-100,4,2,1,85,0,1
136443,-100,4,2,2,100,0,1
136525,-100,4,2,1,75,0,1
136771,-100,4,2,1,75,0,0
137099,-100,4,2,2,100,0,1
137181,-100,4,2,1,75,0,1
142345,-100,4,2,2,100,0,1
142427,-100,4,2,1,85,0,1
148738,-100,4,2,6,95,0,1
148820,-100,4,2,1,75,0,0
150214,-100,4,2,2,100,0,0
150296,-100,4,2,1,75,0,0
155460,-100,4,2,2,100,0,0
155542,-100,4,2,1,75,0,0
158083,-100,4,2,1,75,0,0
158738,-100,4,2,1,65,0,0
159394,-100,4,2,1,55,0,0
160050,-100,4,2,1,45,0,0
160705,-100,4,2,2,75,0,0
171197,-100,4,2,2,85,0,0
171279,-100,4,2,1,60,0,0
172837,-100,4,2,7,60,0,0
172919,-100,4,2,1,60,0,0
175460,-100,4,2,7,60,0,0
175542,-100,4,2,1,60,0,0
176443,-100,4,2,2,85,0,0
176525,-100,4,2,1,60,0,0
178083,-100,4,2,7,60,0,0
178165,-100,4,2,1,60,0,0
180378,-100,4,2,6,95,0,0
180460,-100,4,2,1,60,0,0
181361,-100,4,2,1,85,0,0
181689,-100,4,2,2,100,0,1
181771,-100,4,2,1,90,0,1
186279,-100,4,2,1,80,0,1
186935,-100,4,2,2,75,0,0
197427,-100,4,2,2,90,0,0
197509,-100,4,2,1,65,0,0
201197,-100,4,2,1,85,0,0
201853,-100,4,2,1,75,0,0
202673,-100,4,2,1,65,0,0
205787,-100,4,2,1,85,0,0
206443,-100,4,2,2,100,0,0
206525,-100,4,2,1,75,0,0
207263,-100,4,2,1,85,0,0
207427,-100,4,2,1,75,0,0
207755,-100,4,2,1,75,0,0
209722,-100,4,2,1,85,0,0
210050,-100,4,2,1,100,0,0
211853,-100,4,2,1,95,0,1
215624,-100,4,2,6,100,0,0
217099,-100,4,2,2,100,0,1
217181,-100,4,2,1,75,0,1
219558,-100,4,2,1,85,0,1
219722,-100,4,2,1,75,0,1
220214,-100,4,2,1,95,0,1
221197,-100,4,2,1,75,0,1
221689,-100,4,2,2,100,0,1
221771,-100,4,2,1,75,0,1
222181,-100,4,2,1,75,0,0
222509,-100,4,2,1,100,0,0
222673,-100,4,2,2,100,0,1
222755,-100,4,2,1,75,0,1
223001,-100,4,2,1,75,0,1
227591,-100,4,2,2,100,0,1
227673,-100,4,2,1,75,0,1
232837,-100,4,2,2,100,0,1
232919,-100,4,2,1,75,0,1
235460,-100,4,2,1,70,0,1
235787,-100,4,2,1,80,0,1
236115,-100,4,2,1,90,0,1
236443,-100,4,2,1,100,0,1
236771,-100,4,2,1,75,0,0
238083,-100,4,2,1,75,0,0
239394,-100,4,2,6,75,0,0
239476,-100,4,2,1,75,0,0
240705,-100,4,2,2,100,0,1
240787,-100,4,2,1,75,0,0
241197,-100,4,2,1,75,0,0
249886,-100,4,2,1,75,0,0
250214,-100,4,2,6,75,0,0
250296,-100,4,2,1,75,0,0
251197,-100,4,2,2,100,0,1
251279,-100,4,2,1,75,0,0
261361,-100,4,2,2,100,0,1
261443,-100,4,2,2,75,0,0
261689,-100,4,2,1,40,0,0
264148,-100,4,2,1,50,0,0
265190,434.782608695652,4,2,1,75,1,0
265624,327.868852459016,4,2,1,75,1,0
265624,-100,4,2,1,40,0,0
266935,-100,4,2,1,30,0,0
268246,-100,4,2,1,20,0,0
269558,-100,4,2,1,10,0,0
270869,-100,4,2,1,5,0,0

[Colours]
Combo1 : 198,88,85
Combo2 : 255,51,51

[HitObjects]
242,240,2017,6,0,B|228:136|294:146|282:41,2,206,2|2|0,0:0|0:0|0:0,0:0:0:0:
314,313,3656,1,2,0:0:0:0:
230,373,3984,2,0,P|179:366|128:371,1,103,2|0,0:0|0:0,0:0:0:0:
85,275,4640,6,0,P|187:265|287:284,2,206,2|2|0,0:0|0:0|0:0,0:0:0:0:
22,194,6279,1,2,0:0:0:0:
78,107,6607,2,0,P|129:112|180:105,1,103,2|0,0:0|0:0,0:0:0:0:
223,75,7099,1,0,3:0:0:0:
222,75,7263,6,0,P|320:77|359:167,2,206,6|2|2,3:2|0:0|0:3,0:0:0:0:
188,172,8902,1,2,0:0:0:0:
226,267,9230,2,0,P|278:262|329:267,1,103,2|0,0:0|0:0,0:0:0:0:
380,289,9722,1,2,0:0:0:0:
380,289,9886,6,0,P|373:187|382:84,2,206,2|2|2,0:0|0:0|0:3,0:0:0:0:
467,343,11525,1,2,0:0:0:0:
256,192,11853,12,0,15132,3:0:0:0:
56,265,17427,5,8,0:0:0:0:
136,328,17755,2,0,P|187:323|237:331,1,103,4|8,3:2|0:0,0:0:0:0:
280,360,18246,2,0,P|330:362|369:330,1,103,2|0,0:0|0:0,0:0:0:0:
388,282,18738,1,10,0:2:0:0:
312,212,19066,5,0,3:0:0:0:
336,166,19230,2,0,P|388:173|439:170,1,103,2|2,0:0|0:0,0:0:0:0:
485,145,19722,2,0,P|496:96|483:46,1,103,2|8,3:2|0:2,0:0:0:0:
382,22,20378,6,0,P|330:27|279:22,1,103,2|8,3:2|0:0,0:0:0:0:
228,8,20869,2,0,P|234:60|228:111,1,103,2|0,0:0|0:0,0:0:0:0:
200,154,21361,1,10,0:0:0:0:
103,191,21689,6,0,P|79:192|44:190,2,51.5,0|2|10,3:0|0:0|0:0,0:0:0:0:
136,230,22181,1,2,0:0:0:0:
136,230,22345,2,0,P|130:282|133:333,1,103,2|10,3:2|0:0,0:0:0:0:
228,373,23001,6,0,P|278:373|322:346,1,103,6|8,0:0|0:0,0:0:0:0:
347,301,23492,2,0,P|354:251|347:189,1,103,2|0,0:0|0:0,0:0:0:0:
325,152,23984,1,10,0:0:0:0:
400,81,24312,5,0,3:0:0:0:
368,40,24476,2,0,P|316:43|265:36,1,103,2|0,0:0|0:0,0:0:0:0:
217,13,24968,2,0,P|167:13|125:42,1,103,2|10,3:2|0:0,0:0:0:0:
59,122,25624,6,0,P|65:173|60:224,1,103,2|8,3:2|0:0,0:0:0:0:
91,264,26115,2,0,P|141:269|182:240,1,103,2|0,0:0|0:0,0:0:0:0:
193,189,26607,1,10,0:0:0:0:
292,161,26935,6,0,P|291:186|292:212,1,51.5,0|0,3:0|3:0,0:0:0:0:
331,246,27263,1,8,0:0:0:0:
318,348,27591,2,0,P|266:343|215:346,2,103,0|8|4,3:0|0:0|3:2,0:0:0:0:
337,131,38738,6,0,P|348:180|336:230,1,103,4|0,3:2|3:0,0:0:0:0:
247,284,39394,1,0,3:0:0:0:
156,235,39722,1,2,3:2:0:0:
66,286,40050,2,0,P|54:236|65:186,1,103,0|0,3:0|3:0,0:0:0:0:
144,120,40705,1,2,3:2:0:0:
240,155,41033,1,2,3:2:0:0:
328,101,41361,6,0,P|379:102|417:136,1,103,0|0,3:0|3:0,0:0:0:0:
443,234,42017,2,0,P|469:232|495:232,2,51.5,2|2|0,3:2|0:2|3:0,0:0:0:0:
345,200,42673,2,0,P|338:250|343:301,1,103,2|0,3:2|3:2,0:0:0:0:
376,341,43165,1,2,0:0:0:0:
376,341,43328,2,0,P|427:343|466:312,1,103,2|0,3:2|3:2,0:0:0:0:
502,218,43984,6,0,P|507:166|500:116,1,103,0|2,3:2|3:2,0:0:0:0:
421,50,44640,2,0,P|395:47|369:49,1,51.5,2|2,3:2|0:0,0:0:0:0:
325,75,44968,2,0,P|274:79|230:53,1,103,2|2,3:2|3:2,0:0:0:0:
131,22,45624,1,0,3:0:0:0:
36,61,45951,2,0,P|29:111|34:162,1,103,2|0,3:2|3:0,0:0:0:0:
67,260,46607,6,0,P|119:254|170:257,1,103,0|0,3:0|3:0,0:0:0:0:
212,227,47099,1,0,3:0:0:0:
307,265,47427,2,0,P|306:239|307:213,1,51.5,8|0,0:0|3:0,0:0:0:0:
341,175,47755,2,0,P|346:124|340:71,2,103,12|12|0,0:0|0:0|3:0,0:0:0:0:
373,217,48574,2,0,P|424:212|475:217,1,103,10|10,0:0|0:0,0:0:0:0:
510,120,49230,6,0,P|506:68|511:17,2,103,4|0|0,3:2|3:0|3:0,0:0:0:0:
408,100,50214,1,0,3:0:0:0:
335,173,50542,2,0,P|338:224|333:275,2,103,0|0|0,3:0|3:0|3:0,0:0:0:0:
289,80,51525,1,10,0:0:0:0:
242,59,51689,6,0,P|191:57|148:84,1,103,0|0,3:0|3:0,0:0:0:0:
126,131,52181,1,8,0:0:0:0:
27,162,52509,2,0,P|28:136|26:110,2,51.5,0|0|8,3:0|3:0|0:0,0:0:0:0:
2,207,53001,2,0,P|78:206|124:267,1,154.5,0|8,3:0|0:0,0:0:0:0:
82,358,53820,2,0,P|43:352|5:358,2,77.25,2|2|2,3:0|3:0|3:0,0:0:0:0:
182,382,54640,6,0,P|186:357|181:330,1,51.5,0|8,3:0|0:0,0:0:0:0:
211,288,54968,2,0,B|323:279|287:362|397:353,1,206,0|4,3:0|0:0,0:0:0:0:
256,192,55951,12,4,57099,0:0:0:0:
104,29,58410,6,0,P|154:36|205:30,1,103,0|0,3:0|3:0,0:0:0:0:
278,111,59066,1,8,0:0:0:0:
278,111,59230,1,0,3:0:0:0:
255,156,59394,2,0,P|251:182|254:208,1,51.5,8|0,0:0|3:0,0:0:0:0:
291,244,59722,2,0,B|179:240|214:309|95:299,1,206,0|4,3:0|0:0,0:0:0:0:
378,300,61033,6,0,P|392:251|379:201,1,103,6|10,3:2|0:0,0:0:0:0:
306,128,61689,2,0,P|254:132|203:126,1,103,2|8,3:2|0:0,0:0:0:0:
172,85,62181,1,2,0:0:0:0:
81,35,62509,1,2,0:0:0:0:
37,62,62673,2,0,P|39:113|35:164,1,103,10|2,0:0|3:2,0:0:0:0:
8,264,63328,1,8,0:0:0:0:
105,307,63656,6,0,P|155:303|191:268,1,103,2|10,3:2|0:0,0:0:0:0:
282,221,64312,2,0,P|334:215|385:222,1,103,2|8,3:2|0:0,0:0:0:0:
428,194,64804,1,2,0:0:0:0:
456,94,65132,1,2,0:0:0:0:
407,77,65296,2,0,P|381:73|356:76,1,51.5,10|0,0:0|0:0,0:0:0:0:
314,104,65624,2,0,P|263:100|225:66,1,103,2|8,3:2|0:0,0:0:0:0:
189,38,66115,1,0,3:0:0:0:
189,38,66279,6,0,P|194:90|188:141,1,103,6|10,0:2|0:0,0:0:0:0:
144,234,66935,2,0,P|94:227|34:234,1,103,2|8,3:2|0:0,0:0:0:0:
11,190,67427,1,2,0:0:0:0:
10,86,67755,1,2,0:0:0:0:
54,60,67919,2,0,P|78:62|109:59,1,51.5,10|2,0:0|0:0,0:0:0:0:
140,22,68246,2,2,P|191:19|228:53,1,103,2|8,3:2|0:0,0:0:0:0:
170,138,68902,5,4,0:0:0:0:
255,195,69230,1,8,0:0:0:0:
221,233,69394,2,0,P|169:226|118:230,2,103,12|12|12,0:0|0:0|0:0,0:0:0:0:
300,167,70378,5,0,3:0:0:0:
331,207,70542,2,0,P|335:233|331:259,1,51.5,8|0,0:0|3:0,0:0:0:0:
367,296,70869,2,0,P|416:302|458:273,1,103,8|8,0:0|0:0,0:0:0:0:
481,229,71361,1,8,0:0:0:0:
481,229,71525,6,0,P|477:177|480:126,1,103,6|10,3:2|0:0,0:0:0:0:
428,36,72181,2,0,P|376:30|325:35,1,103,2|8,3:2|0:0,0:0:0:0:
290,73,72673,1,2,0:0:0:0:
222,151,73001,1,2,0:0:0:0:
173,132,73165,2,0,P|171:104|174:80,1,51.5,10|0,0:0|0:0,0:0:0:0:
134,47,73492,2,0,P|83:42|43:73,1,103,2|8,3:2|0:0,0:0:0:0:
30,121,73984,2,0,P|31:146|29:172,1,51.5,2|2,0:0|3:2,0:0:0:0:
83,256,74476,2,0,P|134:251|185:256,1,103,10|2,0:0|3:2,0:0:0:0:
260,327,75132,1,8,0:0:0:0:
309,313,75296,6,0,P|322:263|313:213,1,103,6|2,3:2|3:2,0:0:0:0:
349,176,75787,2,0,P|297:180|246:175,1,103,8|0,0:0|3:0,0:0:0:0:
186,91,76443,1,8,0:0:0:0:
280,49,76771,6,0,P|305:50|331:50,2,51.5,6|0|8,3:2|3:0|0:0,0:0:0:0:
247,8,77263,1,0,3:0:0:0:
186,91,77591,1,0,3:0:0:0:
95,41,77919,2,0,P|84:90|94:141,1,103,4|0,3:2|3:0,0:0:0:0:
119,186,78410,2,0,P|170:180|220:186,1,103,8|0,0:0|3:0,0:0:0:0:
263,216,78902,2,0,P|288:218|314:216,2,51.5,2|8|2,0:3|0:0|0:3,0:0:0:0:
222,248,79394,5,4,3:2:0:0:
301,322,79722,1,10,0:0:0:0:
301,322,79886,2,0,P|352:321|391:288,1,103,2|0,3:2|3:0,0:0:0:0:
408,242,80378,1,8,0:0:0:0:
408,242,80542,2,0,P|404:189|409:130,1,103,4|0,3:2|3:0,0:0:0:0:
372,109,81033,1,8,0:0:0:0:
372,109,81197,2,0,P|322:106|282:137,1,103,0|8,3:0|0:0,0:0:0:0:
268,187,81689,1,8,0:0:0:0:
174,143,82017,5,4,3:2:0:0:
91,204,82345,2,0,P|94:254|88:306,2,103,0|0|0,3:0|3:0|3:0,0:0:0:0:
50,172,83165,1,4,3:2:0:0:
49,171,84640,6,0,P|101:177|151:170,1,103,4|10,3:2|0:0,0:0:0:0:
214,88,85296,1,2,3:2:0:0:
308,125,85624,2,0,P|302:177|307:228,1,103,8|0,0:0|3:0,0:0:0:0:
267,255,86115,1,2,0:0:0:0:
267,255,86279,2,0,P|269:280|267:306,1,51.5,10|2,0:0|0:0,0:0:0:0:
302,343,86607,2,0,P|351:349|393:321,1,103,2|8,3:2|0:0,0:0:0:0:
444,230,87263,6,0,P|449:179|444:128,1,103,4|10,3:2|0:0,0:0:0:0:
395,37,87919,1,2,3:2:0:0:
324,111,88246,2,0,P|273:111|233:80,1,103,8|0,0:0|3:0,0:0:0:0:
196,53,88738,1,2,0:0:0:0:
196,53,88902,2,0,P|170:50|144:52,1,51.5,10|2,0:0|0:0,0:0:0:0:
98,75,89230,2,0,P|83:124|93:174,1,103,2|10,3:2|0:0,0:0:0:0:
110,276,89886,6,0,P|83:274|47:277,2,51.5,4|0|8,3:2|3:0|0:0,0:0:0:0:
157,296,90378,2,0,P|208:297|251:268,1,103,4|8,3:2|0:0,0:0:0:0:
272,222,90869,2,0,P|278:169|272:119,1,103,4|8,3:2|0:0,0:0:0:0:
314,90,91361,2,0,P|364:87|406:115,1,103,4|8,3:2|0:0,0:0:0:0:
421,165,91853,1,4,3:2:0:0:
256,192,92181,12,4,94312,0:0:0:0:
456,262,99722,6,0,P|452:301|458:339,2,77.25,8|8|8,0:0|0:0|0:0,0:0:0:0:
476,214,100378,2,0,P|424:219|373:212,1,103,4|8,3:2|0:0,0:0:0:0:
281,257,101033,2,0,P|277:282|280:308,1,51.5,0|2,3:0|3:2,0:0:0:0:
257,356,101361,1,10,0:0:0:0:
257,356,101525,2,0,P|201:354|160:320,1,103,12|12,0:0|0:0,0:0:0:0:
75,378,102181,2,0,P|62:328|75:278,1,103,6|2,3:2|3:2,0:0:0:0:
110,240,102673,1,10,0:0:0:0:
64,147,103001,6,0,P|115:150|166:144,1,103,4|8,3:2|0:0,0:0:0:0:
226,60,103656,1,0,3:0:0:0:
319,102,103984,2,0,P|314:154|318:205,1,103,10|0,0:2|3:0,0:0:0:0:
233,264,104640,1,8,0:0:0:0:
302,340,104968,2,0,P|327:337|353:337,1,51.5,2|0,3:2|0:0,0:0:0:0:
403,331,105296,2,0,P|430:287|423:237,1,103,10|4,0:2|3:2,0:0:0:0:
384,203,105787,5,2,0:0:0:0:
444,119,106115,1,8,0:0:0:0:
415,76,106279,2,0,P|363:80|312:75,1,103,2|8,3:2|0:0,0:0:0:0:
278,114,106771,1,2,0:0:0:0:
201,44,107099,1,4,0:0:0:0:
154,66,107263,2,0,P|142:116|152:167,1,103,0|12,3:2|0:0,0:0:0:0:
182,207,107755,2,0,P|186:259|181:310,1,103,0|12,3:2|0:0,0:0:0:0:
148,349,108246,5,2,3:2:0:0:
278,265,108738,2,0,P|351:264|389:327,2,154.5,12|12|12,0:0|0:0|0:0,0:0:0:0:
122,268,110214,2,0,P|120:243|123:218,1,51.5,10|0,0:0|3:0,0:0:0:0:
156,178,110542,2,0,P|158:152|155:127,1,51.5,10|0,0:0|3:2,0:0:0:0:
122,87,110869,6,0,P|173:90|216:63,1,103,4|10,0:0|0:2,0:0:0:0:
311,26,111525,2,0,P|310:51|311:77,1,51.5,0|2,3:0|3:2,0:0:0:0:
341,119,111853,1,8,0:0:0:0:
341,119,112017,2,0,P|347:171|340:222,1,103,0|0,3:0|3:0,0:0:0:0:
311,264,112509,1,12,0:0:0:0:
213,297,112837,2,0,P|174:293|136:297,1,77.25,12|12,0:0|0:0,0:0:0:0:
80,351,113328,6,0,P|-2:295|22:200,1,206,4|0,0:0|3:0,0:0:0:0:
61,172,114148,1,8,0:0:0:0:
210,210,114640,2,0,P|215:158|208:107,2,103,0|0|0,3:0|3:0|3:0,0:0:0:0:
186,256,115460,1,8,0:0:0:0:
227,349,115787,1,2,3:2:0:0:
274,368,115951,6,0,P|324:370|364:340,1,103,4|0,3:2|3:0,0:0:0:0:
377,289,116443,1,8,0:0:0:0:
448,215,116771,2,0,P|473:218|499:216,2,51.5,0|0|10,3:0|3:0|0:2,0:0:0:0:
422,169,117263,2,0,P|370:162|319:169,1,103,2|0,3:2|3:0,0:0:0:0:
290,211,117755,1,8,0:0:0:0:
198,162,118083,2,0,P|201:123|197:85,2,77.25,2|2|2,3:2|3:2|3:2,0:0:0:0:
168,204,118738,6,0,P|117:209|74:182,1,103,4|8,0:0|0:0,0:0:0:0:
30,88,119394,2,0,P|26:49|30:11,2,77.25,8|10|10,0:0|0:2|0:0,0:0:0:0:
128,56,120214,2,0,P|153:53|179:54,1,51.5,8|8,0:0|0:0,0:0:0:0:
268,102,120705,2,0,P|307:106|345:102,2,77.25,12|12|12,0:0|0:0|0:0,0:0:0:0:
228,135,121361,1,4,0:0:0:0:
84,305,122673,6,0,P|134:298|176:325,1,103,0|0,3:0|3:0,0:0:0:0:
276,351,123328,2,0,P|278:325|275:299,1,51.5,0|0,3:0|3:0,0:0:0:0:
245,257,123656,2,0,P|242:231|245:205,1,51.5,8|8,0:0|0:0,0:0:0:0:
334,75,124640,6,0,P|338:49|335:24,2,51.5,2|0|8,3:0|3:0|0:0,0:0:0:0:
300,113,125132,2,0,P|250:114|209:73,1,103,0|0,3:0|3:0,0:0:0:0:
203,29,125624,1,4,3:2:0:0:
30,284,126607,6,0,P|82:292|133:286,1,103,6|10,3:2|0:0,0:0:0:0:
226,241,127263,2,0,P|276:239|318:268,1,103,2|8,3:2|0:0,0:0:0:0:
339,315,127755,1,2,0:0:0:0:
427,262,128083,1,2,0:0:0:0:
451,215,128246,2,0,P|446:163|453:112,1,103,10|2,0:0|3:2,0:0:0:0:
350,121,128902,1,8,0:0:0:0:
280,44,129230,6,0,P|229:38|188:67,1,103,2|10,3:2|0:0,0:0:0:0:
89,96,129886,2,0,P|93:147|86:198,1,103,2|8,3:2|0:0,0:0:0:0:
55,239,130378,1,2,0:0:0:0:
82,338,130705,1,2,0:0:0:0:
131,322,130869,2,0,P|156:319|182:321,1,51.5,10|0,0:0|0:0,0:0:0:0:
218,358,131198,2,0,P|268:354|301:317,1,103,2|8,3:2|0:0,0:0:0:0:
320,270,131689,1,0,3:0:0:0:
319,270,131853,6,0,P|324:218|319:167,1,103,6|10,3:2|0:0,0:0:0:0:
269,77,132509,2,0,P|320:81|371:75,1,103,2|8,3:2|0:0,0:0:0:0:
406,38,133001,1,2,0:0:0:0:
487,100,133328,1,2,0:0:0:0:
463,146,133492,2,0,P|460:171|462:197,1,51.5,10|2,0:0|0:0,0:0:0:0:
443,244,133820,2,0,P|391:238|340:243,1,103,2|8,3:2|0:0,0:0:0:0:
272,165,134476,5,4,0:0:0:0:
203,236,134804,1,8,0:2:0:0:
158,209,134968,2,0,P|161:157|159:104,2,103,12|12|12,0:0|0:0|0:0,0:0:0:0:
103,296,135951,1,0,3:0:0:0:
141,331,136115,2,0,P|166:327|192:328,1,51.5,8|0,0:0|3:0,0:0:0:0:
234,358,136443,2,0,P|284:359|322:326,1,103,8|8,0:0|0:0,0:0:0:0:
355,287,136935,1,8,0:0:0:0:
355,287,137099,6,0,P|406:279|458:284,1,103,6|10,3:2|0:0,0:0:0:0:
456,180,137755,2,0,P|405:173|353:178,1,103,2|8,3:2|0:0,0:0:0:0:
317,142,138246,1,2,0:0:0:0:
241,212,138574,1,2,0:0:0:0:
193,191,138738,2,0,P|167:188|141:190,1,51.5,10|0,0:0|0:0,0:0:0:0:
111,233,139066,2,0,P|50:234|15:202,1,103,2|8,3:2|0:0,0:0:0:0:
9,157,139558,2,0,P|11:131|10:105,1,51.5,2|2,0:0|3:2,0:0:0:0:
80,29,140050,2,0,P|134:34|190:25,1,103,10|2,0:0|3:2,0:0:0:0:
281,55,140705,1,8,0:0:0:0:
322,84,140869,6,0,P|332:134|321:184,1,103,6|2,3:2|3:2,0:0:0:0:
290,226,141361,2,0,P|238:220|187:224,1,103,8|0,0:0|3:0,0:0:0:0:
118,149,142017,1,8,0:0:0:0:
17,170,142345,6,0,P|13:144|15:119,2,51.5,6|0|8,3:2|3:0|0:0,0:0:0:0:
49,210,142837,1,0,3:0:0:0:
1,301,143165,1,0,3:0:0:0:
87,356,143492,2,0,P|139:365|188:356,1,103,4|0,3:2|3:0,0:0:0:0:
206,308,143984,2,0,P|256:298|307:307,1,103,8|0,0:0|3:0,0:0:0:0:
351,333,144476,2,0,P|352:358|350:384,2,51.5,2|8|2,0:3|0:0|0:3,0:0:0:0:
391,300,144968,5,4,3:2:0:0:
320,224,145296,1,8,0:0:0:0:
339,175,145460,2,0,P|390:182|442:177,1,103,0|0,3:0|3:0,0:0:0:0:
487,151,145951,1,8,0:0:0:0:
487,151,146115,2,0,P|501:102|486:51,1,103,4|0,3:2|3:0,0:0:0:0:
452,23,146607,1,8,0:0:0:0:
452,23,146771,2,0,P|400:18|349:22,1,103,0|0,3:0|3:0,0:0:0:0:
320,65,147263,1,8,0:0:0:0:
224,26,147591,5,4,3:2:0:0:
176,116,147919,2,0,P|125:116|88:83,2,103,0|0|0,3:0|3:0|3:0,0:0:0:0:
221,141,148738,1,4,3:2:0:0:
452,317,150214,5,4,3:2:0:0:
389,233,150542,2,0,P|316:223|269:280,1,154.5,12|0,0:0|3:0,0:0:0:0:
200,356,151361,2,0,P|149:356|110:324,1,103,12|0,0:0|3:0,0:0:0:0:
95,275,151853,2,0,P|97:229|96:169,2,103,12|0|12,0:0|3:0|0:0,0:0:0:0:
195,251,152837,6,0,P|196:225|195:199,1,51.5,0|0,3:0|3:0,0:0:0:0:
186,148,153165,2,0,P|237:154|288:148,1,103,12|0,0:2|0:0,0:0:0:0:
333,173,153656,2,0,P|330:198|331:225,1,51.5,0|0,3:0|3:0,0:0:0:0:
367,262,153984,2,0,P|417:261|454:226,1,103,12|0,0:0|3:0,0:0:0:0:
454,175,154476,1,12,0:0:0:0:
436,73,154804,2,0,P|461:75|487:73,2,51.5,0|0|8,3:0|3:0|0:0,0:0:0:0:
344,25,155460,5,4,3:2:0:0:
246,56,155787,2,0,B|233:124|275:133|266:206,1,154.5,12|0,0:0|3:0,0:0:0:0:
199,285,156607,2,0,P|148:288|111:254,1,103,12|0,0:0|3:0,0:0:0:0:
105,203,157099,1,12,0:0:0:0:
129,102,157427,2,0,P|105:103|60:101,2,51.5,0|0|8,3:0|3:0|0:0,0:0:0:0:
256,192,158083,12,4,160705,0:0:0:0:
445,52,171197,6,0,P|395:44|354:73,1,103,6|0,3:2|3:0,0:0:0:0:
295,158,171853,2,0,P|287:209|296:281,1,103,2|0,3:2|3:0,0:0:0:0:
227,341,172509,2,0,P|153:353|101:295,1,154.5,2|2,3:2|0:2,0:0:0:0:
102,248,173165,1,8,0:0:0:0:
75,148,173492,2,0,P|100:150|126:148,1,51.5,2|2,3:2|0:0,0:0:0:0:
164,121,173820,6,0,P|214:120|252:153,1,103,6|0,3:2|3:0,0:0:0:0:
334,214,174476,2,0,P|386:210|437:216,1,103,0|0,3:0|3:0,0:0:0:0:
459,317,175132,2,0,P|383:308|306:316,1,154.5,0|0,3:0|0:0,0:0:0:0:
266,348,175787,1,0,3:0:0:0:
185,283,176115,1,8,0:0:0:0:
92,329,176443,6,0,P|55:295|57:245,1,103,4|0,3:2|3:0,0:0:0:0:
4,155,177099,2,0,P|55:158|106:151,1,103,2|0,3:2|3:0,0:0:0:0:
152,58,177755,2,0,P|226:53|275:109,1,154.5,2|2,3:2|0:0,0:0:0:0:
255,157,178410,1,0,3:0:0:0:
204,246,178738,1,8,0:0:0:0:
254,335,179066,5,6,3:2:0:0:
350,371,179394,2,0,P|375:369|411:373,1,51.5,0|0,3:0|0:0,0:0:0:0:
447,339,179722,2,0,P|442:287|449:236,1,103,0|0,3:0|3:0,0:0:0:0:
471,135,180378,2,0,B|369:126|378:193|275:184,1,206,4|2,3:2|3:2,0:0:0:0:
187,130,181361,1,4,0:0:0:0:
92,171,181689,6,0,P|78:220|88:270,1,103,6|8,3:2|0:0,0:0:0:0:
125,306,182181,2,0,P|177:300|228:304,1,103,0|0,3:2|3:2,0:0:0:0:
272,328,182673,1,8,0:0:0:0:
312,359,182837,2,0,P|362:362|403:333,1,103,6|0,3:2|3:0,0:0:0:0:
420,283,183328,1,8,0:0:0:0:
405,182,183656,2,0,P|379:180|353:182,1,51.5,0|0,3:0|3:0,0:0:0:0:
311,152,183984,2,0,P|313:126|311:100,1,51.5,8|0,0:0|3:0,0:0:0:0:
337,56,184312,6,0,P|390:50|431:78,2,103,4|8|0,3:2|0:0|3:0,0:0:0:0:
240,22,185296,1,8,0:0:0:0:
188,112,185624,2,0,P|90:116|39:33,2,206,2|2|6,3:2|3:2|0:0,0:0:0:0:
60,86,197427,6,0,P|111:91|162:86,1,103,6|2,3:2|3:2,0:0:0:0:
243,21,198083,1,2,3:2:0:0:
313,95,198410,2,0,P|316:120|312:146,1,51.5,0|2,3:0|0:0,0:0:0:0:
270,175,198738,1,0,3:0:0:0:
337,252,199066,1,2,3:2:0:0:
278,336,199394,2,0,P|226:332|175:336,2,103,2|0|2,3:2|3:0|3:2,0:0:0:0:
375,371,200378,1,2,3:2:0:0:
463,318,200705,2,0,P|476:269|467:219,1,103,2|0,3:2|3:0,0:0:0:0:
444,173,201197,6,0,P|393:174|353:143,1,103,12|12,0:0|0:0,0:0:0:0:
276,74,201853,1,0,3:0:0:0:
241,112,202017,2,0,P|238:137|241:163,1,51.5,8|0,0:0|3:0,0:0:0:0:
207,202,202345,2,0,P|181:199|155:202,1,51.5,8|0,0:0|3:0,0:0:0:0:
116,236,202673,6,0,P|65:239|25:208,1,103,4|2,3:2|3:2,0:0:0:0:
0,107,203328,1,0,3:0:0:0:
35,70,203492,2,0,P|86:73|137:68,1,103,2|2,0:0|0:0,0:0:0:0:
238,47,204148,1,2,0:0:0:0:
278,14,204312,2,0,P|328:16|370:52,2,103,0|2|2,3:2|3:2|3:2,0:0:0:0:
290,116,205296,5,2,3:2:0:0:
225,196,205624,1,2,3:2:0:0:
244,241,205787,2,0,P|296:247|347:241,1,103,12|12,0:0|0:0,0:0:0:0:
446,212,206443,2,0,P|471:258|461:312,1,103,8|0,0:0|3:0,0:0:0:0:
427,342,206935,1,8,0:0:0:0:
324,356,207263,2,0,P|298:353|272:356,1,51.5,0|8,3:0|0:0,0:0:0:0:
171,375,207755,6,0,P|148:329|157:280,1,103,12|2,0:0|0:0,0:0:0:0:
194,244,208246,2,0,P|220:247|246:244,1,51.5,10|6,0:0|0:0,0:0:0:0:
322,175,208738,2,0,P|347:172|373:174,2,51.5,2|10|6,0:0|0:0|3:2,0:0:0:0:
243,107,209394,2,0,P|192:105|153:137,1,103,2|2,3:2|3:2,0:0:0:0:
136,185,209886,2,0,P|133:210|135:236,1,51.5,2|0,3:2|3:0,0:0:0:0:
162,280,210214,2,0,P|164:305|162:331,1,51.5,2|0,3:2|3:0,0:0:0:0:
405,98,211853,6,0,P|353:102|302:96,1,103,8|8,0:0|0:0,0:0:0:0:
204,127,212509,2,0,P|198:88|207:51,2,77.25,8|8|8,0:0|0:0|0:0,0:0:0:0:
247,219,213328,1,8,0:0:0:0:
247,219,213492,1,8,0:0:0:0:
209,314,213820,2,0,P|170:310|132:313,2,77.25,8|8|8,0:0|0:0|0:0,0:0:0:0:
244,351,214476,6,0,P|294:353|335:324,1,103,8|8,0:0|0:0,0:0:0:0:
360,224,215132,2,0,P|364:185|360:147,2,77.25,8|8|12,0:0|0:0|0:0,0:0:0:0:
62,107,217099,6,0,P|115:112|165:78,1,103,6|10,3:2|0:0,0:0:0:0:
241,28,217755,2,0,P|292:22|343:28,1,103,2|8,3:2|0:0,0:0:0:0:
378,66,218246,1,2,0:0:0:0:
480,55,218574,1,2,0:0:0:0:
463,104,218738,2,0,P|460:129|462:155,1,51.5,10|2,0:0|0:0,0:0:0:0:
423,189,219066,2,0,P|371:183|320:188,1,103,2|8,3:2|0:0,0:0:0:0:
231,137,219722,5,6,3:2:0:0:
156,210,220050,1,8,0:0:0:0:
110,185,220214,2,0,P|97:135|109:85,2,103,12|12|12,0:0|0:0|0:0,0:0:0:0:
194,244,221197,1,0,3:0:0:0:
163,285,221361,2,0,P|165:310|162:336,1,51.5,8|0,0:0|3:0,0:0:0:0:
203,367,221689,2,0,P|253:369|292:337,1,103,8|8,0:0|0:0,0:0:0:0:
307,288,222181,1,8,0:0:0:0:
245,205,222509,5,0,3:0:0:0:
271,160,222673,2,0,P|323:165|374:160,1,103,6|2,0:0|3:2,0:0:0:0:
356,58,223328,2,0,P|330:60|304:59,1,51.5,8|2,0:0|0:2,0:0:0:0:
267,22,223656,1,0,3:0:0:0:
188,88,223984,1,10,0:0:0:0:
102,29,224312,2,0,P|51:26|14:60,1,103,2|8,3:2|0:0,0:0:0:0:
0,110,224804,2,0,P|1:135|0:161,1,51.5,2|2,0:0|3:2,0:0:0:0:
68,242,225296,2,0,P|119:236|170:240,1,103,10|2,0:2|3:2,0:0:0:0:
252,302,225951,1,8,0:0:0:0:
296,324,226115,6,0,P|347:326|387:294,1,103,6|2,3:2|3:2,0:0:0:0:
405,246,226607,2,0,P|411:195|405:144,1,103,8|0,0:0|3:0,0:0:0:0:
347,58,227263,2,0,P|322:60|296:57,1,51.5,8|2,0:0|3:2,0:0:0:0:
252,30,227591,6,0,P|201:29|161:60,1,103,6|8,3:2|0:0,0:0:0:0:
127,157,228246,2,0,P|129:177|127:208,1,51.5,0|0,3:0|3:0,0:0:0:0:
165,242,228574,1,8,0:0:0:0:
124,336,228902,2,0,P|72:331|21:336,2,103,0|8|0,3:0|0:0|3:0,0:0:0:0:
222,368,229886,2,0,P|226:342|224:317,1,51.5,8|2,0:0|0:0,0:0:0:0:
244,269,230214,6,0,P|294:263|333:296,1,103,4|8,3:2|0:0,0:0:0:0:
418,238,230869,2,0,P|443:239|469:238,2,51.5,2|2|10,3:2|0:0|0:0,0:0:0:0:
382,200,231361,1,2,0:0:0:0:
382,200,231525,2,0,P|377:148|383:97,1,103,4|8,3:2|0:0,0:0:0:0:
306,27,232181,2,0,P|280:29|254:28,2,51.5,0|0|8,3:0|3:0|0:0,0:0:0:0:
407,5,232837,5,4,3:2:0:0:
476,81,233165,1,8,0:0:0:0:
462,130,233328,2,0,P|411:125|360:129,1,103,2|0,3:2|3:0,0:0:0:0:
326,168,233819,1,8,0:0:0:0:
326,168,233983,2,0,P|318:222|326:278,1,103,4|0,3:2|3:2,0:0:0:0:
293,313,234476,1,10,0:0:0:0:
293,313,234640,2,0,P|246:318|193:280,1,103,2|2,3:2|3:2,0:0:0:0:
192,238,235132,1,8,0:0:0:0:
241,147,235460,5,6,3:2:0:0:
202,51,235787,2,0,P|151:56|90:50,2,103,2|0|0,3:2|3:0|3:0,0:0:0:0:
236,12,236607,1,0,3:0:0:0:
237,13,238083,6,0,B|227:110|285:110|269:213,1,206,0|0,3:0|3:0,0:0:0:0:
135,370,239394,2,0,P|98:336|95:285,1,103,4|0,3:2|3:0,0:0:0:0:
167,215,240050,2,0,P|218:220|269:214,1,103,0|0,3:0|3:0,0:0:0:0:
345,140,240705,6,0,P|396:139|432:174,1,103,6|8,3:2|0:0,0:0:0:0:
445,225,241197,2,0,P|450:276|444:326,1,103,2|0,0:0|0:0,0:0:0:0:
401,355,241689,1,10,0:0:0:0:
319,292,242017,5,0,3:0:0:0:
275,318,242181,2,0,P|223:314|171:319,1,103,2|2,0:2|0:0,0:0:0:0:
127,343,242673,2,0,P|77:337|47:296,1,103,2|10,3:2|0:0,0:0:0:0:
51,193,243328,6,0,P|103:198|154:193,1,103,2|8,3:2|0:0,0:0:0:0:
200,171,243820,2,0,P|214:121|201:72,1,103,2|0,0:0|0:0,0:0:0:0:
166,33,244312,1,10,0:0:0:0:
72,76,244640,6,0,P|46:77|20:76,2,51.5,0|2|10,3:0|0:0|0:0,0:0:0:0:
101,118,245132,1,2,0:0:0:0:
101,118,245296,2,0,P|98:143|99:169,1,51.5,2|0,3:2|3:0,0:0:0:0:
66,209,245624,1,10,0:0:0:0:
110,300,245951,6,0,P|161:303|202:273,1,103,6|8,0:0|0:0,0:0:0:0:
230,230,246443,2,0,P|281:230|316:265,1,103,2|0,0:0|0:0,0:0:0:0:
330,315,246935,1,10,0:0:0:0:
421,362,247263,5,0,3:0:0:0:
460,327,247427,2,0,P|457:276|461:225,1,103,2|2,0:0|3:2,0:0:0:0:
489,180,247919,2,0,P|437:185|386:180,1,103,2|10,3:2|0:0,0:0:0:0:
336,90,248574,6,0,P|288:81|239:114,1,103,6|0,3:2|3:0,0:0:0:0:
226,156,249066,2,0,P|231:207|226:258,1,103,10|0,0:0|3:0,0:0:0:0:
259,298,249558,2,0,P|287:296|310:298,1,51.5,10|8,0:0|0:0,0:0:0:0:
351,326,249886,2,0,P|402:326|441:293,2,103,4|12|0,3:2|0:0|3:0,0:0:0:0:
366,224,250869,2,0,P|363:199|366:173,1,51.5,8|8,0:0|0:0,0:0:0:0:
387,125,251197,6,0,P|335:129|284:125,1,103,6|8,3:2|0:0,0:0:0:0:
247,88,251689,2,0,P|197:82|158:115,1,103,2|0,0:0|0:0,0:0:0:0:
150,166,252181,1,10,0:0:0:0:
223,238,252509,1,0,3:0:0:0:
191,279,252673,6,0,P|139:274|88:278,1,103,2|2,0:0|0:0,0:0:0:0:
58,235,253165,1,2,3:2:0:0:
28,136,253492,1,10,0:2:0:0:
92,55,253820,6,0,P|144:60|195:56,1,103,2|8,3:2|0:0,0:0:0:0:
240,80,254312,2,0,P|254:131|237:183,1,103,2|0,0:0|0:0,0:0:0:0:
195,203,254804,1,10,0:0:0:0:
270,281,255132,5,0,3:0:0:0:
270,281,255296,2,0,P|296:278|322:278,2,51.5,2|10|2,0:0|0:0|0:0,0:0:0:0:
226,310,255787,2,0,P|175:312|137:280,1,103,2|10,3:2|0:0,0:0:0:0:
138,231,256279,1,0,3:0:0:0:
137,231,256443,6,0,P|142:179|137:128,1,103,6|8,3:2|0:0,0:0:0:0:
163,83,256935,2,0,P|214:86|265:80,1,103,2|0,0:0|0:0,0:0:0:0:
307,110,257427,1,10,0:0:0:0:
378,36,257755,5,0,3:0:0:0:
419,63,257919,2,0,P|429:114|417:163,1,103,2|0,0:0|3:0,0:0:0:0:
371,187,258410,1,2,3:2:0:0:
440,262,258738,1,10,0:0:0:0:
385,349,259066,6,0,P|333:343|282:348,1,103,2|8,3:2|0:0,0:0:0:0:
235,367,259558,2,0,P|184:373|143:344,1,103,2|0,0:0|0:0,0:0:0:0:
136,292,260050,1,10,0:0:0:0:
199,210,260378,5,0,3:0:0:0:
159,177,260542,2,0,P|163:125|161:74,1,103,2|2,3:2|3:2,0:0:0:0:
202,43,261033,1,2,3:2:0:0:
264,124,261361,1,8,0:0:0:0:
256,192,264148,12,0,270869,0:0:0:0:
