osu file format v14

[General]
AudioFilename: .mp3
AudioLeadIn: 0
PreviewTime: 67034
Countdown: 0
SampleSet: Normal
StackLeniency: 0.7
Mode: 1
LetterboxInBreaks: 0
WidescreenStoryboard: 0

[Editor]
DistanceSpacing: 1
BeatDivisor: 4
GridSize: 32
TimelineZoom: 2.4

[Metadata]
Title:Kaiten
TitleUnicode:回転
Artist:ShinRa-Bansho
ArtistUnicode:森羅万象
Creator:Felt7z
Version:Muzukashii
Source:東方project
Tags:めらみぽっぷ kaztora azuki Meramipop touhou その日私は空を見上げた Sono Hi Watashi wa Sora wo Miageta
BeatmapID:1178817
BeatmapSetID:554941

[Difficulty]
HPDrainRate:5
CircleSize:5
OverallDifficulty:4
ApproachRate:5
SliderMultiplier:1.4
SliderTickRate:1

[Events]
//Background and Video events
0,0,"BG.jpg",0,0
//Break Periods
2,114176,115849
2,189358,199524
//Storyboard Layer 0 (Background)
//Storyboard Layer 1 (Fail)
//Storyboard Layer 2 (Pass)
//Storyboard Layer 3 (Foreground)
//Storyboard Sound Samples

[TimingPoints]
1387,361.44578313253,4,1,0,85,1,0
67893,-100,4,1,0,85,0,1
69248,-100,4,1,0,5,0,1
70152,-100,4,1,0,85,0,1
91025,-100,4,1,0,85,0,0
141627,-100,4,1,0,85,0,1
142983,-100,4,1,0,5,0,1
143886,-100,4,1,0,85,0,1
164760,-100,4,1,0,85,0,0
176326,-100,4,1,0,85,0,1
189338,-100,4,1,0,85,0,0
225483,-100,4,1,0,85,0,1
226838,-100,4,1,0,5,0,1
227742,-100,4,1,0,85,0,1
248615,-100,4,1,0,85,0,1
260182,-100,4,1,0,85,0,0

[HitObjects]
256,192,2832,5,8,0:0:0:0:
256,192,3012,1,8,0:0:0:0:
256,192,3374,1,0,0:0:0:0:
256,192,3555,1,8,0:0:0:0:
256,192,3916,1,0,0:0:0:0:
256,192,4097,1,0,0:0:0:0:
256,192,4458,1,8,0:0:0:0:
256,192,4639,1,0,0:0:0:0:
256,192,5000,1,8,0:0:0:0:
256,192,5362,1,8,0:0:0:0:
256,192,5723,1,8,0:0:0:0:
256,192,5904,1,8,0:0:0:0:
256,192,6265,1,0,0:0:0:0:
256,192,6446,1,8,0:0:0:0:
256,192,6808,1,0,0:0:0:0:
256,192,6988,1,0,0:0:0:0:
256,192,7350,1,8,0:0:0:0:
256,192,7530,1,0,0:0:0:0:
256,192,7892,12,0,8253,0:0:0:0:
256,192,8615,5,8,0:0:0:0:
256,192,8796,1,0,0:0:0:0:
256,192,8886,1,0,0:0:0:0:
256,192,8976,1,0,0:0:0:0:
256,192,9157,1,0,0:0:0:0:
256,192,9338,1,0,0:0:0:0:
256,192,9699,1,8,0:0:0:0:
256,192,9880,1,0,0:0:0:0:
256,192,9970,1,0,0:0:0:0:
256,192,10061,1,0,0:0:0:0:
256,192,10241,1,0,0:0:0:0:
256,192,10422,1,0,0:0:0:0:
256,192,10783,1,8,0:0:0:0:
256,192,11145,1,8,0:0:0:0:
256,192,11506,1,8,0:0:0:0:
256,192,11687,1,0,0:0:0:0:
256,192,11777,1,0,0:0:0:0:
256,192,11868,1,0,0:0:0:0:
256,192,12049,1,0,0:0:0:0:
256,192,12229,1,0,0:0:0:0:
256,192,12591,1,8,0:0:0:0:
256,192,12771,1,0,0:0:0:0:
256,192,14036,1,12,0:0:0:0:
256,192,14398,1,0,0:0:0:0:
256,192,14759,1,8,0:0:0:0:
256,192,14940,1,0,0:0:0:0:
256,192,15030,1,0,0:0:0:0:
256,192,15121,1,0,0:0:0:0:
256,192,15302,1,0,0:0:0:0:
256,192,15482,1,8,0:0:0:0:
256,192,15844,1,0,0:0:0:0:
256,192,16205,1,8,0:0:0:0:
256,192,16386,1,0,0:0:0:0:
256,192,16476,1,0,0:0:0:0:
256,192,16567,1,0,0:0:0:0:
256,192,16748,1,8,0:0:0:0:
256,192,16928,1,8,0:0:0:0:
256,192,17289,1,0,0:0:0:0:
256,192,17651,1,8,0:0:0:0:
256,192,17832,1,0,0:0:0:0:
256,192,17922,1,0,0:0:0:0:
256,192,18012,1,0,0:0:0:0:
256,192,18193,1,0,0:0:0:0:
256,192,18374,1,8,0:0:0:0:
256,192,18735,1,0,0:0:0:0:
256,192,18916,1,0,0:0:0:0:
256,192,19097,1,8,0:0:0:0:
256,192,19277,1,0,0:0:0:0:
256,192,19368,1,0,0:0:0:0:
256,192,19459,1,0,0:0:0:0:
256,192,19640,1,0,0:0:0:0:
256,192,19820,1,8,0:0:0:0:
256,192,20181,1,0,0:0:0:0:
256,192,20543,1,8,0:0:0:0:
256,192,20723,1,0,0:0:0:0:
256,192,20814,1,0,0:0:0:0:
256,192,20904,1,0,0:0:0:0:
256,192,21085,1,0,0:0:0:0:
256,192,21265,1,8,0:0:0:0:
256,192,21627,1,0,0:0:0:0:
256,192,21988,1,8,0:0:0:0:
256,192,22169,1,0,0:0:0:0:
256,192,22259,1,0,0:0:0:0:
256,192,22350,1,0,0:0:0:0:
256,192,22530,1,8,0:0:0:0:
256,192,22711,1,8,0:0:0:0:
256,192,23073,1,0,0:0:0:0:
256,192,23434,1,8,0:0:0:0:
256,192,23615,1,0,0:0:0:0:
256,192,23706,1,0,0:0:0:0:
256,192,23796,1,0,0:0:0:0:
256,192,23977,1,0,0:0:0:0:
256,192,24157,1,8,0:0:0:0:
256,192,24338,1,0,0:0:0:0:
256,192,24518,1,0,0:0:0:0:
256,192,24880,1,8,0:0:0:0:
256,192,25151,1,8,0:0:0:0:
256,192,25241,1,8,0:0:0:0:
256,192,25422,1,8,0:0:0:0:
256,192,25603,1,8,0:0:0:0:
256,192,25964,1,0,0:0:0:0:
256,192,26326,1,8,0:0:0:0:
256,192,26687,1,0,0:0:0:0:
256,192,26868,1,0,0:0:0:0:
256,192,27049,1,8,0:0:0:0:
256,192,27229,1,8,0:0:0:0:
256,192,27320,1,8,0:0:0:0:
256,192,27410,1,8,0:0:0:0:
256,192,27771,1,8,0:0:0:0:
256,192,27953,1,8,0:0:0:0:
256,192,28133,1,0,0:0:0:0:
256,192,28494,1,8,0:0:0:0:
256,192,28856,1,0,0:0:0:0:
256,192,29217,1,8,0:0:0:0:
256,192,29579,1,0,0:0:0:0:
256,192,29759,1,0,0:0:0:0:
256,192,29940,1,8,0:0:0:0:
256,192,30121,1,8,0:0:0:0:
256,192,30211,1,8,0:0:0:0:
256,192,30302,1,8,0:0:0:0:
256,192,30663,1,8,0:0:0:0:
256,192,30844,1,0,0:0:0:0:
256,192,31024,1,8,0:0:0:0:
256,192,31747,1,0,0:0:0:0:
256,192,32109,1,8,0:0:0:0:
256,192,32470,1,0,0:0:0:0:
256,192,32651,1,0,0:0:0:0:
256,192,32832,1,8,0:0:0:0:
256,192,33012,1,8,0:0:0:0:
256,192,33103,1,8,0:0:0:0:
256,192,33194,1,8,0:0:0:0:
256,192,33555,1,8,0:0:0:0:
256,192,33736,1,8,0:0:0:0:
256,192,33916,1,0,0:0:0:0:
256,192,34277,1,8,0:0:0:0:
256,192,34639,1,0,0:0:0:0:
256,192,35000,1,8,0:0:0:0:
256,192,35362,1,0,0:0:0:0:
256,192,35543,1,0,0:0:0:0:
256,192,35723,1,8,0:0:0:0:
256,192,35904,1,8,0:0:0:0:
256,192,35994,1,8,0:0:0:0:
256,192,36085,1,8,0:0:0:0:
256,192,36266,1,0,0:0:0:0:
256,192,36447,1,8,0:0:0:0:
256,192,36808,1,8,0:0:0:0:
256,192,36989,1,0,0:0:0:0:
256,192,37169,1,8,0:0:0:0:
256,192,37530,1,0,0:0:0:0:
256,192,37892,1,8,0:0:0:0:
256,192,38073,1,0,0:0:0:0:
256,192,38163,1,0,0:0:0:0:
256,192,38253,1,0,0:0:0:0:
256,192,38434,1,8,0:0:0:0:
256,192,38615,1,0,0:0:0:0:
256,192,38796,1,8,0:0:0:0:
256,192,39157,1,8,0:0:0:0:
256,192,39338,1,0,0:0:0:0:
256,192,39518,1,8,0:0:0:0:
256,192,39609,1,8,0:0:0:0:
256,192,39699,1,8,0:0:0:0:
256,192,39880,1,8,0:0:0:0:
256,192,40061,1,8,0:0:0:0:
256,192,40422,1,0,0:0:0:0:
256,192,40783,1,8,0:0:0:0:
256,192,40964,1,0,0:0:0:0:
256,192,41055,1,0,0:0:0:0:
256,192,41145,1,0,0:0:0:0:
256,192,41326,1,8,0:0:0:0:
256,192,41506,1,0,0:0:0:0:
256,192,41687,1,8,0:0:0:0:
256,192,42049,1,8,0:0:0:0:
256,192,42229,1,0,0:0:0:0:
256,192,42410,1,8,0:0:0:0:
256,192,42500,1,8,0:0:0:0:
256,192,42591,1,8,0:0:0:0:
256,192,42771,1,0,0:0:0:0:
256,192,42952,1,8,0:0:0:0:
256,192,43314,1,0,0:0:0:0:
256,192,43675,1,8,0:0:0:0:
256,192,44036,1,0,0:0:0:0:
256,192,44217,1,0,0:0:0:0:
256,192,44398,1,8,0:0:0:0:
256,192,44579,1,0,0:0:0:0:
256,192,44669,1,0,0:0:0:0:
256,192,44759,1,0,0:0:0:0:
256,192,45121,1,8,0:0:0:0:
256,192,45482,1,0,0:0:0:0:
256,192,45664,1,0,0:0:0:0:
256,192,45844,1,8,0:0:0:0:
256,192,46205,1,0,0:0:0:0:
256,192,46567,1,8,0:0:0:0:
256,192,46747,1,0,0:0:0:0:
256,192,46838,1,0,0:0:0:0:
256,192,46928,1,0,0:0:0:0:
256,192,47109,1,0,0:0:0:0:
256,192,47289,1,8,0:0:0:0:
256,192,47470,1,0,0:0:0:0:
256,192,47832,1,8,0:0:0:0:
256,192,48012,1,8,0:0:0:0:
256,192,48193,1,0,0:0:0:0:
256,192,48374,1,8,0:0:0:0:
256,192,49097,1,0,0:0:0:0:
256,192,49458,1,8,0:0:0:0:
256,192,49639,1,0,0:0:0:0:
256,192,49729,1,0,0:0:0:0:
256,192,49820,1,0,0:0:0:0:
256,192,50000,1,0,0:0:0:0:
256,192,50181,1,8,0:0:0:0:
256,192,50543,1,8,0:0:0:0:
256,192,50723,1,8,0:0:0:0:
256,192,50904,1,0,0:0:0:0:
256,192,51085,1,8,0:0:0:0:
256,192,51265,1,8,0:0:0:0:
256,192,51627,1,12,0:0:0:0:
256,192,51988,1,0,0:0:0:0:
256,192,52350,1,12,0:0:0:0:
256,192,52711,1,0,0:0:0:0:
256,192,53073,1,8,0:0:0:0:
256,192,53253,1,0,0:0:0:0:
256,192,53615,1,8,0:0:0:0:
256,192,53796,1,0,0:0:0:0:
256,192,53976,1,0,0:0:0:0:
256,192,54067,1,0,0:0:0:0:
256,192,54157,1,0,0:0:0:0:
256,192,54338,1,0,0:0:0:0:
256,192,54518,1,0,0:0:0:0:
256,192,54880,1,0,0:0:0:0:
256,192,55241,1,0,0:0:0:0:
256,192,55422,1,0,0:0:0:0:
256,192,55512,1,0,0:0:0:0:
256,192,55603,1,0,0:0:0:0:
256,192,55784,1,0,0:0:0:0:
256,192,55964,1,8,0:0:0:0:
256,192,56326,1,0,0:0:0:0:
256,192,56687,1,0,0:0:0:0:
256,192,56868,1,0,0:0:0:0:
256,192,56959,1,0,0:0:0:0:
256,192,57049,1,0,0:0:0:0:
256,192,57229,1,8,0:0:0:0:
256,192,57410,1,8,0:0:0:0:
256,192,57771,1,0,0:0:0:0:
256,192,58133,1,0,0:0:0:0:
256,192,58314,1,0,0:0:0:0:
256,192,58404,1,0,0:0:0:0:
256,192,58494,1,0,0:0:0:0:
256,192,58675,1,0,0:0:0:0:
256,192,58856,1,8,0:0:0:0:
256,192,59218,1,8,0:0:0:0:
256,192,59579,1,8,0:0:0:0:
256,192,59759,1,0,0:0:0:0:
256,192,59941,1,8,0:0:0:0:
256,192,60302,1,8,0:0:0:0:
256,192,60482,1,0,0:0:0:0:
256,192,60663,1,8,0:0:0:0:
256,192,61024,1,8,0:0:0:0:
256,192,61386,1,8,0:0:0:0:
256,192,61747,1,8,0:0:0:0:
256,192,61928,1,0,0:0:0:0:
256,192,62109,1,8,0:0:0:0:
256,192,62289,1,0,0:0:0:0:
256,192,62470,1,8,0:0:0:0:
256,192,62651,1,0,0:0:0:0:
256,192,62741,1,0,0:0:0:0:
256,192,62832,1,0,0:0:0:0:
256,192,63012,1,0,0:0:0:0:
256,192,63193,1,0,0:0:0:0:
256,192,63374,1,12,0:0:0:0:
256,192,63735,1,0,0:0:0:0:
256,192,63916,1,8,0:0:0:0:
256,192,64097,1,8,0:0:0:0:
256,192,64188,1,8,0:0:0:0:
256,192,64277,1,8,0:0:0:0:
256,192,64458,1,0,0:0:0:0:
256,192,64639,1,0,0:0:0:0:
256,192,64820,1,8,0:0:0:0:
256,192,65181,1,8,0:0:0:0:
256,192,65362,1,0,0:0:0:0:
256,192,65543,1,8,0:0:0:0:
256,192,65904,1,8,0:0:0:0:
256,192,66085,1,0,0:0:0:0:
256,192,66265,1,8,0:0:0:0:
256,192,66627,1,12,0:0:0:0:
256,192,66808,1,12,0:0:0:0:
256,192,66988,1,12,0:0:0:0:
256,192,67893,1,8,0:0:0:0:
256,192,68254,1,8,0:0:0:0:
256,192,68435,1,0,0:0:0:0:
256,192,68616,1,8,0:0:0:0:
256,192,68797,1,8,0:0:0:0:
256,192,68887,1,8,0:0:0:0:
256,192,68977,1,8,0:0:0:0:
256,192,69158,1,0,0:0:0:0:
256,192,69339,12,0,70062,0:0:0:0:
256,192,70423,5,0,0:0:0:0:
256,192,70784,1,8,0:0:0:0:
256,192,70965,1,8,0:0:0:0:
256,192,71056,1,8,0:0:0:0:
256,192,71146,1,8,0:0:0:0:
256,192,71327,1,8,0:0:0:0:
256,192,71507,1,8,0:0:0:0:
256,192,71869,1,8,0:0:0:0:
256,192,72230,1,8,0:0:0:0:
256,192,72411,1,8,0:0:0:0:
256,192,72592,1,0,0:0:0:0:
256,192,72772,1,8,0:0:0:0:
256,192,72953,1,0,0:0:0:0:
256,192,73315,1,8,0:0:0:0:
256,192,73676,1,0,0:0:0:0:
256,192,73857,1,0,0:0:0:0:
256,192,73947,1,0,0:0:0:0:
256,192,74037,1,0,0:0:0:0:
256,192,74218,1,8,0:0:0:0:
256,192,74399,1,0,0:0:0:0:
256,192,74761,1,8,0:0:0:0:
256,192,75122,1,8,0:0:0:0:
256,192,75303,1,8,0:0:0:0:
256,192,75393,1,8,0:0:0:0:
256,192,75484,1,8,0:0:0:0:
256,192,75665,1,8,0:0:0:0:
256,192,75845,1,8,0:0:0:0:
256,192,76206,1,0,0:0:0:0:
256,192,76387,1,0,0:0:0:0:
256,192,76568,1,8,0:0:0:0:
256,192,76929,1,8,0:0:0:0:
256,192,77110,1,0,0:0:0:0:
256,192,77291,1,8,0:0:0:0:
256,192,77471,1,0,0:0:0:0:
256,192,77652,1,8,0:0:0:0:
256,192,78013,1,4,0:0:0:0:
256,192,78375,1,4,0:0:0:0:
256,192,78736,1,4,0:0:0:0:
256,192,79097,1,12,0:0:0:0:
256,192,79459,1,8,0:0:0:0:
256,192,79821,1,8,0:0:0:0:
256,192,80001,1,0,0:0:0:0:
256,192,80182,1,8,0:0:0:0:
256,192,80363,1,8,0:0:0:0:
256,192,80453,1,8,0:0:0:0:
256,192,80544,1,8,0:0:0:0:
256,192,80724,1,0,0:0:0:0:
256,192,80905,1,8,0:0:0:0:
256,192,81267,1,8,0:0:0:0:
256,192,81447,1,8,0:0:0:0:
256,192,81627,1,0,0:0:0:0:
256,192,81989,1,8,0:0:0:0:
256,192,82351,1,0,0:0:0:0:
256,192,82531,1,0,0:0:0:0:
256,192,82622,1,0,0:0:0:0:
256,192,82712,1,0,0:0:0:0:
256,192,82893,1,8,0:0:0:0:
256,192,83074,1,8,0:0:0:0:
256,192,83255,1,0,0:0:0:0:
256,192,83436,1,8,0:0:0:0:
256,192,83797,1,8,0:0:0:0:
256,192,83977,1,8,0:0:0:0:
256,192,84158,1,0,0:0:0:0:
256,192,84339,1,8,0:0:0:0:
256,192,84519,1,0,0:0:0:0:
256,192,84881,1,8,0:0:0:0:
256,192,85242,1,0,0:0:0:0:
256,192,85423,1,0,0:0:0:0:
256,192,85513,1,0,0:0:0:0:
256,192,85604,1,0,0:0:0:0:
256,192,85784,1,8,0:0:0:0:
256,192,85965,1,0,0:0:0:0:
256,192,86327,1,8,0:0:0:0:
256,192,86507,1,0,0:0:0:0:
256,192,86688,1,8,0:0:0:0:
256,192,86869,1,8,0:0:0:0:
256,192,86959,1,8,0:0:0:0:
256,192,87049,1,8,0:0:0:0:
256,192,87230,1,8,0:0:0:0:
256,192,87411,1,8,0:0:0:0:
256,192,87592,1,0,0:0:0:0:
256,192,87772,1,8,0:0:0:0:
256,192,88134,1,8,0:0:0:0:
256,192,88495,1,8,0:0:0:0:
256,192,88677,1,0,0:0:0:0:
256,192,88857,1,8,0:0:0:0:
256,192,89219,1,8,0:0:0:0:
256,192,89400,1,0,0:0:0:0:
256,192,89580,1,8,0:0:0:0:
256,192,89941,1,8,0:0:0:0:
256,192,90121,1,0,0:0:0:0:
256,192,90212,1,0,0:0:0:0:
256,192,90303,1,0,0:0:0:0:
256,192,90483,1,0,0:0:0:0:
256,192,90665,1,8,0:0:0:0:
256,192,91025,2,0,L|32:192,1,210
256,192,91928,1,8,0:0:0:0:
256,192,92018,1,8,0:0:0:0:
256,192,92109,1,8,0:0:0:0:
256,192,92471,2,0,L|32:192,1,210
256,192,93555,1,0,0:0:0:0:
256,192,93917,2,0,L|32:192,1,210
256,192,94820,1,0,0:0:0:0:
256,192,95001,1,8,0:0:0:0:
256,192,95362,2,0,L|32:192,1,210
256,192,96266,1,8,0:0:0:0:
256,192,96356,1,8,0:0:0:0:
256,192,96446,1,8,0:0:0:0:
256,192,96808,1,0,0:0:0:0:
256,192,97169,1,8,0:0:0:0:
256,192,97350,1,0,0:0:0:0:
256,192,97440,1,0,0:0:0:0:
256,192,97531,1,0,0:0:0:0:
256,192,97712,1,0,0:0:0:0:
256,192,97892,1,8,0:0:0:0:
256,192,98254,1,0,0:0:0:0:
256,192,98615,1,8,0:0:0:0:
256,192,98796,1,0,0:0:0:0:
256,192,98886,1,0,0:0:0:0:
256,192,98977,1,0,0:0:0:0:
256,192,99157,1,8,0:0:0:0:
256,192,99338,1,8,0:0:0:0:
256,192,99700,1,0,0:0:0:0:
256,192,100062,1,8,0:0:0:0:
256,192,100243,1,0,0:0:0:0:
256,192,100333,1,0,0:0:0:0:
256,192,100423,1,0,0:0:0:0:
256,192,100603,1,0,0:0:0:0:
256,192,100785,1,8,0:0:0:0:
256,192,101146,1,0,0:0:0:0:
256,192,101327,1,0,0:0:0:0:
256,192,101507,1,8,0:0:0:0:
256,192,101688,1,0,0:0:0:0:
256,192,101779,1,0,0:0:0:0:
256,192,101869,1,0,0:0:0:0:
256,192,102050,1,8,0:0:0:0:
256,192,102231,1,8,0:0:0:0:
256,192,102591,1,0,0:0:0:0:
256,192,102772,1,0,0:0:0:0:
256,192,103133,1,0,0:0:0:0:
256,192,103314,1,8,0:0:0:0:
256,192,103494,1,0,0:0:0:0:
256,192,104036,1,0,0:0:0:0:
256,192,104217,1,0,0:0:0:0:
256,192,104579,1,0,0:0:0:0:
256,192,104759,1,8,0:0:0:0:
256,192,104940,1,0,0:0:0:0:
256,192,105302,1,8,0:0:0:0:
256,192,105482,1,0,0:0:0:0:
256,192,105663,1,0,0:0:0:0:
256,192,106024,1,0,0:0:0:0:
256,192,106205,1,8,0:0:0:0:
256,192,106386,1,0,0:0:0:0:
256,192,106567,1,0,0:0:0:0:
256,192,106748,1,8,0:0:0:0:
256,192,106929,1,0,0:0:0:0:
256,192,107109,1,0,0:0:0:0:
256,192,107289,1,0,0:0:0:0:
256,192,107651,1,12,0:0:0:0:
256,192,108374,1,0,0:0:0:0:
256,192,108555,1,0,0:0:0:0:
256,192,108917,1,0,0:0:0:0:
256,192,109097,1,8,0:0:0:0:
256,192,109277,1,0,0:0:0:0:
256,192,109639,1,0,0:0:0:0:
256,192,109820,1,8,0:0:0:0:
256,192,110000,1,0,0:0:0:0:
256,192,110181,1,8,0:0:0:0:
256,192,110362,1,8,0:0:0:0:
256,192,110543,1,8,0:0:0:0:
256,192,110904,1,12,0:0:0:0:
256,192,111265,1,0,0:0:0:0:
256,192,111627,1,12,0:0:0:0:
256,192,111988,1,0,0:0:0:0:
256,192,112350,1,8,0:0:0:0:
256,192,112531,1,0,0:0:0:0:
256,192,112892,1,8,0:0:0:0:
256,192,113073,1,8,0:0:0:0:
256,192,113253,1,0,0:0:0:0:
256,192,113434,1,8,0:0:0:0:
256,192,113705,1,8,0:0:0:0:
256,192,113976,1,0,0:0:0:0:
256,192,117049,5,0,0:0:0:0:
256,192,117411,1,8,0:0:0:0:
256,192,117772,1,0,0:0:0:0:
256,192,117953,1,0,0:0:0:0:
256,192,118134,1,8,0:0:0:0:
256,192,118314,1,8,0:0:0:0:
256,192,118405,1,8,0:0:0:0:
256,192,118495,1,8,0:0:0:0:
256,192,118856,1,8,0:0:0:0:
256,192,119037,1,8,0:0:0:0:
256,192,119218,1,0,0:0:0:0:
256,192,119579,1,8,0:0:0:0:
256,192,119941,1,0,0:0:0:0:
256,192,120302,1,8,0:0:0:0:
256,192,120664,1,0,0:0:0:0:
256,192,120844,1,0,0:0:0:0:
256,192,121025,1,8,0:0:0:0:
256,192,121206,1,8,0:0:0:0:
256,192,121296,1,8,0:0:0:0:
256,192,121387,1,8,0:0:0:0:
256,192,121568,1,8,0:0:0:0:
256,192,121748,1,8,0:0:0:0:
256,192,122109,1,8,0:0:0:0:
256,192,122832,1,0,0:0:0:0:
256,192,123013,1,0,0:0:0:0:
256,192,123103,1,0,0:0:0:0:
256,192,123194,1,0,0:0:0:0:
256,192,123374,1,0,0:0:0:0:
256,192,123555,1,8,0:0:0:0:
256,192,123736,1,8,0:0:0:0:
256,192,123826,1,8,0:0:0:0:
256,192,123917,1,8,0:0:0:0:
256,192,124097,1,8,0:0:0:0:
256,192,124278,1,0,0:0:0:0:
256,192,124459,1,0,0:0:0:0:
256,192,124640,1,0,0:0:0:0:
256,192,125001,1,8,0:0:0:0:
256,192,125362,1,12,0:0:0:0:
256,192,125724,1,0,0:0:0:0:
256,192,126085,1,12,0:0:0:0:
256,192,126447,1,0,0:0:0:0:
256,192,126808,1,8,0:0:0:0:
256,192,126988,1,0,0:0:0:0:
256,192,127350,1,8,0:0:0:0:
256,192,127531,1,0,0:0:0:0:
256,192,127711,1,0,0:0:0:0:
256,192,127802,1,0,0:0:0:0:
256,192,127892,1,0,0:0:0:0:
256,192,128073,1,0,0:0:0:0:
256,192,128253,1,0,0:0:0:0:
256,192,128615,1,0,0:0:0:0:
256,192,128976,1,0,0:0:0:0:
256,192,129157,1,0,0:0:0:0:
256,192,129247,1,0,0:0:0:0:
256,192,129338,1,0,0:0:0:0:
256,192,129519,1,0,0:0:0:0:
256,192,129699,1,8,0:0:0:0:
256,192,130061,1,0,0:0:0:0:
256,192,130422,1,0,0:0:0:0:
256,192,130603,1,0,0:0:0:0:
256,192,130694,1,0,0:0:0:0:
256,192,130784,1,0,0:0:0:0:
256,192,130964,1,8,0:0:0:0:
256,192,131145,1,8,0:0:0:0:
256,192,131506,1,0,0:0:0:0:
256,192,131868,1,0,0:0:0:0:
256,192,132049,1,0,0:0:0:0:
256,192,132139,1,0,0:0:0:0:
256,192,132229,1,0,0:0:0:0:
256,192,132410,1,0,0:0:0:0:
256,192,132591,1,8,0:0:0:0:
256,192,132953,1,8,0:0:0:0:
256,192,133314,1,8,0:0:0:0:
256,192,133494,1,0,0:0:0:0:
256,192,133676,1,8,0:0:0:0:
256,192,134037,1,8,0:0:0:0:
256,192,134217,1,0,0:0:0:0:
256,192,134398,1,8,0:0:0:0:
256,192,134759,1,8,0:0:0:0:
256,192,135121,1,8,0:0:0:0:
256,192,135482,1,8,0:0:0:0:
256,192,135663,1,0,0:0:0:0:
256,192,135844,1,8,0:0:0:0:
256,192,136024,1,0,0:0:0:0:
256,192,136205,1,8,0:0:0:0:
256,192,136386,1,0,0:0:0:0:
256,192,136476,1,0,0:0:0:0:
256,192,136567,1,0,0:0:0:0:
256,192,136747,1,0,0:0:0:0:
256,192,136928,1,0,0:0:0:0:
256,192,137109,1,12,0:0:0:0:
256,192,137470,1,0,0:0:0:0:
256,192,137651,1,8,0:0:0:0:
256,192,137832,1,8,0:0:0:0:
256,192,137922,1,8,0:0:0:0:
256,192,138012,1,8,0:0:0:0:
256,192,138193,1,0,0:0:0:0:
256,192,138374,1,0,0:0:0:0:
256,192,138555,1,8,0:0:0:0:
256,192,138916,1,8,0:0:0:0:
256,192,139097,1,0,0:0:0:0:
256,192,139278,1,8,0:0:0:0:
256,192,139639,1,8,0:0:0:0:
256,192,139820,1,0,0:0:0:0:
256,192,140000,1,8,0:0:0:0:
256,192,140362,1,12,0:0:0:0:
256,192,140543,1,12,0:0:0:0:
256,192,140723,1,12,0:0:0:0:
256,192,141628,1,8,0:0:0:0:
256,192,141989,1,8,0:0:0:0:
256,192,142170,1,0,0:0:0:0:
256,192,142351,1,8,0:0:0:0:
256,192,142532,1,8,0:0:0:0:
256,192,142622,1,8,0:0:0:0:
256,192,142712,1,8,0:0:0:0:
256,192,142893,1,0,0:0:0:0:
256,192,143074,12,0,143797,0:0:0:0:
256,192,144158,5,0,0:0:0:0:
256,192,144519,1,0,0:0:0:0:
256,192,144791,1,0,0:0:0:0:
256,192,144881,1,0,0:0:0:0:
256,192,145062,1,8,0:0:0:0:
256,192,145242,1,8,0:0:0:0:
256,192,145423,1,0,0:0:0:0:
256,192,145604,1,8,0:0:0:0:
256,192,145965,1,8,0:0:0:0:
256,192,146146,1,8,0:0:0:0:
256,192,146327,1,0,0:0:0:0:
256,192,146507,1,8,0:0:0:0:
256,192,146688,1,0,0:0:0:0:
256,192,147050,1,8,0:0:0:0:
256,192,147411,1,0,0:0:0:0:
256,192,147592,1,0,0:0:0:0:
256,192,147682,1,0,0:0:0:0:
256,192,147772,1,0,0:0:0:0:
256,192,147953,1,8,0:0:0:0:
256,192,148134,1,0,0:0:0:0:
256,192,148496,1,8,0:0:0:0:
256,192,148857,1,8,0:0:0:0:
256,192,149038,1,8,0:0:0:0:
256,192,149128,1,8,0:0:0:0:
256,192,149219,1,8,0:0:0:0:
256,192,149400,1,8,0:0:0:0:
256,192,149580,1,8,0:0:0:0:
256,192,149941,1,0,0:0:0:0:
256,192,150122,1,0,0:0:0:0:
256,192,150303,1,8,0:0:0:0:
256,192,150664,1,8,0:0:0:0:
256,192,150845,1,0,0:0:0:0:
256,192,151026,1,8,0:0:0:0:
256,192,151206,1,0,0:0:0:0:
256,192,151387,1,8,0:0:0:0:
256,192,151748,1,4,0:0:0:0:
256,192,152110,1,4,0:0:0:0:
256,192,152471,1,4,0:0:0:0:
256,192,152833,1,12,0:0:0:0:
256,192,153194,1,8,0:0:0:0:
256,192,153556,1,8,0:0:0:0:
256,192,153736,1,0,0:0:0:0:
256,192,153917,1,8,0:0:0:0:
256,192,154098,1,8,0:0:0:0:
256,192,154188,1,8,0:0:0:0:
256,192,154279,1,8,0:0:0:0:
256,192,154460,1,0,0:0:0:0:
256,192,154640,1,8,0:0:0:0:
256,192,155002,1,8,0:0:0:0:
256,192,155182,1,8,0:0:0:0:
256,192,155362,1,0,0:0:0:0:
256,192,155724,1,8,0:0:0:0:
256,192,155905,1,8,0:0:0:0:
256,192,156086,1,0,0:0:0:0:
256,192,156266,1,0,0:0:0:0:
256,192,156357,1,0,0:0:0:0:
256,192,156447,1,0,0:0:0:0:
256,192,156628,1,8,0:0:0:0:
256,192,156809,1,8,0:0:0:0:
256,192,156990,1,0,0:0:0:0:
256,192,157170,1,8,0:0:0:0:
256,192,157532,1,8,0:0:0:0:
256,192,157712,1,8,0:0:0:0:
256,192,157893,1,0,0:0:0:0:
256,192,158074,1,8,0:0:0:0:
256,192,158254,1,0,0:0:0:0:
256,192,158616,1,8,0:0:0:0:
256,192,158977,1,0,0:0:0:0:
256,192,159158,1,0,0:0:0:0:
256,192,159248,1,0,0:0:0:0:
256,192,159339,1,0,0:0:0:0:
256,192,159519,1,8,0:0:0:0:
256,192,159700,1,0,0:0:0:0:
256,192,160062,1,8,0:0:0:0:
256,192,160242,1,0,0:0:0:0:
256,192,160423,1,8,0:0:0:0:
256,192,160604,1,8,0:0:0:0:
256,192,160694,1,8,0:0:0:0:
256,192,160784,1,8,0:0:0:0:
256,192,160965,1,8,0:0:0:0:
256,192,161146,1,0,0:0:0:0:
256,192,161507,1,0,0:0:0:0:
256,192,161688,1,0,0:0:0:0:
256,192,161869,1,8,0:0:0:0:
256,192,162230,1,8,0:0:0:0:
256,192,162412,1,0,0:0:0:0:
256,192,162592,1,8,0:0:0:0:
256,192,162954,1,8,0:0:0:0:
256,192,163133,1,0,0:0:0:0:
256,192,163315,1,8,0:0:0:0:
256,192,163676,1,8,0:0:0:0:
256,192,163856,1,0,0:0:0:0:
256,192,163947,1,0,0:0:0:0:
256,192,164038,1,0,0:0:0:0:
256,192,164218,1,0,0:0:0:0:
256,192,164400,1,8,0:0:0:0:
256,192,164760,1,0,0:0:0:0:
256,192,166929,1,8,0:0:0:0:
256,192,167109,1,0,0:0:0:0:
256,192,167290,1,8,0:0:0:0:
256,192,167471,1,8,0:0:0:0:
256,192,167832,1,0,0:0:0:0:
256,192,168013,1,8,0:0:0:0:
256,192,168194,1,0,0:0:0:0:
256,192,169278,1,8,0:0:0:0:
256,192,169459,1,0,0:0:0:0:
256,192,169640,1,8,0:0:0:0:
256,192,169820,1,8,0:0:0:0:
256,192,170001,1,8,0:0:0:0:
256,192,170182,1,0,0:0:0:0:
256,192,170362,1,0,0:0:0:0:
256,192,170543,1,0,0:0:0:0:
256,192,170814,1,8,0:0:0:0:
256,192,171085,1,8,0:0:0:0:
256,192,171265,1,0,0:0:0:0:
256,192,171537,1,8,0:0:0:0:
256,192,171808,1,8,0:0:0:0:
256,192,171988,1,0,0:0:0:0:
256,192,172260,1,8,0:0:0:0:
256,192,172530,1,8,0:0:0:0:
256,192,172712,1,0,0:0:0:0:
256,192,172983,1,8,0:0:0:0:
256,192,173253,1,8,0:0:0:0:
256,192,173796,1,8,0:0:0:0:
256,192,173977,1,8,0:0:0:0:
256,192,174158,1,0,0:0:0:0:
256,192,174428,1,8,0:0:0:0:
256,192,174699,1,8,0:0:0:0:
256,192,175783,1,0,0:0:0:0:
256,192,175964,1,8,0:0:0:0:
256,192,176326,1,0,0:0:0:0:
256,192,176417,1,0,0:0:0:0:
256,192,176507,1,0,0:0:0:0:
256,192,176688,1,8,0:0:0:0:
256,192,176868,1,0,0:0:0:0:
256,192,176959,1,0,0:0:0:0:
256,192,177049,1,0,0:0:0:0:
256,192,177229,1,8,0:0:0:0:
256,192,177410,1,8,0:0:0:0:
256,192,177591,1,0,0:0:0:0:
256,192,177953,1,0,0:0:0:0:
256,192,178133,1,8,0:0:0:0:
256,192,178314,1,0,0:0:0:0:
256,192,178676,1,8,0:0:0:0:
256,192,178856,1,0,0:0:0:0:
256,192,179036,1,0,0:0:0:0:
256,192,179217,1,8,0:0:0:0:
256,192,179308,1,8,0:0:0:0:
256,192,179398,1,8,0:0:0:0:
256,192,179579,1,8,0:0:0:0:
256,192,179760,1,0,0:0:0:0:
256,192,179940,1,8,0:0:0:0:
256,192,180121,1,0,0:0:0:0:
256,192,180483,1,8,0:0:0:0:
256,192,180844,1,8,0:0:0:0:
256,192,181025,1,0,0:0:0:0:
256,192,181206,1,0,0:0:0:0:
256,192,181386,1,0,0:0:0:0:
256,192,181747,1,8,0:0:0:0:
256,192,181929,1,8,0:0:0:0:
256,192,182018,1,8,0:0:0:0:
256,192,182109,1,8,0:0:0:0:
256,192,182289,1,8,0:0:0:0:
256,192,182470,1,8,0:0:0:0:
256,192,182651,1,0,0:0:0:0:
256,192,182832,1,0,0:0:0:0:
256,192,183012,1,8,0:0:0:0:
256,192,183374,1,8,0:0:0:0:
256,192,183735,1,0,0:0:0:0:
256,192,183917,1,8,0:0:0:0:
256,192,184097,1,0,0:0:0:0:
256,192,184277,1,8,0:0:0:0:
256,192,184368,1,8,0:0:0:0:
256,192,184458,1,8,0:0:0:0:
256,192,184640,1,8,0:0:0:0:
256,192,184820,1,0,0:0:0:0:
256,192,184911,1,0,0:0:0:0:
256,192,185000,1,0,0:0:0:0:
256,192,185362,1,0,0:0:0:0:
256,192,185724,1,8,0:0:0:0:
256,192,185905,1,0,0:0:0:0:
256,192,185995,1,0,0:0:0:0:
256,192,186085,1,0,0:0:0:0:
256,192,186266,1,0,0:0:0:0:
256,192,186627,1,0,0:0:0:0:
256,192,186808,1,8,0:0:0:0:
256,192,186988,1,8,0:0:0:0:
256,192,187169,1,0,0:0:0:0:
256,192,187260,1,0,0:0:0:0:
256,192,187350,1,0,0:0:0:0:
256,192,187531,1,8,0:0:0:0:
256,192,187893,1,0,0:0:0:0:
256,192,188073,1,8,0:0:0:0:
256,192,188253,1,8,0:0:0:0:
256,192,188435,1,0,0:0:0:0:
256,192,188615,1,8,0:0:0:0:
256,192,188706,1,8,0:0:0:0:
256,192,188796,1,8,0:0:0:0:
256,192,188977,1,0,0:0:0:0:
256,192,189158,1,8,0:0:0:0:
256,192,200724,5,8,0:0:0:0:
256,192,200814,1,8,0:0:0:0:
256,192,200905,1,0,0:0:0:0:
256,192,201266,1,8,0:0:0:0:
256,192,201989,1,8,0:0:0:0:
256,192,202350,1,0,0:0:0:0:
256,192,202712,1,8,0:0:0:0:
256,192,203435,1,8,0:0:0:0:
256,192,203615,1,0,0:0:0:0:
256,192,203796,1,0,0:0:0:0:
256,192,204158,1,8,0:0:0:0:
256,192,204880,1,8,0:0:0:0:
256,192,205242,1,0,0:0:0:0:
256,192,205603,1,8,0:0:0:0:
256,192,205965,1,0,0:0:0:0:
256,192,206326,1,8,0:0:0:0:
256,192,206507,1,0,0:0:0:0:
256,192,206688,1,0,0:0:0:0:
256,192,207049,1,8,0:0:0:0:
256,192,207230,1,8,0:0:0:0:
256,192,207411,1,0,0:0:0:0:
256,192,207772,1,8,0:0:0:0:
256,192,207953,1,8,0:0:0:0:
256,192,208133,1,0,0:0:0:0:
256,192,208495,1,8,0:0:0:0:
256,192,208856,1,8,0:0:0:0:
256,192,209218,1,8,0:0:0:0:
256,192,209579,1,0,0:0:0:0:
256,192,209941,1,0,0:0:0:0:
256,192,210121,1,8,0:0:0:0:
256,192,210302,1,8,0:0:0:0:
256,192,210483,1,0,0:0:0:0:
256,192,210664,1,8,0:0:0:0:
256,192,210844,1,0,0:0:0:0:
256,192,211025,1,0,0:0:0:0:
256,192,211386,1,8,0:0:0:0:
256,192,211567,1,0,0:0:0:0:
256,192,211748,1,0,0:0:0:0:
256,192,211929,1,8,0:0:0:0:
256,192,212019,1,8,0:0:0:0:
256,192,212109,1,8,0:0:0:0:
256,192,212471,1,0,0:0:0:0:
256,192,212832,1,0,0:0:0:0:
256,192,213013,1,8,0:0:0:0:
256,192,213194,1,0,0:0:0:0:
256,192,213555,1,0,0:0:0:0:
256,192,213736,1,8,0:0:0:0:
256,192,213917,1,0,0:0:0:0:
256,192,214278,1,8,0:0:0:0:
256,192,214640,1,8,0:0:0:0:
256,192,215001,1,0,0:0:0:0:
256,192,215362,1,0,0:0:0:0:
256,192,215724,1,0,0:0:0:0:
256,192,215905,1,0,0:0:0:0:
256,192,215995,1,0,0:0:0:0:
256,192,216085,1,0,0:0:0:0:
256,192,216266,1,8,0:0:0:0:
256,192,216447,1,0,0:0:0:0:
256,192,216808,1,0,0:0:0:0:
256,192,217170,1,0,0:0:0:0:
256,192,217350,1,0,0:0:0:0:
256,192,217441,1,0,0:0:0:0:
256,192,217531,1,0,0:0:0:0:
256,192,217712,1,8,0:0:0:0:
256,192,217893,1,8,0:0:0:0:
256,192,218254,1,0,0:0:0:0:
256,192,218615,1,0,0:0:0:0:
256,192,218796,1,8,0:0:0:0:
256,192,218977,1,0,0:0:0:0:
256,192,219158,1,8,0:0:0:0:
256,192,219338,1,8,0:0:0:0:
256,192,219519,1,0,0:0:0:0:
256,192,219700,1,8,0:0:0:0:
256,192,220061,1,8,0:0:0:0:
256,192,220423,1,8,0:0:0:0:
256,192,220784,1,8,0:0:0:0:
256,192,220965,2,0,P|32:192|192:96,1,560
256,192,222772,1,12,0:0:0:0:
256,192,222953,1,12,0:0:0:0:
256,192,223133,1,12,0:0:0:0:
256,192,224760,1,0,0:0:0:0:
256,192,224850,1,0,0:0:0:0:
256,192,224941,1,0,0:0:0:0:
256,192,225121,1,8,0:0:0:0:
256,192,225483,1,8,0:0:0:0:
256,192,225844,1,8,0:0:0:0:
256,192,226025,1,0,0:0:0:0:
256,192,226206,1,8,0:0:0:0:
256,192,226387,1,8,0:0:0:0:
256,192,226477,1,8,0:0:0:0:
256,192,226567,1,8,0:0:0:0:
256,192,226748,1,0,0:0:0:0:
256,192,226929,12,0,227652,0:0:0:0:
256,192,228013,5,0,0:0:0:0:
256,192,228194,1,8,0:0:0:0:
256,192,228374,1,0,0:0:0:0:
256,192,228556,1,8,0:0:0:0:
256,192,228646,1,8,0:0:0:0:
256,192,228736,1,8,0:0:0:0:
256,192,228917,1,8,0:0:0:0:
256,192,229097,1,8,0:0:0:0:
256,192,229278,1,0,0:0:0:0:
256,192,229459,1,8,0:0:0:0:
256,192,229820,1,8,0:0:0:0:
256,192,230001,1,8,0:0:0:0:
256,192,230182,1,0,0:0:0:0:
256,192,230362,1,8,0:0:0:0:
256,192,230543,1,0,0:0:0:0:
256,192,230905,1,8,0:0:0:0:
256,192,231266,1,0,0:0:0:0:
256,192,231447,1,0,0:0:0:0:
256,192,231537,1,0,0:0:0:0:
256,192,231627,1,0,0:0:0:0:
256,192,231808,1,8,0:0:0:0:
256,192,231989,1,0,0:0:0:0:
256,192,232351,1,8,0:0:0:0:
256,192,232712,1,8,0:0:0:0:
256,192,232893,1,8,0:0:0:0:
256,192,232983,1,8,0:0:0:0:
256,192,233074,1,8,0:0:0:0:
256,192,233255,1,8,0:0:0:0:
256,192,233435,1,8,0:0:0:0:
256,192,233796,1,8,0:0:0:0:
256,192,233977,1,0,0:0:0:0:
256,192,234158,1,8,0:0:0:0:
256,192,234519,1,8,0:0:0:0:
256,192,234700,1,0,0:0:0:0:
256,192,234881,1,8,0:0:0:0:
256,192,235061,1,0,0:0:0:0:
256,192,235242,1,8,0:0:0:0:
256,192,235603,1,4,0:0:0:0:
256,192,235965,1,4,0:0:0:0:
256,192,236326,1,4,0:0:0:0:
256,192,236688,1,12,0:0:0:0:
256,192,237049,1,8,0:0:0:0:
256,192,237411,1,8,0:0:0:0:
256,192,237591,1,0,0:0:0:0:
256,192,237772,1,8,0:0:0:0:
256,192,237953,1,8,0:0:0:0:
256,192,238043,1,8,0:0:0:0:
256,192,238134,1,8,0:0:0:0:
256,192,238315,1,0,0:0:0:0:
256,192,238495,1,8,0:0:0:0:
256,192,238857,1,8,0:0:0:0:
256,192,239037,1,8,0:0:0:0:
256,192,239218,1,8,0:0:0:0:
256,192,239579,1,8,0:0:0:0:
256,192,239941,1,0,0:0:0:0:
256,192,240121,1,0,0:0:0:0:
256,192,240212,1,0,0:0:0:0:
256,192,240302,1,0,0:0:0:0:
256,192,240483,1,8,0:0:0:0:
256,192,240664,1,8,0:0:0:0:
256,192,240845,1,0,0:0:0:0:
256,192,241025,1,8,0:0:0:0:
256,192,241387,1,4,0:0:0:0:
256,192,241748,1,12,0:0:0:0:
256,192,242109,1,12,0:0:0:0:
256,192,242471,1,4,0:0:0:0:
256,192,242832,1,0,0:0:0:0:
256,192,243013,1,0,0:0:0:0:
256,192,243103,1,0,0:0:0:0:
256,192,243194,1,0,0:0:0:0:
256,192,243374,1,8,0:0:0:0:
256,192,243555,1,0,0:0:0:0:
256,192,243917,1,8,0:0:0:0:
256,192,244097,1,0,0:0:0:0:
256,192,244278,1,8,0:0:0:0:
256,192,244459,1,8,0:0:0:0:
256,192,244549,1,8,0:0:0:0:
256,192,244640,1,8,0:0:0:0:
256,192,244820,1,8,0:0:0:0:
256,192,245001,1,0,0:0:0:0:
256,192,245362,1,0,0:0:0:0:
256,192,245543,1,0,0:0:0:0:
256,192,245724,1,8,0:0:0:0:
256,192,246085,1,8,0:0:0:0:
256,192,246267,1,0,0:0:0:0:
256,192,246447,1,8,0:0:0:0:
256,192,246809,1,8,0:0:0:0:
256,192,246990,1,0,0:0:0:0:
256,192,247170,1,8,0:0:0:0:
256,192,247531,1,8,0:0:0:0:
256,192,247711,1,0,0:0:0:0:
256,192,247802,1,0,0:0:0:0:
256,192,247893,1,0,0:0:0:0:
256,192,248073,1,0,0:0:0:0:
256,192,248255,1,8,0:0:0:0:
256,192,248615,1,0,0:0:0:0:
256,192,248977,1,8,0:0:0:0:
256,192,249158,1,0,0:0:0:0:
256,192,249338,1,8,0:0:0:0:
256,192,249519,1,8,0:0:0:0:
256,192,249609,1,8,0:0:0:0:
256,192,249700,1,8,0:0:0:0:
256,192,249880,1,8,0:0:0:0:
256,192,250061,1,0,0:0:0:0:
256,192,250423,1,8,0:0:0:0:
256,192,250603,1,0,0:0:0:0:
256,192,250784,1,8,0:0:0:0:
256,192,251146,1,8,0:0:0:0:
256,192,251507,1,0,0:0:0:0:
256,192,251868,1,8,0:0:0:0:
256,192,252049,1,0,0:0:0:0:
256,192,252140,1,0,0:0:0:0:
256,192,252230,1,0,0:0:0:0:
256,192,252411,1,0,0:0:0:0:
256,192,252591,1,8,0:0:0:0:
256,192,252953,1,0,0:0:0:0:
256,192,253314,1,8,0:0:0:0:
256,192,253495,1,0,0:0:0:0:
256,192,253585,1,0,0:0:0:0:
256,192,253676,1,0,0:0:0:0:
256,192,253856,1,8,0:0:0:0:
256,192,254037,1,8,0:0:0:0:
256,192,254399,1,0,0:0:0:0:
256,192,254760,1,8,0:0:0:0:
256,192,254941,1,0,0:0:0:0:
256,192,255121,1,8,0:0:0:0:
256,192,255302,1,8,0:0:0:0:
256,192,255393,1,8,0:0:0:0:
256,192,255483,1,8,0:0:0:0:
256,192,255664,1,8,0:0:0:0:
256,192,255844,1,0,0:0:0:0:
256,192,256206,1,8,0:0:0:0:
256,192,256387,1,0,0:0:0:0:
256,192,256567,1,8,0:0:0:0:
256,192,256929,1,8,0:0:0:0:
256,192,257290,1,0,0:0:0:0:
256,192,257652,1,8,0:0:0:0:
256,192,257923,1,0,0:0:0:0:
256,192,258013,1,0,0:0:0:0:
256,192,258194,1,0,0:0:0:0:
256,192,258374,1,8,0:0:0:0:
256,192,258555,1,8,0:0:0:0:
256,192,258736,1,0,0:0:0:0:
256,192,258917,1,8,0:0:0:0:
256,192,259097,1,8,0:0:0:0:
256,192,259459,1,8,0:0:0:0:
256,192,259820,1,0,0:0:0:0:
256,192,260182,1,8,0:0:0:0:
256,192,260362,1,8,0:0:0:0:
256,192,260724,1,0,0:0:0:0:
256,192,260905,1,0,0:0:0:0:
256,192,261266,1,8,0:0:0:0:
256,192,261447,1,8,0:0:0:0:
256,192,261808,1,0,0:0:0:0:
256,192,261989,1,0,0:0:0:0:
256,192,262350,1,8,0:0:0:0:
256,192,262712,1,8,0:0:0:0:
256,192,263073,1,8,0:0:0:0:
256,192,263254,1,8,0:0:0:0:
256,192,263615,1,0,0:0:0:0:
256,192,263796,1,0,0:0:0:0:
256,192,264158,1,12,0:0:0:0:
256,192,264338,1,12,0:0:0:0:
