osu file format v14

[General]
AudioFilename: audio.mp3
AudioLeadIn: 0
PreviewTime: 178217
Countdown: 0
SampleSet: Soft
StackLeniency: 0.7
Mode: 2
LetterboxInBreaks: 0
WidescreenStoryboard: 1

[Editor]
DistanceSpacing: 1.1
BeatDivisor: 4
GridSize: 32
TimelineZoom: 2.1

[Metadata]
Title:Junjou Armeria
TitleUnicode:純情アルメリア
Artist:ShinRa-Bansho
ArtistUnicode:森羅万象
Creator:Jemzuu
Version:Fragile Cherry Blossom
Source:東方妖々夢 ~ Perfect Cherry Blossom.
Tags:ajamez spectator hey lululu シンクロ synchro kaztora あやぽんず* ayaponzu* 広有射怪鳥事 ~ Till When? 東方妖々夢 ~ Ancient Temple 魂魄 妖夢 Konpaku Youmu 上海アリス幻樂団 Team Shanghai Alice touhou zun japanese video game
BeatmapID:2657936
BeatmapSetID:1220848

[Difficulty]
HPDrainRate:6
CircleSize:4.2
OverallDifficulty:9.4
ApproachRate:9.4
SliderMultiplier:2.04
SliderTickRate:2

[Events]
//Background and Video events
0,0,"BG.jpg",0,0
//Break Periods
2,107570,108400
2,161658,163172
2,176766,178178
//Storyboard Layer 0 (Background)
//Storyboard Layer 1 (Fail)
//Storyboard Layer 2 (Pass)
//Storyboard Layer 3 (Foreground)
//Storyboard Layer 4 (Overlay)
//Storyboard Sound Samples

[TimingPoints]
4106,845.070422535211,4,2,1,30,1,0
11289,-100,4,2,1,5,0,0
12134,-100,4,2,1,30,0,0
12556,800,4,2,1,30,1,0
13356,890.207715133531,4,2,1,30,1,0
14246,845.070422535211,4,2,1,30,1,0
20795,-100,4,2,1,5,0,0
21637,348.837209302326,4,2,2,70,1,0
21637,-100,4,2,2,70,0,0
32440,-100,4,2,2,70,0,0
32789,-100,4,2,2,60,0,0
36801,-100,4,2,2,60,0,0
38371,-100,4,2,2,60,0,0
55125,339.462517680339,4,2,2,60,1,0
56143,340.909090909091,3,2,2,60,1,0
57165,326.086956521739,3,2,2,60,1,0
58143,304.568527918782,3,2,2,60,1,0
58447,312.5,3,2,2,60,1,0
58759,331.491712707182,3,2,2,60,1,0
59090,309.278350515464,3,2,2,60,1,0
60017,300,3,2,2,60,1,0
61817,286.396181384248,3,2,2,60,1,0
63535,276.497695852535,3,2,2,60,1,0
65193,300,3,2,2,60,1,0
65493,344.827586206897,3,2,2,60,1,0
66182,375,3,2,2,60,1,0
66557,413.793103448276,3,2,2,60,1,0
66970,437.956204379562,3,2,2,60,1,0
67188,480,3,2,2,60,1,0
67428,352.526439482961,3,2,2,60,1,0
67428,-100,3,2,2,50,0,0
68132,362.209477814669,3,2,2,50,1,0
68494,360.03600360036,3,2,2,50,1,0
68854,355.766380077083,3,2,2,50,1,0
69562,348.837209302326,3,2,2,70,1,0
74455,342.857142857143,4,2,2,80,1,1
74455,-83.3333333333333,4,2,2,80,0,1
80283,-83.3333333333333,4,2,3,80,0,1
80455,-83.3333333333333,4,2,2,80,0,1
81655,-83.3333333333333,4,2,3,80,0,1
81827,-83.3333333333333,4,2,2,80,0,1
83369,-83.3333333333333,4,2,2,80,0,1
84055,337.837837837838,4,2,2,80,1,1
84055,-83.3333333333333,4,2,2,80,0,1
85406,342.857142857143,4,2,2,80,1,1
85406,-83.3333333333333,4,2,2,80,0,1
91234,-83.3333333333333,4,2,3,80,0,1
91406,-83.3333333333333,4,2,2,80,0,1
92606,-83.3333333333333,4,2,3,80,0,1
92778,-83.3333333333333,4,2,2,80,0,1
94834,-100,4,2,2,70,0,0
96382,348.837209302326,4,2,2,70,1,0
108940,-100,4,2,2,60,0,0
115916,-100,4,2,2,60,0,0
120117,342.857142857143,3,2,2,60,1,0
121147,320.855614973262,3,2,2,60,1,0
121467,335.195530726257,3,2,2,60,1,0
122143,327.868852459016,3,2,2,60,1,0
123126,315.789473684211,3,2,2,60,1,0
124073,307.692307692308,3,2,2,60,1,0
124380,312.5,3,2,2,60,1,0
125000,300,3,2,2,60,1,0
126800,285.714285714286,3,2,2,60,1,0
128514,279.06976744186,3,2,2,60,1,0
130188,324.324324324324,3,2,2,60,1,0
130512,333.333333333333,3,2,2,60,1,0
131182,346.820809248555,3,2,2,60,1,0
131530,413.793103448276,3,2,2,60,1,0
131943,469.667318982387,3,2,2,60,1,0
132412,355.029585798817,3,2,2,50,1,0
132412,-100,3,2,2,50,0,0
133477,-100,3,2,2,50,0,0
133832,344.827586206897,3,2,2,50,1,0
134176,335.195530726257,3,2,2,50,1,0
134511,348.837209302326,4,2,2,50,1,0
135906,345.025876940771,4,2,2,50,1,0
137458,342.857142857143,4,2,2,70,1,0
140200,-83.3333333333333,4,2,2,80,0,1
151172,-83.3333333333333,4,2,2,80,0,1
161458,346.820809248555,4,2,2,70,1,0
164235,342.857142857143,4,2,2,70,1,0
164912,342.857142857143,4,2,2,70,1,0
165427,-40,4,2,2,70,0,0
165769,-38.4615384615385,4,2,2,70,0,0
166112,-37.037037037037,4,2,2,70,0,0
166284,-83.3333333333333,4,2,2,70,0,0
172460,329.67032967033,4,2,2,70,1,0
172460,-83.3333333333333,4,2,2,70,0,0
173119,342.857142857143,4,2,2,70,1,0
173804,342.857142857143,4,2,2,70,1,0
175175,363.636363636364,4,2,2,70,1,0
175901,428.571428571429,4,2,2,70,1,0
176344,444.444444444444,4,2,2,70,1,0
178718,400,3,2,1,30,1,0
178718,-100,3,2,1,30,0,0
183518,409.276944065484,3,2,1,30,1,0
183518,-100,3,2,1,30,0,0
183927,-100,3,2,1,40,0,0
184336,-100,3,2,1,50,0,0
184745,-76.9230769230769,3,2,1,50,0,0
185973,397.350993377483,3,2,1,40,1,0
185973,-100,3,2,1,40,0,0
191556,397.350993377483,3,2,1,40,1,0
191933,397.350993377483,3,2,1,40,1,0
196701,444.444444444444,3,2,1,40,1,0
197145,441.176470588235,3,2,1,40,1,0
197986,454.545454545455,3,2,1,40,1,0
198441,458.015267175573,3,2,1,40,1,0
198670,480,3,2,1,40,1,0
198910,468.75,3,2,1,40,1,0
199378,857.142857142857,3,2,1,40,1,0
201727,-100,3,2,1,5,0,0
201941,444.444444444444,3,2,1,40,1,0
201941,-100,3,2,1,40,0,0
203288,444.444444444444,3,2,1,40,1,0
204621,530.973451327434,3,2,1,40,1,0
206213,512.820512820513,3,2,1,40,1,0
207225,512.820512820513,3,2,1,40,1,0
207757,348.837209302326,4,2,2,70,1,0
213338,-100,4,2,2,70,0,0
215243,419.58041958042,4,2,2,70,1,0
215243,-83.3333333333333,4,2,2,70,0,0
216921,372.093023255814,4,2,2,70,1,0
217665,348.837209302326,4,2,2,70,1,0
217665,-83.3333333333333,4,2,2,70,0,0
220106,-100,4,2,2,70,0,0
221851,-100,4,2,2,5,0,0
222025,350.877192982456,4,2,2,80,1,1
222025,-80,4,2,2,80,0,1
222375,342.857142857143,4,2,2,80,1,1
222375,-80,4,2,2,80,0,1
223403,342.857142857143,4,2,2,80,1,1
223403,-80,4,2,2,80,0,1
233001,-80,4,2,2,80,0,1
243888,-100,4,2,2,80,0,0
243974,-80,4,2,2,80,0,1
261803,337.078651685393,4,2,2,80,1,1
261803,-80,4,2,2,80,0,1
263151,370.37037037037,4,2,2,60,1,0
263151,-100,4,2,2,60,0,0
263907,348.837209302326,4,2,2,70,1,0
263907,-100,4,2,2,60,0,0
265083,363.636363636364,4,2,2,80,1,0
265083,-100,4,2,2,80,0,0
265810,-100,4,2,2,70,0,0
267264,-100,4,2,2,60,0,0
268719,-100,4,2,2,50,0,0
270173,-100,4,2,2,40,0,0
271628,-100,4,2,2,30,0,0
273083,-100,4,2,2,20,0,0
274537,-100,4,2,2,5,0,0

[Colours]
Combo1 : 164,164,255
Combo2 : 117,186,255
Combo3 : 255,168,211

[HitObjects]
477,120,4106,6,0,L|310:79,2,153,2|0|0,0:0|0:0|0:0,0:0:0:0:
276,211,5796,2,0,L|121:228,2,153,2|0|0,0:0|0:0|0:0,0:0:0:0:
33,304,7486,6,0,L|44:139,1,153,2|0,0:0|0:0,0:0:0:0:
299,94,8753,1,0,0:0:0:0:
34,62,9176,5,2,0:0:0:0:
256,192,9387,12,0,11289,0:0:0:0:
451,51,12134,6,0,L|370:63,1,51,0|0,0:0|0:0,0:0:0:0:
314,74,12556,6,0,L|303:200,1,102,2|0,0:0|0:0,0:0:0:0:
122,199,13356,2,0,L|109:338,1,102,2|0,0:0|0:0,0:0:0:0:
393,342,14246,6,0,L|253:350,1,102,2|0,0:0|0:0,0:0:0:0:
39,375,15091,2,0,P|32:300|112:275,1,153,0|0,0:0|0:0,0:0:0:0:
293,231,15936,5,0,0:0:0:0:
256,192,16147,12,0,20795,0:0:0:0:
26,46,21637,6,0,L|160:28,1,102,4|0,3:2|0:0,0:0:0:0:
391,317,21985,2,0,L|251:305,1,102,10|2,3:2|0:0,0:0:0:0:
446,237,22334,2,0,L|487:128,2,102,0|2|8,3:2|3:2|3:2,0:0:0:0:
185,107,22857,6,0,L|394:87,1,204,2|0,0:0|3:2,0:0:0:0:
148,305,23381,1,10,3:2:0:0:
296,278,23555,2,0,L|301:146,1,102,2|0,0:0|3:2,0:0:0:0:
145,131,23904,2,0,L|20:128,1,102,2|8,3:2|3:2,0:0:0:0:
292,45,24253,6,0,L|176:34,1,102,2|0,0:0|3:2,0:0:0:0:
341,107,24602,1,0,3:2:0:0:
182,77,24776,1,10,3:2:0:0:
359,186,24950,1,2,0:0:0:0:
112,237,25125,2,0,L|233:279,1,102,0|2,3:2|3:2,0:0:0:0:
359,285,25474,1,10,3:2:0:0:
92,362,25648,5,2,0:0:0:0:
240,336,25823,2,0,L|245:268,1,51,4|0,3:3|0:0,0:0:0:0:
169,250,25997,2,0,L|95:245,1,51,0|0,3:2|3:2,0:0:0:0:
315,187,26171,1,8,3:2:0:0:
37,135,26346,5,2,3:2:0:0:
329,58,26695,6,0,L|345:172,1,102,2|8,3:2|3:2,0:0:0:0:
284,182,26956,1,8,3:2:0:0:
109,332,27043,2,0,L|44:339,1,51,0|8,3:2|3:2,0:0:0:0:
288,335,27218,5,4,3:2:0:0:
138,258,27392,2,0,L|191:217,1,51,0|0,0:0|0:0,0:0:0:0:
251,209,27567,2,0,L|365:205,1,102,10|2,3:2|0:0,0:0:0:0:
164,110,27916,2,0,L|27:100,2,102,0|2|8,3:2|3:2|3:2,0:0:0:0:
437,35,28439,6,0,P|401:95|262:107,1,204,2|0,0:0|3:2,0:0:0:0:
432,164,28962,1,10,3:2:0:0:
177,259,29137,2,0,L|168:375,1,102,2|0,0:0|3:2,0:0:0:0:
342,38,29485,2,0,L|358:156,1,102,2|8,3:2|3:2,0:0:0:0:
67,358,29834,6,0,P|103:298|242:286,1,204,2|0,0:0|3:2,0:0:0:0:
67,249,30357,2,0,L|56:139,1,102,10|2,3:2|0:0,0:0:0:0:
316,57,30706,2,0,L|268:29,1,51,8|8,3:2|3:2,0:0:0:0:
193,23,30881,2,0,L|100:23,1,51,8|8,3:2|3:2,0:0:0:0:
351,137,31055,1,8,3:2:0:0:
56,147,31230,6,0,P|36:201|171:243,1,204,4|4,3:2|3:3,0:0:0:0:
295,252,31753,1,4,3:3:0:0:
39,362,31927,2,0,L|122:366,1,51,8|8,3:2|3:2,0:0:0:0:
318,346,32102,2,0,P|344:295|258:238,1,153,0|0,3:2|0:0,0:0:0:0:
197,206,32450,2,0,L|22:194,1,153,4|0,3:3|0:0,0:0:0:0:
298,30,32799,6,0,L|318:220,1,153,6|0,3:2|0:0,0:0:0:0:
224,210,33148,2,0,L|339:221,1,102,0|0,3:2|0:0,0:0:0:0:
146,353,33497,2,0,L|135:178,1,153,2|0,3:2|0:0,0:0:0:0:
35,185,33846,2,0,L|37:76,1,102,0|0,3:2|0:0,0:0:0:0:
301,17,34195,6,0,L|135:57,1,153,2|0,3:2|0:0,0:0:0:0:
244,88,34543,2,0,L|368:96,1,102,0|0,3:2|0:0,0:0:0:0:
175,149,34892,2,0,L|165:344,1,153,2|0,3:2|0:0,0:0:0:0:
269,342,35241,2,0,L|143:354,1,102,0|0,3:2|0:0,0:0:0:0:
441,354,35590,6,0,L|453:168,1,153,2|0,3:2|0:0,0:0:0:0:
339,165,35939,2,0,L|461:151,1,102,0|0,3:2|0:0,0:0:0:0:
242,90,36288,2,0,L|424:63,1,153,2|0,3:2|0:0,0:0:0:0:
493,57,36637,1,0,3:2:0:0:
206,28,36811,6,0,L|197:162,1,102,6|0,3:2|0:0,0:0:0:0:
336,160,37160,1,4,3:3:0:0:
187,229,37334,2,0,L|70:244,1,102,4|0,3:3|0:0,0:0:0:0:
139,273,37596,1,0,0:0:0:0:
330,344,37683,2,0,L|344:286,1,51,4|0,3:3|0:0,0:0:0:0:
175,223,37945,2,0,L|185:169,1,51,4|4,3:3|3:3,0:0:0:0:
346,136,38206,1,4,3:3:0:0:
49,57,38381,6,0,L|219:41,1,153,6|0,3:2|0:0,0:0:0:0:
278,52,38730,2,0,L|286:162,1,102,0|0,3:2|0:0,0:0:0:0:
106,213,39078,2,0,L|276:227,1,153,2|0,3:2|0:0,0:0:0:0:
168,253,39427,2,0,L|56:273,1,102,0|0,3:2|0:0,0:0:0:0:
330,356,39776,6,0,L|341:184,1,153,2|0,3:2|0:0,0:0:0:0:
248,190,40125,2,0,L|237:74,1,102,0|0,3:2|0:0,0:0:0:0:
418,31,40474,2,0,L|280:28,1,102,2|4,3:2|3:3,0:0:0:0:
498,114,40823,1,8,3:2:0:0:
198,273,40997,6,0,L|411:280,1,204,6|0,3:2|3:2,0:0:0:0:
248,346,41520,1,10,3:2:0:0:
410,200,41695,2,0,L|340:198,1,51,0|0,3:2|3:2,0:0:0:0:
145,192,41869,1,10,3:2:0:0:
265,110,42043,1,0,3:2:0:0:
408,93,42218,1,10,3:2:0:0:
120,23,42392,6,0,P|96:83|212:131,1,204,6|4,3:2|3:3,0:0:0:0:
58,185,42916,1,4,3:3:0:0:
209,223,43090,2,0,L|294:226,1,51,0|8,3:2|3:2,0:0:0:0:
48,351,43264,2,0,P|21:282|89:240,1,153,8|0,3:2|0:0,0:0:0:0:
277,80,43613,2,0,L|101:61,1,153,4|0,3:3|0:0,0:0:0:0:
375,26,43962,6,0,L|387:140,1,102,6|0,3:2|0:0,0:0:0:0:
234,161,44311,1,10,3:2:0:0:
216,276,44485,1,0,0:0:0:0:
475,94,44660,2,0,L|487:208,1,102,0|0,3:2|3:2,0:0:0:0:
324,229,45009,1,10,3:2:0:0:
306,344,45183,1,0,0:0:0:0:
122,371,45357,6,0,L|230:310,1,102,0|0,0:0|3:2,0:0:0:0:
382,297,45706,1,8,3:2:0:0:
101,260,45881,2,0,L|78:124,1,102,2|0,3:2|0:0,0:0:0:0:
245,109,46230,1,2,3:2:0:0:
83,75,46404,1,8,3:2:0:0:
358,24,46578,6,0,L|146:46,1,204,6|0,3:2|3:2,0:0:0:0:
311,169,47102,1,8,3:2:0:0:
149,145,47276,2,0,L|142:261,1,102,2|0,0:0|3:2,0:0:0:0:
285,269,47625,1,0,3:2:0:0:
50,77,47799,1,8,3:2:0:0:
198,97,47974,2,0,L|204:237,1,102,2|2,3:2|3:2,3:2:0:0:
58,274,48323,2,0,L|203:284,1,102,0|8,3:2|3:2,3:2:0:0:
397,358,48671,6,0,L|412:237,1,102,2|0,3:2|0:0,0:0:0:0:
260,211,49020,2,0,L|270:102,1,102,2|8,3:2|3:2,0:0:0:0:
430,78,49369,2,0,L|516:71,1,51,0|8,3:2|3:2,0:0:0:0:
272,22,49543,6,0,L|163:38,1,102,0|0,3:2|0:0,0:0:0:0:
237,77,49805,1,0,0:0:0:0:
317,88,49892,2,0,L|331:215,1,102,10|0,3:2|0:0,0:0:0:0:
162,197,50241,2,0,L|147:304,1,102,0|0,3:2|3:2,0:0:0:0:
300,331,50590,1,10,3:2:0:0:
55,368,50764,1,0,0:0:0:0:
204,356,50939,2,0,L|220:238,1,102
51,220,51288,1,8,3:2:0:0:
313,106,51462,6,0,L|227:49,1,102,6|0,3:2|0:0,0:0:0:0:
89,43,51811,1,2,3:2:0:0:
330,21,51985,1,8,3:2:0:0:
75,71,52160,6,0,P|45:129|147:200,1,204,6|0,3:2|3:2,0:0:0:0:
298,233,52683,1,8,3:2:0:0:
132,304,52857,2,0,L|57:304,1,51,0|0,3:2|3:2,0:0:0:0:
298,358,53032,2,0,L|416:352,2,102,8|0|8,3:2|3:2|3:2,0:0:0:0:
30,205,53555,6,0,P|85:160|223:147,1,204,0|0,3:2|3:2,0:0:0:0:
66,122,54078,2,0,L|52:3,1,102,8|0,3:2|3:2,0:0:0:0:
302,40,54427,2,0,L|156:61,1,102,4|0,3:3|0:0,0:0:0:0:
141,55,54689,1,8,3:2:0:0:
363,126,54776,2,0,P|447:144|474:218,1,153,8|0,3:2|0:0,0:0:0:0:
247,319,55125,6,0,L|61:228,3,204,6|2|8|2,3:2|3:2|3:2|3:2,0:0:0:0:
283,357,56483,2,0,L|291:151,1,204,2|8,3:2|3:2,0:0:0:0:
25,60,57165,6,0,L|250:37,1,204,2|2,3:2|3:2,0:0:0:0:
494,97,57817,1,8,3:2:0:0:
223,124,58143,2,0,L|208:329,1,204,2|2,3:2|3:2,0:0:0:0:
474,361,58759,1,8,3:2:0:0:
63,355,59090,6,0,L|45:137,1,204,6|2,3:2|3:2,0:0:0:0:
302,118,59708,1,8,3:2:0:0:
35,56,60017,1,2,3:2:0:0:
257,30,60317,1,2,3:2:0:0:
480,60,60617,1,8,3:2:0:0:
205,148,60917,6,0,P|186:219|263:240,1,153,2|0,3:2|0:0,0:0:0:0:
316,249,61217,1,2,3:2:0:0:
162,331,61367,1,8,3:2:0:0:
330,346,61517,2,0,L|337:206,1,102,0|8,3:2|3:2,0:0:0:0:
270,229,61742,1,8,3:2:0:0:
78,246,61817,5,0,3:3:0:0:
31,129,61960,1,0,3:3:0:0:
139,49,62103,1,0,3:3:0:0:
291,27,62246,1,4,3:3:0:0:
446,65,62389,2,0,L|458:238,1,153,4|0,3:3|0:0,0:0:0:0:
199,217,62676,6,0,P|158:265|261:320,1,204,6|2,3:2|3:2,0:0:0:0:
106,352,63105,1,8,3:2:0:0:
254,338,63248,2,0,L|391:343,1,102,2|0,3:2|3:2,0:0:0:0:
97,267,63535,6,0,L|83:132,1,102,2|0,3:2|0:0,0:0:0:0:
232,143,63811,1,2,3:2:0:0:
242,29,63949,1,0,0:0:0:0:
397,144,64087,1,8,3:2:0:0:
387,30,64225,1,0,0:0:0:0:
127,261,64364,6,0,P|191:316|331:296,1,204,2|2,3:2|3:2,0:0:0:0:
151,363,64779,1,8,3:2:0:0:
321,318,64917,2,0,L|338:188,1,102,2|0,3:2|3:2,0:0:0:0:
48,118,65193,5,0,3:2:0:0:
318,38,65493,2,0,L|105:32,1,204,8|8,3:2|3:2,0:0:0:0:
421,96,66182,2,0,L|443:306,1,204,0|8,3:2|3:2,0:0:0:0:
332,344,66763,1,8,3:2:0:0:
189,358,66970,1,8,3:2:0:0:
25,340,67188,1,8,3:2:0:0:
442,298,67428,6,0,L|244:225,2,204,4|2|2,3:2|0:0|0:0,0:0:0:0:
181,355,68494,1,0,0:0:0:0:
455,365,68854,2,0,L|464:159,1,204,2|2,0:0|0:0,0:0:0:0:
12,24,69562,6,0,L|250:52,1,204,4|10,3:2|3:2,0:0:0:0:
87,101,70085,1,0,3:2:0:0:
235,142,70259,1,10,3:2:0:0:
78,200,70434,1,0,3:2:0:0:
377,286,70608,6,0,L|195:282,1,153,4|0,3:2|0:0,0:0:0:0:
165,293,70957,1,10,3:2:0:0:
313,352,71131,1,0,3:2:0:0:
45,361,71306,2,0,L|116:340,1,51,10|8,3:2|3:2,0:0:0:0:
307,156,71480,2,0,L|251:147,1,51,0|8,3:2|3:2,0:0:0:0:
48,25,71655,6,0,P|24:94|138:141,1,204,4|10,3:2|3:2,0:0:0:0:
266,117,72178,1,0,3:2:0:0:
88,37,72352,2,0,L|221:30,1,102,10|0,3:2|3:2,0:0:0:0:
470,263,72701,6,0,L|246:248,1,204,8|0,3:2|3:2,0:0:0:0:
401,302,73224,1,0,3:2:0:0:
157,168,73399,1,0,3:2:0:0:
310,147,73573,1,8,3:2:0:0:
34,54,73748,2,0,L|34:271,1,204,8|0,3:2|0:0,0:0:0:0:
493,340,74455,6,0,P|404:258|262:249,1,244.799992529297,4|8,3:2|3:2,0:0:0:0:
441,204,74969,1,0,0:0:0:0:
188,202,75140,2,0,L|187:73,1,122.399996264649,2|0,3:2|3:2,0:0:0:0:
319,30,75483,1,10,3:2:0:0:
469,27,75655,1,0,0:0:0:0:
201,99,75826,6,0,L|343:115,1,122.399996264649,2|0,3:2|3:2,0:0:0:0:
68,133,76169,2,0,P|34:230|183:293,1,244.799992529297,10|2,3:2|3:2,0:0:0:0:
287,326,76683,1,0,0:0:0:0:
93,368,76855,2,0,L|88:156,1,183.599994396973,10|0,3:2|0:0,0:0:0:0:
325,44,77197,6,0,P|346:118|253:162,1,183.599994396973,2|0,3:2|0:0,0:0:0:0:
195,166,77540,1,8,3:2:0:0:
359,225,77712,2,0,L|443:233,1,61.1999981323243,0|2,0:0|0:0,0:0:0:0:
215,343,77883,2,0,L|84:351,1,122.399996264649,2|0,3:2|3:2,0:0:0:0:
271,264,78226,2,0,L|129:249,1,122.399996264649,10|0,3:2|0:0,0:0:0:0:
425,166,78569,5,2,3:2:0:0:
296,138,78740,1,0,3:2:0:0:
465,89,78912,2,0,L|476:254,1,122.399996264649,10|0,3:2|0:0,0:0:0:0:
335,266,79255,1,2,3:2:0:0:
187,288,79426,1,0,3:2:0:0:
466,356,79597,2,0,P|488:288|365:268,1,183.599994396973,10|0,3:2|0:0,0:0:0:0:
177,96,79940,6,0,L|379:147,2,183.599994396973,6|2|2,3:2|0:0|3:2,0:0:0:0:
322,44,80626,2,0,L|187:19,1,122.399996264649,0|0,3:2|3:2,0:0:0:0:
42,193,80969,2,0,L|203:162,1,122.399996264649,8|0,3:2|0:0,0:0:0:0:
442,300,81312,6,0,L|240:351,2,183.599994396973,2|2|2,3:2|0:0|3:2,0:0:0:0:
317,229,81997,1,0,3:2:0:0:
166,228,82169,1,0,3:2:0:0:
449,190,82340,2,0,P|467:123|369:73,1,183.599994396973,8|0,3:2|0:0,0:0:0:0:
155,68,82683,6,0,P|125:145|220:179,1,183.599994396973,6|2,3:2|0:0,0:0:0:0:
265,196,83026,1,8,3:2:0:0:
105,263,83197,1,0,3:2:0:0:
358,356,83369,2,0,L|373:210,1,122.399996264649,2|0,3:2|3:2,0:0:0:0:
115,126,83712,2,0,L|257:119,1,122.399996264649,8|0,3:2|0:0,0:0:0:0:
299,120,83969,1,0,0:0:0:0:
65,44,84055,6,0,L|50:184,1,122.399996264649,2|0,3:2|3:2,0:0:0:0:
214,209,84392,1,8,3:2:0:0:
39,281,84561,2,0,L|121:276,1,61.1999981323243,8|8,3:2|3:2,0:0:0:0:
320,346,84730,2,0,L|141:359,1,122.399996264649,0|8,3:2|3:2,0:0:0:0:
361,255,85068,2,0,L|440:247,1,61.1999981323243,8|8,3:2|3:2,0:0:0:0:
188,105,85237,2,0,L|115:104,1,61.1999981323243,8|8,3:2|3:2,0:0:0:0:
375,9,85406,6,0,P|421:76|277:148,1,244.799992529297,4|8,3:2|3:2,0:0:0:0:
463,204,85920,1,0,0:0:0:0:
216,273,86091,2,0,L|343:287,1,122.399996264649,2|0,3:2|3:2,0:0:0:0:
169,358,86434,2,0,L|43:373,1,122.399996264649,10|0,3:2|0:0,0:0:0:0:
293,204,86777,6,0,L|301:74,1,122.399996264649,2|0,3:2|3:2,0:0:0:0:
31,15,87120,2,0,P|72:104|238:99,1,244.799992529297,10|2,3:2|3:2,0:0:0:0:
56,194,87634,1,0,3:2:0:0:
223,325,87806,2,0,L|234:135,1,183.599994396973,10|0,3:2|0:0,0:0:0:0:
455,37,88148,6,0,P|412:104|310:124,1,183.599994396973,2|0,3:2|0:0,0:0:0:0:
250,135,88491,1,8,3:2:0:0:
416,211,88663,2,0,L|503:215,1,61.1999981323243,0|0,0:0|0:0,0:0:0:0:
259,357,88834,2,0,L|247:225,1,122.399996264649,2|0,3:2|3:2,0:0:0:0:
419,211,89177,2,0,L|432:73,1,122.399996264649,10|0,3:2|0:0,0:0:0:0:
172,77,89520,5,2,3:2:0:0:
316,34,89691,1,0,3:2:0:0:
160,98,89863,2,0,L|20:120,1,122.399996264649,10|0,3:2|0:0,0:0:0:0:
293,189,90206,2,0,L|432:202,1,122.399996264649,2|0,3:2|3:2,0:0:0:0:
135,355,90548,2,0,P|108:300|209:230,1,183.599994396973,10|0,3:2|0:0,0:0:0:0:
423,73,90891,6,0,L|231:23,2,183.599994396973,6|0|2,3:2|0:0|3:2,0:0:0:0:
266,114,91577,2,0,L|259:252,1,122.399996264649,0|0,3:2|3:2,0:0:0:0:
435,306,91920,2,0,L|286:328,1,122.399996264649,8|0,3:2|0:0,0:0:0:0:
55,327,92263,6,0,L|232:373,2,183.599994396973,2|2|2,3:2|0:0|3:2,0:0:0:0:
181,257,92948,1,0,3:2:0:0:
327,243,93120,1,0,3:2:0:0:
45,237,93291,2,0,P|23:166|132:103,1,183.599994396973,8|0,3:2|0:0,0:0:0:0:
338,27,93634,6,0,P|367:95|286:155,1,183.599994396973,2|0,3:2|0:0,0:0:0:0:
225,173,93977,1,8,3:2:0:0:
388,232,94148,2,0,L|479:238,1,61.1999981323243,8|8,3:2|3:2,0:0:0:0:
243,338,94320,1,0,3:2:0:0:
393,258,94491,2,0,L|475:270,1,61.1999981323243,8|8,3:2|3:2,0:0:0:0:
222,70,94663,2,0,L|120:65,1,61.1999981323243,0|8,3:2|3:2,0:0:0:0:
396,125,94834,5,2,0:0:0:0:
101,94,96382,6,0,L|88:225,1,102,4|0,3:2|0:0,0:0:0:0:
157,209,96643,1,0,0:0:0:0:
227,208,96730,2,0,L|236:322,1,102,10|2,3:2|0:0,0:0:0:0:
414,243,97079,2,0,L|306:291,1,102,0|2,3:2|3:2,0:0:0:0:
165,306,97428,1,8,3:2:0:0:
425,342,97602,6,0,P|437:280|315:207,1,204,2|0,0:0|3:2,0:0:0:0:
479,166,98126,1,10,3:2:0:0:
216,217,98300,2,0,L|203:84,1,102,2|0,0:0|3:2,0:0:0:0:
366,95,98649,2,0,L|380:-8,1,102,2|8,3:2|3:2,0:0:0:0:
125,70,98998,6,0,P|152:125|317:138,1,204,2|0,0:0|3:2,0:0:0:0:
131,198,99521,1,10,3:2:0:0:
283,220,99695,1,2,0:0:0:0:
44,238,99870,2,0,L|30:372,1,102,0|2,3:2|3:2,0:0:0:0:
142,359,100219,1,10,3:2:0:0:
403,329,100393,6,0,L|278:314,1,102,2|4,0:0|3:3,0:0:0:0:
241,312,100655,1,0,0:0:0:0:
301,283,100742,1,0,3:2:0:0:
362,276,100829,1,0,3:2:0:0:
159,186,100916,2,0,L|233:186,1,51,8|8,3:2|3:2,0:0:0:0:
433,186,101091,6,0,L|442:62,1,102,2|2,3:2|0:0,0:0:0:0:
173,38,101440,2,0,L|285:35,1,102,2|8,3:2|3:2,0:0:0:0:
223,66,101701,1,8,3:2:0:0:
29,153,101788,2,0,L|112:155,1,51,0|8,3:2|3:2,0:0:0:0:
280,170,101963,6,0,L|292:320,1,102,4|0,3:2|0:0,0:0:0:0:
212,284,102225,1,0,0:0:0:0:
134,280,102312,2,0,L|124:390,1,102,10|2,3:2|0:0,0:0:0:0:
296,364,102661,2,0,L|193:309,1,102,0|2,3:2|3:2,0:0:0:0:
48,303,103009,1,8,3:2:0:0:
327,277,103184,6,0,P|343:217|232:162,1,204,2|0,0:0|3:2,0:0:0:0:
379,126,103707,1,10,3:2:0:0:
136,64,103882,2,0,L|243:44,1,102,2|0,0:0|3:2,0:0:0:0:
124,149,104230,2,0,L|15:152,1,102,2|8,3:2|3:2,0:0:0:0:
292,212,104579,5,2,0:0:0:0:
139,235,104754,2,0,L|129:349,1,102,0|0,0:0|3:2,0:0:0:0:
288,349,105102,2,0,L|419:358,1,102,10|2,3:2|0:0,0:0:0:0:
332,330,105364,1,0,0:0:0:0:
130,336,105451,1,8,3:2:0:0:
101,292,105538,1,8,3:2:0:0:
119,243,105625,1,8,3:2:0:0:
169,228,105712,1,0,0:0:0:0:
381,191,105800,1,8,3:2:0:0:
112,120,105975,6,0,L|225:108,1,102,8|2,3:3|0:0,0:0:0:0:
463,17,106323,2,0,L|348:12,1,102,8|2,3:0|0:0,0:0:0:0:
87,189,106672,6,0,L|312:202,1,204,6|0,3:2|3:2,0:0:0:0:
233,246,107108,1,8,3:0:0:0:
165,254,107195,1,8,3:2:0:0:
387,337,107283,2,0,L|460:339,1,51,8|0,3:2|3:0,0:0:0:0:
60,36,108940,6,0,P|34:112|163:179,1,204,2|0,3:2|0:0,0:0:0:0:
259,244,109463,2,0,L|44:273,1,204,2|0,0:0|0:0,0:0:0:0:
426,119,110335,2,0,P|452:195|323:262,1,204,2|0,0:0|0:0,0:0:0:0:
227,327,110858,2,0,L|442:356,1,204,2|0,0:0|0:0,0:0:0:0:
103,375,111730,6,0,L|87:171,1,204,2|0,0:0|0:0,0:0:0:0:
244,106,112254,2,0,L|32:94,1,204,2|0,0:0|0:0,0:0:0:0:
346,28,112951,1,0,0:0:0:0:
195,89,113126,2,0,L|135:191,2,102,2|0|0,0:0|0:0|0:0,0:0:0:0:
373,202,113649,6,0,L|244:214,1,102,2|4,0:0|3:0,0:0:0:0:
220,226,113911,1,4,3:0:0:0:
381,320,114085,2,0,L|321:326,1,51,4|4,3:0|3:0,0:0:0:0:
171,324,114347,1,0,0:0:0:0:
476,344,114521,6,0,P|498:278|435:228,1,153,6|0,3:2|0:0,0:0:0:0:
380,221,114870,1,8,3:2:0:0:
220,117,115044,2,0,L|293:115,1,51,0|0,3:2|3:2,0:0:0:0:
461,38,115219,1,0,3:2:0:0:
323,21,115393,2,0,L|386:25,1,51,8|8,3:2|3:2,0:0:0:0:
192,198,115568,1,8,3:2:0:0:
332,288,115742,6,0,L|244:298,1,51,8|8,3:2|3:2,0:0:0:0:
73,239,115916,2,0,L|128:213,1,51,4|0,3:3|0:0,0:0:0:0:
192,198,116091,2,0,L|260:198,1,51,0|4,3:0|3:3,0:0:0:0:
36,122,116265,1,0,0:0:0:0:
343,100,116440,5,8,0:0:0:0:
25,21,117137,6,0,L|239:42,1,204,4|0,3:2|3:2,0:0:0:0:
287,44,117573,1,0,0:0:0:0:
95,136,117661,1,10,3:2:0:0:
245,184,117835,2,0,L|319:178,1,51,0|0,3:2|3:2,0:0:0:0:
77,354,118009,5,10,3:2:0:0:
215,301,118184,1,0,3:2:0:0:
65,240,118358,1,10,3:2:0:0:
359,102,118533,6,0,P|279:47|139:60,1,204,0|0,3:2|3:2,0:0:0:0:
450,37,119056,2,0,L|469:166,1,102,8|0,3:2|3:2,0:0:0:0:
221,174,119405,1,0,3:0:0:0:
310,238,119521,1,4,3:0:0:0:
412,251,119637,1,4,3:0:0:0:
179,345,119754,1,0,3:0:0:0:
83,301,119870,1,0,3:0:0:0:
183,261,119986,1,0,3:0:0:0:
468,183,120117,6,0,L|477:-29,1,204,4|2,0:0|3:2,0:0:0:0:
223,75,120802,1,8,3:2:0:0:
492,320,121147,2,0,L|286:288,1,204,2|2,3:2|3:2,0:0:0:0:
28,335,121802,1,8,3:2:0:0:
341,355,122143,6,0,L|348:142,1,204,2|2,3:2|3:2,0:0:0:0:
110,124,122798,1,8,3:2:0:0:
412,50,123126,2,0,L|206:22,2,204,2|2|8,3:2|3:2|3:2,0:0:0:0:
17,46,124073,5,6,3:2:0:0:
312,67,124380,2,0,L|322:295,1,204,2|8,3:2|3:2,0:0:0:0:
48,318,125000,1,0,0:0:0:0:
332,174,125300,2,0,L|89:145,1,204,2|8,3:2|3:2,0:0:0:0:
434,59,125900,6,0,P|450:132|375:178,1,153,2|0,3:2|0:0,0:0:0:0:
332,195,126200,1,2,3:2:0:0:
479,255,126350,1,8,3:2:0:0:
321,282,126500,2,0,L|314:342,1,51,0|0,3:2|0:0,0:0:0:0:
397,349,126650,2,0,L|405:279,1,51,8|8,3:2|3:2,0:0:0:0:
189,257,126800,5,0,3:3:0:0:
332,195,126942,2,0,L|345:81,1,102,0|0,3:3|3:3,0:0:0:0:
191,122,127228,1,4,3:3:0:0:
346,9,127371,2,0,L|364:127,1,102,4|0,3:3|0:0,0:0:0:0:
89,113,127657,6,0,L|196:122,1,102,6|0,3:2|0:0,0:0:0:0:
44,192,127942,2,0,L|35:301,1,102,2|8,3:2|3:2,0:0:0:0:
192,347,128228,2,0,L|69:360,1,102,2|0,3:2|3:2,0:0:0:0:
352,328,128514,6,0,L|363:207,1,102,2|0,3:2|0:0,0:0:0:0:
213,161,128793,2,0,L|325:138,1,102,2|0,3:2|0:0,0:0:0:0:
154,58,129072,2,0,L|255:59,1,102,8|0,3:2|0:0,0:0:0:0:
497,178,129351,6,0,L|403:224,1,102,2|0,3:2|0:0,0:0:0:0:
277,235,129630,1,2,3:2:0:0:
422,296,129769,1,8,3:2:0:0:
263,339,129909,2,0,L|134:331,1,102,2|0,3:2|3:2,0:0:0:0:
451,120,130188,5,4,3:2:0:0:
181,51,130512,2,0,L|397:31,1,204,8|8,3:2|3:2,0:0:0:0:
64,58,131182,2,0,L|50:269,1,204,0|8,3:2|3:2,0:0:0:0:
170,313,131736,1,8,3:2:0:0:
307,326,131943,1,8,3:2:0:0:
476,319,132177,1,8,3:2:0:0:
93,354,132412,6,0,L|292:229,2,204,4|2|2,3:2|0:0|0:0,0:0:0:0:
361,341,133477,1,0,0:0:0:0:
74,248,133832,2,0,L|55:33,1,204,2|2,0:0|0:0,0:0:0:0:
481,40,134511,5,4,3:2:0:0:
339,57,134685,2,0,P|319:126|430:175,1,204,0|8,3:2|3:2,0:0:0:0:
166,229,135383,2,0,L|257:300,1,102,2|0,3:2|3:2,0:0:0:0:
392,307,135731,1,8,3:2:0:0:
112,354,135906,6,0,L|98:144,1,204,4|0,3:2|3:2,0:0:0:0:
364,57,136423,2,0,L|145:40,1,204,8|0,3:2|3:2,0:0:0:0:
311,146,136941,2,0,L|374:137,1,51,0|0,3:2|3:2,0:0:0:0:
168,259,137113,2,0,L|76:253,1,51,8|8,3:2|3:2,0:0:0:0:
319,337,137286,2,0,L|223:350,1,51,0|0,3:2|0:0,0:0:0:0:
52,362,137458,5,0,3:2:0:0:
328,246,137629,1,8,3:2:0:0:
54,108,137972,1,2,3:2:0:0:
484,68,138315,1,2,3:2:0:0:
19,36,138658,6,0,L|245:23,1,204,4|8,3:2|3:2,0:0:0:0:
284,31,139086,1,0,0:0:0:0:
209,74,139172,2,0,L|123:90,1,51,0|0,3:2|3:2,0:0:0:0:
383,164,139343,2,0,L|459:169,1,51,0|0,3:2|3:2,0:0:0:0:
151,325,139515,6,0,B|39:319|39:319|34:218,1,204,8|0,3:2|0:0,0:0:0:0:
504,75,140200,6,0,P|463:154|319:188,1,244.799992529297,4|8,3:2|3:2,0:0:0:0:
462,225,140715,1,0,0:0:0:0:
212,229,140886,2,0,L|179:288,1,61.1999981323243,2|2,3:2|0:0,0:0:0:0:
217,329,141058,2,0,L|358:339,1,122.399996264649,0|10,3:2|3:2,0:0:0:0:
90,356,141400,1,0,0:0:0:0:
243,304,141572,6,0,L|258:177,1,122.399996264649,2|0,3:2|3:2,0:0:0:0:
12,27,141915,2,0,P|45:101|215:124,1,244.799992529297,10|2,3:2|3:2,0:0:0:0:
43,206,142429,1,0,3:2:0:0:
211,296,142600,2,0,L|25:315,1,183.599994396973,10|0,3:2|0:0,0:0:0:0:
276,357,142943,6,0,P|303:289|214:246,1,183.599994396973,2|0,3:2|0:0,0:0:0:0:
156,235,143286,1,8,3:2:0:0:
321,185,143458,2,0,L|332:102,1,61.1999981323243,0|0,0:0|0:0,0:0:0:0:
133,34,143629,2,0,L|289:31,1,122.399996264649,2|0,3:2|3:2,0:0:0:0:
81,116,143972,2,0,L|63:283,1,122.399996264649,10|0,3:2|0:0,0:0:0:0:
331,342,144315,5,2,3:2:0:0:
189,308,144486,1,0,3:2:0:0:
344,222,144658,2,0,L|488:212,1,122.399996264649,10|0,3:2|0:0,0:0:0:0:
217,209,145000,2,0,L|205:83,1,122.399996264649,2|0,3:2|3:2,0:0:0:0:
457,25,145343,1,10,3:2:0:0:
207,19,145515,2,0,L|123:20,1,61.1999981323243,8|8,3:2|3:2,0:0:0:0:
425,330,145686,6,0,P|428:262|323:208,1,183.599994396973,6|2,3:2|0:0,0:0:0:0:
261,176,146029,2,0,L|410:151,1,122.399996264649,8|2,3:2|3:2,0:0:0:0:
142,157,146372,1,2,3:2:0:0:
284,79,146543,1,0,3:2:0:0:
135,195,146715,2,0,L|5:184,1,122.399996264649,8|0,3:2|0:0,0:0:0:0:
282,358,147058,6,0,L|288:232,1,122.399996264649,2|0,3:2|3:2,0:0:0:0:
219,217,147315,1,2,0:0:0:0:
143,204,147400,1,8,3:2:0:0:
318,157,147572,1,2,3:2:0:0:
43,69,147743,1,2,3:2:0:0:
186,36,147915,1,0,3:2:0:0:
337,38,148086,2,0,L|346:234,1,183.599994396973,8|0,3:2|0:0,0:0:0:0:
111,228,148429,6,0,P|107:307|215:332,1,183.599994396973,2|2,3:2|0:0,0:0:0:0:
261,343,148772,1,8,3:2:0:0:
104,368,148943,1,2,3:2:0:0:
373,329,149115,2,0,L|375:204,1,122.399996264649,2|0,3:2|3:2,0:0:0:0:
123,132,149458,1,8,3:2:0:0:
381,49,149629,2,0,L|308:38,1,61.1999981323243,0|8,3:2|3:2,0:0:0:0:
78,44,149800,6,0,L|238:26,1,122.399996264649,0|8,3:2|3:2,0:0:0:0:
34,133,150143,1,8,3:2:0:0:
13,188,150228,1,0,0:0:0:0:
45,237,150314,1,8,3:2:0:0:
104,241,150400,1,8,3:2:0:0:
326,322,150486,1,0,3:2:0:0:
168,367,150658,2,0,L|253:365,1,61.1999981323243,8|0,3:2|3:2,0:0:0:0:
446,195,150829,2,0,L|376:180,1,61.1999981323243,8|8,3:2|3:2,0:0:0:0:
177,99,151000,2,0,L|107:104,1,61.1999981323243,8|8,3:2|3:2,0:0:0:0:
389,68,151172,6,0,P|426:141|307:225,1,244.799992529297,4|8,3:2|3:2,0:0:0:0:
170,246,151686,1,0,0:0:0:0:
453,306,151858,2,0,L|470:160,1,122.399996264649,2|0,3:2|3:2,0:0:0:0:
301,105,152200,2,0,L|432:93,1,122.399996264649,10|0,3:2|0:0,0:0:0:0:
163,45,152543,6,0,L|154:208,1,122.399996264649,2|0,3:2|3:2,0:0:0:0:
414,277,152886,2,0,L|154:367,1,244.799992529297,10|2,3:2|3:2,0:0:0:0:
330,366,153400,1,0,3:2:0:0:
161,264,153572,2,0,L|365:198,1,183.599994396973,10|0,3:2|0:0,0:0:0:0:
99,206,153915,6,0,P|43:169|143:73,1,244.799992529297,2|8,3:2|3:2,0:0:0:0:
268,78,154429,1,0,0:0:0:0:
16,28,154600,2,0,L|145:10,1,122.399996264649,2|0,3:2|0:0,0:0:0:0:
293,40,154943,1,10,3:2:0:0:
131,39,155115,1,0,0:0:0:0:
371,183,155286,5,2,3:2:0:0:
222,220,155458,1,0,3:2:0:0:
483,184,155629,2,0,L|480:317,1,122.399996264649,10|0,3:2|0:0,0:0:0:0:
414,327,155886,1,8,3:2:0:0:
198,357,155972,2,0,L|374:370,1,122.399996264649,2|0,3:2|3:2,0:0:0:0:
50,376,156315,2,0,P|34:305|135:243,1,183.599994396973,10|0,3:2|0:0,0:0:0:0:
353,199,156658,6,0,P|377:121|293:79,1,183.599994396973,6|0,3:2|0:0,0:0:0:0:
214,55,157000,2,0,L|351:41,1,122.399996264649,8|2,3:2|3:2,0:0:0:0:
81,124,157343,1,2,3:2:0:0:
226,155,157515,1,0,3:2:0:0:
56,214,157686,2,0,L|49:339,1,122.399996264649,8|0,3:2|0:0,0:0:0:0:
330,360,158029,6,0,P|285:299|160:288,1,183.599994396973,2|2,3:2|0:0,0:0:0:0:
260,241,158372,2,0,L|417:246,1,122.399996264649,8|2,3:2|3:2,0:0:0:0:
123,196,158715,2,0,L|110:65,1,122.399996264649,2|0,3:2|3:2,0:0:0:0:
377,27,159058,2,0,L|224:23,1,122.399996264649,8|2,3:2|0:0,0:0:0:0:
188,28,159315,1,2,0:0:0:0:
404,138,159400,5,0,3:2:0:0:
166,240,159572,2,0,L|298:248,1,122.399996264649,8|8,3:2|3:2,0:0:0:0:
353,274,159829,1,8,3:2:0:0:
136,361,159915,1,0,3:2:0:0:
281,351,160086,2,0,L|348:361,2,61.1999981323243,0|0|0,3:2|3:2|3:2,0:0:0:0:
76,167,160343,2,0,L|3:162,2,61.1999981323243,0|2|0,3:2|3:2|0:2,0:0:0:0:
297,49,160600,2,0,L|380:46,1,61.1999981323243,0|0,0:2|0:2,0:0:0:0:
119,98,160772,6,0,P|99:169|221:218,1,183.599994396973,6|0,3:2|0:0,0:0:0:0:
404,293,161115,2,0,L|212:320,1,183.599994396973,2|0,3:2|0:0,0:0:0:0:
475,363,161458,5,8,3:2:0:0:
53,89,163712,5,8,3:2:0:0:
336,62,163885,2,0,P|368:132|290:186,1,153,8|0,3:2|0:0,0:0:0:0:
80,245,164235,5,4,3:2:0:0:
474,191,164912,2,4,L|484:246,1,51,4|4,3:3|3:3,0:0:0:0:
325,275,165169,2,4,L|318:335,1,51,4|4,3:3|3:3,0:0:0:0:
48,144,165427,6,0,L|320:130,1,255,6|0,3:2|0:0,0:0:0:0:
376,27,165769,6,0,L|94:19,1,265.199987860108,6|0,3:2|0:0,0:0:0:0:
24,258,166112,6,0,L|330:267,1,275.400001050568,6|0,3:2|0:0,0:0:0:0:
466,343,166455,1,8,3:2:0:0:
178,354,166627,2,8,L|118:364,1,61.1999981323243,8|8,3:2|3:2,0:0:0:0:
352,161,166798,2,0,L|435:170,1,61.1999981323243,0|8,3:2|3:2,0:0:0:0:
157,32,166969,6,0,P|136:107|248:147,1,183.599994396973,4|0,3:2|0:0,0:0:0:0:
281,172,167312,1,8,3:2:0:0:
45,170,167484,2,0,L|33:295,1,122.399996264649,2|0,0:0|0:0,0:0:0:0:
206,351,167827,2,0,L|60:360,1,122.399996264649,2|8,3:2|3:2,0:0:0:0:
360,344,168169,6,0,L|375:215,1,122.399996264649,2|0,0:0|3:2,0:0:0:0:
100,178,168512,2,0,L|82:48,1,122.399996264649,2|8,3:2|3:2,0:0:0:0:
343,16,168855,2,0,L|215:39,1,122.399996264649,2|0,0:0|3:2,0:0:0:0:
389,115,169198,1,2,3:2:0:0:
123,167,169369,2,0,L|125:306,1,122.399996264649,8|2,3:2|0:0,0:0:0:0:
198,313,169627,1,2,0:0:0:0:
434,337,169712,5,0,3:2:0:0:
438,226,169884,1,2,3:2:0:0:
159,86,170055,2,0,L|306:75,1,122.399996264649,10|2,3:2|0:0,0:0:0:0:
115,178,170398,2,0,L|25:173,1,61.1999981323243,8|8,3:2|3:2,0:0:0:0:
274,300,170569,2,0,L|352:286,1,61.1999981323243,0|8,3:2|3:2,0:0:0:0:
95,349,170741,1,10,3:2:0:0:
399,354,170912,6,0,P|428:289|296:215,1,244.799992529297,2|0,3:2|3:2,0:0:0:0:
469,168,171427,1,8,3:2:0:0:
170,209,171598,2,0,L|154:82,1,122.399996264649,2|0,3:2|0:0,0:0:0:0:
430,29,171941,2,0,L|354:25,1,61.1999981323243,2|0,3:2|0:0,0:0:0:0:
154,87,172112,2,0,L|81:101,1,61.1999981323243,8|8,3:2|3:2,0:0:0:0:
320,195,172284,2,0,L|244:202,1,61.1999981323243,0|8,3:2|3:2,0:0:0:0:
45,169,172460,6,0,P|22:261|114:282,1,183.599994396973,2|0,3:2|0:0,0:0:0:0:
158,297,172789,1,10,3:2:0:0:
403,117,172954,2,0,L|263:106,1,122.399996264649,2|8,3:2|3:2,0:0:0:0:
432,36,173290,1,2,3:2:0:0:
135,188,173461,2,0,L|215:178,1,51,8|8,3:2|3:2,0:0:0:0:
403,331,173633,2,0,L|487:335,1,51,0|8,3:2|3:2,0:0:0:0:
219,334,173804,5,4,3:2:0:0:
490,71,174146,6,0,L|238:76,1,204,8|0,3:2|3:2,0:0:0:0:
141,94,174661,1,0,3:2:0:0:
300,108,174832,1,8,3:2:0:0:
156,134,175004,1,0,3:2:0:0:
314,144,175175,5,8,3:2:0:0:
171,170,175356,1,0,3:2:0:0:
28,194,175538,1,8,3:2:0:0:
193,201,175720,1,0,3:2:0:0:
35,225,175902,1,8,3:2:0:0:
233,218,176115,1,0,3:2:0:0:
448,221,176344,5,8,3:2:0:0:
27,342,176566,5,8,3:2:0:0:
382,17,178718,6,0,L|405:223,1,204,6|0,0:0|0:0,0:0:0:0:
297,259,179318,1,0,0:0:0:0:
179,267,179518,1,0,0:0:0:0:
458,352,179918,6,0,P|375:275|181:253,1,306,2|0,0:0|0:0,0:0:0:0:
312,220,180718,1,0,0:0:0:0:
36,329,181118,6,0,P|25:264|168:88,1,306,2|0,0:0|0:0,0:0:0:0:
317,79,181918,1,0,0:0:0:0:
35,25,182318,6,0,L|263:-3,1,204,2|2,0:0|0:0,0:0:0:0:
111,91,182918,1,0,0:0:0:0:
230,127,183118,1,2,0:0:0:0:
357,135,183318,1,0,0:0:0:0:
143,177,183518,6,0,P|111:226|181:295,1,153,2|0,0:0|0:0,0:0:0:0:
244,323,183927,2,0,L|437:339,1,153,2|0,0:0|0:0,0:0:0:0:
484,320,184336,2,0,P|496:266|419:211,1,153,2|0,0:0|0:0,0:0:0:0:
322,201,184745,6,0,P|244:183|350:189,1,530.399975720216,2|0,0:0|0:0,0:0:0:0:
21,54,185973,6,0,L|245:37,1,204,6|0,0:0|0:0,0:0:0:0:
109,84,186569,1,0,0:0:0:0:
244,85,186767,1,0,0:0:0:0:
384,108,186966,1,0,0:0:0:0:
244,135,187165,5,2,0:0:0:0:
423,195,187562,1,2,0:0:0:0:
463,284,187760,1,0,0:0:0:0:
409,365,187959,1,2,0:0:0:0:
311,362,188158,1,2,0:0:0:0:
90,161,188357,6,0,L|306:125,2,204,6|0|2,0:0|0:0|0:0,0:0:0:0:
377,54,189549,2,0,L|385:264,1,204,2|2,0:0|0:0,0:0:0:0:
76,360,190343,1,2,0:0:0:0:
228,370,190542,1,0,0:0:0:0:
382,357,190741,6,0,P|406:281|325:166,1,204,2|0,0:0|0:0,0:0:0:0:
213,183,191337,1,0,0:0:0:0:
67,217,191556,2,0,L|55:78,1,102,2|0,0:0|0:0,0:0:0:0:
257,45,191933,2,0,L|30:29,2,204,2|2|2,0:0|0:0|0:0,0:0:0:0:
491,295,193125,6,0,L|279:323,1,204,6|0,0:0|0:0,0:0:0:0:
169,290,193720,1,0,0:0:0:0:
118,180,193919,1,2,0:0:0:0:
169,70,194118,1,0,0:0:0:0:
318,44,194316,1,2,0:0:0:0:
48,26,194714,2,0,L|37:253,1,204,0|2,0:0|0:0,0:0:0:0:
436,336,195509,6,0,L|228:312,1,204,6|2,0:0|0:0,0:0:0:0:
348,241,196105,1,2,0:0:0:0:
490,233,196304,1,0,0:0:0:0:
161,321,196701,6,0,L|166:118,1,204,2|2,0:0|0:0,0:0:0:0:
290,67,197365,1,2,0:0:0:0:
428,57,197586,1,2,0:0:0:0:
107,48,197986,6,0,L|315:112,1,204,2|2,0:0|0:0,0:0:0:0:
174,171,198670,1,2,0:0:0:0:
24,189,198910,1,2,0:0:0:0:
439,70,199378,6,0,P|380:295|119:225,1,561,4|0,0:0|0:0,0:0:0:0:
319,153,201941,6,0,L|507:267,2,204,4|2|0,0:0|0:0|0:0,0:0:0:0:
33,84,203288,1,2,0:0:0:0:
332,59,203732,2,0,L|348:302,1,204,2|2,0:0|0:0,0:0:0:0:
208,311,204399,1,0,0:0:0:0:
16,130,204621,6,0,P|154:51|485:315,1,612,2|0,0:0|0:0,0:0:0:0:
32,341,207225,2,0,P|12:256|88:183,1,153
309,98,207757,6,0,L|132:91,1,153,8|0,3:2|0:0,0:0:0:0:
88,38,208105,2,0,L|203:24,1,102,0|0,3:2|0:0,0:0:0:0:
435,52,208454,2,0,L|422:212,1,153,8|0,3:2|0:0,0:0:0:0:
330,228,208803,2,0,L|217:247,1,102,0|0,3:2|0:0,0:0:0:0:
499,370,209152,6,0,L|318:351,1,153,8|0,3:2|0:0,0:0:0:0:
254,313,209501,2,0,L|383:306,1,102,0|0,3:2|0:0,0:0:0:0:
115,376,209850,2,0,L|133:204,1,153,8|0,3:2|0:0,0:0:0:0:
219,193,210198,2,0,L|347:184,1,102,0|0,3:2|0:0,0:0:0:0:
56,109,210547,6,0,L|196:36,1,153,8|0,3:2|0:0,0:0:0:0:
288,34,210896,2,0,L|412:30,1,102,0|0,3:2|0:0,0:0:0:0:
115,162,211245,2,0,L|237:227,1,102,8|0,3:2|0:0,0:0:0:0:
386,215,211594,1,8,3:2:0:0:
66,221,211768,6,0,P|26:278|146:331,1,204,6|0,3:2|3:2,0:0:0:0:
250,347,212291,1,8,3:2:0:0:
489,166,212466,2,0,L|288:148,1,153,2|0,3:2|0:0,0:0:0:0:
125,91,212815,1,2,3:2:0:0:
270,35,212989,2,0,L|204:25,1,51,8|8,3:2|3:2,0:0:0:0:
21,255,213163,2,0,L|85:249,1,51,0|8,3:2|3:2,0:0:0:0:
331,330,213338,6,0,L|287:201,1,102,4|0,3:2|0:0,0:0:0:0:
229,203,213600,1,0,0:0:0:0:
152,196,213687,1,8,3:2:0:0:
313,138,213861,1,0,3:2:0:0:
66,49,214036,2,0,L|199:37,1,102,8|0,3:2|3:2,0:0:0:0:
19,155,214384,1,8,3:2:0:0:
301,228,214559,5,0,3:2:0:0:
30,319,214733,2,0,L|23:240,1,51,8|8,3:2|3:2,0:0:0:0:
181,326,214908,1,8,3:2:0:0:
338,341,214995,1,8,3:2:0:0:
497,318,215082,5,0,3:2:0:0:
244,279,215243,6,0,L|235:130,1,122.399996264649,2|0,3:2|0:0,0:0:0:0:
341,123,215522,2,0,L|479:120,1,122.399996264649,2|0,3:2|0:0,0:0:0:0:
226,45,215802,2,0,L|69:30,1,122.399996264649,2|0,3:2|0:0,0:0:0:0:
305,55,216082,2,0,L|326:207,1,122.399996264649,2|0,3:2|0:0,0:0:0:0:
90,150,216361,2,0,L|77:278,1,122.399996264649,2|0,3:2|0:0,0:0:0:0:
308,315,216641,5,2,3:2:0:0:
503,49,217665,6,0,L|357:38,1,122.399996264649,4|0,3:2|0:0,0:0:0:0:
136,249,218013,2,0,L|281:228,1,122.399996264649,8|0,3:2|3:2,0:0:0:0:
323,237,218275,1,0,3:2:0:0:
108,51,218362,1,8,3:2:0:0:
237,95,218537,1,0,3:2:0:0:
66,161,218711,1,8,3:2:0:0:
355,56,218885,6,0,P|374:136|216:214,1,244.799992529297,2|2,3:2|3:2,0:0:0:0:
419,271,219409,1,0,3:2:0:0:
146,355,219583,2,0,L|221:365,1,61.1999981323243,8|8,3:2|3:2,0:0:0:0:
467,335,219758,2,0,P|493:265|413:190,1,183.599994396973,0|0,3:2|0:0,0:0:0:0:
339,245,220106,6,0,B|297:358|-111:405|-160:236|10:48|156:36|86:257|298:397|538:285|573:68|435:38,1,1071,0|0,0:0|0:0,0:0:0:0:
175,254,222025,6,0,P|136:196|265:112,1,255,4|8,3:2|3:2,0:0:0:0:
397,124,222546,1,0,0:0:0:0:
128,30,222717,2,0,L|277:8,1,127.5,2|0,3:2|3:2,0:0:0:0:
72,136,223060,2,0,L|52:277,1,127.5,10|0,3:2|0:0,0:0:0:0:
305,321,223403,6,0,L|138:344,1,127.5,2|0,3:2|3:2,0:0:0:0:
450,372,223745,2,0,P|492:299|350:231,1,255,10|2,3:2|3:2,0:0:0:0:
219,232,224260,1,0,3:2:0:0:
485,230,224431,2,0,L|490:13,1,191.25,10|0,3:2|0:0,0:0:0:0:
232,69,224774,5,2,3:2:0:0:
384,94,224945,1,0,0:0:0:0:
218,102,225117,2,0,L|52:129,1,127.5,8|0,3:2|0:0,0:0:0:0:
361,189,225460,2,0,L|373:329,1,127.5,2|0,3:2|3:2,0:0:0:0:
197,345,225803,1,10,3:2:0:0:
374,349,225974,1,0,0:0:0:0:
106,274,226145,5,2,3:2:0:0:
248,205,226317,1,0,3:2:0:0:
407,187,226488,2,0,L|416:51,1,127.5,10|0,3:2|0:0,0:0:0:0:
164,24,226831,2,0,L|318:34,1,127.5,2|0,3:2|3:2,0:0:0:0:
38,104,227174,2,0,P|25:186|145:238,1,191.25,10|0,3:2|0:0,0:0:0:0:
352,171,227517,6,0,P|375:239|281:298,1,191.25,6|2,3:2|0:0,0:0:0:0:
202,326,227860,2,0,L|366:353,1,127.5,8|2,3:2|3:2,0:0:0:0:
70,364,228203,2,0,L|47:228,1,127.5,2|0,3:2|3:2,0:0:0:0:
297,110,228545,2,0,L|153:103,1,127.5,8|0,3:2|0:0,0:0:0:0:
454,36,228888,6,0,P|419:103|283:126,1,191.25,2|2,3:2|0:0,0:0:0:0:
243,147,229231,1,8,3:2:0:0:
416,173,229403,1,2,3:2:0:0:
150,249,229574,1,2,3:2:0:0:
313,279,229745,1,0,3:2:0:0:
37,287,229917,2,0,P|26:206|124:144,1,191.25,8|0,3:2|0:0,0:0:0:0:
345,56,230260,6,0,L|201:62,1,127.5,2|0,3:2|0:0,0:0:0:0:
292,98,230517,1,2,0:0:0:0:
373,108,230603,2,0,L|514:115,1,127.5,8|2,3:2|3:2,0:0:0:0:
230,176,230945,2,0,L|224:331,1,127.5,2|0,3:2|3:2,0:0:0:0:
470,340,231288,1,8,3:2:0:0:
218,333,231460,2,0,L|107:335,1,63.75,0|8,3:2|3:2,0:0:0:0:
401,280,231631,6,0,L|411:146,1,127.5,4|8,3:3|3:2,0:0:0:0:
336,126,231888,1,8,3:2:0:0:
119,141,231974,2,0,L|179:196,1,63.75,8|8,3:2|3:2,0:0:0:0:
246,205,232145,2,0,L|346:207,1,63.75,8|8,3:2|3:2,0:0:0:0:
93,50,232317,6,0,L|0:47,1,63.75,0|0,3:2|0:0,0:0:0:0:
252,20,232488,1,4,3:3:0:0:
95,138,232660,2,0,L|177:149,1,63.75,8|8,3:2|3:2,0:0:0:0:
389,319,232831,2,0,L|272:337,1,63.75,8|8,3:2|3:2,0:0:0:0:
103,357,233003,6,0,P|56:295|149:232,1,191.25,4|0,3:2|0:0,0:0:0:0:
206,220,233345,2,0,L|343:202,1,127.5,8|0,3:2|0:0,0:0:0:0:
66,123,233688,1,2,3:2:0:0:
209,93,233860,1,0,3:2:0:0:
37,90,234031,2,0,L|27:229,1,127.5,10|0,3:2|0:0,0:0:0:0:
303,295,234374,5,2,3:2:0:0:
146,324,234545,1,0,3:2:0:0:
423,360,234717,2,0,P|453:287|354:224,1,191.25,10|0,3:2|0:0,0:0:0:0:
306,215,235060,1,2,3:2:0:0:
463,167,235231,1,0,3:2:0:0:
198,242,235403,2,0,P|156:161|244:130,1,191.25,10|0,3:2|0:0,0:0:0:0:
464,32,235745,6,0,P|487:110|345:162,1,255,2|8,3:2|3:2,0:0:0:0:
490,222,236260,1,0,0:0:0:0:
224,66,236431,2,0,L|369:46,1,127.5,2|0,3:2|3:2,0:0:0:0:
74,135,236774,2,0,L|65:297,1,127.5,10|0,3:2|0:0,0:0:0:0:
357,288,237117,5,2,3:2:0:0:
193,336,237288,1,0,3:2:0:0:
370,319,237460,2,0,L|526:341,1,127.5,10|0,3:2|0:0,0:0:0:0:
223,206,237803,2,0,L|380:189,1,127.5,2|0,3:2|3:2,0:0:0:0:
55,297,238145,2,0,P|35:238|148:149,1,191.25,10|0,3:2|0:0,0:0:0:0:
366,17,238488,6,0,P|327:84|175:96,1,191.25,6|2,3:2|0:0,0:0:0:0:
155,118,238831,1,8,3:2:0:0:
321,139,239003,1,2,3:2:0:0:
66,55,239174,2,0,L|51:200,1,127.5,2|0,3:2|3:2,0:0:0:0:
314,282,239517,1,8,3:2:0:0:
154,303,239688,1,0,0:0:0:0:
437,347,239860,6,0,P|455:275|340:228,1,191.25,2|2,3:2|0:0,0:0:0:0:
276,187,240203,2,0,L|418:159,1,127.5,8|2,3:2|3:2,0:0:0:0:
147,76,240545,1,2,3:2:0:0:
305,64,240717,1,0,3:2:0:0:
140,103,240888,2,0,L|15:127,1,127.5,8|0,3:2|0:0,0:0:0:0:
304,165,241231,6,0,L|314:311,1,127.5,0|8,3:2|3:2,0:0:0:0:
241,317,241488,1,0,0:0:0:0:
166,329,241574,1,8,3:2:0:0:
433,363,241745,2,0,L|357:369,1,63.75,0|0,0:0|0:0,0:0:0:0:
163,355,241917,6,0,L|75:342,2,63.75,8|8|8,3:2|3:2|3:2,0:0:0:0:
374,224,242174,2,0,L|300:184,1,63.75,8|2,3:2|3:2,0:0:0:0:
238,185,242345,1,0,3:0:0:0:
462,139,242431,2,0,L|474:66,1,63.75,0|0,3:0|3:0,0:0:0:0:
228,22,242603,6,0,P|292:84|411:80,1,191.25,6|0,3:2|0:0,0:0:0:0:
149,126,242945,2,0,P|125:203|236:269,1,191.25,2|0,3:2|0:0,0:0:0:0:
429,241,243288,6,0,P|447:320|343:355,1,191.25,6|0,3:2|0:0,0:0:0:0:
128,350,243631,2,0,L|38:343,1,63.75,10|8,3:2|3:2,0:0:0:0:
313,180,243803,2,0,L|412:167,1,63.75,8|8,3:2|3:2,0:0:0:0:
134,228,243974,6,0,P|51:212|61:53,1,255,12|10,3:2|3:2,0:0:0:0:
179,46,244488,1,0,3:2:0:0:
453,51,244660,1,10,3:2:0:0:
187,95,244831,1,0,3:2:0:0:
342,118,245003,1,10,3:2:0:0:
82,196,245174,1,0,3:2:0:0:
363,158,245345,6,0,L|378:307,1,127.5,8|0,3:2|0:0,0:0:0:0:
83,345,245688,2,0,L|72:181,1,127.5,10|0,3:2|3:2,0:0:0:0:
345,72,246031,2,0,L|182:68,1,127.5,10|0,3:2|3:2,0:0:0:0:
486,158,246374,1,10,3:2:0:0:
204,175,246545,1,0,3:2:0:0:
494,200,246717,6,0,L|342:222,1,127.5,12|0,3:2|0:0,0:0:0:0:
202,295,247060,1,10,3:2:0:0:
374,257,247231,1,0,3:2:0:0:
103,130,247403,2,0,L|226:57,1,127.5,10|0,3:2|3:2,0:0:0:0:
381,54,247745,1,10,3:2:0:0:
94,26,247917,1,0,3:2:0:0:
403,76,248088,6,0,L|421:222,1,127.5,8|0,3:2|0:0,0:0:0:0:
140,242,248431,1,10,3:2:0:0:
310,277,248603,1,0,3:2:0:0:
28,355,248774,2,0,L|49:293,1,63.75,8|8,3:2|3:2,0:0:0:0:
263,185,248945,1,0,3:2:0:0:
103,133,249117,2,0,L|145:73,1,63.75,8|8,3:2|3:2,0:0:0:0:
356,40,249288,2,0,L|443:32,1,63.75,0|8,3:2|3:2,0:0:0:0:
181,37,249460,6,0,P|149:135|236:145,1,191.25,12|0,3:2|0:0,0:0:0:0:
297,167,249803,2,0,L|427:175,1,127.5,10|0,3:2|3:2,0:0:0:0:
127,198,250145,2,0,L|113:339,1,127.5,10|0,3:2|3:2,0:0:0:0:
389,349,250488,1,10,3:2:0:0:
226,355,250660,1,0,3:2:0:0:
500,62,250831,6,0,P|466:122|342:146,1,191.25,8|0,3:2|0:0,0:0:0:0:
283,150,251174,1,10,3:2:0:0:
446,188,251345,1,0,3:2:0:0:
188,69,251517,2,0,L|326:57,1,127.5,10|0,3:2|3:2,0:0:0:0:
62,140,251860,1,10,3:2:0:0:
321,91,252031,1,0,3:2:0:0:
52,162,252203,6,0,L|39:299,1,127.5,12|0,3:2|0:0,0:0:0:0:
118,312,252460,1,2,0:0:0:0:
200,311,252545,1,10,3:2:0:0:
27,368,252717,1,0,3:2:0:0:
328,186,252888,6,0,L|173:175,1,127.5,10|0,3:2|3:2,0:0:0:0:
272,148,253145,1,2,0:0:0:0:
355,134,253231,2,0,L|510:129,1,127.5,10|0,3:2|3:2,0:0:0:0:
225,51,253574,5,8,3:2:0:0:
186,97,253659,1,0,3:2:0:0:
209,154,253745,1,0,3:2:0:0:
269,160,253831,1,0,3:2:0:0:
60,185,253917,5,0,3:3:0:0:
22,239,254002,1,0,3:2:0:0:
54,298,254088,1,0,3:2:0:0:
120,298,254174,1,0,3:2:0:0:
332,375,254260,2,0,L|406:379,1,63.75,0|0,3:2|3:2,0:0:0:0:
164,118,254431,2,0,L|75:110,1,63.75,0|0,3:2|3:2,0:0:0:0:
342,125,254603,6,0,P|307:223|196:218,1,191.25,12|0,3:2|0:0,0:0:0:0:
474,290,254945,6,0,L|485:145,1,127.5,12|0,3:2|0:0,0:0:0:0:
212,76,255288,1,10,3:2:0:0:
375,53,255460,1,0,3:2:0:0:
130,157,255631,1,10,3:2:0:0:
297,175,255803,1,0,3:2:0:0:
40,229,255974,1,10,3:2:0:0:
299,294,256145,1,0,3:2:0:0:
33,342,256317,6,0,L|24:209,1,127.5,8|0,3:2|0:0,0:0:0:0:
282,106,256660,2,0,L|120:100,1,127.5,10|0,3:2|3:2,0:0:0:0:
440,54,257003,2,0,L|452:203,1,127.5,10|0,3:2|3:2,0:0:0:0:
213,241,257345,1,10,3:2:0:0:
457,230,257517,1,0,3:2:0:0:
177,340,257688,6,0,L|16:337,1,127.5,12|0,3:2|0:0,0:0:0:0:
327,322,258031,2,0,L|333:187,1,127.5,10|0,3:2|3:2,0:0:0:0:
261,177,258288,1,2,0:0:0:0:
36,45,258374,2,0,L|194:27,1,127.5,10|0,3:2|3:2,0:0:0:0:
407,64,258717,1,10,3:2:0:0:
157,66,258888,1,0,3:2:0:0:
432,87,259060,6,0,L|442:233,1,127.5,8|0,3:2|0:0,0:0:0:0:
178,278,259403,1,10,3:2:0:0:
338,297,259574,1,0,3:2:0:0:
66,353,259745,1,10,3:2:0:0:
346,345,259917,1,0,3:2:0:0:
171,245,260088,2,0,L|246:230,1,63.75,10|10,3:2|3:2,0:0:0:0:
469,73,260260,2,0,L|385:66,1,63.75,0|10,3:2|3:2,0:0:0:0:
154,58,260431,6,0,L|-1:82,1,127.5,12|0,3:2|0:0,0:0:0:0:
290,142,260774,1,10,3:2:0:0:
137,162,260945,1,0,3:2:0:0:
392,226,261117,1,10,3:2:0:0:
226,249,261288,1,0,3:2:0:0:
483,333,261460,1,10,3:2:0:0:
201,353,261631,1,0,3:2:0:0:
363,334,261803,5,8,3:2:0:0:
99,169,261971,2,0,L|10:160,1,63.75,8|8,3:2|3:2,0:0:0:0:
246,83,262140,2,0,L|319:67,1,63.75,0|8,3:2|3:2,0:0:0:0:
229,46,262308,2,0,L|152:36,1,63.75,8|0,3:2|3:0,0:0:0:0:
394,162,262477,6,0,L|478:153,1,63.75,4|0,3:3|3:0,0:0:0:0:
211,254,262645,2,0,L|126:259,1,63.75,4|0,3:3|3:0,0:0:0:0:
319,315,262814,1,8,3:2:0:0:
491,323,262898,1,0,3:0:0:0:
310,364,262982,1,0,3:0:0:0:
115,369,263067,1,0,3:0:0:0:
336,213,263151,6,0,L|504:145,2,153,6|0|0,3:2|0:0|0:0,0:0:0:0:
163,92,263907,2,0,L|13:50,2,153,2|0|0,0:0|0:0|0:0,0:0:0:0:
492,60,265083,5,4,3:2:0:0:
256,192,265173,12,0,274537,0:0:0:0:
