osu file format v14

[General]
AudioFilename: audio.mp3
AudioLeadIn: 0
PreviewTime: 139772
Countdown: 0
SampleSet: Soft
StackLeniency: 0.7
Mode: 0
LetterboxInBreaks: 0
WidescreenStoryboard: 0

[Editor]
Bookmarks: 243980
DistanceSpacing: 0.6
BeatDivisor: 4
GridSize: 8
TimelineZoom: 1.4

[Metadata]
Title:Junjou Armeria
TitleUnicode:純情アルメリア
Artist:ShinRa-Bansho
ArtistUnicode:森羅万象
Creator:Hey lululu
Version:Blade of love
Source:東方妖々夢 ~ Perfect Cherry Blossom.
Tags:シンクロ synchro kaztora あやぽんず* ayaponzu* 広有射怪鳥事 ~ Till When? 東方妖々夢 ~ Ancient Temple 魂魄 妖夢 Konpaku Youmu 上海アリス幻樂団 Team Shanghai Alice touhou zun japanese video game Kirylln lu^3
BeatmapID:2226975
BeatmapSetID:1063655

[Difficulty]
HPDrainRate:6
CircleSize:4
OverallDifficulty:8.5
ApproachRate:9.3
SliderMultiplier:1.8
SliderTickRate:1

[Events]
//Background and Video events
0,0,"BG.jpg",0,0
Video,0,"video.avi"
//Break Periods
2,96382,107374
//Storyboard Layer 0 (Background)
//Storyboard Layer 1 (Fail)
//Storyboard Layer 2 (Pass)
//Storyboard Layer 3 (Foreground)
//Storyboard Layer 4 (Overlay)
//Storyboard Sound Samples

[TimingPoints]
4106,845.070422535211,4,2,1,30,1,0
12556,800,4,2,1,30,1,0
13356,890.207715133531,4,2,1,30,1,0
14246,845.070422535211,4,2,1,30,1,0
20795,-100,4,2,1,5,0,0
21637,348.837209302326,4,2,2,70,1,0
21637,-83.3333333333333,4,2,2,70,0,0
32440,-66.6666666666667,4,2,2,70,0,0
32789,-125,4,2,2,60,0,0
36801,-100,4,2,2,60,0,0
38371,-125,4,2,2,60,0,0
55125,339.462517680339,4,2,2,60,1,0
56143,340.909090909091,3,2,2,60,1,0
57165,326.086956521739,3,2,2,60,1,0
58143,315.789473684211,3,2,2,60,1,0
59090,309.278350515464,3,2,2,60,1,0
60017,300,3,2,2,60,1,0
61817,286.396181384248,3,2,2,60,1,0
63535,276.497695852535,3,2,2,60,1,0
65193,300,3,2,2,60,1,0
65493,344.827586206897,3,2,2,60,1,0
66182,375,3,2,2,60,1,0
66557,413.793103448276,3,2,2,60,1,0
66970,437.956204379562,3,2,2,60,1,0
67188,480,3,2,2,60,1,0
67428,355.766380077083,3,2,2,60,1,0
67428,-200,3,2,2,50,0,0
69562,348.837209302326,3,2,2,70,1,0
74455,342.857142857143,4,2,2,80,1,1
74455,-83.3333333333333,4,2,2,80,0,1
83369,-83.3333333333333,4,2,2,80,0,1
84055,337.837837837838,4,2,2,80,1,1
84055,-83.3333333333333,4,2,2,80,0,1
85406,342.857142857143,4,2,2,80,1,1
85406,-76.9230769230769,4,2,2,80,0,1
94834,-76.9230769230769,4,2,2,70,0,0
96382,348.837209302326,4,2,2,70,1,0
108940,-125,4,2,2,60,0,0
115916,-100,4,2,2,60,0,0
120109,342.857142857143,3,2,2,60,1,0
121137,335.195530726257,3,2,2,60,1,0
122143,327.868852459016,3,2,2,60,1,0
123126,315.789473684211,3,2,2,60,1,0
124073,307.692307692308,3,2,2,60,1,0
125000,300,3,2,2,60,1,0
126800,285.714285714286,3,2,2,60,1,0
128514,279.06976744186,3,2,2,60,1,0
130188,324.324324324324,3,2,2,60,1,0
130512,333.333333333333,3,2,2,60,1,0
131178,352.941176470588,3,2,2,60,1,0
131530,413.793103448276,3,2,2,60,1,0
131943,469.667318982387,3,2,2,60,1,0
132412,355.029585798817,3,2,2,50,1,0
132412,-125,3,2,2,50,0,0
133477,344.827586206897,3,2,2,50,1,0
133477,-125,3,2,2,50,0,0
134511,348.837209302326,4,2,2,50,1,0
135906,345.025876940771,4,2,2,50,1,0
137458,342.857142857143,4,2,2,70,1,0
140200,-83.3333333333333,4,2,2,80,0,1
151172,-76.9230769230769,4,2,2,80,0,1
161458,346.820809248555,4,2,2,70,1,0
164232,342.857142857143,4,2,2,70,1,0
172460,329.67032967033,4,2,2,70,1,0
173119,342.857142857143,4,2,2,70,1,0
173804,342.857142857143,4,2,2,70,1,0
175175,363.636363636364,4,2,2,70,1,0
175901,428.571428571429,4,2,2,70,1,0
176329,444.444444444444,4,2,2,70,1,0
178718,400,3,2,1,30,1,0
178718,-200,3,2,1,30,0,0
183518,409.276944065484,3,2,1,30,1,0
183518,-200,3,2,1,30,0,0
183927,-142.857142857143,3,2,1,40,0,0
184336,-111.111111111111,3,2,1,50,0,0
185973,397.350993377483,3,2,1,40,1,0
185973,-125,3,2,1,40,0,0
196701,428.571428571429,3,2,1,40,1,0
197986,461.538461538462,3,2,1,40,1,0
199370,857.142857142857,3,2,1,40,1,0
201727,-100,3,2,1,5,0,0
201941,444.444444444444,3,2,1,40,1,0
201941,-200,3,2,1,40,0,0
204607,530.973451327434,3,2,1,40,1,0
206199,512.820512820513,3,2,1,40,1,0
207757,348.837209302326,4,2,2,70,1,0
213338,-83.3333333333333,4,2,2,70,0,0
215243,419.58041958042,4,2,2,70,1,0
215243,-66.6666666666667,4,2,2,70,0,0
216921,372.093023255814,4,2,2,70,1,0
217665,348.837209302326,4,2,2,70,1,0
217665,-83.3333333333333,4,2,2,70,0,0
221851,-83.3333333333333,4,2,2,5,0,0
222025,350.877192982456,4,2,2,80,1,1
222025,-83.3333333333333,4,2,2,80,0,1
222375,342.857142857143,4,2,2,80,1,1
222375,-83.3333333333333,4,2,2,80,0,1
223403,342.857142857143,4,2,2,80,1,1
223403,-83.3333333333333,4,2,2,80,0,1
233001,-76.9230769230769,4,2,2,80,0,1
261803,337.078651685393,4,2,2,80,1,1
261803,-83.3333333333333,4,2,2,80,0,1
263151,363.636363636364,4,2,2,60,1,0
263151,-125,4,2,2,60,0,0
263901,370.37037037037,4,2,2,70,1,0
263901,-125,4,2,2,60,0,0
265083,363.636363636364,4,2,2,80,1,0
265083,-125,4,2,2,80,0,0
265810,-125,4,2,2,70,0,0
267264,-125,4,2,2,60,0,0
268719,-125,4,2,2,50,0,0
270173,-125,4,2,2,40,0,0
271628,-125,4,2,2,30,0,0
273083,-125,4,2,2,20,0,0
274537,-125,4,2,2,5,0,0

[Colours]
Combo1 : 192,192,192
Combo2 : 0,128,128
Combo3 : 255,128,192
Combo4 : 0,128,255

[HitObjects]
487,254,4106,6,0,P|451:298|361:302,2,135,2|0|0,0:0|0:0|0:0,0:0:0:0:
398,196,5796,2,0,L|414:25,2,135,2|0|0,0:0|0:0|0:0,0:0:0:0:
295,248,7486,6,0,P|280:200|220:168,1,90,2|0,0:0|0:0,0:0:0:0:
132,251,8120,2,0,P|181:262|238:226,1,90,0|0,0:0|0:0,0:0:0:0:
211,105,8753,2,0,P|176:141|179:209,1,90,0|2,0:0|0:0,0:0:0:0:
256,192,9387,12,0,12134,0:0:0:0:
256,192,12345,5,0,0:0:0:0:
256,192,12556,2,0,P|210:184|165:168,1,90,2|0,0:0|0:0,0:0:0:0:
45,304,13356,2,0,P|87:289|131:281,1,90,2|0,0:0|0:0,0:0:0:0:
335,367,14246,6,0,B|391:312|392:365|452:353|471:281|417:260|386:272|386:272|386:234|347:208|294:224|300:297|349:333,1,360,2|0,0:0|0:0,0:0:0:0:
256,192,16147,12,0,20795,0:0:0:0:
137,0,21637,6,0,P|118:41|133:109,1,107.999996704102,4|0,3:2|0:0,0:0:0:0:
238,261,21985,2,0,P|249:208|229:159,1,107.999996704102,10|2,3:2|0:0,0:0:0:0:
105,230,22334,1,0,3:2:0:0:
202,358,22509,2,0,L|332:341,1,107.999996704102,2|8,3:2|3:2,0:0:0:0:
456,371,22857,6,0,B|449:246|387:305|388:167,1,215.999993408203,2|0,0:0|3:2,0:0:0:0:
314,261,23381,1,10,3:2:0:0:
500,133,23555,2,0,P|459:166|394:170,1,107.999996704102,2|0,0:0|3:2,0:0:0:0:
270,6,23904,2,0,P|322:12|364:45,1,107.999996704102,2|8,3:2|3:2,0:0:0:0:
232,216,24253,6,0,L|117:246,1,107.999996704102,2|0,0:0|3:2,0:0:0:0:
30,183,24602,1,0,3:2:0:0:
167,95,24776,1,10,3:2:0:0:
29,8,24950,1,2,0:0:0:0:
127,243,25125,5,0,3:2:0:0:
253,72,25299,1,2,3:2:0:0:
313,340,25474,1,10,3:2:0:0:
372,140,25648,1,2,0:0:0:0:
115,246,25823,6,0,L|179:228,1,53.9999983520508,4|0,3:3|0:0,0:0:0:0:
380,162,25997,1,0,3:2:0:0:
380,162,26084,1,0,3:2:0:0:
380,162,26171,1,8,3:2:0:0:
313,340,26346,5,2,3:2:0:0:
192,30,26695,1,2,3:2:0:0:
497,30,26869,5,8,3:2:0:0:
483,82,26956,1,8,3:2:0:0:
470,134,27043,1,0,3:2:0:0:
457,187,27131,1,8,3:2:0:0:
444,239,27218,5,4,3:2:0:0:
241,135,27392,1,0,0:0:0:0:
269,102,27480,1,0,0:0:0:0:
309,89,27567,1,10,3:2:0:0:
222,236,27741,1,2,0:0:0:0:
104,93,27916,1,0,3:2:0:0:
10,259,28090,2,0,P|28:212|13:137,1,107.999996704102,2|8,3:2|3:2,0:0:0:0:
202,49,28439,6,0,P|145:106|142:240,1,215.999993408203,2|0,0:0|3:2,0:0:0:0:
236,342,28962,1,10,3:2:0:0:
376,262,29137,2,0,P|401:319|398:372,1,107.999996704102,2|0,0:0|3:2,0:0:0:0:
269,205,29485,2,0,P|269:151|292:103,1,107.999996704102,2|8,3:2|3:2,0:0:0:0:
469,0,29834,6,0,B|338:-28|398:52|249:21,1,215.999993408203,2|0,0:0|3:2,0:0:0:0:
366,188,30357,1,10,3:2:0:0:
139,116,30532,1,2,0:0:0:0:
365,306,30706,2,0,L|429:280,1,53.9999983520508,8|8,3:2|3:2,0:0:0:0:
170,351,30881,2,0,L|106:325,1,53.9999983520508,8|8,3:2|3:2,0:0:0:0:
256,384,31055,1,8,3:2:0:0:
302,182,31230,6,0,B|320:304|231:254|255:384,1,215.999993408203,4|4,3:2|3:3,0:0:0:0:
212,199,31753,1,4,3:3:0:0:
348,348,31927,1,8,3:2:0:0:
348,348,32014,1,8,3:2:0:0:
348,348,32102,2,0,L|154:316,1,161.999995056153,0|0,3:2|0:0,0:0:0:0:
58,307,32450,6,0,P|135:318|67:271,1,202.500007724762,4|0,3:3|0:0,0:0:0:0:
6,236,32799,6,0,L|21:121,1,108,6|0,3:2|0:0,0:0:0:0:
33,41,33148,1,0,3:2:0:0:
248,141,33497,2,0,L|263:256,1,108,2|0,3:2|0:0,0:0:0:0:
275,336,33846,1,0,3:2:0:0:
488,205,34195,6,0,P|446:229|380:219,1,108,2|0,3:2|0:0,0:0:0:0:
425,136,34543,1,0,3:2:0:0:
185,72,34892,2,0,P|227:48|293:58,1,108,2|0,3:2|0:0,0:0:0:0:
248,141,35241,1,0,3:2:0:0:
112,340,35590,6,0,B|85:306|85:306|117:225,1,108,2|0,3:2|0:0,0:0:0:0:
183,288,35939,1,0,3:2:0:0:
425,136,36288,2,0,B|452:102|452:102|420:21,1,108,2|0,3:2|0:0,0:0:0:0:
354,84,36637,1,0,3:2:0:0:
415,248,36811,6,0,L|526:268,1,90,6|0,3:2|0:0,0:0:0:0:
353,359,37160,1,4,3:3:0:0:
292,163,37334,1,4,3:3:0:0:
145,276,37509,1,0,0:0:0:0:
214,109,37683,5,4,3:3:0:0:
214,109,37770,1,0,0:0:0:0:
181,363,37945,1,4,3:3:0:0:
181,363,38032,1,4,3:3:0:0:
61,166,38206,1,4,3:3:0:0:
38,295,38381,6,0,L|147:275,1,108,6|0,3:2|0:0,0:0:0:0:
227,261,38730,1,0,3:2:0:0:
495,159,39078,2,0,L|386:139,1,108,2|0,3:2|0:0,0:0:0:0:
306,125,39427,1,0,3:2:0:0:
371,368,39776,6,0,B|409:352|409:352|422:264,1,108,2|0,3:2|0:0,0:0:0:0:
331,242,40125,1,0,3:2:0:0:
213,384,40474,5,2,3:2:0:0:
304,330,40648,1,4,3:3:0:0:
177,217,40823,1,8,3:2:0:0:
320,76,40997,6,0,P|269:72|211:-8,1,144,6|0,3:2|3:2,0:0:0:0:
103,167,41520,1,10,3:2:0:0:
32,30,41695,1,0,3:2:0:0:
32,30,41782,1,0,3:2:0:0:
32,30,41869,1,10,3:2:0:0:
210,127,42043,1,0,3:2:0:0:
17,257,42218,1,10,3:2:0:0:
219,341,42392,6,0,B|299:315|272:378|360:350,1,144,6|4,3:2|3:3,0:0:0:0:
472,296,42916,1,4,3:3:0:0:
350,213,43090,1,0,3:2:0:0:
358,185,43177,1,8,3:2:0:0:
368,154,43264,1,8,3:2:0:0:
219,341,43613,1,4,3:3:0:0:
150,79,43962,6,0,P|110:68|69:42,1,72,6|0,3:2|0:0,0:0:0:0:
261,101,44311,1,10,3:2:0:0:
133,202,44485,1,0,0:0:0:0:
238,301,44660,1,2,3:2:0:0:
266,84,44834,1,0,3:2:0:0:
238,301,45009,1,8,3:2:0:0:
471,344,45183,6,0,P|415:282|346:268,1,144,0|0,0:0|3:2,0:0:0:0:
302,372,45706,1,8,3:2:0:0:
415,184,45881,1,2,3:2:0:0:
138,97,46230,1,2,3:2:0:0:
138,97,46404,1,8,3:2:0:0:
276,13,46578,6,0,L|258:179,1,144,6|0,3:2|3:2,0:0:0:0:
245,275,47102,1,8,3:2:0:0:
90,210,47276,2,0,L|193:184,1,72,0|0,0:0|3:2,0:0:0:0:
344,159,47625,1,0,3:2:0:0:
143,86,47799,1,8,3:2:0:0:
415,42,47974,1,0,0:0:0:0:
415,42,48148,6,0,B|387:125|448:102|419:198,1,144,0|8,3:2|3:2,0:0:0:0:
455,347,48671,2,0,P|470:291|487:269,1,72,2|0,3:2|0:0,0:0:0:0:
260,250,49020,2,0,P|245:194|228:172,1,72,2|8,3:2|3:2,0:0:0:0:
139,337,49369,1,0,3:2:0:0:
139,337,49456,1,8,3:2:0:0:
139,337,49543,6,0,L|310:358,1,144,0|10,3:2|3:2,0:0:0:0:
364,268,50067,1,0,0:0:0:0:
242,136,50241,1,0,3:2:0:0:
215,309,50416,1,0,3:2:0:0:
340,121,50590,1,10,3:2:0:0:
107,195,50764,6,0,P|74:155|82:50,1,144,0|0,0:0|0:0,0:0:0:0:
205,21,51288,1,8,3:2:0:0:
278,257,51462,2,0,P|285:211|310:178,1,72,6|0,3:2|0:0,0:0:0:0:
417,28,51811,1,2,3:2:0:0:
417,28,51985,1,8,3:2:0:0:
502,163,52160,6,0,P|433:144|329:128,1,144,6|0,3:2|3:2,0:0:0:0:
200,245,52683,1,8,3:2:0:0:
111,28,52857,1,0,3:2:0:0:
111,28,52945,1,0,3:2:0:0:
111,28,53032,1,8,3:2:0:0:
48,238,53206,1,0,3:2:0:0:
141,3,53381,1,8,3:2:0:0:
209,263,53555,6,0,L|189:100,1,144,0|0,3:2|3:2,0:0:0:0:
300,229,54078,1,8,3:2:0:0:
80,151,54253,1,0,3:2:0:0:
274,17,54427,2,0,L|362:5,1,72,4|0,3:3|0:0,3:3:0:0:
366,3,54689,1,8,3:2:0:0:
387,0,54776,1,8,3:2:0:0:
57,360,55125,6,0,P|29:320|86:203,2,180,6|2|8,3:2|3:2|3:2,0:0:0:0:
228,377,56143,2,0,P|214:337|205:265,1,90,2|0,3:2|0:0,0:0:0:0:
292,191,56483,1,2,3:2:0:0:
111,80,56824,1,8,3:2:0:0:
318,21,57165,6,0,B|371:3|371:3|496:43,2,180,2|2|8,3:2|3:2|3:2,0:0:0:0:
408,236,58143,1,2,3:2:0:0:
408,236,58458,2,0,P|414:196|435:138,1,90,2|0,3:2|0:0,0:0:0:0:
200,0,58774,2,0,P|214:42|221:86,1,90,8|0,3:2|0:0,0:0:0:0:
132,217,59090,6,0,B|104:183|104:183|37:180,1,90,6|0,3:2|0:0,0:0:0:0:
141,316,59399,2,0,B|184:308|184:308|220:252,1,90,2|0,3:2|0:0,0:0:0:0:
51,281,59708,2,0,B|35:322|35:322|66:381,1,90,8|0,3:2|0:0,0:0:0:0:
313,162,60017,6,0,P|267:161|215:202,1,90,2|0,3:2|0:0,0:0:0:0:
356,303,60317,2,0,P|379:263|370:198,1,90,2|0,3:2|0:0,0:0:0:0:
209,270,60617,2,0,P|231:310|292:334,1,90,8|0,3:2|0:0,0:0:0:0:
467,358,60917,5,2,3:2:0:0:
313,162,61217,1,2,3:2:0:0:
452,56,61367,1,8,3:2:0:0:
297,2,61517,1,0,3:2:0:0:
445,199,61667,1,8,3:2:0:0:
445,199,61742,1,8,3:2:0:0:
445,199,61817,5,0,3:3:0:0:
364,257,61960,1,0,3:3:0:0:
287,244,62103,1,0,3:3:0:0:
250,275,62246,1,4,3:3:0:0:
207,264,62389,1,4,3:3:0:0:
41,384,62676,6,0,P|91:312|73:227,1,180,6|2,3:2|3:2,0:0:0:0:
13,132,63105,1,8,3:2:0:0:
174,43,63248,1,2,3:2:0:0:
0,119,63392,1,0,3:2:0:0:
175,283,63535,6,0,P|189:238|182:174,1,90,2|0,3:2|0:0,0:0:0:0:
321,151,63811,2,0,P|307:106|314:42,1,90,2|0,3:2|0:0,0:0:0:0:
496,252,64087,2,0,L|394:269,1,90,8|0,3:2|0:0,0:0:0:0:
199,384,64364,6,0,P|212:315|313:287,1,180,2|2,3:2|3:2,0:0:0:0:
444,340,64779,1,8,3:2:0:0:
349,219,64917,1,2,3:2:0:0:
449,359,65055,1,0,3:2:0:0:
512,155,65193,6,0,P|465:156|409:189,1,90,0|0,3:2|0:0,0:0:0:0:
228,24,65493,2,0,P|268:42|313:42,1,90,8|0,3:2|0:0,0:0:0:0:
452,10,65837,1,8,3:2:0:0:
256,192,66182,5,0,3:2:0:0:
256,192,66557,5,8,3:2:0:0:
153,186,66763,5,8,3:2:0:0:
92,267,66970,5,8,3:2:0:0:
114,360,67188,5,8,3:2:0:0:
246,304,67428,6,0,P|290:299|331:316,2,90,4|2|2,3:2|0:0|0:0,0:0:0:0:
153,186,68495,2,0,P|108:190|67:173,2,90,0|2|2,0:0|0:0|0:0,0:0:0:0:
285,12,69562,6,0,L|307:130,1,90,4|0,3:2|0:0,0:0:0:0:
322,225,69910,1,10,3:2:0:0:
395,0,70085,1,0,3:2:0:0:
223,140,70259,1,10,3:2:0:0:
425,235,70434,1,0,3:2:0:0:
220,349,70608,6,0,L|110:327,1,90,4|0,3:2|0:0,0:0:0:0:
12,301,70957,1,10,3:2:0:0:
186,164,71131,1,0,3:2:0:0:
9,66,71306,1,10,3:2:0:0:
0,109,71393,1,8,3:2:0:0:
9,153,71480,1,0,3:2:0:0:
36,189,71567,1,8,3:2:0:0:
75,210,71655,6,0,L|261:185,1,180,4|10,3:2|3:2,0:0:0:0:
374,161,72178,1,0,3:2:0:0:
284,51,72352,1,10,3:2:0:0:
185,287,72527,1,0,3:2:0:0:
102,54,72701,5,8,3:2:0:0:
102,54,73050,1,0,3:2:0:0:
185,287,73224,1,0,3:2:0:0:
300,0,73399,1,0,3:2:0:0:
54,214,73573,1,8,3:2:0:0:
349,342,73748,1,8,3:2:0:0:
349,342,74455,6,0,B|342:213|412:286|413:138,1,215.999993408203,4|8,3:2|3:2,0:0:0:0:
505,250,74969,1,0,0:0:0:0:
311,175,75140,1,2,3:2:0:0:
494,58,75312,1,0,3:2:0:0:
438,307,75483,1,10,3:2:0:0:
301,57,75655,1,0,0:0:0:0:
132,235,75826,6,0,P|86:182|95:118,1,107.999996704102,2|0,3:2|3:2,0:0:0:0:
235,129,76169,2,0,L|197:352,1,215.999993408203,10|2,3:2|3:2,0:0:0:0:
313,227,76683,1,0,0:0:0:0:
84,146,76855,2,0,P|153:112|167:27,1,161.999995056153,10|0,3:2|0:0,0:0:0:0:
83,8,77197,6,0,B|139:55|139:55|291:22,1,215.999993408203,0|8,3:2|3:2,0:0:0:0:
422,151,77712,1,0,0:0:0:0:
329,334,77883,2,0,P|316:276|337:210,1,107.999996704102,2|0,3:2|3:2,0:0:0:0:
226,70,78226,2,0,P|239:128|218:194,1,107.999996704102,10|0,3:2|0:0,0:0:0:0:
180,314,78569,5,2,3:2:0:0:
6,165,78740,1,0,3:2:0:0:
228,174,78912,2,0,L|96:204,1,107.999996704102,10|0,3:2|0:0,0:0:0:0:
29,318,79255,1,2,3:2:0:0:
115,108,79426,1,0,3:2:0:0:
285,309,79597,2,0,P|356:334|422:263,1,161.999995056153,10|0,3:2|0:0,0:0:0:0:
456,186,79940,6,0,B|412:152|412:152|433:26,2,161.999995056153,6|2|2,3:2|0:0|3:2,0:0:0:0:
505,117,80626,1,0,3:2:0:0:
338,26,80797,1,0,3:2:0:0:
261,204,80969,2,0,L|148:240,1,107.999996704102,8|0,3:2|0:0,0:0:0:0:
74,160,81312,6,0,B|118:126|118:126|97:0,2,161.999995056153,2|2|2,3:2|0:0|3:2,0:0:0:0:
25,91,81997,1,0,3:2:0:0:
192,0,82169,1,0,3:2:0:0:
269,178,82340,2,0,L|382:214,1,107.999996704102,8|0,3:2|0:0,0:0:0:0:
108,371,82683,6,0,P|88:317|107:259,1,107.999996704102,6|0,3:2|0:0,0:0:0:0:
170,189,82940,2,0,P|181:137|161:87,1,107.999996704102,2|0,0:0|0:0,0:0:0:0:
83,34,83197,1,0,0:0:0:0:
15,190,83369,5,0,3:2:0:0:
80,48,83540,1,0,3:2:0:0:
99,269,83712,2,0,L|206:299,1,107.999996704102,8|0,3:2|0:0,0:0:0:0:
365,338,84055,5,0,3:2:0:0:
251,113,84223,1,0,3:2:0:0:
498,175,84392,1,8,3:2:0:0:
342,35,84561,1,8,3:2:0:0:
350,69,84646,1,8,3:2:0:0:
359,104,84730,1,0,3:2:0:0:
195,320,84899,1,8,3:2:0:0:
204,285,84984,1,0,0:0:0:0:
212,251,85068,5,8,3:2:0:0:
181,207,85152,1,8,3:2:0:0:
131,189,85237,1,8,3:2:0:0:
80,203,85321,1,8,3:2:0:0:
47,244,85406,6,0,L|287:186,1,233.999989288331,4|8,3:2|3:2,0:0:0:0:
316,2,85920,1,0,0:0:0:0:
174,104,86091,1,2,3:2:0:0:
407,197,86263,1,0,3:2:0:0:
230,307,86434,1,10,3:2:0:0:
370,80,86606,1,0,0:0:0:0:
376,384,86777,6,0,P|345:336|350:265,1,116.999994644165,2|0,3:2|3:2,0:0:0:0:
512,95,87120,2,0,P|492:164|332:165,1,233.999989288331,10|2,3:2|3:2,0:0:0:0:
229,40,87634,1,0,3:2:0:0:
76,300,87806,2,0,L|250:249,1,175.499991966248,10|0,3:2|0:0,0:0:0:0:
309,319,88148,6,0,B|282:174|228:276|206:113,1,233.999989288331,0|8,3:2|3:2,0:0:0:0:
318,44,88663,1,0,0:0:0:0:
408,183,88834,1,2,3:2:0:0:
501,0,89006,1,0,3:2:0:0:
296,145,89177,1,10,3:2:0:0:
505,28,89348,1,0,0:0:0:0:
383,274,89520,5,2,3:2:0:0:
318,44,89691,1,0,3:2:0:0:
140,169,89863,2,0,P|168:228|165:291,1,116.999994644165,10|0,3:2|0:0,0:0:0:0:
37,197,90206,1,2,3:2:0:0:
220,77,90377,1,0,3:2:0:0:
181,372,90548,2,0,P|182:313|267:243,1,175.499991966248,10|0,3:2|0:0,0:0:0:0:
361,203,90891,6,0,B|408:255|387:319|387:319|337:344,2,175.499991966248,6|0|2,3:2|0:0|3:2,0:0:0:0:
254,158,91577,1,0,3:2:0:0:
402,65,91748,1,0,3:2:0:0:
143,8,91920,2,0,P|168:98|169:190,1,175.499991966248,8|0,3:2|0:0,0:0:0:0:
52,214,92263,6,0,B|5:266|26:330|26:330|76:355,2,175.499991966248,2|2|2,3:2|0:0|3:2,0:0:0:0:
178,369,92948,1,0,3:2:0:0:
254,158,93120,1,0,3:2:0:0:
399,365,93291,2,0,P|369:294|266:251,1,175.499991966248,8|0,3:2|0:0,0:0:0:0:
195,280,93634,5,2,3:2:0:0:
353,146,93806,1,0,0:0:0:0:
146,33,93977,1,8,3:2:0:0:
342,188,94148,5,8,3:2:0:0:
353,146,94234,1,8,3:2:0:0:
365,104,94320,1,0,3:2:0:0:
108,290,94491,1,8,3:2:0:0:
97,248,94577,1,8,3:2:0:0:
85,206,94663,1,0,3:2:0:0:
73,164,94748,1,8,3:2:0:0:
61,122,94834,5,2,0:0:0:0:
59,28,108940,6,0,P|120:40|130:120,1,144,2|0,3:2|0:0,0:0:0:0:
62,211,109463,2,0,L|210:191,1,144,2|0,0:0|0:0,0:0:0:0:
421,350,110335,6,0,B|434:295|434:295|424:268|424:268|437:198,1,144,2|0,0:0|0:0,0:0:0:0:
364,90,110858,2,0,B|351:145|351:145|361:172|361:172|348:242,1,144,2|0,0:0|0:0,0:0:0:0:
186,293,111730,6,0,P|129:322|53:274,1,144,2|0,0:0|0:0,0:0:0:0:
0,235,112254,2,0,P|57:206|133:254,1,144,2|0,0:0|0:0,0:0:0:0:
214,49,112951,6,0,L|229:133,1,72,0|2,0:0|0:0,0:0:0:0:
249,222,113300,1,0,0:0:0:0:
311,66,113475,1,0,0:0:0:0:
357,274,113649,1,2,0:0:0:0:
394,164,113823,5,4,3:0:0:0:
394,164,113911,1,4,3:0:0:0:
223,324,114085,1,4,3:0:0:0:
223,324,114172,1,4,3:0:0:0:
148,193,114347,1,0,0:0:0:0:
30,314,114521,6,0,L|11:185,1,108,0|0,3:2|0:0,0:0:0:0:
4,122,114870,1,8,3:2:0:0:
132,278,115044,1,0,3:2:0:0:
132,278,115132,1,0,3:2:0:0:
132,278,115219,1,0,3:2:0:0:
269,88,115393,1,8,3:2:0:0:
233,80,115480,1,8,3:2:0:0:
198,72,115568,1,8,3:2:0:0:
359,296,115742,1,8,3:2:0:0:
394,288,115829,1,8,3:2:0:0:
429,280,115916,5,4,3:3:0:0:
323,160,116091,1,0,3:0:0:0:
323,160,116178,1,4,3:3:0:0:
121,365,116440,1,8,0:0:0:0:
121,365,117137,6,0,L|162:176,1,180,4|0,3:2|3:2,0:0:0:0:
183,106,117573,1,0,0:0:0:0:
183,106,117661,1,10,3:2:0:0:
68,226,117835,1,0,3:2:0:0:
68,226,117922,1,0,3:2:0:0:
68,226,118009,1,10,3:2:0:0:
235,284,118184,1,0,3:2:0:0:
89,69,118358,1,10,3:2:0:0:
293,153,118533,6,0,L|488:111,1,180,0|0,3:2|3:2,0:0:0:0:
307,230,119056,1,8,3:2:0:0:
501,325,119230,1,0,3:2:0:0:
347,320,119405,6,0,P|343:349|350:378,2,60,0|4|4,3:0|3:0|3:0,0:0:0:0:
386,182,119754,2,0,P|393:151|374:94,2,60,0|0|0,3:0|3:0|3:0,0:0:0:0:
307,230,120102,6,0,L|92:186,1,180,6|2,3:2|3:2,0:0:0:0:
40,254,120623,1,0,0:0:0:0:
183,128,120794,1,8,3:2:0:0:
0,49,120966,1,0,0:0:0:0:
252,196,121137,2,0,B|279:149|279:149|278:83|216:22,2,180,2|2|8,3:2|3:2|3:2,0:0:0:0:
105,167,122143,6,0,L|146:361,1,180,2|2,3:2|3:2,0:0:0:0:
219,210,122634,1,0,0:0:0:0:
313,361,122798,1,8,3:2:0:0:
388,120,122962,1,0,0:0:0:0:
489,305,123126,2,0,B|448:332|448:332|378:317|358:226,2,180,2|2|8,3:2|3:2|3:2,0:0:0:0:
388,120,124073,6,0,P|340:126|293:169,1,90,6|0,3:2|0:0,0:0:0:0:
105,204,124380,2,0,P|153:210|200:253,1,90,2|0,3:2|0:0,0:0:0:0:
392,339,124688,2,0,P|344:345|297:388,1,90,8|0,3:2|0:0,0:0:0:0:
156,384,125000,6,0,L|128:282,1,90
346,297,125300,2,0,L|374:195,1,90,2|0,3:2|0:0,0:0:0:0:
95,110,125600,2,0,L|67:8,1,90,8|0,3:2|0:0,0:0:0:0:
256,192,125900,5,2,3:2:0:0:
256,192,126200,1,2,3:2:0:0:
379,93,126350,2,0,P|340:70|323:29,1,90,8|0,3:2|3:2,0:0:0:0:
470,93,126650,1,8,3:2:0:0:
470,93,126725,1,8,3:2:0:0:
470,93,126800,5,0,3:3:0:0:
412,174,126942,1,0,3:3:0:0:
425,251,127085,1,0,3:3:0:0:
394,288,127228,1,4,3:3:0:0:
405,331,127371,1,4,3:3:0:0:
386,363,127514,1,0,0:0:0:0:
289,314,127657,6,0,P|283:269|291:225,1,90,6|0,3:2|0:0,0:0:0:0:
152,82,127942,2,0,P|159:126|154:170,1,90,2|8,3:2|3:2,0:0:0:0:
49,286,128228,1,2,3:2:0:0:
49,286,128371,1,0,3:2:0:0:
0,181,128514,6,0,B|43:169|43:169|101:204,1,90,2|0,3:2|0:0,0:0:0:0:
322,128,128793,2,0,B|279:116|279:116|221:151,1,90,2|0,3:2|0:0,0:0:0:0:
8,10,129072,2,0,B|51:-2|51:-2|109:33,1,90,8|0,3:2|0:0,0:0:0:0:
243,227,129351,6,0,P|249:180|228:118,1,90,2|0,3:2|0:0,0:0:0:0:
422,0,129630,2,0,P|412:43|418:88,1,90,2|8,3:2|3:2,0:0:0:0:
502,241,129909,1,2,3:2:0:0:
502,241,130048,1,0,3:2:0:0:
391,357,130188,6,0,P|389:305|411:259,1,90,0|0,3:2|0:0,3:2:0:0:
376,102,130512,2,0,P|377:153|355:199,1,90,8|0,3:2|0:0,3:2:0:0:
256,256,130845,1,8,3:2:0:0:
364,189,131178,5,0,3:2:0:0:
364,189,131530,5,8,3:2:0:0:
324,88,131736,5,8,3:2:0:0:
224,62,131943,5,8,3:2:0:0:
130,110,132177,5,8,3:2:0:0:
17,53,132412,6,0,L|45:206,2,144,4|2|2,3:2|0:0|0:0,0:0:0:0:
195,222,133477,2,0,L|167:375,2,144,0|2|2,0:0|0:0|0:0,0:0:0:0:
426,159,134511,5,4,3:2:0:0:
426,159,134685,2,0,P|351:134|324:22,1,180,0|8,3:2|3:2,0:0:0:0:
318,45,135383,1,2,3:2:0:0:
248,173,135557,1,0,3:2:0:0:
385,300,135731,1,8,3:2:0:0:
192,361,135906,6,0,P|162:298|43:260,1,180,4|0,3:2|3:2,0:0:0:0:
0,158,136423,2,0,P|83:130|127:54,1,180,8|0,3:2|3:2,0:0:0:0:
236,5,136941,1,0,3:2:0:0:
239,27,137027,1,0,3:2:0:0:
243,49,137113,1,8,3:2:0:0:
247,71,137199,1,8,3:2:0:0:
250,93,137286,1,0,3:2:0:0:
178,199,137458,5,0,3:2:0:0:
497,269,137629,1,8,3:2:0:0:
497,269,137972,1,2,3:2:0:0:
264,374,138315,1,2,3:2:0:0:
434,122,138658,1,4,3:2:0:0:
434,122,139000,5,8,3:2:0:0:
191,19,139172,1,0,3:2:0:0:
195,41,139258,1,0,3:2:0:0:
199,63,139343,1,0,3:2:0:0:
203,85,139429,1,0,3:2:0:0:
207,107,139515,1,8,3:2:0:0:
0,321,140200,6,0,B|126:278|74:382|214:346,1,215.999993408203,4|8,3:2|3:2,0:0:0:0:
104,132,140715,1,0,0:0:0:0:
159,270,140886,1,2,3:2:0:0:
241,37,141058,1,0,3:2:0:0:
314,257,141229,1,10,3:2:0:0:
83,128,141400,1,0,0:0:0:0:
337,12,141572,6,0,L|314:137,1,107.999996704102,2|0,3:2|3:2,0:0:0:0:
512,312,141915,2,0,P|477:200|387:170,1,215.999993408203,10|2,3:2|3:2,0:0:0:0:
267,357,142429,1,0,3:2:0:0:
125,270,142600,2,0,L|155:77,1,161.999995056153,10|0,3:2|0:0,0:0:0:0:
114,5,142943,6,0,P|153:74|295:87,1,215.999993408203,0|8,3:2|3:2,0:0:0:0:
363,32,143458,1,0,0:0:0:0:
508,195,143629,2,0,P|457:166|402:170,1,107.999996704102,2|0,3:2|3:2,0:0:0:0:
257,330,143972,2,0,P|310:330|356:303,1,107.999996704102,10|0,3:2|0:0,0:0:0:0:
241,74,144315,5,2,3:2:0:0:
287,247,144486,1,0,3:2:0:0:
374,18,144658,2,0,L|350:131,1,107.999996704102,10|0,3:2|0:0,0:0:0:0:
151,80,145000,1,2,3:2:0:0:
105,253,145172,1,0,3:2:0:0:
18,24,145343,2,0,L|42:137,1,107.999996704102,10|8,3:2|3:2,0:0:0:0:
16,248,145600,1,8,3:2:0:0:
16,248,145686,6,0,P|53:179|159:188,2,161.999995056153,6|2|2,3:2|0:0|3:2,0:0:0:0:
120,360,146372,1,0,3:2:0:0:
213,244,146543,1,0,3:2:0:0:
365,296,146715,2,0,L|338:155,1,107.999996704102,8|0,3:2|0:0,0:0:0:0:
404,19,147058,6,0,P|367:85|247:82,2,161.999995056153,2|2|2,3:2|0:0|3:2,0:0:0:0:
307,5,147743,1,0,3:2:0:0:
436,166,147915,1,0,3:2:0:0:
262,238,148086,2,0,L|92:184,1,161.999995056153,8|0,3:2|0:0,0:0:0:0:
37,6,148429,6,0,P|72:73|67:109,1,107.999996704102,2|0,3:2|0:0,0:0:0:0:
31,190,148686,2,0,P|-4:257|1:293,1,107.999996704102,2|0,0:0|0:0,0:0:0:0:
57,366,148943,1,2,3:2:0:0:
262,238,149115,1,0,3:2:0:0:
134,149,149286,1,0,3:2:0:0:
264,353,149458,1,8,3:2:0:0:
290,348,149543,1,8,3:2:0:0:
317,344,149629,1,0,3:2:0:0:
343,339,149715,1,8,3:2:0:0:
370,335,149800,5,0,3:2:0:0:
512,203,149972,1,8,3:2:0:0:
485,198,150058,1,0,0:0:0:0:
458,194,150143,5,8,3:2:0:0:
428,149,150229,1,0,0:0:0:0:
423,96,150315,1,8,3:2:0:0:
445,47,150400,1,8,3:2:0:0:
487,15,150486,1,0,3:2:0:0:
327,142,150658,1,8,3:2:0:0:
306,159,150743,1,0,3:2:0:0:
286,178,150829,5,8,3:2:0:0:
273,126,150915,1,8,3:2:0:0:
237,86,151000,1,8,3:2:0:0:
186,70,151086,1,8,3:2:0:0:
134,81,151172,6,0,B|151:177|151:177|128:220|128:220|149:317,1,233.999989288331,4|8,3:2|3:2,0:0:0:0:
51,153,151686,1,0,0:0:0:0:
252,280,151858,1,2,3:2:0:0:
29,160,152029,1,0,3:2:0:0:
284,48,152200,1,10,3:2:0:0:
123,261,152372,1,0,0:0:0:0:
329,370,152543,6,0,P|356:327|350:258,1,116.999994644165,2|0,3:2|3:2,0:0:0:0:
233,152,152886,2,0,P|298:157|364:10,1,233.999989288331,10|2,3:2|3:2,0:0:0:0:
190,0,153400,1,0,3:2:0:0:
94,130,153572,2,0,P|136:207|135:308,1,175.499991966248,10|0,3:2|0:0,0:0:0:0:
206,384,153915,6,0,P|173:316|285:233,1,233.999989288331,0|8,3:2|3:2,0:0:0:0:
413,273,154429,1,0,0:0:0:0:
472,108,154600,2,0,P|485:58|452:-5,1,116.999994644165,2|0,3:2|0:0,0:0:0:0:
265,124,154943,2,0,P|252:180|278:231,1,116.999994644165,10|0,3:2|0:0,0:0:0:0:
512,210,155286,5,2,3:2:0:0:
333,169,155458,1,0,3:2:0:0:
408,374,155629,2,0,B|438:336|438:336|402:246,1,116.999994644165,10|0,3:2|0:0,0:0:0:0:
297,328,155886,1,8,3:2:0:0:
297,328,155972,5,2,3:2:0:0:
108,237,156143,1,0,3:2:0:0:
208,88,156315,2,0,B|238:126|238:126|198:256,1,175.499991966248,10|0,3:2|0:0,0:0:0:0:
138,337,156658,6,0,P|98:273|4:258,2,175.499991966248,6|0|2,3:2|0:0|3:2,0:0:0:0:
283,244,157343,1,0,3:2:0:0:
107,144,157515,1,0,3:2:0:0:
229,57,157686,2,0,L|406:87,1,175.499991966248,8|0,3:2|0:0,0:0:0:0:
378,177,158029,6,0,P|417:113|511:98,2,175.499991966248,2|2|2,3:2|0:0|3:2,0:0:0:0:
448,347,158715,1,0,3:2:0:0:
476,189,158886,1,0,3:2:0:0:
287,222,159058,2,0,L|93:187,1,175.499991966248,8|0,3:2|0:0,0:0:0:0:
16,227,159400,5,0,3:2:0:0:
193,128,159572,1,8,3:2:0:0:
13,7,159743,1,8,3:2:0:0:
13,7,159829,1,8,3:2:0:0:
13,7,159915,1,0,3:2:0:0:
165,240,160086,5,0,3:2:0:0:
193,233,160172,1,0,3:2:0:0:
222,227,160258,1,0,3:2:0:0:
250,221,160343,1,0,3:2:0:0:
279,240,160429,6,0,L|356:257,3,58.4999973220826,2|0|0|0,3:2|0:2|0:2|0:2,0:2:0:0:
403,318,160772,6,0,P|361:226|421:161,1,175.499991966248,6|0,3:2|0:0,0:0:0:0:
485,20,161115,2,0,P|527:112|467:177,1,175.499991966248,2|0,3:2|0:0,0:0:0:0:
360,84,161458,5,8,3:2:0:0:
360,84,163712,1,8,3:2:0:0:
233,302,163885,2,0,L|82:269,1,135,8|0,3:2|0:0,0:0:0:0:
29,315,164232,5,0,3:2:0:0:
29,315,164917,1,4,3:3:0:0:
17,275,165003,1,4,3:3:0:0:
166,173,165174,1,4,3:3:0:0:
178,133,165260,1,4,3:3:0:0:
163,16,165432,6,0,P|186:84|305:110,2,180,2|2|2,3:2|3:2|3:2,0:0:0:0:
163,16,166460,1,8,3:2:0:0:
378,63,166632,1,8,3:2:0:0:
386,95,166717,1,8,3:2:0:0:
394,128,166803,1,0,3:2:0:0:
402,161,166889,1,8,3:2:0:0:
410,194,166974,5,4,3:2:0:0:
410,194,167317,1,8,3:2:0:0:
357,351,167489,2,0,L|466:325,1,90,2|0,0:0|0:0,0:0:0:0:
209,176,167832,2,0,L|100:150,1,90,2|8,3:2|3:2,0:0:0:0:
33,314,168174,6,0,P|42:277|27:208,1,90,2|0,0:0|3:2,0:0:0:0:
212,10,168517,2,0,P|203:47|218:116,1,90,2|8,3:2|3:2,0:0:0:0:
271,228,168860,2,0,P|315:211|376:206,1,90,2|0,0:0|3:2,0:0:0:0:
488,244,169203,1,2,3:2:0:0:
425,5,169374,1,8,3:2:0:0:
425,5,169717,5,0,3:2:0:0:
425,5,169889,1,2,3:2:0:0:
290,129,170060,1,10,3:2:0:0:
488,244,170232,1,2,0:0:0:0:
337,353,170403,2,0,L|314:286,1,45,8|8,3:2|3:2,0:0:0:0:
214,247,170574,2,0,L|199:289,1,45,0|8,3:2|3:2,0:0:0:0:
90,335,170746,1,10,3:2:0:0:
0,130,170917,6,0,P|34:186|144:206,1,180,2|0,3:2|3:2,0:0:0:0:
235,97,171432,1,8,3:2:0:0:
115,2,171603,2,0,P|112:48|147:104,1,90,2|0,3:2|0:0,0:0:0:0:
288,220,171946,2,0,L|344:208,1,45,2|0,3:2|0:0,0:0:0:0:
447,188,172117,5,8,3:2:0:0:
440,221,172203,1,8,3:2:0:0:
433,254,172289,1,0,3:2:0:0:
427,287,172374,1,8,3:2:0:0:
420,320,172460,5,2,3:2:0:0:
420,320,172789,1,10,3:2:0:0:
288,220,172954,2,0,P|277:176|254:130,1,90,2|8,3:2|3:2,0:0:0:0:
143,51,173290,2,0,P|126:69|115:96,1,45,2|0,3:2|0:0,0:0:0:0:
6,168,173461,5,8,3:2:0:0:
39,167,173547,1,8,3:2:0:0:
71,177,173633,1,0,3:2:0:0:
99,196,173719,1,8,3:2:0:0:
119,223,173804,5,4,3:2:0:0:
352,8,174146,2,0,P|275:51|258:141,1,180,8|0,3:2|3:2,0:0:0:0:
393,260,174661,1,0,3:2:0:0:
463,110,174832,1,8,3:2:0:0:
311,295,175004,1,0,3:2:0:0:
456,317,175175,5,8,3:2:0:0:
368,171,175356,1,0,3:2:0:0:
167,207,175538,5,8,3:2:0:0:
252,51,175720,1,0,3:2:0:0:
283,163,175902,5,8,3:2:0:0:
135,94,176115,1,0,3:2:0:0:
32,310,176329,5,8,3:2:0:0:
463,196,176551,1,8,3:2:0:0:
463,196,178718,6,0,L|477:284,1,90,2|0,0:0|0:0,0:0:0:0:
496,376,179318,1,0,0:0:0:0:
496,376,179518,1,0,0:0:0:0:
382,272,179918,2,0,P|332:330|271:310,1,135,2|0,0:0|0:0,0:0:0:0:
215,253,180718,1,0,0:0:0:0:
297,164,181118,6,0,B|321:130|321:130|298:36,1,135,2|0,0:0|0:0,0:0:0:0:
221,6,181918,1,0,0:0:0:0:
70,74,182318,1,2,0:0:0:0:
70,74,182718,1,2,0:0:0:0:
161,118,182918,1,0,0:0:0:0:
76,204,183118,1,2,0:0:0:0:
199,268,183318,1,0,0:0:0:0:
120,384,183518,6,0,P|101:351|106:311,1,67.5,2|0,0:0|0:0,0:0:0:0:
22,282,183927,6,0,P|60:243|116:236,1,94.499997116089,2|0,0:0|0:0,0:0:0:0:
110,142,184336,6,0,P|164:173|190:235,1,121.499996292114,2|0,0:0|0:0,0:0:0:0:
304,366,184745,6,0,B|284:377|244:377|178:330|239:211|385:249|427:354,1,323.999990112305,2|0,0:0|0:0,0:0:0:0:
421,341,185973,5,6,0:0:0:0:
421,341,186370,1,0,0:0:0:0:
371,265,186569,1,0,0:0:0:0:
474,209,186767,1,0,0:0:0:0:
312,105,186966,1,0,0:0:0:0:
466,17,187165,5,2,0:0:0:0:
466,17,187562,1,2,0:0:0:0:
424,95,187761,1,0,0:0:0:0:
324,134,187959,1,2,0:0:0:0:
195,58,188158,1,2,0:0:0:0:
72,155,188357,6,0,P|58:84|14:11,2,144,6|0|2,0:0|0:0|0:0,0:0:0:0:
152,235,189549,2,0,P|81:236|39:309,1,144,2|2,0:0|0:0,0:0:0:0:
138,359,190343,1,2,0:0:0:0:
235,307,190542,1,0,0:0:0:0:
350,362,190741,6,0,P|328:305|340:213,1,144,2|0,0:0|0:0,0:0:0:0:
462,224,191337,1,0,0:0:0:0:
415,111,191535,2,0,P|428:76|421:19,1,72,2|0,0:0|0:0,0:0:0:0:
313,54,191933,2,0,L|143:31,2,144,2|2|2,0:0|0:0|0:0,0:0:0:0:
407,196,193125,5,6,0:0:0:0:
407,196,193522,1,0,0:0:0:0:
361,260,193721,1,0,0:0:0:0:
264,311,193920,1,2,0:0:0:0:
113,264,194118,1,0,0:0:0:0:
18,368,194317,6,0,P|27:321|20:221,1,144,2|0,0:0|0:0,0:0:0:0:
168,332,194913,1,0,0:0:0:0:
209,209,195112,2,0,P|191:170|193:118,1,72,2|0,0:0|0:0,0:0:0:0:
274,58,195509,5,6,0:0:0:0:
274,58,195906,1,2,0:0:0:0:
383,150,196105,2,0,P|441:110|525:98,1,144,2|0,0:0|0:0,0:0:0:0:
413,28,196701,5,2,0:0:0:0:
413,28,197129,1,2,0:0:0:0:
457,136,197343,1,2,0:0:0:0:
501,244,197558,1,2,0:0:0:0:
246,128,197986,5,2,0:0:0:0:
246,128,198447,1,2,0:0:0:0:
202,236,198678,1,2,0:0:0:0:
158,344,198909,1,2,0:0:0:0:
21,162,199370,1,4,0:0:0:0:
256,192,199584,12,0,201727,0:0:0:0:
395,237,201941,6,0,P|434:211|497:205,2,90,4|2|0,0:0|0:0|0:0,0:0:0:0:
318,152,203274,2,0,P|327:106|367:57,2,90,2|2|2,0:0|0:0|0:0,0:0:0:0:
213,80,204385,1,0,0:0:0:0:
140,146,204607,6,0,B|123:155|86:140|86:140|80:164|100:202|100:202|169:199|174:291|107:327|107:327|93:322|78:319|78:319|65:319|46:324|46:324|-24:276|6:192|69:199,1,540,2|0,0:0|0:0,0:0:0:0:
497,76,207757,6,0,P|513:166|477:229,1,135,8|0,3:2|0:0,0:0:0:0:
417,243,208105,1,0,3:2:0:0:
233,384,208454,2,0,P|217:294|253:231,1,135,8|0,3:2|0:0,0:0:0:0:
313,217,208803,1,0,3:2:0:0:
281,60,209152,6,0,B|232:77|232:77|128:37,1,135,8|0,3:2|0:0,0:0:0:0:
63,16,209501,1,0,3:2:0:0:
0,296,209850,2,0,B|22:249|22:249|124:204,1,135,8|0,3:2|0:0,0:0:0:0:
185,172,210198,1,0,3:2:0:0:
403,346,210547,6,0,L|378:242,1,90,8|0,3:2|0:0,0:0:0:0:
349,153,210896,1,0,3:2:0:0:
494,224,211070,1,0,0:0:0:0:
296,262,211245,5,8,3:2:0:0:
458,133,211419,1,0,0:0:0:0:
263,20,211594,1,8,3:2:0:0:
497,29,211768,6,0,L|407:52,1,90,0|0,3:2|0:0,0:0:0:0:
291,179,212117,1,0,3:2:0:0:
102,40,212291,1,8,3:2:0:0:
160,279,212466,2,0,P|180:224|176:174,1,90,2|0,3:2|0:0,0:0:0:0:
263,42,212815,2,0,P|266:64|275:84,1,45,2|0,3:2|0:0,0:0:0:0:
378,193,212989,5,8,3:2:0:0:
410,183,213076,1,8,3:2:0:0:
442,174,213163,1,0,3:2:0:0:
475,164,213251,1,8,3:2:0:0:
507,155,213338,5,4,3:2:0:0:
381,384,213512,1,0,0:0:0:0:
409,337,213600,1,0,0:0:0:0:
382,290,213687,1,8,3:2:0:0:
222,188,213861,1,0,3:2:0:0:
380,76,214036,1,8,3:2:0:0:
206,0,214210,2,0,P|230:49|297:60,1,107.999996704102,0|8,3:2|3:2,0:0:0:0:
450,6,214559,1,0,3:2:0:0:
500,242,214733,5,8,3:2:0:0:
461,230,214820,1,8,3:2:0:0:
422,219,214908,1,0,3:2:0:0:
383,207,214995,1,8,3:2:0:0:
344,196,215082,1,0,3:2:0:0:
177,292,215243,6,0,L|0:322,2,180.000006866455,0|2|2,3:2|3:2|3:2,0:0:0:0:
335,92,216082,2,0,L|512:61,2,180.000006866455,0|2|2,3:2|3:2|3:2,0:0:0:0:
73,128,217665,6,0,P|62:78|95:17,1,107.999996704102,4|0,3:2|0:0,0:0:0:0:
187,191,218013,2,0,P|198:241|165:302,1,107.999996704102,8|0,3:2|3:2,0:0:0:0:
82,344,218275,1,0,3:2:0:0:
82,344,218362,1,8,3:2:0:0:
13,206,218537,1,0,3:2:0:0:
265,109,218711,1,8,3:2:0:0:
128,22,218885,6,0,P|114:137|205:192,1,215.999993408203,2|2,3:2|3:2,0:0:0:0:
402,82,219409,1,0,3:2:0:0:
250,58,219583,1,8,3:2:0:0:
257,83,219670,1,8,3:2:0:0:
265,109,219758,2,0,B|288:193|288:193|325:217|325:217|353:313,1,215.999993408203,0|0,3:2|0:0,0:0:0:0:
256,192,220194,12,0,221851,0:0:0:0:
53,23,222025,6,0,B|181:61|101:116|236:145,1,215.999993408203,4|8,3:2|3:2,0:0:0:0:
386,96,222546,1,0,0:0:0:0:
242,26,222717,1,2,3:2:0:0:
317,206,222889,1,0,3:2:0:0:
461,50,223060,1,10,3:2:0:0:
371,285,223232,1,0,0:0:0:0:
119,189,223403,6,0,P|161:165|238:157,1,107.999996704102,2|0,3:2|3:2,0:0:0:0:
421,384,223745,2,0,P|353:308|208:279,1,215.999993408203,10|2,3:2|3:2,0:0:0:0:
134,337,224260,1,0,3:2:0:0:
0,237,224431,2,0,P|29:190|37:69,1,161.999995056153,10|0,3:2|0:0,0:0:0:0:
10,2,224774,5,0,3:2:0:0:
116,172,224945,1,0,0:0:0:0:
220,2,225117,2,0,P|200:54|208:116,1,107.999996704102,8|0,3:2|0:0,0:0:0:0:
346,57,225460,1,2,3:2:0:0:
419,235,225631,1,0,3:2:0:0:
479,0,225803,2,0,P|498:66|489:119,1,107.999996704102,10|0,3:2|0:0,0:0:0:0:
275,249,226145,5,2,3:2:0:0:
411,111,226317,1,0,3:2:0:0:
451,334,226488,2,0,P|423:289|419:236,1,107.999996704102,10|0,3:2|0:0,0:0:0:0:
307,347,226831,1,2,3:2:0:0:
212,150,227003,1,0,3:2:0:0:
13,266,227174,2,0,L|188:312,1,161.999995056153,10|0,3:2|0:0,0:0:0:0:
223,381,227517,6,0,P|193:316|232:236,2,161.999995056153,6|2|2,3:2|0:0|3:2,0:0:0:0:
317,232,228203,1,0,3:2:0:0:
124,160,228374,1,0,3:2:0:0:
295,0,228545,2,0,P|323:51|320:117,1,107.999996704102,8|0,3:2|0:0,0:0:0:0:
317,232,228888,6,0,B|366:272|366:272|497:236,2,161.999995056153,2|2|2,3:2|0:0|3:2,0:0:0:0:
464,146,229574,1,0,3:2:0:0:
249,76,229745,1,0,3:2:0:0:
501,17,229917,2,0,L|385:47,1,107.999996704102,8|0,3:2|0:0,0:0:0:0:
318,253,230260,6,0,P|280:213|219:200,1,107.999996704102,2|0,3:2|0:0,0:0:0:0:
161,129,230517,2,0,P|212:114|248:75,1,107.999996704102,2|0,0:0|0:0,0:0:0:0:
212,1,230774,1,2,3:2:0:0:
77,85,230945,1,0,3:2:0:0:
230,199,231117,1,0,3:2:0:0:
60,273,231288,1,8,3:2:0:0:
249,344,231460,1,0,3:2:0:0:
274,351,231545,1,8,3:2:0:0:
298,361,231631,5,4,3:3:0:0:
161,129,231803,1,8,3:2:0:0:
136,136,231888,1,8,3:2:0:0:
112,146,231974,5,8,3:2:0:0:
117,198,232060,1,8,3:2:0:0:
151,240,232145,1,8,3:2:0:0:
201,256,232231,1,8,3:2:0:0:
252,241,232317,6,0,L|271:167,1,53.9999983520508,0|0,3:2|0:0,0:0:0:0:
291,70,232488,2,0,L|309:-5,1,53.9999983520508,4|0,3:3|0:0,0:0:0:0:
512,60,232660,5,8,3:2:0:0:
506,112,232745,1,8,3:2:0:0:
472,154,232831,1,8,3:2:0:0:
422,170,232917,1,8,3:2:0:0:
371,155,233003,6,0,P|322:68|184:65,1,233.999989288331,4|8,3:2|3:2,0:0:0:0:
108,172,233517,1,0,0:0:0:0:
32,42,233688,1,2,3:2:0:0:
232,152,233860,1,0,3:2:0:0:
6,292,234031,1,10,3:2:0:0:
258,163,234203,1,0,0:0:0:0:
185,384,234374,6,0,L|158:265,1,116.999994644165,2|0,3:2|3:2,0:0:0:0:
338,102,234717,2,0,P|349:204|220:269,1,233.999989288331,10|2,3:2|3:2,0:0:0:0:
84,178,235231,1,0,3:2:0:0:
251,9,235403,2,0,L|463:40,1,175.499991966248,10|0,3:2|0:0,0:0:0:0:
512,0,235745,6,0,B|451:144|555:107|495:244,1,233.999989288331,0|8,3:2|3:2,0:0:0:0:
340,281,236260,1,0,0:0:0:0:
316,137,236431,2,0,L|436:179,1,116.999994644165,2|0,3:2|3:2,0:0:0:0:
237,312,236774,2,0,L|117:354,1,116.999994644165,10|0,3:2|0:0,0:0:0:0:
16,255,237117,5,2,3:2:0:0:
200,115,237288,1,0,3:2:0:0:
19,60,237460,2,0,P|40:116|102:148,1,116.999994644165,10|0,3:2|0:0,0:0:0:0:
253,35,237803,1,2,3:2:0:0:
334,230,237974,1,0,3:2:0:0:
498,35,238145,2,0,P|437:134|453:213,1,175.499991966248,10|0,3:2|0:0,0:0:0:0:
475,328,238488,6,0,B|389:305|389:305|312:361,2,175.499991966248,6|2|2,3:2|0:0|3:2,0:0:0:0:
256,264,239174,1,0,3:2:0:0:
360,132,239345,1,0,3:2:0:0:
140,65,239517,2,0,L|262:106,1,116.999994644165,8|0,3:2|0:0,0:0:0:0:
64,155,239860,6,0,B|24:110|24:110|69:-27,2,175.499991966248,2|2|2,3:2|0:0|3:2,0:0:0:0:
163,271,240545,1,0,3:2:0:0:
49,384,240717,1,0,3:2:0:0:
240,351,240888,2,0,L|358:333,1,116.999994644165,8|0,3:2|0:0,0:0:0:0:
473,328,241231,5,0,3:2:0:0:
321,235,241403,1,8,3:2:0:0:
506,130,241574,1,8,3:2:0:0:
308,257,241745,1,0,0:0:0:0:
106,120,241917,5,8,3:2:0:0:
91,65,242003,1,8,3:2:0:0:
119,15,242088,1,8,3:2:0:0:
175,1,242174,1,8,3:2:0:0:
229,24,242260,2,0,L|249:105,3,58.4999973220826,2|0|0|0,3:2|0:0|0:0|0:0,0:0:0:0:
339,164,242603,6,0,P|293:124|190:151,1,175.499991966248,6|0,3:2|0:0,0:0:0:0:
111,201,242945,2,0,P|188:168|259:214,1,175.499991966248,2|0,3:2|0:0,0:0:0:0:
277,366,243288,2,0,B|233:332|233:332|261:210,1,175.499991966248,6|0,3:2|0:0,0:0:0:0:
407,109,243631,5,10,3:2:0:0:
423,165,243717,1,8,3:2:0:0:
440,221,243803,1,8,3:2:0:0:
457,277,243888,1,8,3:2:0:0:
474,333,243974,5,12,3:2:0:0:
474,333,244317,1,10,3:2:0:0:
505,148,244488,1,0,3:2:0:0:
337,364,244660,5,10,3:2:0:0:
221,110,244831,1,0,3:2:0:0:
74,320,245003,5,10,3:2:0:0:
312,93,245174,1,0,3:2:0:0:
0,62,245345,6,0,L|39:179,1,116.999994644165,8|0,3:2|0:0,0:0:0:0:
74,320,245688,1,10,3:2:0:0:
221,110,245860,1,0,3:2:0:0:
281,354,246031,5,10,3:2:0:0:
111,130,246203,1,0,3:2:0:0:
205,367,246374,5,10,3:2:0:0:
320,45,246545,1,0,3:2:0:0:
495,241,246717,6,0,L|368:265,1,116.999994644165,12|0,3:2|0:0,0:0:0:0:
254,195,247060,1,10,3:2:0:0:
460,104,247231,1,0,3:2:0:0:
361,348,247403,5,10,3:2:0:0:
240,115,247574,1,0,3:2:0:0:
205,367,247745,5,10,3:2:0:0:
338,26,247917,1,0,3:2:0:0:
461,372,248088,6,0,L|423:249,1,116.999994644165,8|0,3:2|0:0,0:0:0:0:
384,128,248431,1,10,3:2:0:0:
256,281,248603,1,0,3:2:0:0:
99,75,248774,1,8,3:2:0:0:
127,66,248860,1,8,3:2:0:0:
155,58,248945,1,0,3:2:0:0:
256,281,249117,5,8,3:2:0:0:
199,267,249203,1,8,3:2:0:0:
142,254,249288,1,0,3:2:0:0:
85,241,249374,1,8,3:2:0:0:
28,228,249460,5,12,3:2:0:0:
28,228,249803,1,10,3:2:0:0:
116,367,249974,1,0,3:2:0:0:
174,121,250145,5,10,3:2:0:0:
33,326,250317,1,0,3:2:0:0:
57,72,250488,5,10,3:2:0:0:
256,281,250660,1,0,3:2:0:0:
368,0,250831,5,8,3:2:0:0:
368,0,251174,1,10,3:2:0:0:
174,121,251345,1,0,3:2:0:0:
400,234,251517,5,10,3:2:0:0:
274,12,251688,1,0,3:2:0:0:
279,360,251860,5,10,3:2:0:0:
476,116,252031,1,0,3:2:0:0:
151,13,252203,5,12,3:2:0:0:
151,13,252545,1,10,3:2:0:0:
368,161,252717,1,0,3:2:0:0:
111,244,252888,5,10,3:2:0:0:
383,79,253060,1,0,3:2:0:0:
36,107,253231,5,10,3:2:0:0:
332,337,253403,1,0,3:2:0:0:
96,384,253574,6,0,L|73:301,3,58.4999973220826,8|0|0|0,3:2|3:2|3:2|3:2,0:0:0:0:
224,214,253917,2,0,L|208:270,3,58.4999973220826,0|0|0|0,3:3|3:2|3:2|3:2,0:0:0:0:
50,165,254260,5,0,3:2:0:0:
43,136,254345,1,0,3:2:0:0:
36,107,254431,1,0,3:2:0:0:
30,79,254517,1,0,3:2:0:0:
23,50,254603,1,12,3:2:0:0:
419,78,254945,5,12,3:2:0:0:
419,78,255288,1,10,3:2:0:0:
295,236,255460,1,0,3:2:0:0:
341,33,255631,5,10,3:2:0:0:
395,271,255803,1,0,3:2:0:0:
334,9,255974,5,10,3:2:0:0:
218,298,256145,1,0,3:2:0:0:
10,102,256317,5,8,3:2:0:0:
10,102,256660,1,10,3:2:0:0:
287,157,256831,1,0,3:2:0:0:
48,306,257003,5,10,3:2:0:0:
209,47,257174,1,0,3:2:0:0:
273,359,257345,5,10,3:2:0:0:
94,146,257517,1,0,3:2:0:0:
383,208,257688,6,0,L|505:170,1,116.999994644165,12|0,3:2|0:0,0:0:0:0:
427,78,258031,1,10,3:2:0:0:
358,301,258203,1,0,3:2:0:0:
494,173,258374,5,10,3:2:0:0:
250,83,258545,1,0,3:2:0:0:
496,8,258717,5,10,3:2:0:0:
262,258,258888,1,0,3:2:0:0:
51,7,259060,5,8,3:2:0:0:
51,7,259403,1,10,3:2:0:0:
142,241,259574,1,0,3:2:0:0:
308,6,259745,5,10,3:2:0:0:
8,172,259917,1,0,3:2:0:0:
262,258,260088,5,10,3:2:0:0:
319,268,260174,1,10,3:2:0:0:
376,279,260260,1,0,3:2:0:0:
434,290,260345,1,10,3:2:0:0:
491,301,260431,6,0,L|459:177,1,116.999994644165,12|0,3:2|0:0,0:0:0:0:
221,0,260774,2,0,L|250:113,1,116.999994644165,10|0,3:2|3:2,0:0:0:0:
128,314,261117,5,10,3:2:0:0:
364,91,261288,1,0,3:2:0:0:
52,40,261460,5,10,3:2:0:0:
359,200,261631,1,0,3:2:0:0:
26,358,261803,5,8,3:2:0:0:
147,154,261971,1,8,3:2:0:0:
176,159,262055,1,8,3:2:0:0:
204,164,262140,2,0,L|227:231,1,53.9999983520508,0|8,3:2|3:2,0:0:0:0:
337,353,262308,1,8,3:2:0:0:
366,349,262392,1,0,0:0:0:0:
394,344,262477,6,0,L|417:277,1,53.9999983520508,4|0,3:3|0:0,0:0:0:0:
258,29,262645,2,0,L|235:96,1,53.9999983520508,4|0,3:3|0:0,0:0:0:0:
68,207,262814,1,8,3:2:0:0:
54,174,262898,1,0,3:0:0:0:
41,141,262982,1,0,3:0:0:0:
148,276,263151,6,0,L|48:323,2,108,6|0|0,3:2|0:0|0:0,0:0:0:0:
344,172,263901,2,0,L|444:218,2,108,2|0|0,0:0|0:0|0:0,0:0:0:0:
256,32,265083,5,4,3:2:0:0:
256,192,265173,12,0,274537,0:0:0:0:
