osu file format v14

[General]
AudioFilename: audio.mp3
AudioLeadIn: 0
PreviewTime: 70700
Countdown: 0
SampleSet: Soft
StackLeniency: 0.5
Mode: 0
LetterboxInBreaks: 0
WidescreenStoryboard: 1

[Editor]
DistanceSpacing: 1
BeatDivisor: 4
GridSize: 4
TimelineZoom: 2.7

[Metadata]
Title:Itazura Sensation
TitleUnicode:悪戯センセーション
Artist:ShinRa-Bansho
ArtistUnicode:森羅万象
Creator:UberFazz
Version:Lunatic
Source:東方紅魔郷 ~ the Embodiment of Scarlet Devil.
Tags:cranberry video game japanese pop j-pop jpop rock electronic mischievous touhou 6 th6 2hu 東方Project eosd flandre scarlet フランドール・スカーレット u. n. owen was her? U.N.オーエンは彼女なのか? remilia scarlet レミリア・スカーレット septette for the dead princess 亡き王女の為のセプテット ayo あよ ayaponzu* あやぽんず* kaztora
BeatmapID:2657188
BeatmapSetID:1276485

[Difficulty]
HPDrainRate:5
CircleSize:4
OverallDifficulty:8.5
ApproachRate:9
SliderMultiplier:1.8
SliderTickRate:1

[Events]
//Background and Video events
0,0,"flan+remi.jpg",0,0
//Break Periods
2,94650,96350
2,202775,206975
2,215075,215725
//Storyboard Layer 0 (Background)
//Storyboard Layer 1 (Fail)
//Storyboard Layer 2 (Pass)
//Storyboard Layer 3 (Foreground)
//Storyboard Layer 4 (Overlay)
//Storyboard Sound Samples

[TimingPoints]
1325,312.5,4,2,2,60,1,0
1325,-100,4,2,2,60,0,0
1403,-100,4,2,1,60,0,0
8825,-125,4,2,1,30,0,0
9137,-111.111111111111,4,2,1,40,0,0
9450,-100,4,2,1,50,0,0
9762,-90.9090909090909,4,2,1,60,0,0
10075,-100,4,2,1,60,0,0
11481,-71.4285714285714,4,2,1,65,0,0
12575,-76.9230769230769,4,2,2,70,0,0
12653,-76.9230769230769,4,2,1,70,0,0
23825,-125,4,2,1,60,0,0
25075,-125,4,2,2,60,0,0
25153,-125,4,2,1,60,0,0
33825,-111.111111111111,4,2,1,60,0,0
47575,312.5,3,2,1,60,1,0
47575,-125,3,2,1,60,0,0
58200,312.5,4,2,2,60,1,0
58200,-125,3,2,2,60,0,0
60778,-125,3,2,1,65,0,0
65700,-90.9090909090909,3,2,1,65,0,0
66012,-250,3,2,1,65,0,0
66325,-90.9090909090909,3,2,1,65,0,0
66637,-250,3,2,1,65,0,0
66950,-90.9090909090909,3,2,1,65,0,0
67262,-250,3,2,1,65,0,0
67575,-90.9090909090909,3,2,1,65,0,0
67887,-250,3,2,1,65,0,0
68200,-90.9090909090909,3,2,1,70,0,0
71950,-76.9230769230769,3,2,2,80,0,1
72028,-76.9230769230769,3,2,1,80,0,1
91950,-100,4,2,1,80,0,0
92028,-100,4,2,1,60,0,0
103200,-100,4,2,2,60,0,0
103278,-100,4,2,1,60,0,0
113200,-166.666666666667,4,2,1,60,0,0
115700,-83.3333333333333,4,2,1,60,0,0
116950,294.117647058824,4,2,1,60,1,0
116950,-500,4,2,1,60,0,0
117538,348.837209302326,4,2,1,60,1,0
117538,-500,4,2,1,60,0,0
118200,312.5,4,2,1,60,1,0
118200,-100,4,2,1,60,0,0
129450,312.5,6,2,1,60,1,0
129450,-125,6,2,1,60,0,0
138825,312.5,4,2,2,65,1,0
138825,-142.857142857143,4,2,2,65,0,0
138903,-142.857142857143,4,2,2,65,0,0
140700,-142.857142857143,4,2,1,65,0,0
143825,-90.909090909091,4,2,1,65,0,0
144137,-250,4,2,1,65,0,0
144450,-90.909090909091,4,2,1,65,0,0
144762,-250,4,2,1,65,0,0
145075,-90.909090909091,4,2,1,65,0,0
145387,-250,4,2,1,65,0,0
145700,-90.909090909091,4,2,1,65,0,0
146012,-250,4,2,1,65,0,0
146325,-90.909090909091,4,2,1,70,0,0
150075,-76.9230769230769,4,2,2,80,0,1
150153,-76.9230769230769,4,2,1,80,0,1
170075,-90.9090909090909,4,2,1,80,0,0
170153,-90.9090909090909,4,2,1,70,0,0
176637,-83.3333333333333,4,2,1,70,0,0
176950,-76.9230769230769,4,2,1,70,0,0
177262,-71.4285714285714,4,2,1,70,0,0
178200,-90.9090909090909,4,2,1,70,0,0
180075,-90.9090909090909,4,2,2,70,0,0
180153,-90.9090909090909,4,2,2,60,0,0
185387,-90.9090909090909,4,2,1,60,0,0
190075,-111.111111111111,4,2,1,70,0,0
202575,-166.666666666666,4,2,1,60,0,0
202653,-166.666666666666,4,2,1,40,0,0
207575,-166.666666666666,4,2,1,50,0,0
208825,-166.666666666666,4,2,1,60,0,0
210075,-166.666666666666,4,2,1,70,0,0
211637,-166.666666666666,4,2,2,70,0,0
211715,-166.666666666666,4,2,2,70,0,0
213825,-166.666666666666,4,2,1,70,0,0
215075,-142.857142857142,4,2,1,60,0,0
216325,-76.9230769230769,4,2,1,70,0,0
217575,-76.9230769230769,4,2,2,80,0,1
217653,-76.9230769230769,4,2,1,80,0,1
235075,-66.6666666666667,4,2,1,80,0,1
237575,-100,4,2,1,80,0,0
238825,-71.4285714285714,4,2,2,80,0,1
238903,-71.4285714285714,4,2,1,80,0,1
239762,-62.5,4,2,1,80,0,1
240075,-71.4285714285714,4,2,1,80,0,1
247575,-71.4285714285714,4,2,2,80,0,1
247653,-71.4285714285714,4,2,1,80,0,1
258825,-100,4,2,2,80,0,0
258903,-100,4,2,2,60,0,0
260700,-100,4,2,1,60,0,0

[Colours]
Combo1 : 255,66,66
Combo2 : 208,92,237
Combo3 : 55,155,255
Combo4 : 0,198,0
Combo5 : 231,215,14
Combo6 : 255,140,85

[HitObjects]
138,113,1325,6,0,L|147:218,2,90,6|2|0,1:0|0:0|0:0,0:0:0:0:
255,167,1950,2,0,L|246:272,2,90,10|2|0,0:1|0:0|0:0,0:0:0:0:
306,85,2575,6,0,P|352:70|403:70,1,90,2|2,0:0|0:0,0:0:0:0:
393,68,2887,1,0,1:0:0:0:
385,246,3043,2,0,P|371:185|367:149,1,90,2|8,0:0|0:1,0:0:0:0:
483,150,3356,1,2,0:0:0:0:
483,150,3512,1,2,0:0:0:0:
483,150,3825,6,0,L|478:254,2,90,2|2|0,1:0|0:0|0:0,0:0:0:0:
389,335,4450,2,0,L|384:245,2,90,10|2|0,0:1|0:0|0:0,0:0:0:0:
258,384,5075,6,0,P|275:330|283:289,1,90,2|2,0:0|0:0,0:0:0:0:
284,205,5387,1,2,1:0:0:0:
257,123,5543,2,0,L|156:119,2,90,2|8|2,0:0|0:1|0:0,0:0:0:0:
284,205,6012,1,2,0:0:0:0:
162,282,6325,5,2,1:0:0:0:
162,282,6481,1,0,0:0:0:0:
167,119,6950,1,10,0:1:0:0:
167,119,7106,1,0,0:0:0:0:
167,119,7575,6,0,L|58:127,2,90,2|2|2,0:0|0:0|1:0,0:0:0:0:
270,123,8043,2,0,P|325:154|372:169,1,90,2|8,0:0|0:1,0:0:0:0:
439,180,8356,1,2,0:0:0:0:
257,265,8512,1,2,0:0:0:0:
257,265,8825,6,0,L|130:274,1,108,10|0,0:1|0:0,0:0:0:0:
124,252,9137,6,0,L|245:243,1,121.499996292114,10|0,0:1|0:0,0:0:0:0:
262,166,9450,6,0,L|116:176,1,135,10|0,0:1|0:0,0:0:0:0:
71,103,9762,6,0,L|219:92,1,148.50000453186,10|0,0:1|0:0,0:0:0:0:
308,93,10075,5,12,0:1:0:0:
343,205,10231,1,8,0:1:0:0:
378,318,10387,1,8,0:1:0:0:
343,205,10543,1,8,0:1:0:0:
362,196,10621,1,8,0:1:0:0:
379,182,10700,1,8,0:1:0:0:
389,163,10778,1,8,0:1:0:0:
395,144,10856,1,8,0:1:0:0:
395,126,10934,1,8,0:1:0:0:
390,109,11012,2,0,L|451:104,3,45,8|8|8|8,0:1|0:1|0:1|0:1,0:0:0:0:
180,112,12262,5,2,0:0:0:0:
180,112,12575,6,0,L|188:234,1,116.999994644165,4|0,1:0|0:0,0:0:0:0:
261,361,12887,2,0,P|285:306|301:245,1,116.999994644165,8|0,0:0|1:0,0:0:0:0:
428,270,13200,2,0,P|392:221|347:177,1,116.999994644165,2|0,0:0|1:0,0:0:0:0:
261,361,13512,1,10,0:0:0:0:
187,228,13668,6,0,L|70:234,1,116.999994644165,2|2,0:0|1:0,0:0:0:0:
18,103,13981,1,2,0:0:0:0:
18,103,14059,1,2,0:0:0:0:
18,103,14137,2,0,P|62:122|139:135,1,116.999994644165,10|2,0:0|1:0,0:0:0:0:
258,117,14450,2,0,P|302:98|379:85,1,116.999994644165,2|2,0:0|1:0,0:0:0:0:
495,88,14762,1,10,0:0:0:0:
351,187,14918,6,0,P|295:154|255:114,1,116.999994644165,0|2,0:0|1:0,0:0:0:0:
184,29,15231,1,0,0:0:0:0:
74,7,15387,2,0,L|85:133,1,116.999994644165,10|2,0:0|1:0,0:0:0:0:
177,190,15700,2,0,L|166:316,1,116.999994644165,0|2,0:0|1:0,0:0:0:0:
166,306,16012,1,8,0:0:0:0:
291,351,16168,1,0,0:0:0:0:
410,336,16325,5,2,1:0:0:0:
291,351,16481,1,2,0:0:0:0:
291,351,16559,1,2,0:0:0:0:
291,351,16637,2,0,L|297:231,1,116.999994644165,10|0,0:0|1:0,0:0:0:0:
255,78,16950,2,0,P|229:134|179:184,1,116.999994644165,2|0,0:0|1:0,0:0:0:0:
376,134,17262,2,0,P|400:187|439:230,1,116.999994644165,10|0,0:0|0:0,0:0:0:0:
472,34,17575,6,0,L|345:40,1,116.999994644165,2|0,1:0|0:0,0:0:0:0:
255,78,17887,1,10,0:0:0:0:
145,45,18043,1,0,1:0:0:0:
36,87,18200,2,0,L|46:214,1,116.999994644165,2|0,0:0|1:0,0:0:0:0:
45,203,18512,1,10,0:0:0:0:
145,45,18668,6,0,P|172:102|214:153,1,116.999994644165,2|2,0:0|1:0,0:0:0:0:
323,253,18981,1,2,0:0:0:0:
323,253,19059,1,2,0:0:0:0:
323,253,19137,2,0,L|187:261,1,116.999994644165,10|2,0:0|1:0,0:0:0:0:
104,346,19450,2,0,L|240:354,1,116.999994644165,2|2,0:0|1:0,0:0:0:0:
220,352,19762,1,10,0:0:0:0:
323,253,19918,6,0,P|301:198|294:128,2,116.999994644165,0|2|0,0:0|1:0|0:0,0:0:0:0:
435,361,20387,1,10,0:0:0:0:
455,241,20543,1,2,1:0:0:0:
432,125,20700,2,0,L|303:117,1,116.999994644165,2|0,0:0|1:0,0:0:0:0:
203,116,21012,1,10,0:0:0:0:
203,116,21168,1,2,0:0:0:0:
270,31,21325,5,8,0:1:0:0:
138,28,21481,1,8,0:1:0:0:
7,26,21637,1,8,0:1:0:0:
7,26,21950,6,0,L|12:148,1,116.999994644165,10|2,0:0|0:0,0:0:0:0:
11,142,22184,1,2,0:0:0:0:
11,142,22262,1,2,0:0:0:0:
60,270,22418,1,2,0:0:0:0:
60,270,22496,1,2,0:0:0:0:
60,270,22575,6,0,P|129:239|180:230,1,116.999994644165,2|2,1:0|0:0,0:0:0:0:
309,277,22887,2,0,P|378:308|429:317,1,116.999994644165,10|2,0:0|1:0,0:0:0:0:
478,174,23200,1,2,0:0:0:0:
457,72,23356,1,2,1:0:0:0:
355,93,23512,1,10,0:0:0:0:
376,195,23668,1,2,0:0:0:0:
355,93,23825,6,0,L|211:83,1,144,2|2,1:0|1:0,0:0:0:0:
160,180,24293,2,0,L|393:196,1,216,2|0,1:0|0:0,0:0:0:0:
355,93,24918,1,0,1:0:0:0:
355,93,24996,1,0,1:0:0:0:
355,93,25075,6,0,L|211:83,1,144,6|10,1:0|0:0,0:0:0:0:
216,0,25543,2,0,L|360:10,1,144,2|2,1:0|1:0,0:0:0:0:
359,9,26012,1,10,0:0:0:0:
453,65,26168,2,0,P|460:116|501:202,1,144,2|2,0:0|0:0,0:0:0:0:
488,286,26637,2,0,L|407:291,1,72,10|2,0:0|1:0,0:0:0:0:
338,350,26950,2,0,L|266:345,1,72,2|2,0:0|1:0,0:0:0:0:
171,328,27262,1,10,0:0:0:0:
191,242,27418,1,2,1:0:0:0:
211,156,27575,6,0,P|141:131|82:82,1,144,2|10,1:0|0:0,0:0:0:0:
133,0,28043,2,0,P|200:23|256:68,1,144,2|2,1:0|1:0,0:0:0:0:
299,145,28512,1,10,0:0:0:0:
296,237,28668,2,0,L|447:242,1,144,2|2,0:0|0:0,0:0:0:0:
447,152,29137,1,8,0:0:0:0:
447,152,29293,1,2,1:0:0:0:
447,152,29450,1,2,0:0:0:0:
373,62,29606,2,0,L|470:54,2,72,2|10|2,1:0|0:0|0:0,0:0:0:0:
299,145,30075,5,14,0:1:0:0:
172,164,30231,1,10,0:1:0:0:
45,183,30387,1,10,0:1:0:0:
45,183,31325,5,14,0:1:0:0:
172,164,31481,1,10,0:1:0:0:
299,145,31637,1,10,0:1:0:0:
299,145,32262,1,0,1:0:0:0:
299,145,32575,6,0,P|269:203|255:296,1,144,6|10,1:0|0:0,0:0:0:0:
279,368,33043,2,0,L|423:363,1,144,2|2,1:0|1:0,0:0:0:0:
427,270,33512,1,8,0:0:0:0:
375,195,33668,1,2,0:0:0:0:
299,145,33825,5,0,1:0:0:0:
299,145,33903,1,0,1:0:0:0:
299,145,33981,2,0,L|238:149,1,40.4999987640381,2|0,1:0|1:0,0:0:0:0:
211,219,34137,1,10,0:0:0:0:
211,219,34215,1,0,1:0:0:0:
211,219,34293,2,0,L|150:215,1,40.4999987640381,0|0,1:0|1:0,0:0:0:0:
71,204,34450,1,0,1:0:0:0:
65,187,34528,1,0,1:0:0:0:
63,175,34606,1,0,1:0:0:0:
63,162,34684,1,0,1:0:0:0:
66,148,34762,2,0,L|117:150,3,40.4999987640381,8|0|0|0,0:0|1:0|1:0|1:0,0:0:0:0:
110,131,36325,6,0,P|182:169|261:156,1,161.999995056153,6|10,1:0|0:0,0:0:0:0:
279,62,36793,2,0,P|207:24|128:37,1,161.999995056153,2|2,1:0|1:0,0:0:0:0:
130,35,37184,1,2,1:0:0:0:
130,35,37262,1,10,0:0:0:0:
110,131,37418,1,2,0:0:0:0:
101,224,37575,6,0,L|15:216,2,80.9999975280763,2|2|10,1:0|0:0|0:0,0:0:0:0:
150,303,38043,1,2,1:0:0:0:
246,366,38200,2,0,L|243:274,1,80.9999975280763,2|0,0:0|1:0,0:0:0:0:
319,230,38512,2,0,L|322:138,1,80.9999975280763,10|0,0:0|0:0,0:0:0:0:
281,64,38825,6,0,B|254:30|254:30|391:27,1,161.999995056153,2|10,1:0|0:0,0:0:0:0:
413,112,39293,2,0,B|440:146|440:146|303:149,1,161.999995056153,2|2,1:0|1:0,0:0:0:0:
231,148,39684,1,2,1:0:0:0:
231,148,39762,2,0,L|236:233,1,80.9999975280763,10|2,0:0|0:0,0:0:0:0:
248,323,40075,6,0,P|328:326|401:376,2,161.999995056153,2|10|2,1:0|0:0|0:0,0:0:0:0:
164,363,40856,1,2,1:0:0:0:
71,366,41012,2,0,L|66:268,1,80.9999975280763,10|2,0:0|0:0,0:0:0:0:
66,183,41325,5,2,1:0:0:0:
66,183,41481,2,0,L|158:188,2,80.9999975280763,2|10|2,0:0|0:0|1:0,0:0:0:0:
29,99,41950,2,0,P|52:59|61:20,1,80.9999975280763,2|2,0:0|1:0,0:0:0:0:
60,25,42184,1,2,1:0:0:0:
60,25,42262,1,8,0:0:0:0:
157,89,42418,6,0,B|208:113|208:113|322:95,1,161.999995056153,2|2,0:0|1:0,0:0:0:0:
414,86,42809,1,2,1:0:0:0:
414,86,42887,2,0,P|402:137|399:191,1,80.9999975280763,10|2,0:0|1:0,0:0:0:0:
444,265,43200,1,2,0:0:0:0:
318,236,43356,1,2,1:0:0:0:
444,265,43512,1,10,0:0:0:0:
363,338,43668,1,2,0:0:0:0:
363,338,43746,1,2,0:0:0:0:
363,338,43825,6,0,L|189:345,1,161.999995056153,2|8,1:0|0:0,0:0:0:0:
75,342,44293,1,2,0:0:0:0:
75,342,44371,1,2,0:0:0:0:
75,342,44450,2,0,P|100:280|122:184,1,161.999995056153,2|8,1:0|0:0,0:0:0:0:
108,86,44918,1,2,0:0:0:0:
108,86,44996,1,2,0:0:0:0:
108,86,45075,6,0,L|212:90,2,80.9999975280763,2|2|10,1:0|0:0|0:0,0:0:0:0:
279,97,45543,1,2,1:0:0:0:
232,170,45700,2,0,L|235:273,1,80.9999975280763,2|2,0:0|1:0,0:0:0:0:
242,339,46012,1,10,0:0:0:0:
242,339,46168,1,2,0:0:0:0:
242,339,47575,5,4,1:0:0:0:
242,339,47887,2,0,L|396:343,2,144,2|2|8,0:0|0:0|0:1,0:0:0:0:
141,344,48825,1,2,0:0:0:0:
141,344,48981,1,0,0:0:0:0:
141,344,49137,1,2,0:0:0:0:
46,240,49450,6,0,P|115:224|188:180,1,144,0|2,1:0|0:0,0:0:0:0:
178,188,49918,1,0,0:0:0:0:
178,188,50075,1,2,0:0:0:0:
140,62,50387,1,8,0:1:0:0:
140,62,50700,2,0,L|226:67,1,72,2|0,0:0|0:0,0:0:0:0:
331,83,51012,2,0,P|300:139|281:227,1,144,2|2,0:0|1:0,0:0:0:0:
281,216,51637,6,0,L|365:212,1,72,2|0,0:0|0:0,0:0:0:0:
439,307,51950,2,0,L|367:303,1,72,2|0,0:0|0:0,0:0:0:0:
337,303,52184,1,0,0:0:0:0:
337,303,52262,1,10,0:1:0:0:
234,342,52575,1,2,0:0:0:0:
131,303,52887,1,2,0:0:0:0:
28,342,53200,5,2,1:0:0:0:
28,342,53512,2,0,L|23:258,2,72,2|0|2,0:0|0:0|0:0,0:0:0:0:
28,342,54137,1,10,0:1:0:0:
131,303,54450,2,0,L|136:219,2,72,2|0|2,0:0|0:0|0:0,0:0:0:0:
234,342,55075,6,0,P|251:268|283:209,1,144,4|0,1:0|0:0,0:0:0:0:
283,208,55700,1,0,1:0:0:0:
202,156,55856,1,0,1:0:0:0:
202,156,55934,1,0,1:0:0:0:
202,156,56012,2,0,L|198:6,1,144,8|2,0:1|0:0,0:0:0:0:
198,12,56481,1,0,0:0:0:0:
198,12,56637,1,2,0:0:0:0:
309,94,56950,6,0,P|370:126|460:147,2,144,2|2|2,1:0|0:0|0:0,0:0:0:0:
309,94,57731,1,0,1:0:0:0:
309,94,57809,1,0,1:0:0:0:
309,94,57887,1,8,0:1:0:0:
256,192,58200,5,4,1:0:0:0:
256,192,58278,12,4,60700,1:0:0:0:
156,254,60856,6,0,L|150:166,2,72,2|2|2,0:0|0:0|0:0,0:0:0:0:
222,332,61325,2,0,P|261:352|372:361,1,144,10|2,0:0|0:0,0:0:0:0:
383,281,61793,2,0,P|344:261|233:252,1,144,2|2,0:0|0:0,0:0:0:0:
245,249,62262,1,2,1:0:0:0:
245,249,62418,1,2,0:0:0:0:
255,153,62575,2,0,L|260:-4,1,144,10|2,0:0|0:0,0:0:0:0:
259,9,63200,5,4,1:0:0:0:
164,36,63356,2,0,L|79:27,2,72,2|2|2,0:0|0:0|0:0,0:0:0:0:
146,134,63825,2,0,L|61:125,1,72,10|2,0:0|0:0,0:0:0:0:
74,126,64059,1,2,0:0:0:0:
74,126,64137,1,2,0:0:0:0:
115,219,64293,2,0,P|131:280|132:366,1,144,2|2,0:0|0:0,0:0:0:0:
231,367,64762,2,0,L|233:277,1,72,2|2,1:0|0:0,0:0:0:0:
235,194,65075,2,0,P|293:218|376:226,1,144,10|2,0:0|0:0,0:0:0:0:
373,226,65700,6,0,P|349:126|364:27,1,198.000006042481,12|0,0:1|0:0,0:0:0:0:
373,226,66325,6,0,P|331:131|370:39,1,198.000006042481,12|0,0:1|0:0,0:0:0:0:
373,226,66950,6,0,P|320:142|373:61,1,198.000006042481,12|0,0:1|0:0,0:0:0:0:
373,226,67575,6,0,P|312:168|375:91,1,198.000006042481,12|0,0:1|0:0,0:0:0:0:
373,226,68200,5,8,0:1:0:0:
233,296,68356,1,8,0:1:0:0:
93,226,68512,1,8,0:1:0:0:
233,156,68668,1,8,0:1:0:0:
373,226,68825,5,8,0:1:0:0:
373,226,68981,1,8,0:1:0:0:
233,156,69137,1,8,0:1:0:0:
233,156,69293,1,8,0:1:0:0:
93,226,69450,5,0,1:0:0:0:
93,226,69762,1,12,0:1:0:0:
256,192,69840,12,2,70700,0:0:0:0:
233,296,71012,5,2,0:0:0:0:
233,296,71325,1,2,0:0:0:0:
233,296,71637,1,8,0:0:0:0:
233,296,71950,6,0,B|212:226|226:171|234:182|254:119|226:57,1,233.999989288331,6|8,1:0|0:0,0:0:0:0:
229,65,72418,1,2,1:0:0:0:
132,118,72575,2,0,L|128:247,1,116.999994644165,2|2,0:0|1:0,0:0:0:0:
130,266,72809,1,2,1:0:0:0:
130,266,72887,1,10,0:0:0:0:
0,193,73043,6,0,P|24:248|35:313,1,116.999994644165,2|0,0:0|1:0,0:0:0:0:
130,266,73356,1,2,0:0:0:0:
233,296,73512,1,10,0:0:0:0:
339,250,73668,1,2,1:0:0:0:
379,149,73825,2,0,P|322:127|256:122,1,116.999994644165,2|0,0:0|1:0,0:0:0:0:
481,193,74137,2,0,P|481:131|462:68,1,116.999994644165,10|0,0:0|1:0,0:0:0:0:
266,121,74450,6,0,B|204:164|204:164|31:163,1,233.999989288331,6|10,1:0|0:0,0:0:0:0:
45,163,74918,1,2,1:0:0:0:
45,332,75075,2,0,B|107:289|107:289|280:290,1,233.999989288331,2|8,0:0|0:0,0:0:0:0:
416,287,75543,6,0,P|385:230|377:158,1,116.999994644165,2|0,0:0|1:0,0:0:0:0:
384,53,75856,1,2,0:0:0:0:
258,45,76012,1,10,0:0:0:0:
250,171,76168,1,2,1:0:0:0:
376,179,76325,2,0,L|500:168,1,116.999994644165,2|0,0:0|1:0,0:0:0:0:
416,287,76637,2,0,L|299:297,1,116.999994644165,10|2,0:0|1:0,0:0:0:0:
183,312,76871,1,0,1:0:0:0:
183,312,76950,6,0,P|164:245|68:110,1,233.999989288331,6|8,1:0|0:0,0:0:0:0:
70,112,77418,1,2,1:0:0:0:
217,61,77575,2,0,P|284:49|349:50,1,116.999994644165,2|2,0:0|1:0,0:0:0:0:
363,56,77809,1,0,1:0:0:0:
363,56,77887,1,10,0:0:0:0:
301,246,78043,6,0,P|289:179|290:114,1,116.999994644165,2|0,0:0|1:0,0:0:0:0:
425,133,78356,1,2,0:0:0:0:
421,228,78512,1,10,0:0:0:0:
385,322,78668,1,2,1:0:0:0:
294,371,78825,2,0,L|173:364,1,116.999994644165,2|0,0:0|1:0,0:0:0:0:
52,267,79137,2,0,L|173:260,1,116.999994644165,10|0,0:0|1:0,0:0:0:0:
301,246,79450,6,0,P|261:164|224:22,1,233.999989288331,6|10,1:0|0:0,0:0:0:0:
224,26,79918,1,2,1:0:0:0:
123,75,80075,1,2,0:0:0:0:
67,165,80231,1,2,1:0:0:0:
67,165,80309,1,0,1:0:0:0:
67,165,80387,1,10,0:0:0:0:
52,267,80543,6,0,L|58:385,1,116.999994644165,2|0,0:0|1:0,0:0:0:0:
193,384,80856,1,2,0:0:0:0:
193,384,81012,2,0,L|198:267,1,116.999994644165,10|2,0:0|1:0,0:0:0:0:
203,175,81325,1,2,0:0:0:0:
296,232,81481,1,0,1:0:0:0:
296,232,81559,1,0,1:0:0:0:
296,232,81637,2,0,L|301:163,1,58.4999973220826,8|0,0:0|1:0,0:0:0:0:
378,135,81793,2,0,L|382:193,1,58.4999973220826,0|0,1:0|1:0,0:0:0:0:
463,74,81950,6,0,B|395:47|395:47|229:52,1,233.999989288331,4|8,1:0|0:0,0:0:0:0:
234,51,82418,1,2,1:0:0:0:
203,175,82575,2,0,P|162:153|72:139,1,116.999994644165,2|2,0:0|1:0,0:0:0:0:
63,150,82809,1,0,1:0:0:0:
63,150,82887,1,10,0:0:0:0:
210,291,83043,6,0,L|202:163,1,116.999994644165,2|0,0:0|1:0,0:0:0:0:
302,223,83356,1,2,0:0:0:0:
210,291,83512,1,10,0:0:0:0:
98,257,83668,1,2,1:0:0:0:
63,150,83825,2,0,P|95:92|107:28,1,116.999994644165,2|0,0:0|1:0,0:0:0:0:
98,257,84137,2,0,P|66:315|54:379,1,116.999994644165,10|0,0:0|1:0,0:0:0:0:
240,362,84450,6,0,B|209:292|209:292|231:209|216:131,1,233.999989288331,6|10,1:0|0:0,0:0:0:0:
187,34,84918,1,2,1:0:0:0:
289,44,85075,2,0,P|343:72|384:113,1,116.999994644165,2|2,0:0|1:0,0:0:0:0:
405,137,85309,1,0,1:0:0:0:
405,137,85387,1,10,0:0:0:0:
305,274,85543,6,0,L|301:129,1,116.999994644165,2|0,0:0|1:0,0:0:0:0:
411,254,85855,1,2,0:0:0:0:
353,353,86011,1,10,0:0:0:0:
240,362,86168,1,2,1:0:0:0:
163,281,86325,2,0,P|155:219|122:148,1,116.999994644165,2|0,0:0|1:0,0:0:0:0:
75,74,86637,1,10,0:0:0:0:
242,51,86793,1,0,1:0:0:0:
242,51,86871,1,0,1:0:0:0:
242,51,86950,6,0,P|274:118|305:275,1,233.999989288331,6|8,1:0|0:0,0:0:0:0:
298,384,87418,1,2,1:0:0:0:
408,381,87575,1,2,0:0:0:0:
498,322,87731,1,2,1:0:0:0:
498,322,87809,1,2,1:0:0:0:
498,322,87887,1,10,0:0:0:0:
482,200,88043,6,0,L|472:76,1,116.999994644165,2|0,0:0|1:0,0:0:0:0:
381,87,88356,1,2,0:0:0:0:
255,96,88512,1,10,0:0:0:0:
390,212,88668,1,2,1:0:0:0:
264,222,88825,2,0,P|202:194|140:188,1,116.999994644165,2|0,0:0|1:0,0:0:0:0:
122,299,89137,2,0,P|184:327|246:333,1,116.999994644165,10|0,0:0|1:0,0:0:0:0:
265,336,89371,1,0,1:0:0:0:
265,336,89450,5,8,0:1:0:0:
485,348,89606,1,8,0:1:0:0:
375,342,89762,1,10,0:0:0:0:
265,336,89918,1,2,0:0:0:0:
484,210,90075,5,8,0:1:0:0:
264,222,90231,1,8,0:1:0:0:
374,216,90387,1,10,0:0:0:0:
484,210,90543,1,2,0:0:0:0:
264,222,90700,6,0,L|269:87,1,116.999994644165,10|0,0:1|1:0,0:0:0:0:
45,95,91012,2,0,L|40:211,1,116.999994644165,10|0,0:1|1:0,0:0:0:0:
76,365,91325,1,10,0:1:0:0:
76,365,91403,1,8,0:1:0:0:
76,365,91481,2,0,L|82:290,1,58.4999973220826,0|0,1:0|0:0,0:0:0:0:
163,240,91637,1,10,0:1:0:0:
163,240,91715,1,8,0:1:0:0:
163,240,91793,2,0,L|169:315,1,58.4999973220826,0|0,1:0|1:0,0:0:0:0:
174,384,91950,5,12,0:1:0:0:
256,192,92028,12,2,94450,0:0:0:0:
206,143,96950,5,2,1:0:0:0:
206,143,97106,1,2,0:0:0:0:
303,240,97575,5,10,0:0:0:0:
303,240,97731,1,2,0:0:0:0:
206,143,98200,6,0,L|98:137,2,90,2|2|2,1:0|0:0|0:0,0:0:0:0:
305,142,98668,2,0,P|337:90|352:45,1,90,2|8,0:0|0:0,0:0:0:0:
303,240,98981,1,2,0:0:0:0:
206,143,99137,1,2,0:0:0:0:
206,143,99450,6,0,B|179:188|179:188|189:334,3,180,8|8|8|8,0:0|0:0|0:0|0:0,0:0:0:0:
303,240,100700,6,0,L|403:245,1,90,8|0,0:0|1:0,0:0:0:0:
391,356,101012,2,0,L|301:351,1,90,8|0,0:0|1:0,0:0:0:0:
303,240,101325,1,8,0:0:0:0:
303,240,101403,1,0,1:0:0:0:
303,240,101481,2,0,L|309:171,1,45,0|0,1:0|1:0,0:0:0:0:
383,118,101637,1,8,0:0:0:0:
383,118,101715,1,0,1:0:0:0:
383,118,101793,2,0,L|389:187,1,45,0|0,1:0|1:0,0:0:0:0:
392,244,101950,5,2,0:0:0:0:
392,244,102887,1,2,0:0:0:0:
418,123,103200,6,0,P|342:90|229:83,1,180,6|10,1:0|0:0,0:0:0:0:
220,202,103668,2,0,P|296:235|409:242,1,180,2|2,1:0|1:0,0:0:0:0:
472,211,104059,1,2,1:0:0:0:
472,211,104137,2,0,L|477:308,1,90,10|2,0:0|0:0,0:0:0:0:
393,336,104450,2,0,L|291:340,2,90,2|2|10,1:0|0:0|0:0,0:0:0:0:
212,342,104918,2,0,P|141:277|47:259,1,180,2|2,1:0|1:0,0:0:0:0:
61,258,105387,2,0,L|70:157,1,90,10|0,0:0|0:0,0:0:0:0:
139,72,105700,6,0,B|169:48|169:48|164:116|177:206,1,180,2|10,1:0|0:0,0:0:0:0:
296,164,106168,2,0,B|266:188|266:188|271:120|258:30,1,180,2|2,1:0|1:0,0:0:0:0:
260,46,106637,1,10,0:0:0:0:
260,46,106793,1,2,0:0:0:0:
296,164,106950,6,0,L|401:170,1,90,2|0,1:0|0:0,0:0:0:0:
384,273,107262,2,0,L|294:267,1,90,10|0,0:0|1:0,0:0:0:0:
292,370,107575,2,0,L|382:376,1,90,2|2,0:0|1:0,0:0:0:0:
382,376,107887,1,10,0:0:0:0:
382,376,108043,1,0,0:0:0:0:
294,267,108200,6,0,P|221:292|109:291,1,180,2|10,1:0|0:0,0:0:0:0:
107,188,108668,2,0,P|180:163|292:164,1,180,2|2,1:0|1:0,0:0:0:0:
282,162,109137,1,10,0:0:0:0:
282,162,109293,1,2,0:0:0:0:
386,113,109450,6,0,L|391:213,1,90,2|2,1:0|1:0,0:0:0:0:
390,202,109684,1,2,1:0:0:0:
390,202,109762,1,10,0:0:0:0:
479,146,109918,1,2,1:0:0:0:
465,42,110075,2,0,P|411:30|369:14,1,90,2|2,0:0|1:0,0:0:0:0:
286,0,110387,2,0,P|243:14|199:23,1,90,10|0,0:0|0:0,0:0:0:0:
92,26,110700,6,0,L|100:211,1,180,2|10,1:0|0:0,0:0:0:0:
207,203,111168,2,0,L|199:23,1,180,2|2,1:0|1:0,0:0:0:0:
199,23,111637,1,8,0:0:0:0:
289,83,111793,1,2,0:0:0:0:
326,181,111950,5,2,1:0:0:0:
445,159,112106,1,2,0:0:0:0:
326,181,112261,1,10,0:0:0:0:
207,203,112418,1,2,1:0:0:0:
326,181,112575,1,2,1:0:0:0:
445,159,112887,1,2,1:0:0:0:
207,203,113200,6,0,L|212:320,3,107.999996704102,2|2|2|2,1:0|1:0|1:0|1:0,0:0:0:0:
120,263,114450,1,2,1:0:0:0:
120,263,114606,1,2,1:0:0:0:
120,263,114762,1,2,1:0:0:0:
120,263,114918,2,0,L|1:268,1,107.999996704102,2|2,1:0|1:0,0:0:0:0:
12,267,115387,1,2,1:0:0:0:
79,144,115700,5,0,1:0:0:0:
103,122,115778,1,0,1:0:0:0:
134,115,115856,1,0,1:0:0:0:
165,118,115934,1,0,1:0:0:0:
194,132,116012,2,2,L|191:89,6,26.9999991760254,2|0|2|0|2|0|2,1:0|1:0|1:0|1:0|1:0|1:0|1:0,1:0:0:0:
286,137,116325,6,0,L|281:56,1,53.9999983520508,0|0,1:0|1:0,0:0:0:0:
379,138,116481,2,0,L|382:191,1,53.9999983520508,0|0,1:0|1:0,0:0:0:0:
386,292,116637,1,8,0:1:0:0:
346,305,116715,1,8,0:1:0:0:
302,287,116793,1,8,0:1:0:0:
254,290,116871,1,8,0:1:0:0:
260,304,116950,5,2,0:0:0:0:
260,304,117887,1,8,0:0:0:0:
260,304,118200,6,0,L|77:292,1,180,6|10,1:0|0:0,0:0:0:0:
226,202,118668,2,0,L|134:196,1,90,2|0,1:0|0:0,0:0:0:0:
38,190,118981,1,2,1:0:0:0:
38,190,119059,1,2,1:0:0:0:
38,190,119137,1,10,0:0:0:0:
136,196,119293,2,0,L|226:202,1,90,2|0,0:0|1:0,0:0:0:0:
331,210,119606,5,2,0:0:0:0:
331,210,119762,1,10,0:0:0:0:
436,218,119918,1,2,1:0:0:0:
436,218,120075,1,2,0:0:0:0:
387,124,120231,1,2,1:0:0:0:
387,124,120387,2,0,P|333:114|284:93,1,90,10|2,0:0|0:0,0:0:0:0:
227,35,120700,6,0,B|196:75|196:75|226:205,1,180,2|10,1:0|0:0,0:0:0:0:
106,126,121168,2,0,L|127:218,1,90,2|0,1:0|0:0,0:0:0:0:
172,290,121481,1,2,1:0:0:0:
257,320,121637,1,10,0:0:0:0:
346,307,121793,2,0,L|441:304,1,90,2|0,0:0|1:0,0:0:0:0:
387,218,122106,5,2,0:0:0:0:
387,218,122262,2,0,P|377:166|362:128,2,90,10|2|2,0:0|1:0|0:0,0:0:0:0:
346,307,122731,1,2,1:0:0:0:
257,320,122887,2,0,L|252:217,1,90,10|2,0:0|0:0,0:0:0:0:
247,96,123200,5,14,0:1:0:0:
132,102,123356,2,0,L|63:103,1,45,14|0,0:1|1:0,0:0:0:0:
247,96,123512,1,14,0:1:0:0:
92,223,124450,5,14,0:1:0:0:
207,229,124606,2,0,L|276:230,1,45,14|0,0:1|1:0,0:0:0:0:
92,223,124762,1,14,0:1:0:0:
92,223,125387,1,0,1:0:0:0:
92,223,125700,6,0,P|149:284|189:382,1,180,4|8,1:0|0:0,0:0:0:0:
298,311,126168,2,0,P|241:250|201:152,1,180,0|0,1:0|1:0,0:0:0:0:
206,50,126637,1,8,0:0:0:0:
206,50,126793,2,0,L|311:54,1,90,0|0,0:0|1:0,0:0:0:0:
398,57,127106,1,0,1:0:0:0:
345,139,127262,5,8,0:0:0:0:
345,139,127340,1,0,1:0:0:0:
345,139,127418,2,0,L|341:195,1,45,0|0,1:0|1:0,0:0:0:0:
294,266,127575,1,0,1:0:0:0:
294,266,127653,1,0,1:0:0:0:
294,266,127731,2,0,L|298:322,1,45,0|0,1:0|1:0,0:0:0:0:
385,377,127887,2,0,L|388:323,1,45,8|0,0:0|1:0,0:0:0:0:
465,257,128043,2,0,L|467:301,1,45,0|0,1:0|1:0,0:0:0:0:
472,384,129137,5,6,0:1:0:0:
297,375,129450,6,0,P|307:339|312:285,2,72,2|2|10,1:0|0:0|0:3,0:0:0:0:
211,309,129918,2,0,P|211:271|202:218,2,72,10|10|2,0:3|0:3|0:0,0:0:0:0:
110,267,130387,2,0,P|100:230|77:181,1,72,10|2,0:3|0:0,0:0:0:0:
22,109,130700,2,0,L|141:105,2,108,2|2|2,1:0|0:0|0:0,0:0:0:0:
225,136,131325,6,0,L|217:40,2,72,2|2|10,1:0|0:0|0:3,0:0:0:0:
316,89,131793,2,0,L|333:-5,2,72,10|10|2,0:3|0:3|0:0,0:0:0:0:
416,67,132262,2,0,L|457:-20,1,72,10|2,0:3|0:0,0:0:0:0:
385,153,132575,2,0,P|395:209|427:267,2,108,2|2|2,1:0|0:0|0:0,0:0:0:0:
302,183,133200,5,2,1:0:0:0:
306,187,133356,1,2,0:0:0:0:
302,183,133512,1,10,0:3:0:0:
327,282,133668,1,10,0:3:0:0:
327,282,133824,1,10,0:3:0:0:
327,282,133980,1,2,0:0:0:0:
263,353,134137,1,10,0:3:0:0:
263,353,134293,1,2,0:0:0:0:
263,353,134450,2,0,L|131:364,2,108,2|2|2,1:0|0:0|0:0,0:0:0:0:
65,359,135075,6,0,B|85:305|85:305|74:202,2,144,2|2|2,1:0|0:0|0:0,0:0:0:0:
75,219,136012,2,0,B|55:165|55:165|66:62,2,144,10|2|2,0:1|0:0|0:0,0:0:0:0:
156,144,136950,5,2,1:0:0:0:
303,148,137262,1,2,0:0:0:0:
450,152,137575,1,2,1:0:0:0:
380,280,137887,5,10,0:1:0:0:
203,284,138199,1,2,0:0:0:0:
27,289,138512,1,2,0:0:0:0:
380,280,138825,5,4,1:0:0:0:
256,192,138903,12,0,140075,1:0:0:0:
203,284,140387,5,0,1:0:0:0:
203,284,140700,2,0,L|207:129,1,125.999996154785,8|0,0:0|0:0,0:0:0:0:
234,47,141325,6,0,P|287:76|363:84,1,125.999996154785,4|0,1:0|0:0,0:0:0:0:
323,195,141950,2,0,P|270:166|194:158,1,125.999996154785,8|0,0:0|0:0,0:0:0:0:
323,195,142575,5,0,1:0:0:0:
323,195,142887,1,0,1:0:0:0:
323,195,143200,2,0,L|335:347,1,125.999996154785,8|2,0:0|0:0,0:0:0:0:
332,320,143825,6,0,L|124:302,1,198.000006042481,12|0,0:1|1:0,0:0:0:0:
336,188,144450,2,0,L|138:205,1,198.000006042481,12|0,0:1|1:0,0:0:0:0:
332,320,145075,2,0,L|134:302,1,198.000006042481,12|0,0:1|1:0,0:0:0:0:
322,59,145700,2,0,L|124:76,1,198.000006042481,12|0,0:1|1:0,0:0:0:0:
322,59,146325,5,8,0:1:0:0:
324,188,146481,1,8,0:1:0:0:
454,187,146637,1,8,0:1:0:0:
451,57,146793,1,8,0:1:0:0:
322,59,146950,5,8,0:1:0:0:
324,188,147106,1,8,0:1:0:0:
451,57,147262,1,8,0:1:0:0:
454,187,147418,1,8,0:1:0:0:
322,59,147575,5,0,1:0:0:0:
322,59,147887,1,12,0:1:0:0:
256,192,147965,12,2,148825,0:0:0:0:
256,192,149137,5,2,0:0:0:0:
256,192,149450,1,2,0:0:0:0:
256,192,149762,1,12,1:0:0:0:
256,192,150075,6,0,P|317:217|388:221,2,116.999994644165,6|0|8,1:0|0:0|0:0,0:0:0:0:
161,128,150543,1,2,1:0:0:0:
262,90,150700,1,2,0:0:0:0:
377,87,150856,1,2,1:0:0:0:
377,87,150934,1,2,1:0:0:0:
377,87,151012,1,8,0:0:0:0:
262,90,151168,6,0,P|175:37|58:95,1,233.999989288331,2|2,0:0|0:0,0:0:0:0:
57,187,151637,2,0,L|68:309,1,116.999994644165,10|2,0:0|1:0,0:0:0:0:
187,370,151950,2,0,L|197:253,1,116.999994644165,2|0,0:0|1:0,0:0:0:0:
317,187,152262,2,0,L|327:303,1,116.999994644165,10|0,0:0|1:0,0:0:0:0:
493,377,152575,6,0,P|452:295|426:143,1,233.999989288331,6|10,1:0|0:0,0:0:0:0:
445,53,153043,1,2,1:0:0:0:
340,97,153200,2,0,P|272:92|215:70,1,116.999994644165,2|2,0:0|1:0,0:0:0:0:
199,55,153434,1,2,1:0:0:0:
199,55,153512,1,10,0:0:0:0:
126,132,153668,6,0,L|137:264,2,116.999994644165,2|0|2,0:0|1:0|0:0,0:0:0:0:
257,282,154137,2,0,P|245:217|220:163,1,116.999994644165,10|2,0:0|1:0,0:0:0:0:
359,379,154450,2,0,P|371:314|396:260,1,116.999994644165,2|0,0:0|1:0,0:0:0:0:
488,177,154762,1,10,0:0:0:0:
501,42,154918,1,2,1:0:0:0:
501,42,154996,1,0,1:0:0:0:
501,42,155075,6,0,L|263:53,1,233.999989288331,6|8,1:0|0:0,0:0:0:0:
267,52,155543,1,2,1:0:0:0:
328,153,155700,2,0,P|352:210|364:283,1,116.999994644165,2|2,0:0|1:0,0:0:0:0:
362,294,155934,1,2,1:0:0:0:
362,294,156012,1,10,0:0:0:0:
232,247,156168,6,0,L|96:239,1,116.999994644165,2|0,0:0|1:0,0:0:0:0:
15,232,156481,1,2,0:0:0:0:
27,128,156637,2,0,L|143:134,1,116.999994644165,10|2,0:0|1:0,0:0:0:0:
232,247,156950,2,0,P|211:312|176:361,1,116.999994644165,2|0,0:0|1:0,0:0:0:0:
328,153,157262,2,0,P|349:218|384:267,1,116.999994644165,10|0,0:0|1:0,0:0:0:0:
376,41,157575,6,0,B|313:67|313:67|209:44|209:44|137:66,2,233.999989288331,6|10|2,1:0|0:0|0:0,0:0:0:0:
215,154,158356,1,2,1:0:0:0:
232,247,158512,1,10,0:0:0:0:
291,330,158668,6,0,L|425:334,1,116.999994644165,2|0,0:0|1:0,0:0:0:0:
452,236,158981,1,2,0:0:0:0:
452,236,159137,2,0,L|335:232,1,116.999994644165,10|2,0:0|1:0,0:0:0:0:
232,247,159450,1,2,1:0:0:0:
232,247,159528,1,0,1:0:0:0:
232,247,159606,2,0,L|152:241,1,58.4999973220826,0|0,1:0|1:0,0:0:0:0:
118,157,159762,1,10,0:0:0:0:
118,157,159840,1,0,1:0:0:0:
118,157,159918,2,0,L|198:151,1,58.4999973220826,0|0,1:0|1:0,0:0:0:0:
276,151,160075,6,0,P|281:84|441:75,1,233.999989288331,6|8,1:0|0:0,0:0:0:0:
459,179,160543,1,2,1:0:0:0:
363,257,160700,2,0,P|373:196|367:118,1,116.999994644165,2|0,0:0|1:0,0:0:0:0:
366,120,160934,1,0,1:0:0:0:
366,120,161012,1,8,0:0:0:0:
279,35,161168,6,0,L|155:39,1,116.999994644165,2|0,0:0|1:0,0:0:0:0:
78,100,161481,1,2,0:0:0:0:
128,188,161637,2,0,P|149:243|156:310,1,116.999994644165,10|2,0:0|1:0,0:0:0:0:
262,384,161950,2,0,P|269:326|290:271,1,116.999994644165,2|0,0:0|1:0,0:0:0:0:
396,188,162262,2,0,P|403:245|424:300,1,116.999994644165,10|0,0:0|1:0,0:0:0:0:
486,119,162575,6,0,B|415:86|415:86|252:106,1,233.999989288331,6|10,1:0|0:0,0:0:0:0:
260,104,163043,1,2,1:0:0:0:
316,252,163200,2,0,P|267:213|204:188,1,116.999994644165,2|2,0:0|1:0,0:0:0:0:
122,182,163512,1,10,0:0:0:0:
28,247,163668,6,0,L|22:126,1,116.999994644165,2|0,0:0|1:0,0:0:0:0:
16,44,163981,1,2,0:0:0:0:
124,20,164137,1,10,0:0:0:0:
232,44,164293,1,2,1:0:0:0:
340,20,164450,1,2,0:0:0:0:
232,44,164606,1,2,1:0:0:0:
124,20,164762,1,10,0:0:0:0:
232,44,164918,1,0,1:0:0:0:
232,44,164996,1,0,1:0:0:0:
232,44,165075,6,0,L|238:188,2,116.999994644165,6|0|8,1:0|0:0|0:0,0:0:0:0:
240,245,165543,1,2,1:0:0:0:
334,185,165700,2,0,P|391:164|467:158,1,116.999994644165,2|2,0:0|1:0,0:0:0:0:
446,157,166012,1,10,0:0:0:0:
434,326,166168,6,0,P|387:293|199:260,1,233.999989288331,2|2,0:0|0:0,0:0:0:0:
96,286,166637,1,10,0:0:0:0:
96,286,166793,1,2,1:0:0:0:
145,175,166950,1,2,0:0:0:0:
145,175,167106,1,2,1:0:0:0:
96,64,167262,1,10,0:0:0:0:
218,84,167418,1,0,1:0:0:0:
218,84,167496,1,0,1:0:0:0:
218,84,167575,5,10,0:1:0:0:
319,128,167731,1,10,0:1:0:0:
394,225,167887,2,0,L|275:232,1,116.999994644165,10|2,0:0|0:0,0:0:0:0:
489,217,168200,5,10,0:1:0:0:
406,325,168356,1,10,0:1:0:0:
406,325,168434,1,2,0:0:0:0:
406,325,168512,2,0,L|287:332,1,116.999994644165,10|0,0:0|1:0,0:0:0:0:
200,335,168746,1,0,1:0:0:0:
200,335,168825,6,0,P|174:278|165:216,1,116.999994644165,12|0,0:1|1:0,0:0:0:0:
209,136,169059,1,0,1:0:0:0:
209,136,169138,2,0,P|235:79|244:17,1,116.999994644165,12|0,0:1|1:0,0:0:0:0:
333,22,169371,1,0,1:0:0:0:
333,22,169450,2,0,P|359:79|368:141,1,116.999994644165,12|0,0:1|1:0,0:0:0:0:
324,221,169684,1,0,1:0:0:0:
324,221,169763,2,0,P|298:278|289:340,1,116.999994644165,12|0,0:1|1:0,0:0:0:0:
406,325,169996,1,0,1:0:0:0:
406,325,170075,5,12,0:1:0:0:
256,192,170153,12,2,172262,0:0:0:0:
48,48,172575,6,2,B|56:48|56:48|60:52|60:52|76:53|76:53|79:50|79:50|95:52|95:52|99:48|99:48|118:50|118:50|120:54|120:54|140:56|140:56|143:52|143:52|162:54|162:54|165:57|165:57|184:59|184:59|187:56|187:56|207:61|207:61|213:59|213:59|226:60|226:60|232:64|232:64|245:64|245:64|248:68|248:68|252:65|252:65|263:66|263:66|267:64|267:64|280:64|280:64|283:61|283:61|287:65|287:65|299:66|299:66|302:69|302:69|315:71|315:71|318:74|318:74|321:71|321:71|331:72|331:72|334:69|334:69|363:72|363:72|366:75|366:75|382:76,1,346.500010574341,0|0,1:0|0:0,0:1:0:0:
372,110,173200,2,0,B|375:132|375:132|380:136|380:136|376:161|376:161|381:164|381:164|380:209|380:209|385:213|385:213|394:239,1,99.0000030212403,10|0,0:0|0:0,0:0:0:0:
392,228,173434,2,0,B|409:211|409:211|410:206|410:206|433:197|433:197|434:191|434:191|473:168|473:168|473:163|473:163|492:143,1,99.0000030212403,2|0,0:0|0:0,0:0:0:0:
485,141,173668,1,2,0:0:0:0:
392,228,173825,6,0,B|391:223|391:223|377:231|377:231|374:231|374:231|356:228|356:228|359:223|359:223|339:220|339:220|334:220|334:220|310:223|310:223|315:228|315:228|292:231|292:231|287:231|287:231|263:228|263:228|267:223|267:223|244:223|244:223|230:228,1,198.000006042481,0|0,1:0|1:0,0:0:0:0:
233,226,174450,6,2,L|243:384,1,148.50000453186,10|0,0:0|0:0,0:0:0:0:
218,375,174762,2,2,L|145:370,1,49.5000015106202,2|0,0:0|0:0,0:0:0:0:
100,334,174918,2,2,L|149:336,1,49.5000015106202,2|0,0:0|0:0,0:0:0:0:
153,249,175075,6,0,B|146:214|146:214|150:218|150:218|144:182|144:182|147:185|147:185|141:153|141:153|145:157|145:157|137:117|137:117|142:121|142:121|135:89,3,198.000006042481,2|2|10|2,1:0|0:0|0:0|0:0,0:0:0:0:
506,4,176325,2,0,B|500:27|500:27|504:35|504:35|502:59|502:59|497:67|497:67|498:95|498:95|502:103|502:103|494:142,1,99.0000030212403,2|0,1:0|0:0,0:0:0:0:
392,44,176637,2,0,B|384:66|384:66|387:75|387:75|383:99|383:99|377:106|377:106|377:134|377:134|379:143|379:143|368:180,1,107.999996704102,2|0,1:0|0:0,0:0:0:0:
280,73,176950,2,0,B|270:95|270:95|272:103|272:103|266:127|266:127|260:133|260:133|257:161|257:161|258:170|258:170|248:187|248:187|245:207,1,116.999994644165,10|0,0:0|0:0,0:0:0:0:
135,91,177262,2,0,B|124:112|124:112|125:121|125:121|116:143|116:143|110:149|110:149|104:177|104:177|105:186|105:186|99:207|99:207|93:211|93:211|81:234,1,125.999996154785,2|0,0:0|0:0,0:0:0:0:
71,338,177575,6,2,L|113:340,14,31.4999990386963,2|0|0|0|0|0|0|0|2|0|0|0|0|2|2,1:0|0:0|0:0|0:0|0:0|0:0|0:0|0:0|0:0|0:0|0:0|0:0|0:0|0:1|0:1,0:1:0:0:
148,355,178200,2,0,B|151:333|151:333|156:329|156:329|152:304|152:304|157:301|157:301|156:256|156:256|161:252|161:252|170:226,1,99.0000030212403,10|0,0:0|0:0,0:0:0:0:
168,237,178434,2,0,B|185:254|185:254|186:259|186:259|209:268|209:268|210:274|210:274|249:297|249:297|249:302|249:302|268:322,1,99.0000030212403,2|0,0:0|0:0,0:0:0:0:
261,324,178668,1,2,0:0:0:0:
389,379,178825,6,0,B|413:320|413:320|385:188,2,198.000006042481,0|0|10,1:0|1:0|0:0,0:0:0:0:
261,324,179762,1,2,0:0:0:0:
261,324,179918,1,2,0:0:0:0:
256,192,180075,5,4,1:0:0:0:
256,192,180153,12,2,185075,1:0:0:0:
256,192,185387,5,2,0:0:0:0:
256,192,186012,1,2,0:0:0:0:
256,192,186637,1,2,0:0:0:0:
256,192,187262,1,2,0:0:0:0:
256,192,187887,1,2,0:0:0:0:
256,192,188512,1,2,0:0:0:0:
135,72,190075,5,4,1:0:0:0:
135,72,190231,2,0,P|126:115|100:175,2,80.9999975280763,2|2|2,0:0|0:0|0:0,0:0:0:0:
217,138,190700,2,0,P|226:181|252:241,2,80.9999975280763,10|2|2,0:0|0:0|0:0,0:0:0:0:
217,138,191168,1,2,0:0:0:0:
229,48,191325,6,0,L|319:43,2,80.9999975280763,2|2|2,1:0|0:0|1:0,0:0:0:0:
410,36,191793,2,0,P|414:82|426:123,1,80.9999975280763,2|8,0:0|0:0,0:0:0:0:
423,115,192106,1,2,0:0:0:0:
423,115,192262,1,2,0:0:0:0:
470,209,192418,2,0,L|370:205,1,80.9999975280763,2|0,0:0|1:0,0:0:0:0:
425,303,192731,5,2,0:0:0:0:
425,303,192887,1,2,0:0:0:0:
425,303,193043,1,2,0:0:0:0:
425,303,193200,1,10,0:0:0:0:
425,303,193356,1,2,0:0:0:0:
425,303,193512,1,2,0:0:0:0:
354,350,193668,1,2,0:0:0:0:
276,319,193825,6,0,L|174:324,1,80.9999975280763,2|0,1:0|0:0,0:0:0:0:
353,338,194137,1,2,1:0:0:0:
275,307,194293,2,0,L|173:312,1,80.9999975280763,2|8,0:0|0:0,0:0:0:0:
352,326,194606,1,2,0:0:0:0:
274,295,194762,2,0,L|172:300,2,80.9999975280763,2|2|0,0:0|0:0|1:0,0:0:0:0:
237,203,195231,5,2,0:0:0:0:
237,203,195387,1,2,1:0:0:0:
237,203,195543,1,2,0:0:0:0:
237,203,195700,2,0,L|234:115,2,80.9999975280763,10|2|2,0:0|0:0|1:0,0:0:0:0:
326,152,196168,1,2,0:0:0:0:
427,187,196325,6,0,L|424:99,1,80.9999975280763,2|0,1:0|0:0,0:0:0:0:
506,136,196637,1,2,1:0:0:0:
420,172,196794,2,0,L|417:84,1,80.9999975280763,2|8,0:0|0:0,0:0:0:0:
326,152,197105,1,2,0:0:0:0:
326,152,197262,1,2,1:0:0:0:
413,157,197418,2,0,L|410:69,1,80.9999975280763,2|0,0:0|1:0,0:0:0:0:
314,13,197731,5,2,0:0:0:0:
314,13,197887,1,2,1:0:0:0:
314,13,198043,1,2,0:0:0:0:
314,13,198200,2,0,P|237:39|146:41,1,161.999995056153,10|2,0:0|1:0,0:0:0:0:
156,42,198668,1,2,0:0:0:0:
92,129,198825,5,14,0:1:0:0:
205,142,198981,1,10,0:1:0:0:
318,155,199137,1,10,0:1:0:0:
92,129,199450,5,2,1:0:0:0:
318,155,199762,1,2,1:0:0:0:
387,240,200075,5,14,0:1:0:0:
262,254,200231,1,10,0:1:0:0:
138,268,200387,1,10,0:1:0:0:
387,240,200700,5,2,1:0:0:0:
138,268,201012,1,2,1:0:0:0:
61,354,201325,5,14,0:1:0:0:
198,369,201481,1,10,0:1:0:0:
334,384,201637,1,10,0:1:0:0:
61,354,201950,5,2,1:0:0:0:
334,384,202262,1,2,1:0:0:0:
334,384,202575,5,4,1:0:0:0:
412,100,207575,5,4,1:0:0:0:
404,194,207731,2,2,L|408:310,1,107.999996704102
412,100,208200,1,8,0:1:0:0:
509,142,208356,2,0,L|505:34,1,107.999996704102,2|2,0:0|0:0,0:0:0:0:
412,100,208825,5,0,1:0:0:0:
404,194,208981,2,2,L|408:310,1,107.999996704102,0|0,0:0|0:0,0:0:0:0:
412,100,209450,1,8,0:1:0:0:
509,142,209606,2,0,L|505:34,1,107.999996704102,2|2,0:0|0:0,0:0:0:0:
339,26,210075,5,10,0:1:0:0:
255,129,210231,1,10,0:1:0:0:
232,244,210387,1,10,0:1:0:0:
261,336,210543,1,10,0:1:0:0:
261,336,210700,1,10,0:1:0:0:
232,244,210856,1,10,0:1:0:0:
255,129,211012,1,10,0:1:0:0:
339,26,211168,1,10,0:1:0:0:
255,129,211325,5,10,0:1:0:0:
255,129,211637,1,14,0:1:0:0:
256,192,211715,12,4,213825,1:0:0:0:
151,75,216325,6,0,L|163:263,1,175.499991966248,6|0,1:0|0:0,0:0:0:0:
251,301,216637,2,0,L|262:125,1,175.499991966248,14|0,0:1|0:0,0:0:0:0:
343,74,216950,2,0,L|355:262,1,175.499991966248,6|0,0:1|0:0,0:0:0:0:
427,288,217262,2,0,L|438:112,1,175.499991966248,14|0,0:1|0:0,0:0:0:0:
442,5,217575,6,0,B|388:25|344:74|344:74|291:42|226:36,1,233.999989288331,6|8,1:0|0:0,0:0:0:0:
137,57,218043,1,2,1:0:0:0:
94,149,218200,2,0,P|153:183|212:190,1,116.999994644165,2|2,0:0|1:0,0:0:0:0:
228,177,218434,1,2,1:0:0:0:
228,177,218512,1,10,0:0:0:0:
333,298,218668,6,0,L|338:179,1,116.999994644165,2|0,0:0|1:0,0:0:0:0:
343,74,218981,1,2,0:0:0:0:
428,144,219137,1,10,0:0:0:0:
449,255,219293,1,2,1:0:0:0:
449,255,219450,6,0,L|444:371,1,116.999994644165,2|0,0:0|1:0,0:0:0:0:
250,384,219762,2,0,L|245:267,1,116.999994644165,10|0,0:0|1:0,0:0:0:0:
232,94,220075,6,0,B|162:126|162:126|-2:109,1,233.999989288331,2|10,1:0|0:0,0:0:0:0:
5,208,220543,1,2,1:0:0:0:
63,291,220700,1,2,0:0:0:0:
147,358,220856,1,2,1:0:0:0:
147,358,220934,1,2,1:0:0:0:
147,358,221012,1,10,0:0:0:0:
250,384,221168,6,0,P|304:345|478:316,1,233.999989288331,2|2,0:0|0:0,0:0:0:0:
465,314,221637,2,0,L|461:189,1,116.999994644165,10|2,0:0|1:0,0:0:0:0:
380,95,221950,2,0,P|373:152|347:211,1,116.999994644165,2|0,0:0|1:0,0:0:0:0:
200,160,222262,2,0,P|207:103|233:44,1,116.999994644165,10|2,0:0|1:0,0:0:0:0:
255,29,222496,1,0,1:0:0:0:
255,29,222575,6,0,L|8:37,1,233.999989288331,6|8,1:0|0:0,0:0:0:0:
23,131,223043,1,2,1:0:0:0:
64,225,223200,1,2,0:0:0:0:
156,272,223356,1,2,1:0:0:0:
156,272,223434,1,0,1:0:0:0:
156,272,223512,1,10,0:0:0:0:
259,275,223668,6,0,P|314:175|422:137,1,233.999989288331,2|2,0:0|0:0,0:0:0:0:
422,137,224137,2,0,L|413:17,1,116.999994644165,10|2,0:0|1:0,0:0:0:0:
257,11,224450,2,0,L|248:127,1,116.999994644165,2|0,0:0|1:0,0:0:0:0:
92,137,224762,2,0,L|83:20,1,116.999994644165,10|0,0:0|1:0,0:0:0:0:
28,277,225075,6,0,B|101:302|156:279|148:274|211:255|271:279,1,233.999989288331,6|10,1:0|0:0,0:0:0:0:
375,320,225543,1,2,1:0:0:0:
397,210,225700,1,2,0:0:0:0:
351,107,225856,1,2,1:0:0:0:
351,107,225934,1,2,1:0:0:0:
351,107,226012,1,10,0:0:0:0:
244,46,226168,6,0,L|249:182,2,116.999994644165,2|0|2,0:0|1:0|0:0,0:0:0:0:
150,113,226637,1,10,0:0:0:0:
155,233,226793,1,2,1:0:0:0:
150,113,226950,1,2,0:0:0:0:
150,113,227028,1,0,0:0:0:0:
150,113,227106,2,0,L|76:119,1,58.4999973220826,2|0,1:0|0:0,0:0:0:0:
96,228,227262,1,10,0:0:0:0:
96,228,227340,1,0,1:0:0:0:
96,228,227418,2,0,L|170:234,1,58.4999973220826,2|0,1:0|1:0,0:0:0:0:
256,240,227575,6,0,P|268:302|429:355,1,233.999989288331,6|8,1:0|0:0,0:0:0:0:
498,287,228043,1,2,0:0:0:0:
485,183,228200,2,0,L|474:64,1,116.999994644165,0|0,0:0|1:0,0:0:0:0:
469,32,228434,1,0,1:0:0:0:
469,32,228512,1,8,0:0:0:0:
327,48,228668,6,0,B|345:72|373:88|373:88|356:155|365:276,1,233.999989288331,2|2,0:0|0:0,0:0:0:0:
264,356,229137,2,0,L|255:226,1,116.999994644165,10|2,0:0|1:0,0:0:0:0:
159,112,229450,2,0,L|150:228,1,116.999994644165,2|0,0:0|1:0,0:0:0:0:
54,356,229762,2,0,L|45:239,1,116.999994644165,10|0,0:0|1:0,0:0:0:0:
31,76,230075,6,0,B|101:76|159:112|159:112|216:102|258:71,1,233.999989288331,4|10,1:0|0:0,0:0:0:0:
250,76,230543,1,2,1:0:0:0:
278,177,230700,1,2,0:0:0:0:
274,279,230856,1,2,1:0:0:0:
274,279,230934,1,2,1:0:0:0:
274,279,231012,1,10,0:0:0:0:
214,355,231168,6,0,P|268:359|338:378,1,116.999994644165,2|0,0:0|1:0,0:0:0:0:
428,382,231481,2,0,L|418:260,2,116.999994644165,2|10|2,0:0|0:0|1:0,0:0:0:0:
369,192,231950,2,0,P|403:137|416:80,1,116.999994644165,2|2,0:0|1:0,0:0:0:0:
407,0,232262,1,10,0:0:0:0:
291,94,232418,1,2,1:0:0:0:
291,94,232496,1,0,1:0:0:0:
291,94,232575,6,0,B|234:85|234:85|117:147|117:147|63:124,1,233.999989288331,6|8,1:0|0:0,0:0:0:0:
0,81,233043,1,2,1:0:0:0:
12,200,233200,2,0,P|32:259|71:313,1,116.999994644165,2|2,0:0|1:0,0:0:0:0:
88,322,233434,1,0,1:0:0:0:
88,322,233512,1,10,0:0:0:0:
251,236,233668,6,0,L|262:362,1,116.999994644165,2|0,0:0|1:0,0:0:0:0:
362,351,233981,1,2,0:0:0:0:
487,336,234137,1,10,0:0:0:0:
473,211,234293,1,2,1:0:0:0:
347,225,234450,2,0,L|335:103,1,116.999994644165,2|0,0:0|1:0,0:0:0:0:
216,8,234762,2,0,L|204:124,1,116.999994644165,10|0,0:0|1:0,0:0:0:0:
171,214,234996,1,0,1:0:0:0:
171,214,235075,6,0,P|102:227|47:269,1,135.000005149842,4|0,1:0|0:0,0:0:0:0:
0,349,235387,1,10,0:0:0:0:
0,349,235543,1,2,1:0:0:0:
179,348,235700,2,0,L|170:208,1,135.000005149842,6|2,1:0|1:0,0:0:0:0:
264,207,235934,1,2,1:0:0:0:
264,207,236012,2,0,L|272:341,1,135.000005149842,10|0,0:0|0:0,0:0:0:0:
406,358,236325,5,14,0:1:0:0:
415,242,236481,1,0,1:0:0:0:
459,140,236637,5,14,0:1:0:0:
450,24,236793,1,0,1:0:0:0:
350,88,236950,5,14,0:1:0:0:
350,88,237028,1,0,1:0:0:0:
350,88,237106,2,0,L|273:92,1,67.5000025749208,0|0,1:0|1:0,0:0:0:0:
197,69,237263,1,10,0:1:0:0:
197,69,237341,1,0,1:0:0:0:
197,69,237418,2,0,L|120:65,1,67.5000025749208,0|0,1:0|1:0,0:0:0:0:
44,58,237575,5,14,0:1:0:0:
256,192,237653,12,10,238512,0:0:0:0:
114,184,238825,5,6,1:0:0:0:
197,69,238981,1,2,0:0:0:0:
209,162,239137,1,8,0:0:0:0:
106,35,239293,1,0,1:0:0:0:
114,184,239450,2,0,L|122:316,1,125.999996154785,2|0,0:0|1:0,0:0:0:0:
315,378,239762,2,0,B|328:330|316:285|308:300|296:259|311:224,1,144,10|0,0:0|0:0,0:0:0:0:
405,111,240075,6,0,P|342:131|269:133,1,125.999996154785,2|0,1:0|0:0,0:0:0:0:
197,69,240387,1,8,0:0:0:0:
314,40,240543,1,2,1:0:0:0:
416,120,240700,2,0,P|353:140|280:142,1,125.999996154785,2|0,0:0|1:0,0:0:0:0:
197,69,241012,1,10,0:0:0:0:
209,210,241168,6,0,L|215:337,1,125.999996154785,2|0,0:0|1:0,0:0:0:0:
314,382,241481,1,2,0:0:0:0:
334,270,241637,1,10,0:0:0:0:
314,158,241793,1,2,1:0:0:0:
333,48,241950,5,2,0:0:0:0:
501,59,242106,1,2,1:0:0:0:
333,48,242262,2,0,P|271:73|186:81,1,125.999996154785,10|0,0:0|1:0,0:0:0:0:
87,89,242575,5,2,1:0:0:0:
96,231,242731,1,0,0:0:0:0:
87,89,242887,2,0,L|239:79,1,125.999996154785,8|0,0:0|1:0,0:0:0:0:
439,166,243200,5,2,0:0:0:0:
430,308,243356,1,2,1:0:0:0:
439,166,243512,2,0,L|287:156,1,125.999996154785,8|2,0:0|0:0,0:0:0:0:
188,183,243825,5,2,1:0:0:0:
213,308,243981,1,2,0:0:0:0:
338,282,244137,1,10,0:0:0:0:
313,157,244293,1,2,1:0:0:0:
338,282,244450,2,0,L|483:294,1,125.999996154785,2|0,0:0|1:0,0:0:0:0:
188,183,244762,2,0,L|43:171,1,125.999996154785,10|0,0:0|1:0,0:0:0:0:
311,40,245075,6,0,B|341:19|341:19|346:188|346:188|309:153,1,251.999992309571,2|10,1:0|0:0,0:0:0:0:
234,101,245543,1,2,1:0:0:0:
174,185,245700,1,2,0:0:0:0:
190,297,245856,1,2,1:0:0:0:
190,297,245934,1,2,1:0:0:0:
190,297,246012,1,10,0:0:0:0:
292,375,246168,6,0,P|280:304|285:246,1,125.999996154785,2|0,0:0|1:0,0:0:0:0:
312,156,246481,1,0,0:0:0:0:
234,101,246637,1,8,0:0:0:0:
118,80,246793,1,0,1:0:0:0:
2,171,246950,2,0,L|8:241,1,62.9999980773926,2|0,0:0|0:0,0:0:0:0:
93,281,247106,2,0,L|87:211,1,62.9999980773926,2|0,1:0|0:0,0:0:0:0:
165,160,247262,2,0,L|171:230,1,62.9999980773926,10|0,0:0|0:0,0:0:0:0:
181,318,247418,1,0,1:0:0:0:
181,318,247496,1,0,1:0:0:0:
181,318,247575,6,0,L|307:323,1,125.999996154785,4|0,1:0|0:0,0:0:0:0:
416,327,247887,1,8,0:0:0:0:
382,226,248043,1,0,1:0:0:0:
290,164,248200,2,0,L|164:159,1,125.999996154785,2|0,0:0|1:0,0:0:0:0:
436,114,248512,1,8,0:0:0:0:
357,55,248668,1,0,1:0:0:0:
249,52,248825,6,0,B|156:60|156:60|93:11|-8:9,1,251.999992309571,2|10,1:0|0:0,0:0:0:0:
6,13,249293,1,2,1:0:0:0:
28,226,249450,2,0,P|37:157|62:95,1,125.999996154785,2|0,0:0|1:0,0:0:0:0:
201,371,249762,2,0,P|192:302|167:240,1,125.999996154785,10|0,0:0|1:0,0:0:0:0:
285,155,250075,6,0,B|310:140|335:113|335:113|306:202|337:312,1,251.999992309571,6|10,1:0|0:0,0:0:0:0:
333,297,250543,1,2,1:0:0:0:
421,202,250700,1,2,0:0:0:0:
439,85,250856,1,2,1:0:0:0:
439,85,250934,1,2,1:0:0:0:
439,85,251012,1,10,0:0:0:0:
351,8,251168,6,0,B|267:43|267:43|91:20,1,251.999992309571,2|2,0:0|0:0,0:0:0:0:
87,136,251637,2,0,L|220:157,1,125.999996154785,10|2,0:0|1:0,0:0:0:0:
195,270,251950,2,0,L|70:250,1,125.999996154785,2|2,0:0|1:0,0:0:0:0:
0,368,252262,2,0,P|75:353|135:353,1,125.999996154785,10|2,0:0|0:0,0:0:0:0:
364,367,252575,6,0,P|329:303|302:116,1,251.999992309571,6|8,1:0|0:0,0:0:0:0:
300,128,253043,1,2,1:0:0:0:
194,175,253200,1,2,0:0:0:0:
132,271,253356,1,2,1:0:0:0:
132,271,253434,1,2,1:0:0:0:
132,271,253512,1,10,0:0:0:0:
194,175,253668,6,0,P|170:96|146:46,2,125.999996154785,2|0|2,0:0|1:0|0:0,0:0:0:0:
134,265,254137,2,0,L|-6:270,1,125.999996154785,10|2,0:0|1:0,0:0:0:0:
202,384,254450,2,0,P|208:315|225:258,1,125.999996154785,10|0,0:1|1:0,0:0:0:0:
423,275,254762,2,0,P|417:206|400:149,1,125.999996154785,10|0,0:1|1:0,0:0:0:0:
292,40,255075,5,10,0:1:0:0:
307,213,255231,1,10,0:1:0:0:
231,132,255387,1,10,0:0:0:0:
231,132,255543,1,2,0:0:0:0:
170,40,255700,5,10,0:1:0:0:
155,213,255856,1,10,0:1:0:0:
155,213,255934,1,2,0:0:0:0:
155,213,256012,1,10,0:0:0:0:
231,132,256168,1,2,0:0:0:0:
33,230,256325,6,0,L|39:167,1,62.9999980773926,8|0,0:1|0:0,0:0:0:0:
55,85,256481,2,0,L|48:147,1,62.9999980773926,0|0,1:0|0:0,0:0:0:0:
42,219,256637,2,0,L|48:156,1,62.9999980773926,8|0,0:1|0:0,0:0:0:0:
64,74,256793,2,0,L|57:136,1,62.9999980773926,0|0,1:0|0:0,0:0:0:0:
155,213,256950,6,0,L|161:150,1,62.9999980773926,8|0,0:1|0:0,0:0:0:0:
177,68,257106,2,0,L|170:130,1,62.9999980773926,0|0,1:0|0:0,0:0:0:0:
164,202,257262,2,0,L|170:139,1,62.9999980773926,8|0,0:1|0:0,0:0:0:0:
186,57,257418,2,0,L|179:119,1,62.9999980773926,0|0,1:0|1:0,0:0:0:0:
261,188,257575,5,10,0:1:0:0:
261,188,257653,1,0,1:0:0:0:
261,188,257731,2,0,L|330:191,1,62.9999980773926,0|0,1:0|1:0,0:0:0:0:
404,268,257887,1,10,0:1:0:0:
404,268,257965,1,0,1:0:0:0:
404,268,258043,2,0,L|335:271,1,62.9999980773926,0|0,1:0|1:0,0:0:0:0:
251,278,258200,6,0,L|257:341,3,41.9999987182618,8|8|8|0,0:1|0:1|0:1|1:0,0:0:0:0:
130,373,258512,2,0,L|136:310,3,41.9999987182618,8|8|8|0,0:1|0:1|0:1|1:0,0:0:0:0:
22,282,258825,5,4,1:0:0:0:
256,192,258903,12,2,260700,0:0:0:0:
