osu file format v14

[General]
AudioFilename: audio.mp3
AudioLeadIn: 0
PreviewTime: 70700
Countdown: 0
SampleSet: Soft
StackLeniency: 0.4
Mode: 0
LetterboxInBreaks: 0
WidescreenStoryboard: 1

[Editor]
DistanceSpacing: 1.1
BeatDivisor: 4
GridSize: 4
TimelineZoom: 2.7

[Metadata]
Title:Itazura Sensation
TitleUnicode:悪戯センセーション
Artist:ShinRa-Bansho
ArtistUnicode:森羅万象
Creator:UberFazz
Version:Hard
Source:東方紅魔郷 ~ the Embodiment of Scarlet Devil.
Tags:cranberry video game japanese pop j-pop jpop rock electronic mischievous touhou 6 th6 2hu 東方Project eosd flandre scarlet フランドール・スカーレット u. n. owen was her? U.N.オーエンは彼女なのか? remilia scarlet レミリア・スカーレット septette for the dead princess 亡き王女の為のセプテット ayo あよ ayaponzu* あやぽんず* kaztora
BeatmapID:2681592
BeatmapSetID:1276485

[Difficulty]
HPDrainRate:5
CircleSize:3.8
OverallDifficulty:7.5
ApproachRate:8
SliderMultiplier:1.4
SliderTickRate:1

[Events]
//Background and Video events
0,0,"flan+remi.jpg",0,0
//Break Periods
2,47775,57450
2,94650,96200
2,115700,117137
2,202775,206825
//Storyboard Layer 0 (Background)
//Storyboard Layer 1 (Fail)
//Storyboard Layer 2 (Pass)
//Storyboard Layer 3 (Foreground)
//Storyboard Layer 4 (Overlay)
//Storyboard Sound Samples

[TimingPoints]
1325,312.5,4,2,2,60,1,0
1325,-100,4,2,2,60,0,0
1403,-100,4,2,1,60,0,0
8825,-125,4,2,1,30,0,0
9137,-111.111111111111,4,2,1,40,0,0
9450,-100,4,2,1,50,0,0
9762,-90.9090909090909,4,2,1,60,0,0
10075,-100,4,2,1,60,0,0
11481,-71.4285714285714,4,2,1,65,0,0
12575,-76.9230769230769,4,2,2,70,0,0
12653,-76.9230769230769,4,2,1,70,0,0
12887,-76.9230769230769,4,2,1,70,0,0
23825,-125,4,2,1,60,0,0
25075,-125,4,2,2,60,0,0
25153,-125,4,2,1,60,0,0
33825,-111.111111111111,4,2,1,60,0,0
47575,312.5,3,2,1,60,1,0
47575,-125,3,2,1,60,0,0
58200,312.5,4,2,2,60,1,0
58200,-125,3,2,2,60,0,0
60778,-125,3,2,1,65,0,0
65700,-90.9090909090909,3,2,1,65,0,0
66012,-250,3,2,1,65,0,0
66325,-90.9090909090909,3,2,1,65,0,0
66637,-250,3,2,1,65,0,0
66950,-90.9090909090909,3,2,1,65,0,0
67262,-250,3,2,1,65,0,0
67575,-90.9090909090909,3,2,1,65,0,0
67887,-250,3,2,1,65,0,0
68200,-90.9090909090909,3,2,1,70,0,0
71950,-76.9230769230769,3,2,2,80,0,1
72028,-76.9230769230769,3,2,1,80,0,1
91950,-100,4,2,1,80,0,0
92028,-100,4,2,1,60,0,0
103200,-100,4,2,2,60,0,0
103278,-100,4,2,1,60,0,0
113200,-166.666666666667,4,2,1,60,0,0
115700,-83.3333333333333,4,2,1,60,0,0
116950,294.117647058824,4,2,1,60,1,0
116950,-500,4,2,1,60,0,0
117538,348.837209302326,4,2,1,60,1,0
117538,-500,4,2,1,60,0,0
118200,312.5,4,2,1,60,1,0
118200,-100,4,2,1,60,0,0
129450,312.5,6,2,1,60,1,0
129450,-125,6,2,1,60,0,0
138825,312.5,4,2,2,65,1,0
138825,-142.857142857143,4,2,2,65,0,0
138903,-142.857142857143,4,2,2,65,0,0
141325,-142.857142857143,4,2,1,65,0,0
143825,-90.909090909091,4,2,1,65,0,0
144137,-250,4,2,1,65,0,0
144450,-90.909090909091,4,2,1,65,0,0
144762,-250,4,2,1,65,0,0
145075,-90.909090909091,4,2,1,65,0,0
145387,-250,4,2,1,65,0,0
145700,-90.909090909091,4,2,1,65,0,0
146012,-250,4,2,1,65,0,0
146325,-90.909090909091,4,2,1,70,0,0
150075,-76.9230769230769,4,2,2,80,0,1
150153,-76.9230769230769,4,2,1,80,0,1
170075,-90.9090909090909,4,2,1,80,0,0
170153,-90.9090909090909,4,2,1,70,0,0
176637,-83.3333333333333,4,2,1,70,0,0
176950,-76.9230769230769,4,2,1,70,0,0
177262,-71.4285714285714,4,2,1,70,0,0
178200,-90.9090909090909,4,2,1,70,0,0
180075,-90.9090909090909,4,2,2,70,0,0
180153,-90.9090909090909,4,2,2,60,0,0
185387,-166.666666666667,4,2,1,60,0,0
190075,-111.111111111111,4,2,1,70,0,0
202575,-166.666666666666,4,2,1,60,0,0
202653,-166.666666666666,4,2,1,40,0,0
207575,-166.666666666666,4,2,1,50,0,0
208825,-166.666666666666,4,2,1,60,0,0
210075,-90.9090909090907,4,2,1,70,0,0
211637,-166.666666666666,4,2,2,70,0,0
211715,-166.666666666666,4,2,2,70,0,0
213825,-166.666666666666,4,2,1,70,0,0
215075,-142.857142857142,4,2,1,60,0,0
216325,-76.9230769230769,4,2,1,70,0,0
217575,-76.9230769230769,4,2,2,80,0,1
217653,-76.9230769230769,4,2,1,80,0,1
235075,-66.6666666666667,4,2,1,80,0,1
237575,-250,4,2,1,80,0,0
238825,-71.4285714285714,4,2,2,80,0,1
238903,-71.4285714285714,4,2,1,80,0,1
239762,-62.5,4,2,1,80,0,1
240075,-71.4285714285714,4,2,1,80,0,1
247575,-71.4285714285714,4,2,2,80,0,1
247653,-71.4285714285714,4,2,1,80,0,1
258200,-62.5,4,2,1,80,0,1
258825,-100,4,2,2,80,0,0
258903,-100,4,2,2,60,0,0
260700,-100,4,2,1,60,0,0

[Colours]
Combo1 : 255,66,66
Combo2 : 208,92,237
Combo3 : 55,155,255
Combo4 : 0,198,0
Combo5 : 231,215,14
Combo6 : 255,140,85

[HitObjects]
106,89,1325,5,6,1:0:0:0:
106,89,1481,2,0,P|187:66|306:103,1,210,2|10,0:0|0:1,0:0:0:0:
302,202,2106,2,0,P|221:225|102:188,1,210,2|2,0:0|0:0,0:0:0:0:
103,189,2731,1,2,0:0:0:0:
65,307,3043,1,2,0:0:0:0:
65,307,3199,2,0,L|70:387,2,70,8|2|2,0:1|0:0|0:0,0:0:0:0:
209,349,3825,5,2,1:0:0:0:
209,349,3981,2,0,L|426:340,1,210,2|10,0:0|0:1,0:0:0:0:
412,244,4606,2,0,L|202:252,1,210,2|2,0:0|0:0,0:0:0:0:
202,252,5231,1,2,0:0:0:0:
191,135,5543,1,2,0:0:0:0:
191,135,5700,2,0,L|186:56,2,70,8|2|2,0:1|0:0|0:0,0:0:0:0:
340,120,6325,5,2,1:0:0:0:
340,120,6481,1,0,0:0:0:0:
363,301,6950,1,10,0:1:0:0:
363,301,7106,1,0,0:0:0:0:
213,226,7575,6,0,L|294:217,2,70,2|2|2,0:0|0:0|1:0,0:0:0:0:
119,229,8043,2,0,L|38:220,2,70,2|8|2,0:0|0:1|0:0,0:0:0:0:
165,304,8512,1,2,0:0:0:0:
282,218,8825,6,0,L|272:87,3,112,10|10|10|10,0:1|0:1|0:1|0:1,0:0:0:0:
273,106,10075,5,12,0:1:0:0:
273,106,10231,1,8,0:1:0:0:
368,97,10387,1,8,0:1:0:0:
368,97,10543,2,0,L|371:147,9,35,8|8|8|8|8|8|8|8|8|8,0:1|0:1|0:1|0:1|0:1|0:1|0:1|0:1|0:1|0:1,3:0:0:0:
417,343,12262,1,2,0:0:0:0:
417,343,12575,6,0,P|411:253|376:160,1,181.999991668702,4|8,1:0|0:0,0:0:0:0:
279,183,13043,2,0,P|284:272|319:365,1,181.999991668702,0|0,1:0|1:0,0:0:0:0:
315,358,13512,1,10,0:0:0:0:
240,381,13668,1,2,0:0:0:0:
167,349,13825,6,0,B|144:286|144:286|163:162,1,181.999991668702,2|10,1:0|0:0,0:0:0:0:
181,81,14293,1,2,1:0:0:0:
181,81,14450,2,0,L|84:75,1,90.9999958343508,2|2,0:0|1:0,0:0:0:0:
90,75,14762,1,10,0:0:0:0:
30,175,15075,6,0,L|43:368,1,181.999991668702,2|10,1:0|0:0,0:0:0:0:
140,349,15543,2,0,L|127:156,1,181.999991668702,2|2,1:0|1:0,0:0:0:0:
127,167,16012,1,8,0:0:0:0:
217,156,16168,1,0,0:0:0:0:
295,121,16325,6,0,P|312:178|379:286,1,181.999991668702,2|10,1:0|0:0,0:0:0:0:
445,361,16793,1,0,1:0:0:0:
445,361,16950,2,0,L|263:364,1,181.999991668702,2|10,0:0|0:0,0:0:0:0:
263,363,17575,6,0,B|222:330|222:330|209:196,1,181.999991668702,2|10,1:0|0:0,0:0:0:0:
202,117,18043,2,0,L|19:124,1,181.999991668702,0|0,1:0|1:0,0:0:0:0:
20,123,18512,1,10,0:0:0:0:
19,210,18668,1,2,0:0:0:0:
5,294,18825,6,0,P|72:299|195:346,1,181.999991668702,2|10,1:0|0:0,0:0:0:0:
263,377,19293,1,2,1:0:0:0:
263,377,19450,2,0,L|258:282,1,90.9999958343508,2|2,0:0|1:0,0:0:0:0:
258,286,19762,1,10,0:0:0:0:
307,182,20075,6,0,B|365:207|365:207|489:191,1,181.999991668702,2|10,1:0|0:0,0:0:0:0:
491,99,20543,2,0,B|433:74|433:74|309:90,1,181.999991668702,2|0,1:0|1:0,0:0:0:0:
315,89,21012,1,10,0:0:0:0:
199,138,21325,5,8,0:1:0:0:
111,112,21481,1,8,0:1:0:0:
23,86,21637,1,8,0:1:0:0:
75,226,21950,1,10,0:0:0:0:
75,226,22106,2,0,L|25:229,2,45.4999979171754,2|2|2,0:0|0:0|0:0,0:0:0:0:
165,266,22418,1,2,0:0:0:0:
165,266,22496,1,2,0:0:0:0:
165,266,22575,6,0,L|171:390,1,90.9999958343508,2|2,1:0|0:0,0:0:0:0:
268,357,22887,2,0,L|263:266,1,90.9999958343508,10|2,0:0|1:0,0:0:0:0:
261,176,23200,2,0,L|353:180,2,90.9999958343508,2|2|10,0:0|1:0|0:0,0:0:0:0:
358,269,23668,1,2,0:0:0:0:
358,269,23825,6,0,P|403:273|469:300,1,112,2|2,1:0|1:0,0:0:0:0:
484,212,24293,2,0,B|498:170|498:170|487:39,1,168,2|0,1:0|0:0,0:0:0:0:
407,16,24918,1,0,1:0:0:0:
407,16,24996,1,0,1:0:0:0:
407,16,25075,6,0,P|352:37|291:42,1,112,6|10,1:0|0:0,0:0:0:0:
299,42,25543,1,2,1:0:0:0:
179,69,25856,2,0,L|116:72,2,56,2|10|2,1:0|0:0|0:0,0:0:0:0:
163,179,26481,6,0,L|234:184,2,56,2|10|2,0:0|0:0|1:0,0:0:0:0:
160,262,26950,1,2,0:0:0:0:
160,262,27106,2,0,L|231:267,2,56,2|10|2,1:0|0:0|1:0,0:0:0:0:
194,350,27575,6,0,P|251:356|313:378,1,112,2|10,1:0|0:0,0:0:0:0:
302,373,28043,1,2,1:0:0:0:
435,378,28356,2,0,L|430:313,1,56,2|10,1:0|0:0,0:0:0:0:
424,236,28668,2,0,P|371:231|305:198,1,112,2|2,0:0|0:0,0:0:0:0:
244,151,29137,1,8,0:0:0:0:
244,151,29293,2,0,L|247:81,1,56,2|2,1:0|0:0,0:0:0:0:
157,148,29606,2,0,L|159:92,2,56,2|10|2,1:0|0:0|0:0,0:0:0:0:
201,237,30075,5,14,0:1:0:0:
201,237,30231,1,10,0:1:0:0:
201,237,30387,1,10,0:1:0:0:
121,311,31325,5,14,0:1:0:0:
121,311,31481,1,10,0:1:0:0:
121,311,31637,1,10,0:1:0:0:
121,311,32262,1,0,1:0:0:0:
121,311,32575,6,0,P|170:341|227:353,1,112,6|10,1:0|0:0,0:0:0:0:
308,336,33043,1,2,1:0:0:0:
308,336,33356,2,0,L|303:260,1,56,2|8,1:0|0:0,0:0:0:0:
339,197,33668,2,0,L|344:121,1,56,2|0,0:0|1:0,0:0:0:0:
352,56,33981,1,2,1:0:0:0:
352,56,34137,2,0,L|348:21,3,31.4999990386963,10|0|0|0,0:0|1:0|1:0|1:0,0:0:0:0:
303,73,34450,2,0,L|299:108,3,31.4999990386963,0|0|0|0,1:0|1:0|1:0|1:0,0:0:0:0:
255,63,34762,2,0,L|252:32,3,31.4999990386963,8|0|0|0,0:0|1:0|1:0|1:0,0:0:0:0:
163,57,36325,6,0,L|157:184,1,125.999996154785,6|10,1:0|0:0,0:0:0:0:
70,206,36793,2,0,L|76:333,1,125.999996154785,2|2,1:0|1:0,0:0:0:0:
75,331,37262,1,10,0:0:0:0:
75,331,37418,1,2,0:0:0:0:
173,373,37575,6,0,L|175:295,2,62.9999980773926,2|2|10,1:0|0:0|0:0,0:0:0:0:
267,338,38043,1,2,1:0:0:0:
267,338,38200,2,0,L|404:331,1,125.999996154785,2|10,0:0|0:0,0:0:0:0:
392,331,38668,1,0,0:0:0:0:
392,331,38825,5,2,1:0:0:0:
403,220,39137,2,0,P|410:180|418:154,2,62.9999980773926,10|2|0,0:0|1:0|0:0,0:0:0:0:
319,170,39606,2,0,L|268:172,2,31.4999990386963,2|2|10,1:0|1:0|0:0,0:0:0:0:
361,87,39918,1,2,0:0:0:0:
361,87,40075,6,0,L|229:83,2,125.999996154785,2|10|2,1:0|0:0|0:0,0:0:0:0:
319,170,40856,1,2,1:0:0:0:
319,170,41012,2,0,L|233:171,1,62.9999980773926,10|2,0:0|0:0,0:0:0:0:
173,173,41325,5,2,1:0:0:0:
173,173,41481,2,0,L|177:249,2,62.9999980773926,2|10|2,0:0|0:0|1:0,0:0:0:0:
181,318,41950,2,0,P|220:320|259:328,2,62.9999980773926,2|2|8,0:0|1:0|0:0,0:0:0:0:
100,284,42418,1,2,0:0:0:0:
100,284,42575,6,0,B|68:300|68:300|65:184,1,125.999996154785,0|10,1:0|0:0,0:0:0:0:
61,120,43043,1,2,1:0:0:0:
61,120,43200,2,0,L|135:125,1,62.9999980773926,2|2,0:0|1:0,0:0:0:0:
202,83,43512,2,0,L|276:78,1,62.9999980773926,10|2,0:0|1:0,0:0:0:0:
359,81,43825,6,0,P|334:137|333:269,1,188.999994232178,2|2,1:0|0:0,0:0:0:0:
375,338,44450,2,0,L|167:342,1,188.999994232178,2|2,1:0|0:0,0:0:0:0:
161,323,44996,1,2,0:0:0:0:
161,323,45075,6,0,L|157:187,1,125.999996154785,2|10,1:0|0:0,0:0:0:0:
153,114,45543,1,2,1:0:0:0:
153,114,45700,2,0,L|80:118,1,62.9999980773926,2|2,0:0|1:0,0:0:0:0:
62,203,46012,2,0,L|63:269,1,62.9999980773926,10|2,0:0|0:0,0:0:0:0:
63,265,47575,5,4,1:0:0:0:
256,192,58200,5,4,1:0:0:0:
256,192,58278,12,4,60700,1:0:0:0:
186,253,61012,5,2,0:0:0:0:
186,253,61325,2,0,L|177:367,1,112,10|2,0:0|0:0,0:0:0:0:
68,281,61950,2,0,P|86:247|105:163,2,112,0|2|10,0:0|1:0|0:0,0:0:0:0:
68,281,62887,1,2,0:0:0:0:
186,253,63200,6,0,B|195:216|195:216|190:128,1,112,4|2,1:0|0:0,0:0:0:0:
311,139,63825,2,0,B|302:102|302:102|307:14,1,112,10|2,0:0|0:0,0:0:0:0:
306,28,64450,1,0,0:0:0:0:
420,88,64762,1,2,1:0:0:0:
438,210,65075,2,0,L|435:331,1,112,10|2,0:0|0:0,0:0:0:0:
435,321,65700,6,0,L|277:329,1,154.000004699707,12|0,0:1|0:0,0:0:0:0:
191,246,66325,2,0,L|344:238,1,154.000004699707,12|0,0:1|0:0,0:0:0:0:
447,330,66950,2,0,L|289:338,1,154.000004699707,12|0,0:1|0:0,0:0:0:0:
203,255,67575,2,0,L|356:247,1,154.000004699707,12|0,0:1|0:0,0:0:0:0:
356,247,68200,6,0,L|351:147,1,77.0000023498536,8|8,0:1|0:1,0:0:0:0:
279,110,68512,2,0,L|284:10,1,77.0000023498536,8|8,0:1|0:1,0:0:0:0:
377,0,68825,1,8,0:1:0:0:
377,0,68981,1,8,0:1:0:0:
376,85,69137,1,8,0:1:0:0:
376,85,69293,1,8,0:1:0:0:
352,170,69450,5,0,1:0:0:0:
352,170,69762,1,12,0:1:0:0:
256,192,69840,12,2,70700,0:0:0:0:
256,192,71012,5,2,0:0:0:0:
256,192,71325,1,2,0:0:0:0:
256,192,71637,1,8,0:0:0:0:
256,192,71950,6,0,P|178:160|91:94,1,181.999991668702,6|8,1:0|0:0,0:0:0:0:
99,102,72418,1,2,1:0:0:0:
59,179,72575,1,2,0:0:0:0:
47,266,72731,2,0,L|-2:269,2,45.4999979171754,2|2|10,1:0|1:0|0:0,0:0:0:0:
69,356,73043,6,0,B|134:371|134:371|265:347,1,181.999991668702,2|2,0:0|0:0,0:0:0:0:
247,350,73512,2,0,P|268:309|276:265,1,90.9999958343508,10|2,0:0|1:0,0:0:0:0:
380,227,73825,2,0,P|355:188|320:160,1,90.9999958343508,2|0,0:0|1:0,0:0:0:0:
339,51,74137,2,0,P|293:53|251:69,1,90.9999958343508,10|0,0:0|1:0,0:0:0:0:
219,165,74450,6,0,L|35:172,1,181.999991668702,6|10,1:0|0:0,0:0:0:0:
37,171,74918,1,2,1:0:0:0:
36,81,75075,2,0,L|217:74,1,181.999991668702,2|8,0:0|0:0,0:0:0:0:
313,71,75543,6,0,P|330:127|414:232,1,181.999991668702,2|2,0:0|0:0,0:0:0:0:
403,224,76012,1,10,0:0:0:0:
425,312,76168,1,2,1:0:0:0:
382,384,76325,2,0,L|286:375,1,90.9999958343508,2|0,0:0|1:0,0:0:0:0:
213,356,76637,1,10,0:0:0:0:
286,294,76793,1,2,1:0:0:0:
286,294,76871,1,0,1:0:0:0:
286,294,76950,6,0,B|296:243|296:243|156:241,1,181.999991668702,6|8,1:0|0:0,0:0:0:0:
165,241,77418,1,2,1:0:0:0:
153,163,77575,1,2,0:0:0:0:
163,79,77731,2,0,L|215:77,2,45.4999979171754,2|0|10,1:0|1:0|0:0,0:0:0:0:
73,110,78043,6,0,P|51:168|45:294,1,181.999991668702,2|2,0:0|0:0,0:0:0:0:
119,336,78512,2,0,L|215:334,1,90.9999958343508,10|2,0:0|1:0,0:0:0:0:
255,242,78825,2,0,L|159:240,1,90.9999958343508,2|0,0:0|1:0,0:0:0:0:
302,321,79137,2,0,L|398:319,1,90.9999958343508,10|0,0:0|1:0,0:0:0:0:
498,309,79450,6,0,P|464:255|447:119,1,181.999991668702,6|10,1:0|0:0,0:0:0:0:
444,139,79918,1,2,1:0:0:0:
361,152,80075,1,2,0:0:0:0:
277,129,80231,2,0,L|278:81,2,45.4999979171754,2|0|10,1:0|1:0|0:0,0:0:0:0:
190,110,80543,6,0,P|175:178|108:287,1,181.999991668702,2|2,0:0|0:0,0:0:0:0:
67,352,81012,2,0,L|177:355,1,90.9999958343508,10|2,0:0|1:0,0:0:0:0:
251,361,81325,1,2,0:0:0:0:
251,361,81481,1,0,1:0:0:0:
337,351,81637,2,0,L|340:249,1,90.9999958343508,8|0,0:0|1:0,0:0:0:0:
363,238,81871,1,0,1:0:0:0:
363,238,81950,6,0,P|330:190|302:54,1,181.999991668702,4|8,1:0|0:0,0:0:0:0:
301,71,82418,1,2,1:0:0:0:
223,51,82575,1,2,0:0:0:0:
137,46,82731,2,0,L|142:94,2,45.4999979171754,2|0|10,1:0|1:0|0:0,0:0:0:0:
54,12,83043,6,0,P|53:76|7:187,1,181.999991668702,2|2,0:0|0:0,0:0:0:0:
19,261,83512,2,0,L|116:256,1,90.9999958343508,10|2,0:0|1:0,0:0:0:0:
157,328,83825,2,0,L|254:333,1,90.9999958343508,2|0,0:0|1:0,0:0:0:0:
339,364,84137,2,0,L|436:359,1,90.9999958343508,10|0,0:0|1:0,0:0:0:0:
471,267,84450,6,0,B|496:226|496:226|480:90,1,181.999991668702,6|10,1:0|0:0,0:0:0:0:
480,92,84918,1,2,1:0:0:0:
407,132,85075,1,2,0:0:0:0:
367,208,85231,2,0,L|374:255,2,45.4999979171754,2|0|10,1:0|1:0|0:0,0:0:0:0:
276,191,85543,6,0,L|265:4,1,181.999991668702,2|2,0:0|0:0,0:0:0:0:
178,2,86012,2,0,P|160:59|156:115,1,90.9999958343508,10|2,0:0|1:0,0:0:0:0:
178,170,86325,2,0,P|196:227|200:283,1,90.9999958343508,2|0,0:0|1:0,0:0:0:0:
200,345,86637,1,10,0:0:0:0:
277,294,86793,1,0,1:0:0:0:
277,294,86871,1,0,1:0:0:0:
277,294,86950,6,0,P|328:262|456:244,1,181.999991668702,6|8,1:0|0:0,0:0:0:0:
446,242,87418,1,2,1:0:0:0:
457,162,87575,1,2,0:0:0:0:
450,80,87731,2,0,L|503:73,2,45.4999979171754,2|2|10,1:0|1:0|0:0,0:0:0:0:
386,7,88043,6,0,P|333:36|206:61,1,181.999991668702,2|2,0:0|0:0,0:0:0:0:
127,68,88512,2,0,P|140:112|142:164,1,90.9999958343508,10|2,0:0|1:0,0:0:0:0:
251,155,88825,2,0,P|240:199|215:245,1,90.9999958343508,2|0,0:0|1:0,0:0:0:0:
314,292,89137,2,0,P|282:325|238:352,1,90.9999958343508,10|0,0:0|1:0,0:0:0:0:
215,358,89371,1,0,1:0:0:0:
215,358,89450,6,0,L|94:362,1,90.9999958343508,8|8,0:1|0:1,0:0:0:0:
123,271,89762,2,0,L|244:267,1,90.9999958343508,10|2,0:0|0:0,0:0:0:0:
217,85,90075,6,0,L|126:81,1,90.9999958343508,8|8,0:1|0:1,0:0:0:0:
124,171,90387,2,0,L|214:174,1,90.9999958343508,10|2,0:0|0:0,0:0:0:0:
361,180,90700,5,10,0:1:0:0:
361,180,90856,1,0,1:0:0:0:
470,197,91012,1,10,0:1:0:0:
470,197,91168,1,0,1:0:0:0:
453,306,91325,2,0,L|446:192,1,90.9999958343508,10|0,0:1|1:0,0:0:0:0:
327,95,91637,2,0,L|334:209,1,90.9999958343508,10|0,0:1|1:0,0:0:0:0:
337,219,91871,1,0,1:0:0:0:
337,219,91950,5,12,0:1:0:0:
256,192,92028,12,2,94450,0:0:0:0:
11,11,96950,6,0,L|15:106,1,70,2|2,1:0|0:0,0:0:0:0:
17,300,97575,2,0,L|21:395,1,70,10|2,0:0|0:0,0:0:0:0:
494,375,98200,2,0,L|489:287,2,70,2|2|2,1:0|0:0|0:0,0:0:0:0:
400,328,98668,2,0,L|405:240,2,70,2|8|2,0:0|0:0|0:0,0:0:0:0:
484,221,99137,1,2,0:0:0:0:
500,24,99450,6,0,L|356:32,1,140,8|8,0:0|0:0,0:0:0:0:
318,131,100075,2,0,L|178:123,1,140,8|8,0:0|0:0,0:0:0:0:
50,219,100700,6,0,L|134:215,1,70,8|0,0:0|1:0,0:0:0:0:
186,279,101012,2,0,L|256:282,1,70,8|0,0:0|1:0,0:0:0:0:
341,326,101325,1,8,0:0:0:0:
341,326,101403,1,0,1:0:0:0:
341,326,101481,2,0,L|344:378,5,35,0|0|8|0|0|0,1:0|1:0|0:0|1:0|1:0|1:0,0:0:0:0:
472,111,103200,6,0,P|495:177|504:246,1,140,6|10,1:0|0:0,0:0:0:0:
406,268,103668,2,0,P|383:202|374:133,1,140,2|2,1:0|1:0,0:0:0:0:
373,98,104059,1,2,1:0:0:0:
373,98,104137,2,0,L|284:101,1,70,10|2,0:0|0:0,0:0:0:0:
300,10,104450,2,0,L|370:8,2,70,2|2|10,1:0|0:0|0:0,0:0:0:0:
202,13,104918,2,0,P|146:28|51:35,1,140,2|2,1:0|1:0,0:0:0:0:
13,106,105387,2,0,L|19:199,1,70,10|0,0:0|0:0,0:0:0:0:
30,275,105700,6,0,B|73:301|73:301|177:297,1,140,2|10,1:0|0:0,0:0:0:0:
220,233,106168,2,0,B|263:207|263:207|367:211,1,140,2|2,1:0|1:0,0:0:0:0:
353,210,106637,1,10,0:0:0:0:
353,210,106793,1,2,0:0:0:0:
361,311,106950,6,0,P|288:340|224:379,2,140,2|10|2,1:0|0:0|0:0,0:0:0:0:
459,306,107731,1,2,1:0:0:0:
459,306,107887,2,0,L|465:391,1,70,10|0,0:0|0:0,0:0:0:0:
460,206,108200,6,0,L|462:62,1,140,2|10,1:0|0:0,0:0:0:0:
368,57,108668,2,0,L|366:197,1,140,2|2,1:0|1:0,0:0:0:0:
366,197,109137,1,10,0:0:0:0:
366,197,109293,1,2,0:0:0:0:
369,293,109450,5,2,1:0:0:0:
293,337,109606,2,0,L|296:378,2,35,2|2|10,1:0|1:0|0:0,0:0:0:0:
210,333,109918,2,0,L|206:253,2,70,2|2|2,1:0|0:0|1:0,0:0:0:0:
126,371,110387,2,0,L|43:366,1,70,10|0,0:0|0:0,0:0:0:0:
26,288,110700,6,0,P|46:220|35:126,1,140,2|10,1:0|0:0,0:0:0:0:
42,152,111168,2,0,L|184:157,1,140,2|2,1:0|1:0,0:0:0:0:
278,165,111637,1,8,0:0:0:0:
278,165,111793,1,2,0:0:0:0:
321,84,111950,6,0,L|408:88,1,70,2|2,1:0|0:0,0:0:0:0:
480,26,112262,2,0,L|476:113,1,70,10|2,0:0|1:0,0:0:0:0:
417,171,112575,2,0,L|278:165,2,140,2|2|2,1:0|1:0|1:0,0:0:0:0:
509,179,113512,1,2,1:0:0:0:
509,179,113825,1,2,1:0:0:0:
509,179,114137,1,2,1:0:0:0:
509,179,114450,6,0,L|506:238,3,41.9999987182618,2|2|2|2,1:0|1:0|1:0|1:0,0:0:0:0:
504,311,115231,1,2,1:0:0:0:
504,311,115387,1,2,1:0:0:0:
118,12,117887,5,8,0:0:0:0:
118,12,118200,2,0,P|103:82|63:157,1,140,6|10,1:0|0:0,0:0:0:0:
176,176,118668,2,0,P|191:106|231:31,1,140,2|2,1:0|1:0,0:0:0:0:
221,45,119137,1,10,0:0:0:0:
322,43,119293,2,0,L|476:34,1,140,2|2,0:0|0:0,0:0:0:0:
462,35,119762,1,10,0:0:0:0:
462,35,119918,1,2,1:0:0:0:
478,131,120075,2,0,L|486:225,3,70,2|2|10|2,0:0|1:0|0:0|0:0,0:0:0:0:
494,296,120700,6,0,P|450:280|349:267,1,140,2|10,1:0|0:0,0:0:0:0:
297,329,121168,2,0,P|253:345|152:358,1,140,2|2,1:0|1:0,0:0:0:0:
73,346,121637,1,10,0:0:0:0:
73,346,121793,2,0,L|70:196,1,140,2|2,0:0|0:0,0:0:0:0:
70,206,122262,1,10,0:0:0:0:
74,126,122418,1,2,1:0:0:0:
74,126,122575,1,2,0:0:0:0:
34,40,122731,2,0,L|108:38,2,70,2|10|2,1:0|0:0|0:0,0:0:0:0:
194,36,123200,5,14,0:1:0:0:
194,36,123356,1,14,0:1:0:0:
194,36,123512,1,14,0:1:0:0:
497,106,124450,5,14,0:1:0:0:
497,106,124606,1,14,0:1:0:0:
497,106,124762,1,14,0:1:0:0:
497,106,125387,1,0,1:0:0:0:
409,148,125700,6,0,L|266:141,1,140,4|8,1:0|0:0,0:0:0:0:
176,140,126168,2,0,L|181:218,1,70,0|0,1:0|0:0,0:0:0:0:
267,258,126481,2,0,L|262:336,1,70,0|8,1:0|0:0,0:0:0:0:
183,371,126793,2,0,P|141:348|38:324,1,140,0|0,0:0|1:0,0:0:0:0:
52,238,127262,2,0,L|87:234,3,35,8|0|0|0,0:0|1:0|1:0|1:0,0:0:0:0:
35,189,127575,2,0,L|0:185,3,35,0|0|0|0,1:0|1:0|1:0|1:0,0:0:0:0:
45,141,127887,2,0,L|79:138,3,35,8|0|0|0,0:0|1:0|1:0|1:0,0:0:0:0:
67,59,129137,5,6,0:1:0:0:
67,59,129450,2,0,L|5:56,2,56,2|2|10,1:0|0:0|0:3,0:0:0:0:
143,121,129918,2,0,L|199:124,2,56,10|10|2,0:3|0:3|0:0,0:0:0:0:
68,177,130387,2,0,L|75:254,1,56,10|2,0:3|0:0,0:0:0:0:
84,334,130700,6,0,P|43:307|1:294,2,84,2|2|2,1:0|0:0|0:0,0:0:0:0:
176,373,131325,2,0,L|173:300,2,56,2|2|10,1:0|0:0|0:3,0:0:0:0:
258,326,131793,2,0,L|261:253,2,56,10|10|2,0:3|0:3|0:0,0:0:0:0:
345,336,132262,1,10,0:3:0:0:
345,336,132418,1,2,0:0:0:0:
431,382,132575,6,0,L|434:280,2,84,2|2|2,1:0|0:0|0:0,0:0:0:0:
485,217,133200,2,0,L|367:222,1,112,2|10,1:0|0:3,0:0:0:0:
365,129,133668,2,0,L|477:124,1,112,10|2,0:3|0:0,0:0:0:0:
447,39,134137,2,0,L|380:42,1,56,10|2,0:3|0:0,0:0:0:0:
301,45,134450,6,0,P|250:35|208:20,2,84,2|2|2,1:0|0:0|0:0,0:0:0:0:
262,126,135075,2,0,L|138:120,2,112,2|2|2,1:0|0:0|0:0,0:0:0:0:
262,126,135856,1,0,1:0:0:0:
260,221,136012,2,0,L|136:215,2,112,10|2|2,0:1|0:0|0:0,0:0:0:0:
203,361,136950,6,0,P|160:331|98:304,2,112,2|2|2,1:0|0:0|1:0,0:0:0:0:
7,242,137887,2,0,P|59:233|122:208,2,112,10|2|2,0:1|0:0|0:0,0:0:0:0:
256,192,138825,5,4,1:0:0:0:
256,192,138903,12,4,141325,1:0:0:0:
13,338,141637,5,0,0:0:0:0:
13,338,141950,2,0,L|119:335,1,97.9999970092774,8|0,0:0|0:0,0:0:0:0:
218,332,142575,2,0,P|220:279|234:217,2,97.9999970092774,0|0|8,1:0|1:0|0:0,0:0:0:0:
218,332,143512,1,2,0:0:0:0:
426,157,143825,6,0,B|392:126|392:126|280:120,1,154.000004699707,12|0,0:1|1:0,0:0:0:0:
199,44,144450,2,0,B|165:75|165:75|53:81,1,154.000004699707,12|0,0:1|1:0,0:0:0:0:
413,149,145075,2,0,B|379:118|379:118|267:112,1,154.000004699707,12|0,0:1|1:0,0:0:0:0:
184,221,145700,2,0,B|150:190|150:190|38:184,1,154.000004699707,12|0,0:1|1:0,0:0:0:0:
292,257,146325,5,8,0:1:0:0:
292,257,146481,1,8,0:1:0:0:
386,245,146637,1,8,0:1:0:0:
386,245,146793,1,8,0:1:0:0:
404,334,146950,2,0,L|483:335,1,77.0000023498536,8|8,0:1|0:1,0:0:0:0:
307,357,147262,2,0,L|228:358,1,77.0000023498536,8|8,0:1|0:1,0:0:0:0:
129,356,147575,5,0,1:0:0:0:
129,356,147887,1,12,0:1:0:0:
256,192,147965,12,12,149762,1:0:0:0:
35,7,150075,6,0,P|57:58|83:188,1,181.999991668702,6|8,1:0|0:0,0:0:0:0:
82,181,150543,1,2,1:0:0:0:
63,268,150700,1,2,0:0:0:0:
49,353,150856,2,0,L|99:357,2,45.4999979171754,2|2|8,1:0|1:0|0:0,0:0:0:0:
171,378,151168,6,0,P|178:312|227:199,1,181.999991668702,2|2,0:0|0:0,0:0:0:0:
309,196,151637,2,0,L|409:200,1,90.9999958343508,10|2,0:0|1:0,0:0:0:0:
395,289,151950,2,0,L|304:285,1,90.9999958343508,2|0,0:0|1:0,0:0:0:0:
300,374,152262,2,0,L|400:378,1,90.9999958343508,10|0,0:0|1:0,0:0:0:0:
488,376,152575,6,0,L|486:177,1,181.999991668702,6|10,1:0|0:0,0:0:0:0:
486,194,153043,1,2,1:0:0:0:
483,112,153200,1,2,0:0:0:0:
476,28,153356,2,0,L|425:24,2,45.4999979171754,2|2|10,1:0|1:0|0:0,0:0:0:0:
391,97,153668,6,0,B|359:63|359:63|219:55,1,181.999991668702,2|2,0:0|0:0,0:0:0:0:
132,63,154137,2,0,L|140:162,1,90.9999958343508,10|2,0:0|1:0,0:0:0:0:
31,98,154450,2,0,L|38:7,1,90.9999958343508,2|0,0:0|1:0,0:0:0:0:
47,185,154762,2,0,L|55:284,1,90.9999958343508,10|2,0:0|1:0,0:0:0:0:
73,303,154996,1,0,1:0:0:0:
73,303,155075,6,0,P|138:302|247:372,1,181.999991668702,6|8,1:0|0:0,0:0:0:0:
237,359,155543,1,2,1:0:0:0:
325,380,155700,1,2,0:0:0:0:
408,370,155856,2,0,L|401:317,2,45.4999979171754,2|2|10,1:0|1:0|0:0,0:0:0:0:
499,372,156168,6,0,L|500:178,1,181.999991668702,2|2,0:0|0:0,0:0:0:0:
415,192,156637,2,0,P|370:205|325:213,1,90.9999958343508,10|2,0:0|1:0,0:0:0:0:
252,260,156950,2,0,P|207:251|163:239,1,90.9999958343508,2|0,0:0|1:0,0:0:0:0:
117,168,157262,2,0,P|72:181|27:189,1,90.9999958343508,10|0,0:0|1:0,0:0:0:0:
1,78,157575,6,0,L|193:72,1,181.999991668702,6|10,1:0|0:0,0:0:0:0:
182,72,158043,1,2,1:0:0:0:
277,65,158200,2,0,L|274:14,2,45.4999979171754,2|0|2,0:0|0:0|1:0,0:0:0:0:
367,74,158512,1,10,0:0:0:0:
367,74,158668,6,0,P|377:132|443:258,1,181.999991668702,2|2,0:0|0:0,0:0:0:0:
499,326,159137,2,0,L|397:331,1,90.9999958343508,10|2,0:0|1:0,0:0:0:0:
328,367,159450,1,2,1:0:0:0:
328,367,159606,1,0,1:0:0:0:
233,375,159762,2,0,L|227:275,1,90.9999958343508,10|0,0:0|1:0,0:0:0:0:
211,252,159996,1,0,1:0:0:0:
211,252,160075,6,0,P|129:248|39:196,1,181.999991668702,6|8,1:0|0:0,0:0:0:0:
43,200,160543,1,2,1:0:0:0:
113,145,160700,1,2,0:0:0:0:
194,117,160856,2,0,L|201:172,2,45.4999979171754,0|0|8,1:0|1:0|0:0,0:0:0:0:
281,111,161168,6,0,P|293:184|338:284,1,181.999991668702,2|2,0:0|0:0,0:0:0:0:
432,337,161637,2,0,L|422:233,1,90.9999958343508,10|2,0:0|1:0,0:0:0:0:
492,198,161950,2,0,L|502:94,1,90.9999958343508,2|0,0:0|1:0,0:0:0:0:
388,92,162262,2,0,L|378:-12,1,90.9999958343508,10|0,0:0|1:0,0:0:0:0:
271,9,162575,6,0,P|219:27|73:47,1,181.999991668702,6|10,1:0|0:0,0:0:0:0:
6,55,163043,1,2,1:0:0:0:
6,55,163200,2,0,L|13:170,1,90.9999958343508,2|2,0:0|1:0,0:0:0:0:
16,236,163512,1,10,0:0:0:0:
16,236,163668,6,0,L|215:242,1,181.999991668702,2|2,0:0|0:0,0:0:0:0:
197,241,164137,1,10,0:0:0:0:
197,241,164293,1,2,1:0:0:0:
172,329,164450,2,0,L|69:334,1,90.9999958343508,2|2,0:0|1:0,0:0:0:0:
265,325,164762,1,10,0:0:0:0:
347,371,164918,1,0,1:0:0:0:
347,371,164996,1,0,1:0:0:0:
347,371,165075,6,0,B|387:350|387:350|379:198,1,181.999991668702,6|8,1:0|0:0,0:0:0:0:
379,213,165543,1,2,1:0:0:0:
394,134,165700,1,2,0:0:0:0:
356,53,165856,2,0,L|412:50,2,45.4999979171754,2|2|10,1:0|1:0|0:0,0:0:0:0:
271,28,166168,6,0,P|273:97|233:209,1,181.999991668702,2|2,0:0|0:0,0:0:0:0:
186,283,166637,2,0,P|145:257|92:246,1,90.9999958343508,10|2,0:0|1:0,0:0:0:0:
238,367,166950,2,0,P|189:364|138:381,1,90.9999958343508,2|2,0:0|1:0,0:0:0:0:
304,286,167262,2,0,P|326:329|366:365,1,90.9999958343508,10|0,0:0|1:0,0:0:0:0:
388,361,167496,1,0,1:0:0:0:
388,361,167575,6,0,L|486:355,1,90.9999958343508,10|10,0:1|0:1,0:0:0:0:
481,265,167887,1,10,0:0:0:0:
481,265,168043,1,2,0:0:0:0:
478,172,168200,2,0,L|387:177,1,90.9999958343508,10|10,0:1|0:1,0:0:0:0:
354,175,168434,1,2,0:0:0:0:
354,175,168512,2,0,L|346:63,1,90.9999958343508,10|0,0:0|1:0,0:0:0:0:
239,25,168825,5,12,0:1:0:0:
239,25,168981,1,0,1:0:0:0:
136,42,169137,1,12,0:1:0:0:
136,42,169293,1,0,1:0:0:0:
153,146,169450,2,0,L|96:152,3,45.4999979171754,12|0|0|0,0:1|1:0|1:0|1:0,0:0:0:0:
175,174,169762,2,0,L|232:180,3,45.4999979171754,12|0|0|0,0:1|1:0|1:0|1:0,0:0:0:0:
256,192,170075,5,12,0:1:0:0:
256,192,170153,12,2,172262,0:0:0:0:
48,48,172575,6,2,B|54:48|54:48|57:51|57:51|70:52|70:52|72:49|72:49|85:51|85:51|88:48|88:48|103:49|103:49|105:52|105:52|121:54|121:54|124:51|124:51|139:52|139:52|141:55|141:55|156:56|156:56|159:54|159:54|175:58|175:58|179:56|179:56|190:57|190:57|195:60|195:60|205:60|205:60|207:64|207:64|211:61|211:61|220:62|220:62|223:60|223:60|233:60|233:60|236:58|236:58|239:61|239:61|248:62|248:62|251:64|251:64|261:66|261:66|263:68|263:68|266:66|266:66|274:67|274:67|276:64|276:64|299:67|299:67|302:69|302:69|315:70,1,269.500008224488,0|0,1:0|0:0,0:1:0:0:
319,90,173200,2,0,B|321:105|321:105|324:108|324:108|321:125|321:125|325:127|325:127|324:159|324:159|328:162|328:162|336:205,2,115.50000352478,10|2|2,0:0|0:0|0:0,0:0:0:0:
420,171,173825,6,0,B|408:173|408:173|405:173|405:173|391:171|391:171|393:167|393:167|377:164|377:164|373:164|373:164|354:167|354:167|358:171|358:171|340:173|340:173|336:173|336:173|316:171|316:171|320:167|320:167|301:167|301:167|290:171,1,154.000004699707,0|0,1:0|1:0,0:0:0:0:
233,226,174450,2,2,L|243:384,1,154.000004699707,10|2,0:0|0:0,0:0:0:0:
242,379,174918,1,2,0:0:0:0:
153,374,175075,6,0,B|146:342|146:342|150:346|150:346|144:313|144:313|147:316|147:316|142:287|142:287|145:291|145:291|136:230,3,154.000004699707,2|2|10|2,1:0|0:0|0:0|0:0,0:0:0:0:
73,198,176325,2,0,B|77:179|77:179|74:173|74:173|76:154|76:154|80:147|80:147|79:125|79:125|76:118|76:118|82:87,1,77.0000023498536,2|0,1:0|0:0,0:0:0:0:
164,166,176637,2,0,B|170:148|170:148|168:141|168:141|171:121|171:121|176:116|176:116|176:93|176:93|174:86|174:86|183:57,1,83.9999974365235,2|0,1:0|0:0,0:0:0:0:
253,142,176950,2,0,B|261:124|261:124|259:118|259:118|264:98|264:98|269:94|269:94|271:71|271:71|270:64|270:64|278:50|278:50|281:34,1,90.9999958343508,10|0,0:0|0:0,0:0:0:0:
369,128,177262,2,0,B|377:111|377:111|377:104|377:104|384:86|384:86|389:81|389:81|393:59|393:59|393:51|393:51|397:35|397:35|402:31|402:31|412:13,1,97.9999970092774,2|0,0:0|0:0,0:0:0:0:
381,218,177575,6,2,L|319:214,7,48.9999985046387,2|0|0|0|2|0|0|2,1:0|0:0|0:0|0:0|0:0|0:0|0:0|0:1,0:1:0:0:
297,230,178200,2,0,B|295:252|295:252|290:256|290:256|294:280|294:280|289:283|289:283|290:327|290:327|285:330|285:330|276:356,2,115.50000352478,10|2|2,0:0|0:0|0:0,0:0:0:0:
207,264,178825,6,0,B|160:283|160:283|42:258,2,154.000004699707,0|0|10,1:0|1:0|0:0,0:0:0:0:
207,264,179762,1,2,0:0:0:0:
207,264,179918,1,2,0:0:0:0:
256,192,180075,5,4,1:0:0:0:
256,192,180153,12,2,185075,1:0:0:0:
89,160,185387,6,0,L|276:151,5,167.999994873047,2|2|2|2|2|2,0:0|0:0|0:0|0:0|0:0|0:0,0:0:0:0:
499,127,190075,5,4,1:0:0:0:
499,127,190231,2,0,L|495:214,2,62.9999980773926,2|2|2,0:0|0:0|0:0,0:0:0:0:
409,200,190700,2,0,L|413:287,2,62.9999980773926,10|2|2,0:0|0:0|0:0,0:0:0:0:
407,116,191168,1,2,0:0:0:0:
407,116,191325,2,0,L|331:113,2,62.9999980773926,2|2|2,1:0|0:0|1:0,0:0:0:0:
270,50,191793,6,0,P|265:115|243:189,1,125.999996154785,2|2,0:0|0:0,0:0:0:0:
214,250,192262,1,2,0:0:0:0:
214,250,192418,2,0,L|71:253,1,125.999996154785,2|2,0:0|0:0,0:0:0:0:
88,252,192887,1,2,0:0:0:0:
88,252,193043,1,2,0:0:0:0:
8,254,193200,2,0,L|14:182,2,62.9999980773926,10|2|2,0:0|0:0|0:0,0:0:0:0:
8,254,193668,1,2,0:0:0:0:
12,338,193825,6,0,P|52:342|142:373,1,125.999996154785,2|2,1:0|1:0,0:0:0:0:
225,376,194293,2,0,P|283:354|346:345,1,125.999996154785,2|2,0:0|0:0,0:0:0:0:
434,349,194762,1,2,0:0:0:0:
434,349,194918,1,2,0:0:0:0:
349,226,195231,6,0,L|283:230,2,62.9999980773926,2|2|2,0:0|1:0|0:0,0:0:0:0:
308,144,195700,2,0,L|303:66,1,62.9999980773926,10|2,0:0|0:0,0:0:0:0:
208,86,196012,2,0,L|212:148,1,62.9999980773926,2|2,1:0|0:0,0:0:0:0:
173,231,196325,2,0,P|124:191|61:160,1,125.999996154785,2|2,1:0|1:0,0:0:0:0:
3,88,196793,2,0,P|59:59|107:19,1,125.999996154785,2|2,0:0|0:0,0:0:0:0:
197,0,197262,1,2,1:0:0:0:
197,0,197418,2,0,L|346:5,1,125.999996154785,2|2,0:0|0:0,0:0:0:0:
423,10,197887,5,2,1:0:0:0:
423,10,198043,1,2,0:0:0:0:
496,51,198200,2,0,L|492:180,1,125.999996154785,10|2,0:0|1:0,0:0:0:0:
492,176,198668,1,2,0:0:0:0:
442,267,198825,5,14,0:1:0:0:
442,267,198981,1,10,0:1:0:0:
442,267,199137,1,10,0:1:0:0:
305,291,199450,5,2,1:0:0:0:
305,291,199762,1,2,1:0:0:0:
143,175,200075,5,14,0:1:0:0:
143,175,200231,1,10,0:1:0:0:
143,175,200387,1,10,0:1:0:0:
321,186,200700,5,2,1:0:0:0:
321,186,201012,1,2,1:0:0:0:
410,19,201325,5,14,0:1:0:0:
410,19,201481,1,10,0:1:0:0:
410,19,201637,1,10,0:1:0:0:
191,50,201950,5,2,1:0:0:0:
191,50,202262,1,2,1:0:0:0:
28,23,202575,5,4,1:0:0:0:
37,255,207575,5,4,1:0:0:0:
37,255,207731,2,0,L|129:258,1,83.9999974365235,2|2,0:0|0:0,0:0:0:0:
146,340,208200,1,8,0:1:0:0:
146,340,208356,2,0,L|238:343,1,83.9999974365235,2|2,0:0|0:0,0:0:0:0:
252,259,208825,1,0,1:0:0:0:
252,259,208981,2,0,L|344:262,1,83.9999974365235,2|2,0:0|0:0,0:0:0:0:
360,349,209450,1,8,0:1:0:0:
360,349,209606,2,0,L|452:352,1,83.9999974365235,2|2,0:0|0:0,0:0:0:0:
491,219,210075,5,10,0:1:0:0:
491,219,210231,1,10,0:1:0:0:
471,113,210387,1,10,0:1:0:0:
471,113,210543,1,10,0:1:0:0:
362,129,210700,2,0,L|279:127,1,77.0000023498536,10|10,0:1|0:1,0:0:0:0:
200,71,211012,2,0,L|123:72,1,77.0000023498536,10|10,0:1|0:1,0:0:0:0:
25,126,211325,5,10,0:1:0:0:
25,126,211637,1,14,0:1:0:0:
256,192,211715,12,4,213825,1:0:0:0:
64,16,215075,6,0,L|167:21,1,97.9999970092774,2|10,1:0|0:1,0:0:0:0:
255,24,215543,2,0,P|243:62|236:132,1,97.9999970092774,2|2,0:0|1:1,0:0:0:0:
235,119,216012,1,10,0:1:0:0:
235,119,216168,1,0,0:0:0:0:
135,148,216325,6,0,B|159:194|159:194|146:339,1,181.999991668702,6|14,1:0|0:1,0:0:0:0:
326,187,216950,2,0,B|302:233|302:233|315:378,1,181.999991668702,6|14,0:1|0:1,0:0:0:0:
501,373,217575,6,0,P|483:324|461:188,1,181.999991668702,6|8,1:0|0:0,0:0:0:0:
461,196,218043,1,2,1:0:0:0:
478,110,218200,1,2,0:0:0:0:
471,24,218356,2,0,L|421:27,2,45.4999979171754,2|2|10,1:0|1:0|0:0,0:0:0:0:
338,37,218668,6,0,P|358:88|358:225,1,181.999991668702,2|2,0:0|0:0,0:0:0:0:
274,273,219137,2,0,L|276:172,1,90.9999958343508,10|2,0:0|1:0,0:0:0:0:
189,117,219450,2,0,L|187:207,1,90.9999958343508,2|0,0:0|1:0,0:0:0:0:
95,272,219762,2,0,L|97:171,1,90.9999958343508,10|0,0:0|1:0,0:0:0:0:
7,120,220075,6,0,P|83:77|152:0,1,181.999991668702,2|10,1:0|0:0,0:0:0:0:
146,8,220543,1,2,1:0:0:0:
236,20,220700,1,2,0:0:0:0:
325,12,220856,2,0,L|323:65,2,45.4999979171754,2|2|10,1:0|1:0|0:0,0:0:0:0:
411,32,221168,6,0,L|406:228,1,181.999991668702,2|2,0:0|0:0,0:0:0:0:
406,309,221637,2,0,L|502:316,1,90.9999958343508,10|2,0:0|1:0,0:0:0:0:
305,282,221950,2,0,P|320:326|324:382,1,90.9999958343508,2|0,0:0|1:0,0:0:0:0:
222,384,222262,2,0,P|207:340|203:284,1,90.9999958343508,10|2,0:0|1:0,0:0:0:0:
201,262,222496,1,0,1:0:0:0:
201,262,222575,6,0,L|16:249,1,181.999991668702,6|8,1:0|0:0,0:0:0:0:
19,249,223043,1,2,1:0:0:0:
35,169,223200,1,2,0:0:0:0:
20,88,223356,2,0,L|68:87,2,45.4999979171754,2|2|10,1:0|1:0|0:0,0:0:0:0:
119,22,223668,6,0,B|147:60|147:60|143:221,1,181.999991668702,2|2,0:0|0:0,0:0:0:0:
141,281,224137,2,0,P|188:299|221:325,1,90.9999958343508,10|2,0:0|1:0,0:0:0:0:
273,237,224450,2,0,P|304:276|320:315,1,90.9999958343508,2|0,0:0|1:0,0:0:0:0:
409,264,224762,2,0,P|416:313|410:355,1,90.9999958343508,10|0,0:0|1:0,0:0:0:0:
456,188,225075,6,0,B|397:180|397:180|386:51,1,181.999991668702,6|10,1:0|0:0,0:0:0:0:
386,57,225543,1,2,1:0:0:0:
306,38,225700,1,2,0:0:0:0:
221,48,225856,2,0,L|217:3,2,45.4999979171754,2|2|10,1:0|1:0|0:0,0:0:0:0:
123,24,226168,6,0,P|136:79|131:228,1,181.999991668702,2|2,0:0|0:0,0:0:0:0:
103,293,226637,2,0,L|201:295,1,90.9999958343508,10|2,0:0|1:0,0:0:0:0:
293,295,226950,1,2,0:0:0:0:
293,295,227106,1,2,1:0:0:0:
381,348,227262,2,0,P|384:289|393:247,1,90.9999958343508,10|2,0:0|1:0,0:0:0:0:
407,225,227496,1,0,1:0:0:0:
407,225,227575,6,0,B|427:175|427:175|286:172,1,181.999991668702,6|8,1:0|0:0,0:0:0:0:
298,172,228043,1,2,0:0:0:0:
275,94,228200,1,0,0:0:0:0:
207,38,228356,2,0,L|209:-7,2,45.4999979171754,0|0|8,1:0|1:0|0:0,0:0:0:0:
118,20,228668,6,0,L|107:210,1,181.999991668702,2|2,0:0|0:0,0:0:0:0:
34,262,229137,2,0,L|42:359,1,90.9999958343508,10|2,0:0|1:0,0:0:0:0:
134,371,229450,2,0,P|188:355|229:348,1,90.9999958343508,2|0,0:0|1:0,0:0:0:0:
313,341,229762,2,0,P|367:357|408:364,1,90.9999958343508,10|0,0:0|1:0,0:0:0:0:
488,341,230075,6,0,P|461:270|448:163,1,181.999991668702,4|10,1:0|0:0,0:0:0:0:
447,165,230543,1,2,1:0:0:0:
464,87,230700,1,2,0:0:0:0:
453,5,230856,2,0,L|510:7,2,45.4999979171754,2|2|10,1:0|1:0|0:0,0:0:0:0:
358,7,231168,6,0,L|362:191,1,181.999991668702,2|2,0:0|0:0,0:0:0:0:
328,265,231637,2,0,L|231:259,1,90.9999958343508,10|2,0:0|1:0,0:0:0:0:
184,182,231950,2,0,L|281:176,1,90.9999958343508,2|2,0:0|1:0,0:0:0:0:
277,86,232262,1,10,0:0:0:0:
187,72,232418,1,2,1:0:0:0:
187,72,232496,1,0,1:0:0:0:
187,72,232575,6,0,P|126:103|15:138,1,181.999991668702,6|8,1:0|0:0,0:0:0:0:
17,137,233043,1,2,1:0:0:0:
48,220,233200,1,2,0:0:0:0:
67,297,233356,2,0,L|118:298,2,45.4999979171754,2|2|10,1:0|1:0|0:0,0:0:0:0:
55,374,233668,6,0,L|245:378,1,181.999991668702,2|2,0:0|0:0,0:0:0:0:
333,373,234137,1,10,0:0:0:0:
333,373,234293,1,2,1:0:0:0:
398,312,234450,2,0,L|493:306,1,90.9999958343508,2|0,0:0|1:0,0:0:0:0:
488,212,234762,2,0,L|393:206,1,90.9999958343508,10|0,0:0|1:0,0:0:0:0:
362,202,234996,1,0,1:0:0:0:
362,202,235075,6,0,P|351:136|334:91,1,105.000004005432,4|0,1:0|0:0,0:0:0:0:
268,29,235387,1,10,0:0:0:0:
268,29,235543,1,2,1:0:0:0:
248,122,235700,2,0,P|240:173|224:223,1,105.000004005432,6|2,1:0|1:0,0:0:0:0:
211,249,235934,1,2,1:0:0:0:
210,249,236012,2,0,L|97:253,1,105.000004005432,10|0,0:0|0:0,0:0:0:0:
8,169,236325,5,14,0:1:0:0:
8,169,236481,1,0,1:0:0:0:
15,68,236637,1,14,0:1:0:0:
15,68,236793,1,0,1:0:0:0:
96,2,236950,2,0,L|99:58,3,52.5000020027161,14|0|0|0,0:1|1:0|1:0|1:0,0:0:0:0:
127,82,237262,2,0,L|124:26,3,52.5000020027161,10|0|0|0,0:1|1:0|1:0|1:0,0:0:0:0:
175,12,237575,6,0,L|290:17,1,112,14|0,0:1|0:0,0:0:0:0:
286,16,238825,6,0,P|270:70|264:133,1,97.9999970092774,6|2,1:0|0:0,0:0:0:0:
291,196,239137,2,0,P|307:250|313:313,1,97.9999970092774,8|0,0:0|1:0,0:0:0:0:
293,374,239450,2,0,L|171:367,1,97.9999970092774,2|0,0:0|1:0,0:0:0:0:
390,343,239762,2,0,L|512:336,1,112,10|0,0:0|0:0,0:0:0:0:
458,244,240075,6,0,L|466:41,1,195.999994018555,2|8,1:0|0:0,0:0:0:0:
359,44,240543,1,2,1:0:0:0:
359,44,240700,2,0,L|351:239,1,195.999994018555,2|10,0:0|0:0,0:0:0:0:
266,267,241168,2,0,P|210:253|156:249,1,97.9999970092774,2|0,0:0|1:0,0:0:0:0:
78,257,241481,1,2,0:0:0:0:
78,257,241637,2,0,L|71:368,1,97.9999970092774,10|2,0:0|1:0,0:0:0:0:
21,185,241950,5,2,0:0:0:0:
21,185,242106,1,2,1:0:0:0:
89,112,242262,2,0,P|121:67|140:24,1,97.9999970092774,10|0,0:0|1:0,0:0:0:0:
262,12,242575,6,0,L|266:119,1,97.9999970092774,2|0,1:0|0:0,0:0:0:0:
363,166,242887,2,0,L|359:68,1,97.9999970092774,8|0,0:0|1:0,0:0:0:0:
467,129,243200,2,0,P|475:181|507:250,1,97.9999970092774,2|2,0:0|1:0,0:0:0:0:
427,334,243512,2,0,P|419:282|387:213,1,97.9999970092774,8|2,0:0|0:0,0:0:0:0:
318,239,243825,5,2,1:0:0:0:
318,239,243981,1,2,0:0:0:0:
270,319,244137,2,0,L|167:314,1,97.9999970092774,10|2,0:0|1:0,0:0:0:0:
76,229,244450,2,0,L|179:224,1,97.9999970092774,2|0,0:0|1:0,0:0:0:0:
251,135,244762,2,0,P|199:119|143:86,1,97.9999970092774,10|0,0:0|1:0,0:0:0:0:
72,31,245075,6,0,L|58:244,1,195.999994018555,2|10,1:0|0:0,0:0:0:0:
46,317,245543,1,2,1:0:0:0:
122,347,245700,1,2,0:0:0:0:
205,340,245856,2,0,L|203:284,2,48.9999985046387,2|2|10,1:0|1:0|0:0,0:0:0:0:
286,354,246168,6,0,L|485:345,1,195.999994018555,2|0,0:0|0:0,0:0:0:0:
481,263,246637,2,0,L|489:149,1,97.9999970092774,8|0,0:0|1:0,0:0:0:0:
495,63,246950,2,0,P|443:57|396:43,2,97.9999970092774,2|2|10,0:0|1:0|0:0,0:0:0:0:
409,138,247418,1,0,1:0:0:0:
409,138,247496,1,0,1:0:0:0:
409,138,247575,6,0,L|287:132,1,97.9999970092774,4|0,1:0|0:0,0:0:0:0:
250,202,247887,2,0,L|152:206,1,97.9999970092774,8|0,0:0|1:0,0:0:0:0:
55,199,248200,2,0,P|82:150|95:104,1,97.9999970092774,2|0,0:0|1:0,0:0:0:0:
202,113,248512,2,0,P|175:64|162:18,1,97.9999970092774,8|0,0:0|1:0,0:0:0:0:
297,30,248825,6,0,L|280:237,1,195.999994018555,2|10,1:0|0:0,0:0:0:0:
271,313,249293,1,2,1:0:0:0:
271,313,249450,2,0,P|331:327|371:343,1,97.9999970092774,2|0,0:0|1:0,0:0:0:0:
174,363,249762,2,0,L|172:257,1,97.9999970092774,10|0,0:0|1:0,0:0:0:0:
34,375,250075,6,0,P|75:293|89:174,1,195.999994018555,6|10,1:0|0:0,0:0:0:0:
81,107,250543,1,2,1:0:0:0:
163,81,250700,1,2,0:0:0:0:
250,89,250856,2,0,L|247:146,2,48.9999985046387,2|2|10,1:0|1:0|0:0,0:0:0:0:
336,72,251168,6,0,P|346:134|403:266,1,195.999994018555,2|2,0:0|0:0,0:0:0:0:
456,344,251637,2,0,L|348:352,1,97.9999970092774,10|2,0:0|1:0,0:0:0:0:
275,304,251950,2,0,L|177:296,1,97.9999970092774,2|2,0:0|1:0,0:0:0:0:
86,206,252262,2,0,L|183:198,1,97.9999970092774,10|2,0:0|0:0,0:0:0:0:
211,183,252496,1,0,0:0:0:0:
211,183,252575,6,0,B|186:127|186:127|324:131,1,195.999994018555,6|8,1:0|0:0,0:0:0:0:
419,132,253043,1,2,1:0:0:0:
431,212,253200,1,2,0:0:0:0:
430,296,253356,2,0,L|481:298,2,48.9999985046387,2|2|10,1:0|1:0|0:0,0:0:0:0:
354,365,253668,6,0,P|344:300|287:163,1,195.999994018555,2|2,0:0|0:0,0:0:0:0:
233,118,254137,2,0,L|228:17,1,97.9999970092774,10|2,0:0|1:0,0:0:0:0:
103,72,254450,2,0,P|47:96|4:104,1,97.9999970092774,10|0,0:1|1:0,0:0:0:0:
93,199,254762,2,0,P|149:223|192:231,1,97.9999970092774,10|0,0:1|1:0,0:0:0:0:
298,232,255075,5,10,0:1:0:0:
298,232,255231,1,10,0:1:0:0:
297,333,255387,2,0,L|195:338,1,97.9999970092774,10|2,0:0|0:0,0:0:0:0:
381,288,255700,5,10,0:1:0:0:
462,250,255856,1,10,0:1:0:0:
462,250,255934,1,2,0:0:0:0:
462,250,256012,2,0,L|465:147,1,97.9999970092774,10|2,0:0|0:0,0:0:0:0:
466,58,256325,5,8,0:1:0:0:
466,58,256481,1,0,1:0:0:0:
356,85,256637,1,8,0:1:0:0:
356,85,256793,1,0,1:0:0:0:
246,74,256950,2,0,L|138:68,1,97.9999970092774,8|0,0:1|1:0,0:0:0:0:
93,171,257262,2,0,L|201:165,1,97.9999970092774,8|0,0:1|1:0,0:0:0:0:
221,174,257496,1,0,1:0:0:0:
221,174,257575,6,0,L|225:238,3,48.9999985046387,10|0|0|0,0:1|1:0|1:0|1:0,0:0:0:0:
257,250,257887,2,0,L|253:314,3,48.9999985046387,10|0|0|0,0:1|1:0|1:0|1:0,0:0:0:0:
240,333,258200,2,0,L|106:336,1,112,8|8,0:1|0:1,0:0:0:0:
345,290,258512,2,0,L|479:287,1,112,8|8,0:1|0:1,0:0:0:0:
401,138,258825,5,4,1:0:0:0:
256,192,258903,12,2,260700,0:0:0:0:
