osu file format v14

[General]
AudioFilename: audio.mp3
AudioLeadIn: 0
PreviewTime: 70700
Countdown: 0
SampleSet: Soft
StackLeniency: 0.3
Mode: 0
LetterboxInBreaks: 0
WidescreenStoryboard: 1

[Editor]
DistanceSpacing: 1
BeatDivisor: 4
GridSize: 4
TimelineZoom: 2.7

[Metadata]
Title:Itazura Sensation
TitleUnicode:悪戯センセーション
Artist:ShinRa-Bansho
ArtistUnicode:森羅万象
Creator:UberFazz
Version:Extra Stage
Source:東方紅魔郷 ~ the Embodiment of Scarlet Devil.
Tags:cranberry video game japanese pop j-pop jpop rock electronic mischievous touhou 6 th6 2hu 東方Project eosd flandre scarlet フランドール・スカーレット u. n. owen was her? U.N.オーエンは彼女なのか? remilia scarlet レミリア・スカーレット septette for the dead princess 亡き王女の為のセプテット ayo あよ ayaponzu* あやぽんず* kaztora
BeatmapID:2680824
BeatmapSetID:1276485

[Difficulty]
HPDrainRate:5
CircleSize:4
OverallDifficulty:9
ApproachRate:9
SliderMultiplier:2
SliderTickRate:1

[Events]
//Background and Video events
0,0,"flan+remi.jpg",0,0
//Break Periods
2,47775,57450
2,94650,96200
2,202775,206825
2,215075,215725
//Storyboard Layer 0 (Background)
//Storyboard Layer 1 (Fail)
//Storyboard Layer 2 (Pass)
//Storyboard Layer 3 (Foreground)
//Storyboard Layer 4 (Overlay)
//Storyboard Sound Samples

[TimingPoints]
1325,312.5,4,2,2,60,1,0
1325,-100,4,2,2,60,0,0
1403,-100,4,2,1,60,0,0
8825,-125,4,2,1,30,0,0
9137,-111.111111111111,4,2,1,40,0,0
9450,-100,4,2,1,50,0,0
9762,-90.9090909090909,4,2,1,60,0,0
10075,-100,4,2,1,60,0,0
11481,-71.4285714285714,4,2,1,65,0,0
12575,-76.9230769230769,4,2,2,70,0,0
12653,-76.9230769230769,4,2,1,70,0,0
23825,-125,4,2,1,60,0,0
25075,-125,4,2,2,60,0,0
25153,-125,4,2,1,60,0,0
36325,-111.111111111111,4,2,1,60,0,0
47575,312.5,3,2,1,60,1,0
47575,-125,3,2,1,60,0,0
58200,312.5,4,2,2,60,1,0
58200,-125,3,2,2,60,0,0
60778,-125,3,2,1,65,0,0
65700,-90.9090909090909,3,2,1,65,0,0
66012,-250,3,2,1,65,0,0
66325,-90.9090909090909,3,2,1,65,0,0
66637,-250,3,2,1,65,0,0
66950,-90.9090909090909,3,2,1,65,0,0
67262,-250,3,2,1,65,0,0
67575,-90.9090909090909,3,2,1,65,0,0
67887,-250,3,2,1,65,0,0
68200,-90.9090909090909,3,2,1,70,0,0
71950,-76.9230769230769,3,2,2,80,0,1
72028,-76.9230769230769,3,2,1,80,0,1
89762,-250,3,2,1,80,0,1
91950,-100,4,2,1,80,0,0
92028,-100,4,2,1,60,0,0
103200,-100,4,2,2,60,0,0
103278,-100,4,2,1,60,0,0
113200,-166.666666666667,4,2,1,60,0,0
115700,-62.5,4,2,1,60,0,0
116950,294.117647058824,4,2,1,60,1,0
116950,-500,4,2,1,60,0,0
117538,348.837209302326,4,2,1,60,1,0
117538,-500,4,2,1,60,0,0
118200,312.5,4,2,1,60,1,0
118200,-100,4,2,1,60,0,0
129450,312.5,6,2,1,60,1,0
129450,-125,6,2,1,60,0,0
138825,312.5,4,2,2,65,1,0
138825,-142.857142857143,4,2,2,65,0,0
138903,-142.857142857143,4,2,2,65,0,0
141325,-142.857142857143,4,2,1,65,0,0
143825,-90.909090909091,4,2,1,65,0,0
144137,-250,4,2,1,65,0,0
144450,-90.909090909091,4,2,1,65,0,0
144762,-250,4,2,1,65,0,0
145075,-90.909090909091,4,2,1,65,0,0
145387,-250,4,2,1,65,0,0
145700,-90.909090909091,4,2,1,65,0,0
146012,-250,4,2,1,65,0,0
146325,-90.909090909091,4,2,1,70,0,0
150075,-76.9230769230769,4,2,2,80,0,1
150153,-76.9230769230769,4,2,1,80,0,1
170075,-90.9090909090909,4,2,1,80,0,0
170153,-90.9090909090909,4,2,1,70,0,0
176637,-83.3333333333333,4,2,1,70,0,0
176950,-76.9230769230769,4,2,1,70,0,0
177262,-71.4285714285714,4,2,1,70,0,0
178200,-90.9090909090909,4,2,1,70,0,0
180075,-90.9090909090909,4,2,2,70,0,0
180153,-90.9090909090909,4,2,2,60,0,0
185387,-199.999999999999,4,2,1,60,0,0
190075,-111.111111111111,4,2,1,70,0,0
198825,-83.3333333333333,4,2,1,70,0,0
200075,-66.6666666666667,4,2,1,70,0,0
201325,-55.5555555555556,4,2,1,70,0,0
202575,-166.666666666666,4,2,1,60,0,0
202653,-166.666666666666,4,2,1,40,0,0
207575,-166.666666666666,4,2,1,50,0,0
208825,-166.666666666666,4,2,1,60,0,0
210075,-166.666666666666,4,2,1,70,0,0
211637,-166.666666666666,4,2,2,70,0,0
211715,-166.666666666666,4,2,2,70,0,0
213825,-166.666666666666,4,2,1,70,0,0
215075,-142.857142857142,4,2,1,60,0,0
216325,-76.9230769230769,4,2,1,70,0,0
217575,-76.9230769230769,4,2,2,80,0,1
217653,-76.9230769230769,4,2,1,80,0,1
235075,-66.6666666666667,4,2,1,80,0,1
237575,-100,4,2,1,80,0,0
238825,-71.4285714285714,4,2,2,80,0,1
238903,-71.4285714285714,4,2,1,80,0,1
239762,-62.5,4,2,1,80,0,1
240075,-71.4285714285714,4,2,1,80,0,1
247575,-71.4285714285714,4,2,2,80,0,1
247653,-71.4285714285714,4,2,1,80,0,1
255387,-250,4,2,1,80,0,1
256325,-71.4285714285714,4,2,1,80,0,1
256950,-58.8235294117647,4,2,1,80,0,1
258825,-100,4,2,2,80,0,0
258903,-100,4,2,2,60,0,0
260700,-100,4,2,1,60,0,0

[Colours]
Combo1 : 255,66,66
Combo2 : 208,92,237
Combo3 : 55,155,255
Combo4 : 0,198,0
Combo5 : 231,215,14
Combo6 : 255,140,85

[HitObjects]
166,137,1325,6,0,L|174:245,2,100,6|2|0,1:0|0:0|0:0,0:0:0:0:
166,137,1793,1,0,0:0:0:0:
284,89,1950,2,0,L|276:197,2,100,10|2|0,0:1|0:0|0:0,0:0:0:0:
284,89,2418,1,0,0:0:0:0:
396,60,2575,6,0,P|403:115|420:160,1,100,2|2,0:0|0:0,0:0:0:0:
418,156,2887,1,0,1:0:0:0:
480,246,3043,2,0,L|366:250,2,100,2|8|2,0:0|0:1|0:0,0:0:0:0:
480,246,3512,1,2,0:0:0:0:
266,370,3825,6,0,P|282:322|292:246,1,100,2|2,1:0|0:0,0:0:0:0:
280,374,4137,2,0,P|296:326|306:250,1,100
132,372,4450,2,0,L|127:256,1,100,10|2,0:1|0:0,0:0:0:0:
113,378,4762,2,0,L|108:262,1,100
114,170,5075,6,0,L|218:176,2,100,2|2|2,0:0|0:0|1:0,0:0:0:0:
25,117,5543,2,0,P|20:57|8:9,1,100,2|8,0:0|0:1,0:0:0:0:
10,18,5856,1,2,0:0:0:0:
116,53,6012,1,2,0:0:0:0:
116,53,6325,6,0,L|228:58,1,100,2|0,1:0|0:0,0:0:0:0:
215,57,6637,1,0,0:0:0:0:
215,57,6793,1,0,0:0:0:0:
280,158,6950,6,0,L|168:163,1,100,10|0,0:1|0:0,0:0:0:0:
180,162,7262,1,0,0:0:0:0:
180,162,7418,1,0,0:0:0:0:
209,258,7575,6,0,P|219:312|224:360,2,100,2|2|2,0:0|0:0|1:0,0:0:0:0:
307,257,8043,2,0,L|422:261,1,100,2|8,0:0|0:1,0:0:0:0:
406,260,8356,1,2,0:0:0:0:
420,142,8512,1,2,0:0:0:0:
420,142,8825,6,0,L|280:130,1,120,10|0,0:1|0:0,0:0:0:0:
356,51,9137,2,0,L|212:63,1,134.999995880127,10|0,0:1|0:0,0:0:0:0:
283,148,9450,2,0,L|121:134,1,150,10|0,0:1|0:0,0:0:0:0:
213,39,9762,2,0,L|19:55,1,165.000005035401,10|0,0:1|0:0,0:0:0:0:
42,132,10075,5,12,0:1:0:0:
185,225,10231,1,8,0:1:0:0:
328,318,10387,1,8,0:1:0:0:
185,225,10543,1,8,0:1:0:0:
208,217,10621,1,8,0:1:0:0:
231,224,10700,1,8,0:1:0:0:
253,217,10778,1,8,0:1:0:0:
277,227,10856,2,0,L|336:225,1,50,8|8,0:1|0:1,0:0:0:0:
419,220,11012,1,8,0:1:0:0:
413,194,11090,1,8,0:1:0:0:
417,167,11168,2,0,L|415:117,1,50,8|8,0:1|0:1,0:0:0:0:
415,117,12262,5,2,0:0:0:0:
415,117,12575,6,0,B|342:62|342:62|139:66,1,259.999988098145,4|8,1:0|0:0,0:0:0:0:
173,65,13043,1,0,1:0:0:0:
223,195,13200,2,0,P|240:259|243:325,1,129.999994049073,2|0,0:0|1:0,0:0:0:0:
243,322,13512,1,10,0:0:0:0:
134,291,13668,1,2,0:0:0:0:
70,186,13825,6,0,L|75:50,1,129.999994049073,2|2,1:0|0:0,0:0:0:0:
77,23,14059,1,2,0:0:0:0:
77,23,14137,1,10,0:0:0:0:
77,23,14293,1,2,1:0:0:0:
286,111,14450,1,2,0:0:0:0:
286,111,14606,1,2,1:0:0:0:
388,177,14762,2,0,L|397:324,1,129.999994049073,10|0,0:0|0:0,0:0:0:0:
234,359,15075,6,0,P|213:282|58:185,1,259.999988098145,2|10,1:0|0:0,0:0:0:0:
69,185,15543,2,0,P|137:174|210:182,1,129.999994049073,2|0,1:0|0:0,0:0:0:0:
297,203,15856,1,2,1:0:0:0:
388,177,16012,1,8,0:0:0:0:
450,100,16168,1,0,0:0:0:0:
436,2,16325,6,0,P|376:27|308:39,1,129.999994049073,2|2,1:0|0:0,0:0:0:0:
286,36,16559,1,2,0:0:0:0:
286,36,16637,1,10,0:0:0:0:
286,36,16793,1,0,1:0:0:0:
89,159,16950,2,0,L|231:169,1,129.999994049073,2|0,0:0|1:0,0:0:0:0:
370,283,17262,2,0,L|228:293,1,129.999994049073,10|0,0:0|0:0,0:0:0:0:
65,384,17575,6,0,P|90:314|63:126,1,259.999988098145,2|10,1:0|0:0,0:0:0:0:
66,133,18043,2,0,L|204:129,1,129.999994049073,0|2,1:0|0:0,0:0:0:0:
316,122,18356,1,0,1:0:0:0:
413,181,18512,1,10,0:0:0:0:
439,288,18668,1,2,0:0:0:0:
366,383,18825,5,2,1:0:0:0:
348,250,18981,1,2,0:0:0:0:
348,250,19059,1,2,0:0:0:0:
348,250,19137,2,0,L|216:256,1,129.999994049073,10|2,0:0|1:0,0:0:0:0:
87,264,19450,1,2,0:0:0:0:
87,264,19606,1,2,1:0:0:0:
152,158,19762,2,0,P|179:94|190:20,1,129.999994049073,10|0,0:0|0:0,0:0:0:0:
387,9,20075,6,0,B|362:69|362:69|374:276,1,259.999988098145,2|10,1:0|0:0,0:0:0:0:
373,263,20543,1,2,1:0:0:0:
280,201,20700,2,0,P|209:188|141:188,1,129.999994049073,2|0,0:0|1:0,0:0:0:0:
46,214,21012,1,10,0:0:0:0:
124,319,21168,1,2,0:0:0:0:
294,367,21325,5,8,0:1:0:0:
280,201,21481,1,8,0:1:0:0:
266,35,21637,1,8,0:1:0:0:
266,35,21950,1,10,0:0:0:0:
280,201,22106,1,2,0:0:0:0:
280,201,22184,1,2,0:0:0:0:
280,201,22262,2,0,L|421:206,1,129.999994049073,2|2,0:0|0:0,0:0:0:0:
436,190,22496,1,2,0:0:0:0:
436,190,22575,5,2,1:0:0:0:
363,120,22731,1,2,0:0:0:0:
271,117,22887,1,10,0:0:0:0:
194,163,23043,1,2,1:0:0:0:
100,172,23200,1,2,0:0:0:0:
194,163,23356,1,2,1:0:0:0:
271,117,23512,1,10,0:0:0:0:
363,120,23668,1,2,0:0:0:0:
436,190,23825,6,0,L|431:356,1,160,2|2,1:0|1:0,0:0:0:0:
431,349,24293,2,0,P|358:352|259:391,2,160,2|0|0,1:0|0:0|1:0,0:0:0:0:
457,360,24996,1,0,1:0:0:0:
457,360,25075,5,6,1:0:0:0:
334,272,25387,1,10,0:0:0:0:
334,272,25543,2,0,L|324:99,1,160,2|2,1:0|1:0,0:0:0:0:
324,112,26012,1,10,0:0:0:0:
324,112,26168,1,2,0:0:0:0:
237,131,26481,5,2,0:0:0:0:
237,131,26637,1,10,0:0:0:0:
237,131,26793,1,2,1:0:0:0:
237,131,26950,1,2,0:0:0:0:
149,149,27106,5,2,1:0:0:0:
149,149,27262,1,10,0:0:0:0:
149,149,27418,1,2,1:0:0:0:
149,149,27575,5,2,1:0:0:0:
109,356,27887,1,10,0:0:0:0:
109,356,28043,2,0,P|102:290|67:188,1,160,2|2,1:0|1:0,0:0:0:0:
23,99,28512,1,10,0:0:0:0:
23,99,28668,1,2,0:0:0:0:
117,64,28981,5,2,0:0:0:0:
117,64,29293,1,2,1:0:0:0:
117,64,29450,1,2,0:0:0:0:
210,90,29606,5,2,1:0:0:0:
300,58,29762,1,10,0:0:0:0:
394,103,29918,1,2,0:0:0:0:
490,38,30075,5,14,0:1:0:0:
482,170,30231,1,10,0:1:0:0:
475,302,30387,1,10,0:1:0:0:
475,302,31325,5,14,0:1:0:0:
482,170,31481,1,10,0:1:0:0:
490,38,31637,1,10,0:1:0:0:
490,38,32262,1,0,1:0:0:0:
475,302,32575,6,0,L|302:311,1,160,6|10,1:0|0:0,0:0:0:0:
201,312,33043,2,0,P|215:268|218:215,1,80,2|0,1:0|0:0,0:0:0:0:
314,191,33356,2,0,P|300:147|297:94,1,80,2|8,1:0|0:0,0:0:0:0:
193,82,33668,2,0,P|207:38|210:-15,1,80,2|0,0:0|1:0,0:0:0:0:
210,4,33981,5,2,1:0:0:0:
86,29,34137,1,10,0:0:0:0:
90,54,34215,1,0,1:0:0:0:
85,79,34293,1,0,1:0:0:0:
87,106,34371,1,0,1:0:0:0:
80,132,34450,2,0,L|83:198,1,40,0|0,1:0|1:0,0:0:0:0:
160,198,34606,2,0,L|157:264,1,40,0|0,1:0|1:0,0:0:0:0:
80,273,34762,1,8,0:0:0:0:
86,305,34840,1,0,1:0:0:0:
81,336,34918,2,0,L|141:339,1,40,0|0,1:0|1:0,0:0:0:0:
319,364,36325,6,0,P|291:307|280:181,1,179.999994506836,6|10,1:0|0:0,0:0:0:0:
375,169,36793,2,0,P|403:226|414:352,1,179.999994506836,2|2,1:0|1:0,0:0:0:0:
415,340,37184,1,2,1:0:0:0:
415,340,37262,1,10,0:0:0:0:
415,340,37418,1,2,0:0:0:0:
214,348,37575,6,0,L|211:252,2,89.9999972534181,2|2|10,1:0|0:0|0:0,0:0:0:0:
214,348,38043,1,2,1:0:0:0:
114,302,38200,2,0,L|8:304,1,89.9999972534181,2|0,0:0|1:0,0:0:0:0:
21,200,38512,2,0,L|110:201,1,89.9999972534181,10|0,0:0|0:0,0:0:0:0:
203,175,38825,6,0,B|183:129|183:129|190:-4,1,179.999994506836,2|10,1:0|0:0,0:0:0:0:
296,0,39293,2,0,B|316:46|316:46|309:179,1,179.999994506836,2|2,1:0|1:0,0:0:0:0:
309,175,39684,1,2,1:0:0:0:
309,175,39762,1,10,0:0:0:0:
309,175,39918,1,2,0:0:0:0:
162,347,40075,6,0,P|195:267|202:164,2,179.999994506836,2|10|2,1:0|0:0|0:0,0:0:0:0:
68,364,40856,1,2,1:0:0:0:
68,364,41012,2,0,L|68:259,1,89.9999972534181,10|2,0:0|0:0,0:0:0:0:
88,155,41325,5,2,1:0:0:0:
88,155,41481,1,2,0:0:0:0:
88,155,41637,1,10,0:0:0:0:
88,155,41793,1,2,1:0:0:0:
88,155,41950,1,2,0:0:0:0:
88,155,42106,1,2,1:0:0:0:
88,155,42184,1,2,1:0:0:0:
88,155,42262,1,8,0:0:0:0:
164,69,42418,6,0,L|267:73,2,89.9999972534181,2|0|2,0:0|1:0|1:0,0:0:0:0:
138,52,42809,1,2,1:0:0:0:
138,52,42887,2,0,L|48:48,1,89.9999972534181,10|2,0:0|1:0,0:0:0:0:
208,178,43200,6,0,L|311:182,1,89.9999972534181,2|2,0:0|1:0,0:0:0:0:
182,161,43512,2,0,L|92:157,1,89.9999972534181,10|2,0:0|0:0,0:0:0:0:
178,262,43746,1,2,0:0:0:0:
178,262,43825,2,0,P|198:315|202:364,3,89.9999972534181,2|0|8|2,1:0|0:0|0:0|0:0,0:0:0:0:
326,286,44371,1,2,0:0:0:0:
326,286,44450,2,0,L|436:291,3,89.9999972534181,2|0|8|2,1:0|1:0|0:0|0:0,0:0:0:0:
387,147,44996,1,2,0:0:0:0:
387,147,45075,5,2,1:0:0:0:
387,147,45231,1,2,0:0:0:0:
281,114,45387,1,10,0:0:0:0:
281,114,45543,1,2,1:0:0:0:
185,147,45700,1,2,0:0:0:0:
185,147,45856,1,2,1:0:0:0:
185,147,46012,1,10,0:0:0:0:
185,147,46168,1,2,0:0:0:0:
185,147,47575,5,4,1:0:0:0:
256,192,58200,5,4,1:0:0:0:
256,192,58278,12,4,60700,1:0:0:0:
155,106,60856,5,2,0:0:0:0:
155,106,61012,1,2,0:0:0:0:
155,106,61168,1,2,0:0:0:0:
155,106,61325,1,10,0:0:0:0:
155,106,61481,1,2,0:0:0:0:
155,106,61559,1,0,0:0:0:0:
155,106,61637,1,2,0:0:0:0:
107,214,61793,2,0,P|98:267|92:378,1,160,2|2,0:0|0:0,0:0:0:0:
262,384,62262,2,0,P|267:352|271:285,1,80,2|2,1:0|0:0,0:0:0:0:
250,220,62575,2,0,P|244:188|241:121,1,80,10|0,0:0|0:0,0:0:0:0:
247,43,62887,5,2,0:0:0:0:
247,43,63200,1,4,1:0:0:0:
395,111,63356,5,2,0:0:0:0:
395,111,63512,1,2,0:0:0:0:
395,111,63668,1,2,0:0:0:0:
395,111,63825,1,10,0:0:0:0:
395,111,63981,1,2,0:0:0:0:
395,111,64059,1,2,0:0:0:0:
395,111,64137,1,2,0:0:0:0:
409,211,64293,2,0,L|213:221,1,160,2|2,0:0|0:0,0:0:0:0:
214,323,64762,2,0,L|304:326,1,80,2|2,1:0|0:0,0:0:0:0:
381,298,65075,2,0,L|460:295,1,80,10|0,0:0|0:0,0:0:0:0:
486,364,65387,1,2,0:0:0:0:
25,19,65700,5,12,0:1:0:0:
486,364,66012,1,0,0:0:0:0:
25,19,66325,1,12,0:1:0:0:
486,364,66637,1,0,0:0:0:0:
25,19,66950,1,12,0:1:0:0:
486,364,67262,1,0,0:0:0:0:
25,19,67575,1,12,0:1:0:0:
486,364,67887,1,0,0:0:0:0:
181,54,68200,5,8,0:1:0:0:
313,84,68356,1,8,0:1:0:0:
386,218,68512,1,8,0:1:0:0:
333,340,68668,1,8,0:1:0:0:
485,54,68825,5,8,0:1:0:0:
353,84,68981,1,8,0:1:0:0:
280,218,69137,1,8,0:1:0:0:
333,340,69293,1,8,0:1:0:0:
333,340,69450,5,0,1:0:0:0:
333,340,69762,1,12,0:1:0:0:
256,192,69840,12,8,71637,0:0:0:0:
138,197,71950,6,0,P|171:281|228:175,1,259.999988098145,6|8,1:0|0:0,0:0:0:0:
138,197,72418,1,2,1:0:0:0:
138,197,72575,1,2,0:0:0:0:
138,197,72731,1,2,1:0:0:0:
138,197,72809,1,2,1:0:0:0:
138,197,72887,1,10,0:0:0:0:
403,43,73043,6,0,P|392:117|335:309,1,259.999988098145,2|2,0:0|0:0,0:0:0:0:
236,364,73512,2,0,P|230:295|229:213,1,129.999994049073,10|2,0:0|1:0,0:0:0:0:
129,17,73825,2,0,P|73:50|20:88,1,129.999994049073,2|0,0:0|1:0,0:0:0:0:
284,124,74137,2,0,P|342:151|400:182,1,129.999994049073,10|0,0:0|1:0,0:0:0:0:
21,364,74450,6,0,L|41:87,1,259.999988098145,6|10,1:0|0:0,0:0:0:0:
149,0,74918,1,2,1:0:0:0:
39,104,75075,2,0,L|21:364,1,259.999988098145,2|8,0:0|0:0,0:0:0:0:
153,374,75543,2,0,L|152:233,1,129.999994049073,2|0,0:0|1:0,0:0:0:0:
149,82,75856,1,2,0:0:0:0:
253,69,76012,1,10,0:0:0:0:
353,95,76168,1,2,1:0:0:0:
453,88,76325,1,2,0:0:0:0:
507,157,76481,1,0,1:0:0:0:
472,251,76637,5,10,0:0:0:0:
160,186,76793,1,2,1:0:0:0:
160,186,76871,1,0,1:0:0:0:
160,186,76950,2,0,P|243:176|106:294,1,519.99997619629,6|2,1:0|0:0,0:0:0:0:
114,325,77731,1,2,1:0:0:0:
114,325,77809,1,0,1:0:0:0:
114,325,77887,1,10,0:0:0:0:
492,371,78043,6,0,P|463:265|418:110,1,259.999988098145,2|2,0:0|0:0,0:0:0:0:
194,25,78512,2,0,P|187:86|172:165,1,129.999994049073,10|2,0:0|1:0,0:0:0:0:
318,359,78825,2,0,P|325:298|340:219,1,129.999994049073,2|0,0:0|1:0,0:0:0:0:
25,130,79137,2,0,P|32:69|47:-10,1,129.999994049073,10|0,0:0|1:0,0:0:0:0:
450,83,79450,6,0,P|360:61|173:55,1,259.999988098145,6|10,1:0|0:0,0:0:0:0:
193,53,79918,1,2,1:0:0:0:
193,53,80075,1,2,0:0:0:0:
193,53,80231,1,2,1:0:0:0:
193,53,80309,1,0,1:0:0:0:
193,53,80387,1,10,0:0:0:0:
241,184,80543,6,0,P|173:263|51:368,1,259.999988098145,2|2,0:0|0:0,0:0:0:0:
358,375,81012,2,0,L|351:306,1,64.9999970245363,10|0,0:0|0:0,0:0:0:0:
371,344,81168,2,0,L|364:275,1,64.9999970245363,2|0,1:0|0:0,0:0:0:0:
410,133,81325,2,0,L|403:64,1,64.9999970245363,2|0,0:0|0:0,0:0:0:0:
226,15,81481,1,0,1:0:0:0:
213,32,81559,1,0,1:0:0:0:
204,44,81637,2,0,L|126:47,1,64.9999970245363,8|0,0:0|1:0,0:0:0:0:
40,177,81793,1,0,1:0:0:0:
116,192,81871,1,0,1:0:0:0:
216,211,81950,6,0,P|298:236|271:107,1,259.999988098145,4|8,1:0|0:0,0:0:0:0:
216,211,82418,1,2,1:0:0:0:
216,211,82575,1,2,0:0:0:0:
216,211,82731,1,2,1:0:0:0:
216,211,82809,1,0,1:0:0:0:
216,211,82887,1,10,0:0:0:0:
505,12,83043,6,0,P|413:13|211:9,1,259.999988098145,2|2,0:0|0:0,0:0:0:0:
3,101,83512,2,0,P|52:101|161:99,1,129.999994049073,10|2,0:0|1:0,0:0:0:0:
345,211,83825,2,0,P|295:211|186:209,1,129.999994049073,2|0,0:0|1:0,0:0:0:0:
0,373,84137,2,0,P|49:373|158:371,1,129.999994049073,10|0,0:0|1:0,0:0:0:0:
466,357,84450,6,0,P|465:274|451:97,1,259.999988098145,6|10,1:0|0:0,0:0:0:0:
451,97,84918,1,2,1:0:0:0:
451,97,85075,1,2,0:0:0:0:
451,97,85231,1,2,1:0:0:0:
451,97,85309,1,0,1:0:0:0:
451,97,85387,1,10,0:0:0:0:
322,115,85543,6,0,P|325:293|322:375,1,259.999988098145,2|2,0:0|0:0,0:0:0:0:
241,361,86012,1,10,0:0:0:0:
203,276,86168,1,2,1:0:0:0:
208,183,86325,1,2,0:0:0:0:
165,103,86481,1,0,1:0:0:0:
184,22,86637,1,10,0:0:0:0:
92,325,86793,1,0,1:0:0:0:
92,325,86871,1,0,1:0:0:0:
92,325,86950,6,0,P|81:250|415:87,1,519.99997619629,6|2,1:0|0:0,0:0:0:0:
92,325,87731,1,2,1:0:0:0:
92,325,87809,1,2,1:0:0:0:
92,325,87887,1,10,0:0:0:0:
478,358,88043,6,0,P|409:337|204:300,1,259.999988098145,2|2,0:0|0:0,0:0:0:0:
44,177,88512,1,10,0:0:0:0:
147,207,88668,1,2,1:0:0:0:
272,157,88825,1,2,0:0:0:0:
415,211,88981,1,0,1:0:0:0:
512,69,89137,1,10,0:0:0:0:
474,337,89293,1,0,1:0:0:0:
474,337,89371,1,0,1:0:0:0:
474,337,89450,5,8,0:1:0:0:
394,67,89606,1,8,0:1:0:0:
394,67,89762,2,0,L|353:69,1,40,10|0,0:0|0:0,0:0:0:0:
98,353,90075,5,8,0:1:0:0:
126,52,90231,1,8,0:1:0:0:
126,52,90387,2,0,L|166:54,1,40,10|0,0:0|0:0,0:0:0:0:
295,313,90700,5,10,0:1:0:0:
244,171,90856,1,0,1:0:0:0:
65,134,91012,1,10,0:1:0:0:
30,283,91168,1,0,1:0:0:0:
201,352,91325,5,10,0:1:0:0:
158,108,91481,1,0,1:0:0:0:
392,362,91637,5,10,0:1:0:0:
435,118,91793,1,0,1:0:0:0:
435,118,91871,1,0,1:0:0:0:
435,118,91950,5,12,0:1:0:0:
256,192,92028,12,2,94450,0:0:0:0:
181,93,96950,5,2,1:0:0:0:
181,93,97106,1,2,0:0:0:0:
306,70,97575,5,10,0:0:0:0:
306,70,97731,1,2,0:0:0:0:
437,116,98200,5,2,1:0:0:0:
437,116,98356,1,2,0:0:0:0:
437,116,98512,1,2,0:0:0:0:
437,116,98668,1,2,0:0:0:0:
437,116,98981,1,2,0:0:0:0:
437,116,99137,1,2,0:0:0:0:
433,300,99450,6,0,L|260:281,1,150,8|0,0:0|0:0,0:0:0:0:
422,288,99762,2,0,L|249:269,1,150,8|0,0:0|0:0,0:0:0:0:
411,276,100075,2,0,L|238:257,1,150,8|0,0:0|0:0,0:0:0:0:
400,264,100387,2,0,L|227:245,1,150,8|0,0:0|0:0,0:0:0:0:
150,238,100700,5,8,0:0:0:0:
121,51,100856,1,0,1:0:0:0:
20,158,101012,1,8,0:0:0:0:
61,342,101168,1,0,1:0:0:0:
150,238,101325,1,8,0:0:0:0:
150,238,101403,1,0,1:0:0:0:
150,238,101481,2,0,L|150:183,1,50,0|0,1:0|1:0,0:0:0:0:
236,63,101637,1,8,0:0:0:0:
247,98,101715,1,0,1:0:0:0:
248,136,101793,2,0,L|244:190,1,50,0|0,1:0|1:0,0:0:0:0:
384,349,103200,6,0,P|358:300|353:152,1,200,6|10,1:0|0:0,0:0:0:0:
213,179,103668,2,0,P|239:228|244:376,1,200,2|2,1:0|1:0,0:0:0:0:
245,369,104059,1,2,1:0:0:0:
245,369,104137,1,10,0:0:0:0:
245,369,104293,1,2,0:0:0:0:
36,360,104450,2,0,L|39:259,2,100,2|2|10,1:0|0:0|0:0,0:0:0:0:
39,148,104918,2,0,P|92:171|242:169,1,200,2|2,1:0|1:0,0:0:0:0:
232,172,105387,1,10,0:0:0:0:
232,172,105543,1,0,0:0:0:0:
345,86,105700,6,0,L|353:293,1,200,2|10,1:0|0:0,0:0:0:0:
341,286,106168,2,0,L|334:87,1,200,2|2,1:0|1:0,0:0:0:0:
333,86,106637,1,10,0:0:0:0:
333,86,106793,1,2,0:0:0:0:
333,86,106950,6,0,P|271:83|121:130,2,200,2|10|2,1:0|0:0|0:0,0:0:0:0:
432,97,107731,1,2,1:0:0:0:
425,181,107887,1,10,0:0:0:0:
443,268,108043,1,0,0:0:0:0:
306,378,108200,6,0,L|507:368,1,200,2|10,1:0|0:0,0:0:0:0:
318,367,108668,2,0,L|117:357,1,200,2|2,1:0|1:0,0:0:0:0:
118,357,109137,1,10,0:0:0:0:
118,357,109293,1,2,0:0:0:0:
10,376,109450,6,0,P|19:323|19:273,1,100,2|2,1:0|1:0,0:0:0:0:
15,252,109684,1,2,1:0:0:0:
15,252,109762,1,10,0:0:0:0:
70,174,109918,1,2,1:0:0:0:
70,174,110231,1,2,1:0:0:0:
157,151,110387,1,10,0:0:0:0:
174,44,110543,1,0,0:0:0:0:
299,4,110700,6,0,L|508:1,1,200,2|10,1:0|0:0,0:0:0:0:
498,1,111168,1,2,1:0:0:0:
482,246,111481,2,0,L|474:143,1,100,2|8,1:0|0:0,0:0:0:0:
474,146,111793,1,2,0:0:0:0:
158,203,111950,5,2,1:0:0:0:
158,203,112106,1,2,0:0:0:0:
158,203,112262,1,10,0:0:0:0:
158,203,112418,1,2,1:0:0:0:
158,203,112575,1,2,1:0:0:0:
158,203,112887,1,2,1:0:0:0:
158,203,113200,2,0,P|338:256|501:353,1,359.999989013672,2|2,1:0|1:0,0:0:0:0:
482,371,114450,5,2,1:0:0:0:
482,371,114606,1,2,1:0:0:0:
482,371,114762,1,2,1:0:0:0:
482,371,114918,1,2,1:0:0:0:
482,371,115231,1,2,1:0:0:0:
482,371,115388,1,2,1:0:0:0:
512,0,115700,6,2,L|-4:385,2,640,0|0|2,1:0|1:0|0:1,0:1:0:0:
512,0,117887,1,8,0:0:0:0:
118,22,118200,6,0,L|326:27,1,200,6|10,1:0|0:0,0:0:0:0:
320,53,118668,2,0,L|120:48,1,200,2|2,1:0|1:0,0:0:0:0:
115,74,119059,1,2,1:0:0:0:
115,74,119137,1,10,0:0:0:0:
112,167,119293,2,0,L|320:172,1,200,2|2,0:0|0:0,0:0:0:0:
311,171,119762,1,10,0:0:0:0:
311,171,119918,1,2,1:0:0:0:
311,171,120075,1,2,0:0:0:0:
468,268,120231,5,2,1:0:0:0:
382,308,120387,1,10,0:0:0:0:
252,289,120543,1,2,0:0:0:0:
127,384,120700,2,0,P|155:327|180:175,1,200,2|10,1:0|0:0,0:0:0:0:
67,167,121168,2,0,P|39:224|14:376,1,200,2|2,1:0|1:0,0:0:0:0:
67,167,121637,1,10,0:0:0:0:
0,63,121793,2,0,L|211:55,1,200,2|2,0:0|0:0,0:0:0:0:
199,55,122262,1,10,0:0:0:0:
199,55,122418,1,2,1:0:0:0:
199,55,122575,1,2,0:0:0:0:
358,18,122731,5,2,1:0:0:0:
335,168,122887,1,10,0:0:0:0:
220,335,123043,1,2,0:0:0:0:
220,335,123200,5,14,0:1:0:0:
335,168,123356,1,14,0:1:0:0:
335,168,123434,1,0,1:0:0:0:
335,168,123512,1,14,0:1:0:0:
335,168,124450,5,14,0:1:0:0:
220,335,124606,1,14,0:1:0:0:
220,335,124684,1,0,1:0:0:0:
220,335,124762,1,14,0:1:0:0:
509,355,125700,6,0,P|448:352|309:308,1,200,4|8,1:0|0:0,0:0:0:0:
242,243,126168,2,0,L|236:139,1,100,0|0,1:0|0:0,0:0:0:0:
19,5,126481,2,0,L|128:12,1,100,0|8,1:0|0:0,0:0:0:0:
128,153,126793,2,0,L|19:160,1,100,0|0,0:0|1:0,0:0:0:0:
28,159,127106,1,0,1:0:0:0:
34,297,127262,6,0,L|37:354,1,50,8|0,0:0|1:0,0:0:0:0:
47,304,127418,2,0,L|50:361,1,50,0|0,1:0|1:0,0:0:0:0:
133,271,127575,2,0,L|136:328,1,50,0|0,1:0|1:0,0:0:0:0:
161,286,127731,2,0,L|164:343,1,50,0|0,1:0|1:0,0:0:0:0:
263,245,127887,2,0,L|266:302,1,50,8|0,0:0|1:0,0:0:0:0:
353,289,128043,2,0,L|356:346,1,50,0|0,1:0|1:0,0:0:0:0:
469,383,129137,1,6,0:1:0:0:
501,177,129450,6,0,L|489:7,1,160,2|10,1:0|0:3,0:0:0:0:
401,164,129918,2,0,L|389:-6,1,160,10|2,0:3|0:0,0:0:0:0:
389,4,130387,1,10,0:3:0:0:
501,375,130700,6,0,P|436:362|375:356,2,120,2|2|2,1:0|0:0|0:0,0:0:0:0:
78,175,131325,6,0,L|90:5,1,160,2|10,1:0|0:3,0:0:0:0:
178,162,131793,2,0,L|190:-8,1,160,10|2,0:3|0:0,0:0:0:0:
481,0,132262,2,0,L|474:95,1,80,10|2,0:3|0:0,0:0:0:0:
300,268,132575,6,0,P|350:257|417:226,2,120,2|2|2,1:0|0:0|0:0,0:0:0:0:
204,6,133200,6,0,L|385:11,1,160,2|10,1:0|0:3,0:0:0:0:
145,92,133668,2,0,L|326:97,1,160,10|2,0:3|0:0,0:0:0:0:
304,96,134137,1,10,0:3:0:0:
304,96,134293,1,2,0:0:0:0:
197,340,134450,6,0,P|205:285|226:215,2,120,2|2|2,1:0|0:0|0:0,0:0:0:0:
14,282,135075,6,0,L|427:232,1,400,2|0,1:0|1:0,0:0:0:0:
359,132,136012,2,0,L|41:170,1,320,10|2,0:1|0:0,0:0:0:0:
9,23,136950,6,0,L|489:34,2,480,2|10|4,1:0|0:1|1:0,0:0:0:0:
256,192,138903,12,4,141325,1:0:0:0:
11,290,141637,5,0,0:0:0:0:
11,290,141950,2,0,L|176:282,1,139.999995727539,8|0,0:0|0:0,0:0:0:0:
253,270,142575,2,0,P|263:215|297:116,2,139.999995727539,0|0|8,1:0|1:0|0:0,0:0:0:0:
253,270,143512,1,2,0:0:0:0:
487,19,143825,5,12,0:1:0:0:
26,364,144137,1,0,1:0:0:0:
487,19,144450,1,12,0:1:0:0:
26,364,144762,1,0,1:0:0:0:
487,19,145075,1,12,0:1:0:0:
26,364,145387,1,0,1:0:0:0:
476,6,145700,1,12,0:1:0:0:
40,372,146012,1,0,1:0:0:0:
66,144,146325,5,8,0:1:0:0:
188,68,146481,1,8,0:1:0:0:
310,144,146637,1,8,0:1:0:0:
432,68,146793,1,8,0:1:0:0:
140,324,146950,5,8,0:1:0:0:
262,248,147106,1,8,0:1:0:0:
384,324,147262,1,8,0:1:0:0:
506,248,147418,1,8,0:1:0:0:
140,324,147575,5,0,1:0:0:0:
140,324,147887,1,12,0:1:0:0:
256,192,147965,12,12,149762,1:0:0:0:
75,18,150075,6,0,P|151:25|58:128,1,259.999988098145,6|8,1:0|0:0,0:0:0:0:
75,18,150543,1,2,1:0:0:0:
75,18,150700,1,2,0:0:0:0:
75,18,150856,1,2,1:0:0:0:
75,18,150934,1,2,1:0:0:0:
75,18,151012,1,8,0:0:0:0:
35,298,151168,6,0,P|125:284|297:236,1,259.999988098145,2|2,0:0|0:0,0:0:0:0:
437,22,151637,2,0,P|425:97|419:159,1,129.999994049073,10|2,0:0|1:0,0:0:0:0:
224,384,151950,2,0,P|211:312|196:241,1,129.999994049073,2|0,0:0|1:0,0:0:0:0:
500,275,152262,2,0,P|421:290|366:295,1,129.999994049073,10|0,0:0|1:0,0:0:0:0:
154,23,152575,6,0,P|149:122|123:296,1,259.999988098145,6|10,1:0|0:0,0:0:0:0:
126,281,153043,1,2,1:0:0:0:
126,281,153200,1,2,0:0:0:0:
126,281,153356,1,2,1:0:0:0:
126,281,153434,1,2,1:0:0:0:
126,281,153512,1,10,0:0:0:0:
25,377,153668,6,0,P|116:376|307:385,1,259.999988098145,2|2,0:0|0:0,0:0:0:0:
406,378,154137,1,10,0:0:0:0:
406,378,154293,1,2,1:0:0:0:
407,190,154450,2,0,P|413:115|421:54,1,129.999994049073,2|0,0:0|1:0,0:0:0:0:
6,377,154762,2,0,P|12:302|20:241,1,129.999994049073,10|2,0:0|1:0,0:0:0:0:
34,94,154996,1,0,1:0:0:0:
34,94,155075,6,0,P|109:168|102:5,1,389.999982147218,6|2,1:0|1:0,0:0:0:0:
34,94,155700,1,2,0:0:0:0:
34,94,155856,1,2,1:0:0:0:
34,94,155934,1,2,1:0:0:0:
34,94,156012,1,10,0:0:0:0:
367,14,156168,6,0,P|376:89|411:276,1,259.999988098145,2|2,0:0|0:0,0:0:0:0:
257,380,156637,2,0,P|268:313|282:239,1,129.999994049073,10|2,0:0|1:0,0:0:0:0:
34,376,156950,2,0,P|23:309|9:235,1,129.999994049073,2|0,0:0|1:0,0:0:0:0:
223,59,157262,2,0,P|155:52|83:35,1,129.999994049073,10|0,0:0|1:0,0:0:0:0:
159,290,157575,5,6,1:0:0:0:
279,251,157731,1,0,0:0:0:0:
223,59,157887,1,10,0:0:0:0:
343,20,158043,1,2,1:0:0:0:
460,63,158200,1,2,0:0:0:0:
460,63,158278,1,0,0:0:0:0:
460,63,158356,1,2,1:0:0:0:
485,171,158512,1,10,0:0:0:0:
485,171,158668,6,0,P|490:232|503:314,1,129.999994049073,2|0,0:0|1:0,0:0:0:0:
328,368,158981,2,0,L|399:363,1,64.9999970245363,2|0,0:0|0:0,0:0:0:0:
251,348,159137,2,0,L|322:343,1,64.9999970245363,10|0,0:0|0:0,0:0:0:0:
153,370,159293,2,0,L|224:365,1,64.9999970245363,2|0,1:0|0:0,0:0:0:0:
47,345,159450,2,0,L|118:340,1,64.9999970245363,2|0,1:0|1:0,0:0:0:0:
27,164,159606,1,0,1:0:0:0:
34,148,159684,1,0,1:0:0:0:
41,133,159762,2,0,L|38:64,1,64.9999970245363,10|0,0:0|1:0,0:0:0:0:
217,13,159918,1,0,1:0:0:0:
190,89,159996,1,0,1:0:0:0:
187,169,160075,6,0,P|238:122|204:295,1,519.99997619629,6|2,1:0|0:0,0:0:0:0:
219,307,160856,1,0,1:0:0:0:
219,307,160934,1,0,1:0:0:0:
219,307,161012,1,8,0:0:0:0:
193,20,161168,6,0,P|276:26|492:32,1,259.999988098145,2|2,0:0|0:0,0:0:0:0:
502,282,161637,2,0,P|487:207|479:143,1,129.999994049073,10|2,0:0|1:0,0:0:0:0:
188,142,161950,2,0,P|264:134|328:131,1,129.999994049073,2|0,0:0|1:0,0:0:0:0:
26,10,162262,2,0,P|17:74|4:138,1,129.999994049073,10|0,0:0|1:0,0:0:0:0:
394,364,162575,6,0,L|127:374,1,259.999988098145,6|10,1:0|0:0,0:0:0:0:
158,149,163043,1,2,1:0:0:0:
158,149,163200,2,0,P|167:72|166:11,1,129.999994049073,2|2,0:0|1:0,0:0:0:0:
509,252,163512,1,10,0:0:0:0:
509,252,163668,6,0,P|445:239|228:220,1,259.999988098145,2|2,0:0|0:0,0:0:0:0:
36,250,164137,2,0,P|44:322|44:382,1,129.999994049073,10|2,0:0|1:0,0:0:0:0:
363,369,164450,2,0,P|363:305|371:240,1,129.999994049073,2|2,0:0|1:0,0:0:0:0:
49,247,164762,2,0,P|57:319|57:379,1,129.999994049073,10|0,0:0|1:0,0:0:0:0:
0,136,164996,1,0,1:0:0:0:
0,136,165075,6,0,P|104:82|299:247,1,389.999982147218,6|2,1:0|1:0,0:0:0:0:
297,229,165700,1,2,0:0:0:0:
297,229,165856,1,2,1:0:0:0:
297,229,165934,1,2,1:0:0:0:
297,229,166012,1,10,0:0:0:0:
490,0,166168,6,0,P|371:9|191:13,1,259.999988098145,2|2,0:0|0:0,0:0:0:0:
156,328,166637,1,10,0:0:0:0:
156,328,166793,1,2,1:0:0:0:
208,144,166950,1,2,0:0:0:0:
208,144,167106,1,2,1:0:0:0:
325,350,167262,1,10,0:0:0:0:
408,135,167418,1,0,1:0:0:0:
408,135,167496,1,0,1:0:0:0:
408,135,167575,5,10,0:1:0:0:
126,217,167731,1,10,0:1:0:0:
126,217,167887,1,10,0:0:0:0:
126,217,168043,1,2,0:0:0:0:
381,218,168200,5,10,0:1:0:0:
88,113,168356,1,10,0:1:0:0:
88,113,168434,1,2,0:0:0:0:
88,113,168512,1,10,0:0:0:0:
511,103,168668,1,0,1:0:0:0:
511,103,168746,1,0,1:0:0:0:
511,103,168825,6,0,P|425:67|327:-2,1,194.999991073609,12|0,0:1|1:0,0:0:0:0:
221,105,169137,2,0,P|307:69|405:0,1,194.999991073609,12|0,0:1|1:0,0:0:0:0:
492,221,169450,2,0,P|394:219|299:199,1,194.999991073609,12|0,0:1|1:0,0:0:0:0:
104,202,169762,2,0,P|201:200|296:180,1,194.999991073609,12|0,0:1|1:0,0:0:0:0:
89,8,170075,5,12,0:1:0:0:
256,192,170153,12,2,172262,0:0:0:0:
0,45,172575,6,2,L|348:242,1,385.000011749268,0|0,1:0|0:0,0:1:0:0:
360,250,173200,2,0,L|440:91,2,165.000005035401,10|2|2,0:0|0:0|0:0,0:0:0:0:
183,372,173825,6,0,L|12:204,1,220.000006713867,0|0,1:0|1:0,0:0:0:0:
201,17,174450,2,2,L|256:64,1,55.0000016784668,10|0,0:0|0:0,0:0:0:0:
195,33,174762,2,2,L|250:80,1,55.0000016784668,2|0,0:0|0:0,0:0:0:0:
189,49,174918,2,2,L|244:96,1,55.0000016784668,2|0,0:0|0:0,0:0:0:0:
231,223,175075,6,0,L|36:70,7,220.000006713867,2|2|10|2|2|2|10|2,1:0|0:0|0:0|0:0|1:0|1:0|0:0|0:0,0:0:0:0:
505,6,177575,6,2,L|82:292,1,489.999985046387,2|2,1:0|0:1,0:1:0:0:
130,298,178200,2,0,L|27:152,2,165.000005035401,10|2|2,0:0|0:0|0:0,0:0:0:0:
302,349,178825,6,0,L|280:106,2,220.000006713867,0|0|10,1:0|1:0|0:0,0:0:0:0:
302,349,179762,1,2,0:0:0:0:
302,349,179918,1,2,0:0:0:0:
302,349,180075,5,4,1:0:0:0:
256,192,180153,12,2,185075,1:0:0:0:
89,160,185387,6,0,L|297:151,5,200,2|2|2|2|2|2,0:0|0:0|0:0|0:0|0:0|0:0,0:0:0:0:
425,12,190075,5,4,1:0:0:0:
425,12,190231,2,0,L|416:115,2,89.9999972534181,2|2|2,0:0|0:0|0:0,0:0:0:0:
279,71,190700,2,0,L|270:174,2,89.9999972534181,10|2|2,0:0|0:0|0:0,0:0:0:0:
279,71,191168,1,2,0:0:0:0:
141,123,191325,2,0,L|132:226,2,89.9999972534181,2|2|2,1:0|0:0|1:0,0:0:0:0:
367,188,191793,2,0,L|349:383,1,179.999994506836,2|2,0:0|0:0,0:0:0:0:
444,379,192262,1,2,0:0:0:0:
444,379,192418,2,0,L|460:200,1,179.999994506836,2|2,0:0|0:0,0:0:0:0:
367,188,192887,5,2,0:0:0:0:
367,188,193043,1,2,0:0:0:0:
367,188,193200,1,10,0:0:0:0:
367,188,193356,1,2,0:0:0:0:
367,188,193512,1,2,0:0:0:0:
367,188,193668,1,2,0:0:0:0:
171,14,193825,6,0,P|196:88|215:213,1,179.999994506836,2|2,1:0|1:0,0:0:0:0:
157,3,194293,2,0,P|182:77|201:202,1,179.999994506836,2|2,0:0|0:0,0:0:0:0:
136,5,194762,1,2,0:0:0:0:
184,176,194918,1,2,0:0:0:0:
6,367,195231,6,0,L|114:375,2,89.9999972534181,2|2|2,0:0|1:0|0:0,0:0:0:0:
110,274,195700,2,0,L|218:282,1,89.9999972534181,10|2,0:0|0:0,0:0:0:0:
273,182,196012,2,0,L|184:176,1,89.9999972534181,2|2,1:0|0:0,0:0:0:0:
242,6,196325,6,0,L|422:19,1,179.999994506836,2|2,1:0|1:0,0:0:0:0:
418,102,196793,2,0,L|239:89,1,179.999994506836,2|2,0:0|0:0,0:0:0:0:
241,5,197262,1,2,1:0:0:0:
242,6,197418,2,0,L|422:19,1,179.999994506836,2|2,0:0|0:0,0:0:0:0:
509,33,197887,1,2,1:0:0:0:
509,33,198043,1,2,0:0:0:0:
509,33,198200,2,0,L|330:20,1,179.999994506836,10|2,0:0|1:0,0:0:0:0:
329,19,198668,1,2,0:0:0:0:
499,229,198825,6,0,L|373:233,2,119.999996337891,14|10|10,0:1|0:1|0:1,0:0:0:0:
499,229,199450,2,0,L|373:233,1,119.999996337891,2|0,1:0|0:0,0:0:0:0:
380,233,199762,2,0,L|509:228,1,119.999996337891,2|0,1:0|0:0,0:0:0:0:
14,139,200075,6,0,L|177:144,2,150.000005722046,14|10|10,0:1|0:1|0:1,0:0:0:0:
14,139,200700,2,0,L|177:144,1,150.000005722046,2|0,1:0|0:0,0:0:0:0:
163,143,201012,2,0,L|-4:136,1,150.000005722046,2|0,1:0|0:0,0:0:0:0:
508,19,201325,6,0,L|327:24,2,179.999994506836,14|10|10,0:1|0:1|0:1,0:0:0:0:
508,19,201950,2,0,L|327:24,1,179.999994506836,2|0,1:0|0:0,0:0:0:0:
328,24,202262,2,0,L|512:16,1,179.999994506836,2|0,1:0|0:0,0:0:0:0:
507,17,202575,5,4,1:0:0:0:
157,53,207575,5,4,1:0:0:0:
165,147,207731,1,2,0:0:0:0:
165,147,208043,1,2,0:0:0:0:
157,53,208200,1,8,0:1:0:0:
165,147,208356,1,2,0:0:0:0:
165,147,208668,1,2,0:0:0:0:
157,53,208825,5,0,1:0:0:0:
165,147,208981,1,2,0:0:0:0:
165,147,209293,1,2,0:0:0:0:
157,53,209450,1,8,0:1:0:0:
165,147,209606,1,2,0:0:0:0:
165,147,209918,1,2,0:0:0:0:
357,30,210075,5,10,0:1:0:0:
357,30,210231,1,10,0:1:0:0:
311,220,210387,1,10,0:1:0:0:
311,220,210543,1,10,0:1:0:0:
171,300,210700,1,10,0:1:0:0:
171,300,210856,1,10,0:1:0:0:
73,101,211012,1,10,0:1:0:0:
73,101,211168,1,10,0:1:0:0:
423,141,211325,5,10,0:1:0:0:
423,141,211637,1,14,0:1:0:0:
256,192,211715,12,4,213825,1:0:0:0:
72,3,216325,6,0,P|93:69|111:209,1,194.999991073609,6|0,1:0|0:0,0:0:0:0:
393,47,216637,2,0,P|363:147|350:252,1,194.999991073609,14|0,0:1|0:0,0:0:0:0:
121,139,216950,2,0,P|148:205|170:346,1,194.999991073609,6|0,0:1|0:0,0:0:0:0:
335,142,217262,2,0,P|301:233|287:329,1,194.999991073609,14|0,0:1|0:0,0:0:0:0:
0,339,217575,6,0,P|79:373|89:237,1,259.999988098145,6|8,1:0|0:0,0:0:0:0:
100,242,218043,1,2,1:0:0:0:
100,242,218200,1,2,0:0:0:0:
100,242,218356,1,2,1:0:0:0:
100,242,218434,1,2,1:0:0:0:
100,242,218512,1,10,0:0:0:0:
361,8,218668,6,0,P|355:79|332:274,1,259.999988098145,2|2,0:0|0:0,0:0:0:0:
10,133,219137,2,0,P|88:143|157:155,1,129.999994049073,10|2,0:0|1:0,0:0:0:0:
512,172,219450,2,0,P|434:182|365:194,1,129.999994049073,2|0,0:0|1:0,0:0:0:0:
0,345,219762,2,0,P|78:355|147:367,1,129.999994049073,10|0,0:0|1:0,0:0:0:0:
480,37,220075,6,0,P|481:119|498:309,1,259.999988098145,2|10,1:0|0:0,0:0:0:0:
496,296,220543,1,2,1:0:0:0:
496,296,220700,1,2,0:0:0:0:
496,296,220856,1,2,1:0:0:0:
496,296,220934,1,2,1:0:0:0:
496,296,221012,1,10,0:0:0:0:
405,349,221168,6,0,P|396:278|366:89,1,259.999988098145,2|2,0:0|0:0,0:0:0:0:
267,40,221637,2,0,P|266:109|263:182,1,129.999994049073,10|2,0:0|1:0,0:0:0:0:
6,378,221950,2,0,P|70:372|141:360,1,129.999994049073,2|0,0:0|1:0,0:0:0:0:
506,378,222262,2,0,P|442:372|371:360,1,129.999994049073,10|2,0:0|1:0,0:0:0:0:
160,282,222496,1,0,1:0:0:0:
160,282,222575,6,0,P|178:211|241:345,1,389.999982147218,6|2,1:0|1:0,0:0:0:0:
160,282,223200,1,2,0:0:0:0:
160,282,223356,1,2,1:0:0:0:
160,282,223434,1,2,1:0:0:0:
160,282,223512,1,10,0:0:0:0:
208,12,223668,6,0,P|310:12|487:26,1,259.999988098145,2|2,0:0|0:0,0:0:0:0:
479,375,224137,2,0,P|466:305|456:232,1,129.999994049073,10|2,0:0|1:0,0:0:0:0:
12,267,224450,2,0,P|80:284|151:306,1,129.999994049073,2|0,0:0|1:0,0:0:0:0:
408,157,224762,2,0,P|343:127|277:93,1,129.999994049073,10|0,0:0|1:0,0:0:0:0:
116,379,225075,6,0,P|137:269|158:110,1,259.999988098145,6|10,1:0|0:0,0:0:0:0:
156,122,225543,1,2,1:0:0:0:
156,122,225700,1,2,0:0:0:0:
156,122,225856,1,2,1:0:0:0:
156,122,225934,1,2,1:0:0:0:
156,122,226012,1,10,0:0:0:0:
355,358,226168,6,0,P|280:361|79:381,1,259.999988098145,2|2,0:0|0:0,0:0:0:0:
19,320,226637,2,0,L|15:247,1,64.9999970245363,10|0,0:0|0:0,0:0:0:0:
82,215,226793,2,0,L|78:142,1,64.9999970245363,2|0,1:0|0:0,0:0:0:0:
187,109,226950,2,0,L|183:36,1,64.9999970245363,2|0,1:0|0:0,0:0:0:0:
386,96,227106,1,2,1:0:0:0:
396,111,227184,1,0,1:0:0:0:
408,129,227262,2,0,L|340:134,1,64.9999970245363,10|0,0:0|1:0,0:0:0:0:
494,253,227418,1,2,1:0:0:0:
417,290,227496,1,0,1:0:0:0:
335,278,227575,6,0,P|280:217|287:370,1,389.999982147218,6|2,1:0|0:0,0:0:0:0:
276,373,228200,1,0,0:0:0:0:
276,373,228356,1,0,1:0:0:0:
276,373,228434,1,0,1:0:0:0:
276,373,228512,1,8,0:0:0:0:
369,99,228668,6,0,P|285:121|96:157,1,259.999988098145,2|2,0:0|0:0,0:0:0:0:
2,328,229137,2,0,P|14:249|21:181,1,129.999994049073,10|2,0:0|1:0,0:0:0:0:
276,254,229450,2,0,P|202:262|143:272,1,129.999994049073,2|0,0:0|1:0,0:0:0:0:
506,374,229762,2,0,P|496:307|491:242,1,129.999994049073,10|0,0:0|1:0,0:0:0:0:
109,8,230075,6,0,L|140:275,1,259.999988098145,4|10,1:0|0:0,0:0:0:0:
138,266,230543,1,2,1:0:0:0:
138,266,230700,1,2,0:0:0:0:
138,266,230856,1,2,1:0:0:0:
138,266,230934,1,2,1:0:0:0:
138,266,231012,1,10,0:0:0:0:
215,358,231168,6,0,P|283:348|479:343,1,259.999988098145,2|2,0:0|0:0,0:0:0:0:
464,242,231637,2,0,P|452:167|447:108,1,129.999994049073,10|2,0:0|1:0,0:0:0:0:
351,10,231950,1,2,0:0:0:0:
222,51,232106,1,2,1:0:0:0:
91,43,232262,1,10,0:0:0:0:
76,322,232418,1,2,1:0:0:0:
76,322,232496,1,0,1:0:0:0:
76,322,232575,6,0,P|108:236|459:271,1,519.99997619629,6|2,1:0|0:0,0:0:0:0:
457,266,233356,1,2,1:0:0:0:
457,266,233434,1,2,1:0:0:0:
457,266,233512,1,10,0:0:0:0:
99,204,233668,6,0,P|250:187|375:166,1,259.999988098145,2|2,0:0|0:0,0:0:0:0:
512,130,234137,2,0,P|501:61|492:-8,1,129.999994049073,10|2,0:0|1:0,0:0:0:0:
175,15,234450,1,2,0:0:0:0:
283,59,234606,1,0,1:0:0:0:
216,223,234762,1,10,0:0:0:0:
382,368,234918,1,0,1:0:0:0:
382,368,234996,1,0,1:0:0:0:
382,368,235075,6,0,P|385:291|399:197,1,150.000005722046,4|0,1:0|0:0,0:0:0:0:
426,117,235387,1,10,0:0:0:0:
426,117,235543,1,2,1:0:0:0:
194,381,235700,2,0,P|191:304|177:210,1,150.000005722046,6|2,1:0|1:0,0:0:0:0:
134,113,235934,1,2,1:0:0:0:
134,113,236012,2,0,L|298:108,1,150.000005722046,10|0,0:0|0:0,0:0:0:0:
500,12,236325,5,14,0:1:0:0:
500,12,236481,1,0,1:0:0:0:
256,192,236637,1,14,0:1:0:0:
256,192,236793,1,0,1:0:0:0:
12,372,236950,1,14,0:1:0:0:
12,372,237028,1,0,1:0:0:0:
12,372,237106,2,0,L|19:285,1,75.0000028610231,0|0,1:0|1:0,0:0:0:0:
110,232,237262,1,10,0:1:0:0:
110,232,237340,1,0,1:0:0:0:
110,232,237418,2,0,L|117:145,1,75.0000028610231,0|0,1:0|1:0,0:0:0:0:
231,27,237575,5,14,0:1:0:0:
231,27,238200,1,0,0:0:0:0:
231,27,238825,6,0,P|298:33|381:37,1,139.999995727539,6|2,1:0|0:0,0:0:0:0:
512,198,239137,2,0,P|445:204|362:208,1,139.999995727539,8|0,0:0|1:0,0:0:0:0:
65,276,239450,2,0,P|132:282|215:286,1,139.999995727539,2|0,0:0|1:0,0:0:0:0:
500,378,239762,2,0,L|495:205,1,160,10|0,0:0|0:0,0:0:0:0:
465,22,240075,6,0,P|362:61|195:110,1,279.999991455078,2|8,1:0|0:0,0:0:0:0:
199,108,240543,1,2,1:0:0:0:
352,374,240700,2,0,P|248:337|88:267,1,279.999991455078,2|10,0:0|0:0,0:0:0:0:
20,38,241168,2,0,P|97:31|168:23,1,139.999995727539,2|0,0:0|1:0,0:0:0:0:
264,15,241481,1,2,0:0:0:0:
343,47,241637,1,10,0:0:0:0:
389,135,241793,1,2,1:0:0:0:
353,371,241950,6,0,L|200:378,1,139.999995727539,2|2,0:0|1:0,0:0:0:0:
187,29,242262,2,0,L|326:22,1,139.999995727539,10|0,0:0|1:0,0:0:0:0:
498,178,242575,5,2,1:0:0:0:
498,178,242731,1,0,0:0:0:0:
312,276,242887,2,0,L|322:120,1,139.999995727539,8|0,0:0|1:0,0:0:0:0:
14,178,243200,5,2,0:0:0:0:
14,178,243356,1,2,1:0:0:0:
200,276,243512,2,0,L|190:120,1,139.999995727539,8|2,0:0|0:0,0:0:0:0:
183,17,243825,5,2,1:0:0:0:
275,26,243981,1,2,0:0:0:0:
369,12,244137,1,10,0:0:0:0:
464,24,244293,1,2,1:0:0:0:
183,17,244450,2,0,L|171:160,1,139.999995727539,2|0,0:0|1:0,0:0:0:0:
464,24,244762,2,0,L|476:167,1,139.999995727539,10|0,0:0|1:0,0:0:0:0:
287,381,245075,6,0,P|307:303|334:102,1,279.999991455078,2|10,1:0|0:0,0:0:0:0:
333,105,245543,1,2,1:0:0:0:
333,105,245700,1,2,0:0:0:0:
333,105,245856,1,2,1:0:0:0:
333,105,245934,1,2,1:0:0:0:
333,105,246012,1,10,0:0:0:0:
223,199,246168,6,0,P|299:213|508:244,1,279.999991455078,2|0,0:0|0:0,0:0:0:0:
457,361,246637,1,8,0:0:0:0:
356,345,246793,1,0,1:0:0:0:
97,368,246950,1,2,0:0:0:0:
97,368,247028,1,0,0:0:0:0:
97,368,247106,2,0,L|103:291,1,69.9999978637696,2|0,1:0|0:0,0:0:0:0:
191,234,247262,1,10,0:0:0:0:
191,234,247340,1,0,0:0:0:0:
191,234,247418,2,0,L|185:157,1,69.9999978637696,0|0,1:0|1:0,0:0:0:0:
174,68,247575,6,0,L|12:58,2,139.999995727539,4|0|8,1:0|0:0|0:0,0:0:0:0:
174,68,248043,1,0,1:0:0:0:
353,186,248200,2,0,L|515:176,2,139.999995727539,2|0|8,0:0|1:0|0:0,0:0:0:0:
353,186,248668,1,0,1:0:0:0:
160,351,248825,6,0,P|186:290|182:195,1,139.999995727539,2|2,1:0|0:0,0:0:0:0:
151,117,249137,1,10,0:0:0:0:
278,100,249293,1,2,1:0:0:0:
455,125,249450,2,0,P|431:201|487:338,1,209.999993591309,2|0,0:0|0:0,0:0:0:0:
291,384,249762,2,0,P|362:334|266:281,1,209.999993591309,10|0,0:0|0:0,0:0:0:0:
99,335,250075,6,0,P|116:245|132:57,1,279.999991455078,6|10,1:0|0:0,0:0:0:0:
131,57,250543,1,2,1:0:0:0:
131,57,250700,1,2,0:0:0:0:
131,57,250856,1,2,1:0:0:0:
131,57,250934,1,2,1:0:0:0:
131,57,251012,1,10,0:0:0:0:
4,83,251168,6,0,P|9:156|10:365,1,279.999991455078,2|2,0:0|0:0,0:0:0:0:
175,226,251637,2,0,P|178:269|178:395,1,139.999995727539,10|2,0:0|1:0,0:0:0:0:
330,224,251950,2,0,P|333:267|333:393,1,139.999995727539,2|2,0:0|1:0,0:0:0:0:
506,72,252262,2,0,P|455:71|346:59,1,139.999995727539,10|2,0:0|0:0,0:0:0:0:
12,55,252575,6,0,P|89:39|50:252,1,419.999987182618,6|2,1:0|1:0,0:0:0:0:
53,252,253200,1,2,0:0:0:0:
53,252,253356,1,2,1:0:0:0:
53,252,253434,1,2,1:0:0:0:
53,252,253512,1,10,0:0:0:0:
439,357,253668,6,0,P|445:286|485:76,1,279.999991455078,2|2,0:0|0:0,0:0:0:0:
483,81,254137,1,10,0:0:0:0:
380,62,254293,1,2,1:0:0:0:
230,95,254450,1,10,0:1:0:0:
230,95,254528,1,8,0:1:0:0:
230,95,254606,2,0,L|223:182,1,69.9999978637696,0|0,1:0|0:0,0:0:0:0:
128,253,254762,1,10,0:1:0:0:
128,253,254840,1,8,0:1:0:0:
128,253,254918,2,0,L|121:166,1,69.9999978637696,0|0,1:0|0:0,0:0:0:0:
115,70,255075,5,10,0:1:0:0:
53,352,255231,1,10,0:1:0:0:
53,352,255387,2,0,L|94:356,1,40,10|0,0:0|0:0,0:0:0:0:
267,94,255700,5,10,0:1:0:0:
329,376,255856,1,10,0:1:0:0:
329,376,256012,2,0,L|289:380,1,40,10|0,0:0|0:0,0:0:0:0:
369,137,256325,6,0,L|516:146,1,139.999995727539,8|0,0:1|1:0,0:0:0:0:
339,369,256637,1,8,0:1:0:0:
256,192,256793,1,0,1:0:0:0:
173,15,256950,2,0,L|-4:25,1,170.000003242493,8|0,0:1|1:0,0:0:0:0:
192,255,257262,1,8,0:1:0:0:
491,160,257418,1,0,1:0:0:0:
491,160,257496,1,0,1:0:0:0:
491,160,257575,6,0,L|486:249,1,85.0000016212464,10|0,0:1|1:0,0:0:0:0:
387,265,257731,2,0,L|382:354,1,85.0000016212464,0|0,1:0|1:0,0:0:0:0:
296,150,257887,2,0,L|291:239,1,85.0000016212464,10|0,0:1|1:0,0:0:0:0:
192,255,258043,2,0,L|187:344,1,85.0000016212464,0|0,1:0|1:0,0:0:0:0:
167,105,258200,6,0,L|173:168,2,56.6666677474976,8|8|8,0:1|0:1|0:1,0:0:0:0:
101,221,258356,2,0,L|95:158,2,56.6666677474976,8|0|0,0:1|1:0|1:0,0:0:0:0:
75,83,258512,2,0,L|81:146,2,56.6666677474976,8|8|8,0:1|0:1|0:1,0:0:0:0:
6,213,258668,2,0,L|0:150,2,56.6666677474976,8|0|0,0:1|1:0|1:0,0:0:0:0:
43,303,258825,5,4,1:0:0:0:
256,192,258903,12,2,260700,0:0:0:0:
