osu file format v14

[General]
AudioFilename: audio.mp3
AudioLeadIn: 0
PreviewTime: 149646
Countdown: 0
SampleSet: Soft
StackLeniency: 0.5
Mode: 0
LetterboxInBreaks: 0
WidescreenStoryboard: 0

[Editor]
Bookmarks: 1287,36287,71912,103162,129412,150037,180037,190037,210037,240037,258787,260662
DistanceSpacing: 1.1
BeatDivisor: 4
GridSize: 4
TimelineZoom: 2

[Metadata]
Title:Itazura Sensation
TitleUnicode:悪戯センセーション
Artist:ShinRa-Bansho
ArtistUnicode:森羅万象
Creator:Ireiisu
Version:Sir you forgot about naming the diff
Source:
Tags:
BeatmapID:2295569
BeatmapSetID:1098748

[Difficulty]
HPDrainRate:5
CircleSize:4
OverallDifficulty:8
ApproachRate:9
SliderMultiplier:1.8
SliderTickRate:1

[Events]
//Background and Video events
0,0,"Konachan.com - 253595 2girls animal bat blonde_hair building dress long_hair moon night purple_hair red_eyes ribbons short_hair skirt sky touhou tree vampire wings.png",0,0
//Break Periods
2,172537,178193
//Storyboard Layer 0 (Background)
//Storyboard Layer 1 (Fail)
//Storyboard Layer 2 (Pass)
//Storyboard Layer 3 (Foreground)
//Storyboard Layer 4 (Overlay)
//Storyboard Sound Samples

[TimingPoints]
1293,312.5,4,2,2,100,1,0
1293,-142.857142857143,4,2,2,100,0,0
8793,-142.857142857143,4,2,1,100,0,0
10511,-100,4,2,1,100,0,0
11449,-100,4,2,2,100,0,0
12543,-100,4,2,1,100,0,0
35043,-100,4,2,0,100,0,0
36293,-100,4,2,1,100,0,0
46449,-100,4,2,0,80,0,0
46761,-100,4,2,0,80,0,0
47230,-142.857142857143,4,2,0,80,0,0
53480,-153.846153846153,4,2,0,80,0,0
55043,-142.857142857143,4,2,0,80,0,0
58168,-400,4,2,0,100,0,0
60668,-125,4,2,0,100,0,0
65355,-111.111111111111,4,2,0,100,0,0
68168,-100,4,2,0,100,0,0
69730,-200,4,2,0,100,0,0
70668,-66.6666666666667,4,2,0,100,0,0
70902,-66.6666666666667,4,2,0,5,0,0
70980,-66.6666666666667,4,2,0,100,0,0
71214,-66.6666666666667,4,2,0,5,0,0
71293,-66.6666666666667,4,2,0,100,0,0
71527,-66.6666666666667,4,2,0,5,0,0
71605,-50,4,2,0,100,0,0
71918,-100,4,2,1,100,0,0
91918,-125,4,2,0,100,0,0
100043,-100,4,2,0,100,0,0
100277,-100,4,2,0,5,0,0
100355,-83.3333333333333,4,2,0,100,0,0
100589,-100,4,2,0,5,0,0
100668,-71.4285714285714,4,2,0,100,0,0
103089,-71.4285714285714,4,2,0,5,0,0
103168,-100,4,2,1,100,0,0
113168,-111.111111111111,4,2,0,100,0,0
115668,-133.333333333333,4,2,0,100,0,0
117543,-100,4,2,0,100,0,0
118168,312.5,4,2,2,100,1,0
129105,-133.333333333333,4,2,0,100,0,0
129418,-133.333333333333,4,2,0,100,0,0
138793,-100,4,2,0,100,0,0
143480,-200,4,2,0,100,0,0
143714,-200,4,2,0,5,0,0
143793,-66.6666666666667,4,2,0,100,0,0
144027,-66.6666666666667,4,2,0,5,0,0
144105,-200,4,2,0,100,0,0
144339,-200,4,2,0,5,0,0
144418,-66.6666666666667,4,2,0,100,0,0
144652,-66.6666666666667,4,2,0,5,0,0
144730,-200,4,2,0,100,0,0
144964,-200,4,2,0,5,0,0
145043,-66.6666666666667,4,2,0,100,0,0
145277,-66.6666666666667,4,2,0,5,0,0
145355,-200,4,2,0,100,0,0
145589,-200,4,2,0,5,0,0
145668,-66.6666666666667,4,2,0,100,0,0
145902,-66.6666666666667,4,2,0,5,0,0
145980,-66.6666666666667,4,2,0,100,0,0
146293,-100,4,2,0,100,0,0
147855,-200,4,2,0,100,0,0
148793,-100,4,2,0,100,0,0
149730,-66.6666666666667,4,2,0,100,0,0
150043,-100,4,2,1,100,0,0
170043,-100,4,2,0,100,0,0
178793,-166.666666666667,4,2,0,100,0,0
179027,-166.666666666667,4,2,0,5,0,0
179105,-83.3333333333333,4,2,0,100,0,0
179339,-166.666666666667,4,2,0,5,0,0
179418,-166.666666666667,4,2,0,100,0,0
179652,-166.666666666667,4,2,0,5,0,0
179730,-83.3333333333333,4,2,0,100,0,0
180043,-142.857142857143,4,2,0,100,0,0
182230,-333.333333333333,4,2,0,100,0,0
182543,-142.857142857143,4,2,0,100,0,0
187230,-333.333333333333,4,2,0,100,0,0
187543,-142.857142857143,4,2,0,100,0,0
188793,-200,4,2,0,100,0,0
190043,-100,4,2,0,100,0,0
200668,-200,4,2,0,100,0,0
202543,-200,4,2,3,80,0,0
205043,-100,4,2,3,80,0,0
205824,-200,4,2,3,80,0,0
206293,-100,4,2,3,80,0,0
206605,-200,4,2,3,80,0,0
207543,-142.857142857143,4,2,0,100,0,0
208168,-111.111111111111,4,2,0,100,0,0
208793,-100,4,2,0,100,0,0
211605,-142.857142857143,4,2,0,100,0,0
215043,-142.857142857143,4,2,0,100,0,0
216293,-83.3333333333333,4,2,0,100,0,0
217543,-100,4,2,1,100,0,0
237543,-133.333333333333,4,2,0,100,0,0
238793,-83.3333333333333,4,2,0,100,0,0
240043,-100,4,2,1,100,0,0
258793,-1000,4,2,0,100,0,0
258949,-1000,4,2,0,100,0,0

[Colours]
Combo1 : 230,182,248
Combo2 : 168,168,255
Combo3 : 255,193,132
Combo4 : 248,118,137

[HitObjects]
36,187,1293,6,0,P|80:173|162:181,1,125.999996154785,4|0,0:1|0:0,0:0:0:0:
237,231,1761,2,0,P|299:239|359:223,1,125.999996154785
424,154,2230,2,0,P|431:188|442:233,1,62.9999980773926,0|0,1:0|0:0,0:0:0:0:
494,103,2543,5,0,1:0:0:0:
424,39,2699,1,0,0:0:0:0:
339,80,2855,1,0,0:0:0:0:
265,20,3011,2,0,P|224:14|157:67,1,125.999996154785
255,159,3480,2,0,P|250:119|232:89,1,62.9999980773926,0|0,1:0|0:0,0:0:0:0:
73,19,3793,6,0,P|66:57|65:99,2,62.9999980773926,0|0|0,1:0|0:0|0:0,0:0:0:0:
127,139,4261,2,0,L|-12:128,1,125.999996154785
203,144,4886,1,0,0:0:0:0:
155,226,5043,6,0,L|171:301,1,62.9999980773926,0|0,1:0|0:0,0:0:0:0:
64,233,5355,1,0,0:0:0:0:
136,360,5511,2,0,P|178:369|244:302,1,125.999996154785
324,289,5980,1,0,1:0:0:0:
155,226,6136,1,0,0:0:0:0:
255,114,6293,6,0,L|263:249,1,125.999996154785,0|0,1:0|0:0,0:0:0:0:
450,360,6761,2,0,P|469:323|434:227,1,125.999996154785
451,243,7386,1,0,0:0:0:0:
367,198,7543,5,0,1:0:0:0:
413,115,7699,1,0,0:0:0:0:
495,160,7855,1,0,0:0:0:0:
360,209,8011,2,0,L|221:203,1,125.999996154785
308,59,8480,2,0,L|324:139,1,62.9999980773926,0|0,1:0|0:0,0:0:0:0:
158,241,8793,5,0,1:0:0:0:
133,156,9105,1,0,0:0:0:0:
218,132,9418,1,0,1:0:0:0:
242,216,9730,1,0,0:0:0:0:
242,216,10043,5,4,1:2:0:0:
143,197,10199,1,0,1:0:0:0:
312,148,10355,5,4,1:2:0:0:
331,247,10511,2,0,P|323:280|317:305,1,45,0|0,1:0|0:0,0:0:0:0:
152,331,10668,1,0,0:0:0:0:
150,311,10746,1,0,0:0:0:0:
149,292,10824,1,0,0:0:0:0:
147,273,10902,1,0,0:0:0:0:
146,254,10980,1,0,0:0:0:0:
144,234,11058,1,0,0:0:0:0:
143,215,11136,1,0,0:0:0:0:
142,196,11214,1,0,0:0:0:0:
431,50,11449,5,2,0:0:0:0:
348,103,11605,1,0,0:0:0:0:
486,167,11761,1,2,0:0:0:0:
332,221,11918,1,2,0:0:0:0:
507,180,12074,1,0,0:0:0:0:
333,95,12230,1,2,0:0:0:0:
432,315,12386,1,2,0:0:0:0:
432,315,12464,1,0,0:0:0:0:
432,315,12543,6,0,B|334:274|354:358|260:332,1,180,4|8,0:0|0:0,0:0:0:0:
132,371,13011,2,0,P|106:327|131:202,1,180,0|0,1:0|1:0,0:0:0:0:
58,89,13480,1,0,1:0:0:0:
13,216,13636,1,0,0:0:0:0:
195,124,13793,6,0,B|193:83|193:83|185:30,1,90,0|0,1:0|0:0,0:0:0:0:
185,34,14027,1,0,0:0:0:0:
185,34,14105,1,8,0:0:0:0:
253,78,14261,1,0,1:0:0:0:
332,94,14418,1,0,0:0:0:0:
411,80,14574,1,0,1:0:0:0:
477,33,14730,1,8,0:0:0:0:
332,94,14886,1,0,1:0:0:0:
460,178,15043,6,0,B|467:244|467:244|440:285|440:285|448:366,1,180,0|8,1:0|0:0,0:0:0:0:
297,201,15511,1,0,1:0:0:0:
297,201,15589,1,0,0:0:0:0:
297,201,15668,2,0,B|341:193|341:193|391:219,1,90,0|0,0:0|1:0,0:0:0:0:
280,330,15980,2,0,B|236:338|236:338|186:312,1,90,0|0,1:0|0:0,0:0:0:0:
27,210,16293,5,0,1:0:0:0:
167,178,16449,1,0,0:0:0:0:
167,178,16527,1,0,0:0:0:0:
167,178,16605,1,8,0:0:0:0:
128,58,16761,1,0,1:0:0:0:
71,134,16918,1,0,0:0:0:0:
208,82,17074,1,0,1:0:0:0:
46,45,17230,1,8,0:0:0:0:
186,7,17386,1,0,1:0:0:0:
260,144,17543,6,0,P|350:175|422:114,1,180,0|8,1:2|0:0,0:0:0:0:
477,21,18011,2,0,P|451:95|488:196,1,180,0|0,1:0|1:0,0:0:0:0:
475,343,18480,2,0,P|458:294|426:251,1,90,0|0,1:0|0:0,0:0:0:0:
421,253,18714,1,0,0:0:0:0:
404,245,18793,6,0,L|293:258,1,90,0|0,1:0|0:0,0:0:0:0:
302,268,19027,1,0,0:0:0:0:
289,280,19105,2,0,L|184:275,1,90,8|0,0:0|0:0,0:0:0:0:
72,346,19418,1,0,0:0:0:0:
221,203,19574,1,0,1:0:0:0:
28,127,19730,1,8,0:0:0:0:
28,127,20043,6,0,P|71:152|177:93,1,180,0|8,1:0|0:0,0:0:0:0:
136,25,20511,1,0,1:0:0:0:
270,118,20668,2,0,P|203:110|166:109,1,90,0|0,0:0|1:0,0:0:0:0:
40,213,20980,1,0,1:0:0:0:
240,37,21136,1,0,0:0:0:0:
329,294,21293,5,4,1:2:0:0:
329,294,21449,1,4,1:2:0:0:
329,294,21605,1,4,1:2:0:0:
329,294,21918,5,10,0:0:0:0:
182,220,22074,1,0,0:0:0:0:
187,246,22152,1,0,0:0:0:0:
192,272,22230,1,6,0:0:0:0:
440,360,22386,1,2,1:2:0:0:
445,333,22464,1,0,1:0:0:0:
450,306,22543,6,0,P|404:258|296:289,1,180,4|8,1:2|0:0,0:0:0:0:
395,152,23011,1,0,1:0:0:0:
395,152,23168,2,0,P|436:176|496:181,1,90,0|0,0:0|1:0,0:0:0:0:
396,32,23480,2,0,P|351:39|313:62,1,90,0|0,1:0|0:0,0:0:0:0:
201,188,23793,6,0,P|146:202|61:159,1,135,0|0,1:0|0:0,0:0:0:0:
65,149,24105,1,8,0:0:0:0:
235,107,24261,2,0,L|245:256,1,135,0|0,1:0|0:0,0:0:0:0:
246,268,24574,1,2,0:0:0:0:
173,319,24730,1,2,0:0:0:0:
259,348,24886,1,0,1:0:0:0:
259,348,24964,1,0,1:0:0:0:
259,348,25043,6,0,B|344:302|345:382|434:345,1,180,4|8,0:0|0:0,0:0:0:0:
431,346,25511,2,0,P|420:306|424:162,1,180,0|0,1:0|1:0,0:0:0:0:
471,93,25980,1,8,0:0:0:0:
506,175,26136,1,0,0:0:0:0:
384,91,26293,6,0,L|194:99,1,180,0|8,1:0|0:0,0:0:0:0:
114,105,26761,1,0,1:0:0:0:
114,105,27074,1,0,1:0:0:0:
160,30,27230,1,8,0:0:0:0:
256,159,27386,1,0,1:0:0:0:
161,291,27543,6,0,P|124:246|208:239,1,180,0|8,1:0|0:0,0:0:0:0:
104,339,28011,2,0,P|161:322|295:326,1,180,0|0,1:0|1:0,0:0:0:0:
353,359,28480,1,0,1:0:0:0:
311,249,28636,1,0,0:0:0:0:
418,200,28793,6,0,P|410:260|408:307,2,90,0|0|8,1:0|0:0|0:0,0:0:0:0:
484,154,29261,2,0,P|430:168|332:83,1,180,0|0,1:0|0:0,0:0:0:0:
374,27,29730,2,0,P|424:37|461:48,1,90,8|0,0:0|0:0,0:0:0:0:
286,173,30043,5,4,0:0:0:0:
170,156,30199,1,4,0:0:0:0:
54,140,30355,1,4,0:0:0:0:
289,77,31293,5,4,0:0:0:0:
306,193,31449,1,4,0:0:0:0:
322,309,31605,1,4,0:0:0:0:
322,309,31918,2,0,L|226:300,1,90
373,242,32230,2,0,L|462:250,1,90,0|0,1:0|0:0,0:0:0:0:
357,164,32543,6,0,P|298:224|336:320,1,180,4|8,1:2|0:0,0:0:0:0:
237,360,33011,2,0,L|45:342,1,180,0|0,1:0|1:0,0:0:0:0:
182,195,33480,2,0,L|195:291,1,90,8|0,0:0|0:0,0:0:0:0:
107,212,33793,5,0,1:0:0:0:
265,167,33949,1,0,0:0:0:0:
107,233,34105,1,8,0:0:0:0:
292,280,34261,1,0,0:0:0:0:
172,154,34418,1,0,0:0:0:0:
199,112,34496,1,0,0:0:0:0:
243,89,34574,1,0,1:0:0:0:
292,93,34652,1,0,0:0:0:0:
332,121,34730,1,8,0:0:0:0:
346,168,34808,1,0,0:0:0:0:
354,216,34886,1,0,0:0:0:0:
393,245,34964,1,0,0:0:0:0:
443,245,35043,5,0,0:0:0:0:
469,168,35199,1,0,0:0:0:0:
392,141,35355,1,0,0:0:0:0:
368,218,35511,1,0,0:0:0:0:
454,89,35668,5,2,0:0:0:0:
356,206,35824,1,2,0:0:0:0:
231,117,35980,1,2,0:0:0:0:
143,242,36136,1,2,0:0:0:0:
16,154,36293,6,0,P|60:121|170:176,1,180,4|8,1:2|0:0,0:0:0:0:
200,248,36761,1,0,1:0:0:0:
148,320,36918,2,0,L|60:256,1,90,0|0,0:0|1:0,0:0:0:0:
92,200,37152,1,0,0:0:0:0:
92,200,37230,2,0,P|76:148|108:80,1,90,8|0,0:0|0:0,0:0:0:0:
168,148,37543,5,0,1:0:0:0:
248,192,37699,1,0,0:0:0:0:
247,106,37855,2,0,L|155:154,1,90,8|0,0:0|0:0,0:0:0:0:
268,264,38168,2,0,P|332:288|356:280,2,90,0|0|8,1:0|1:0|0:0,0:0:0:0:
328,208,38636,1,0,0:0:0:0:
328,208,38793,6,0,P|356:260|256:340,1,180,0|8,1:0|0:0,0:0:0:0:
144,182,39261,2,0,L|236:166,1,90
144,336,39574,5,0,1:0:0:0:
144,336,39652,1,0,0:0:0:0:
144,336,39730,2,0,L|64:268,1,90,8|0,0:0|0:0,0:0:0:0:
76,124,40043,2,0,L|156:192,1,90,0|0,1:0|0:0,0:0:0:0:
288,280,40355,2,0,L|183:288,1,90,8|0,0:0|0:0,0:0:0:0:
220,200,40668,1,0,0:0:0:0:
284,140,40824,1,0,1:0:0:0:
348,76,40980,2,0,P|376:136|416:152,1,90,8|0,0:0|0:0,0:0:0:0:
348,76,41293,5,0,1:0:0:0:
496,116,41449,1,0,0:0:0:0:
496,116,41605,2,0,P|492:192|468:228,1,90,8|0,0:0|0:0,0:0:0:0:
448,284,41918,2,0,L|340:292,1,90,0|0,0:0|1:0,0:0:0:0:
288,296,42152,1,0,0:0:0:0:
288,296,42230,2,0,P|280:340|320:380,1,90,8|0,0:0|0:0,0:0:0:0:
384,348,42543,5,0,1:0:0:0:
288,296,42699,1,0,0:0:0:0:
260,144,42855,1,8,0:0:0:0:
296,220,43011,1,0,1:0:0:0:
212,208,43168,2,0,L|172:120,1,90,0|0,0:0|1:0,0:0:0:0:
296,220,43480,2,0,P|368:236|404:212,1,90,8|0,0:0|0:0,0:0:0:0:
450,256,43714,1,0,0:0:0:0:
450,256,43793,6,0,P|431:174|348:163,1,180,0|8,1:0|0:0,0:0:0:0:
296,220,44261,1,0,1:0:0:0:
316,312,44418,2,0,B|228:336|228:336|148:248,1,180,0|8,0:0|0:0,0:0:0:0:
316,312,44886,5,0,0:0:0:0:
316,312,44964,1,0,0:0:0:0:
316,312,45043,1,0,1:0:0:0:
377,253,45199,1,0,1:0:0:0:
308,72,45355,1,8,0:0:0:0:
470,177,45511,1,0,1:0:0:0:
277,188,45668,2,0,L|157:212,1,90,0|0,0:0|1:0,0:0:0:0:
100,88,45980,1,8,0:0:0:0:
104,92,46449,5,2,0:0:0:0:
128,104,46761,5,2,0:0:0:0:
128,304,46918,1,2,0:0:0:0:
128,304,47230,6,0,P|220:352|248:336,2,125.999996154785,0|4|10,0:0|0:0|0:0,0:0:0:0:
100,232,48011,1,0,0:0:0:0:
236,232,48168,2,0,L|188:300,1,62.9999980773926,10|0,0:0|0:0,0:0:0:0:
391,363,48480,1,0,1:0:0:0:
391,363,48793,6,0,P|331:348|295:299,1,125.999996154785,8|8,0:0|0:0,0:0:0:0:
384,272,49261,1,0,0:0:0:0:
508,292,49418,2,0,L|384:272,1,125.999996154785,0|8,1:0|0:0,0:0:0:0:
428,188,49886,1,0,0:0:0:0:
428,188,50043,2,0,L|484:140,1,62.9999980773926,8|0,0:0|0:0,0:0:0:0:
396,96,50355,2,0,P|360:136|280:144,2,125.999996154785,0|8|8,1:0|0:0|0:0,0:0:0:0:
396,96,51136,5,0,0:0:0:0:
312,56,51293,2,0,L|220:56,1,62.9999980773926,0|0,1:0|0:0,0:0:0:0:
228,147,51605,2,0,L|308:147,1,62.9999980773926,8|0,0:0|0:0,0:0:0:0:
132,44,51918,1,8,0:0:0:0:
132,44,52230,6,0,P|76:84|52:140,2,125.999996154785,0|8|8,1:0|0:0|0:0,0:0:0:0:
152,152,53011,1,0,0:0:0:0:
152,152,53168,2,0,L|152:272,1,94.499997116089,0|0,1:0|0:0,0:0:0:0:
156,256,53480,5,8,0:0:0:0:
236,256,53636,1,0,0:0:0:0:
312,256,53793,2,0,L|395:251,1,58.4999973220826,8|0,0:0|0:0,0:0:0:0:
236,256,54105,5,0,1:0:0:0:
220,336,54418,5,8,0:0:0:0:
140,336,54574,1,0,0:0:0:0:
60,336,54731,2,0,L|-8:336,1,58.4999973220826,8|0,0:0|0:0,0:0:0:0:
140,336,55043,6,0,L|276:336,2,125.999996154785,4|8|8,0:0|0:0|0:0,0:0:0:0:
244,264,55980,2,0,L|108:264,2,125.999996154785,0|8|8,1:0|0:0|0:0,0:0:0:0:
368,248,56918,6,0,P|326:202|335:142,2,125.999996154785,0|8|8,1:0|0:0|0:0,0:0:0:0:
208,80,57855,2,0,L|224:148,1,62.9999980773926,0|0,1:0|0:0,0:0:0:0:
400,179,58168,6,0,B|341:147|274:184|274:184|207:214|140:184,1,270,4|0,0:1|0:0,0:0:0:0:
140,184,60355,1,0,0:0:0:0:
208,80,60668,6,0,P|252:76|304:100,1,72,0|0,1:0|0:0,0:0:0:0:
368,168,60980,1,0,1:0:0:0:
344,248,61136,1,0,0:0:0:0:
344,248,61293,2,0,L|252:276,2,72,8|0|0,0:0|0:0|1:0,0:0:0:0:
284,356,61761,1,0,1:0:0:0:
212,340,61918,2,0,P|184:312|180:256,1,72,0|0,0:0|1:0,0:0:0:0:
275,268,62230,1,0,1:0:0:0:
175,281,62386,1,0,0:0:0:0:
108,196,62543,2,0,L|184:200,1,72,8|0,0:0|0:0,0:0:0:0:
228,104,62855,6,0,B|163:79|163:79|75:99,1,144,0|0,1:0|1:0,0:0:0:0:
228,104,63324,5,0,0:0:0:0:
328,144,63480,2,0,L|312:240,1,72,0|0,1:0|0:0,0:0:0:0:
200,284,63793,2,0,P|208:252|248:216,1,72,8|0,0:0|0:0,0:0:0:0:
240,224,64027,1,0,0:0:0:0:
248,224,64105,1,0,1:0:0:0:
356,289,64261,6,0,P|322:299|288:292,1,72,0|0,1:0|0:0,0:0:0:0:
316,215,64574,1,0,1:0:0:0:
428,264,64730,2,0,P|424:324|400:352,1,72,0|0,1:0|0:0,0:0:0:0:
488,212,65043,2,0,L|484:108,1,72,8|0,0:0|0:0,0:0:0:0:
356,44,65355,5,2,0:0:0:0:
160,268,65668,2,0,L|219:212,1,80.9999975280763,4|0,0:0|0:0,0:0:0:0:
312,92,65980,5,2,0:0:0:0:
168,272,66293,6,0,L|221:211,1,80.9999975280763,4|0,0:0|0:0,0:0:0:0:
312,92,66605,1,2,0:0:0:0:
174,276,66918,6,0,L|223:211,1,80.9999975280763,4|0,0:0|0:0,0:0:0:0:
312,92,67230,1,2,0:0:0:0:
180,280,67543,6,0,L|221:210,1,80.9999975280763,4|0,0:0|0:0,0:0:0:0:
312,92,67855,1,2,0:0:0:0:
180,280,68168,5,0,1:0:0:0:
312,92,68324,1,0,0:0:0:0:
132,348,68480,1,0,1:0:0:0:
168,176,68636,1,0,0:0:0:0:
300,300,68793,5,0,1:0:0:0:
168,176,68949,1,0,0:0:0:0:
140,156,69027,1,0,1:0:0:0:
113,136,69105,1,0,1:0:0:0:
228,68,69261,1,0,1:0:0:0:
196,328,69418,1,2,1:2:0:0:
216,290,69730,6,0,P|194:372|168:292,1,225,4|0,0:1|0:0,0:0:0:0:
32,160,70668,6,0,B|112:160|112:160|144:128|144:128|224:128,1,202.500007724762,2|0,0:0|0:0,0:0:0:0:
332,39,70980,2,0,P|223:129|199:89,1,202.500007724762,2|0,0:0|0:0,0:0:0:0:
268,72,71293,2,0,B|220:112|232:172|292:224|292:224|289:247,1,202.500007724762,2|0,0:0|0:0,0:0:0:0:
349,319,71605,6,0,B|308:272|342:214|342:214|326:250|274:254|270:238,1,180,8|0,0:0|0:0,0:0:0:0:
124,284,71918,5,4,1:0:0:0:
288,247,72074,1,0,0:0:0:0:
232,344,72230,1,8,0:0:0:0:
166,191,72386,1,0,0:0:0:0:
166,191,72464,1,0,0:0:0:0:
166,191,72543,6,0,L|179:93,1,90,0|0,1:0|0:0,0:0:0:0:
109,43,72777,2,0,P|109:69|112:97,1,45,0|8,0:0|0:0,0:0:0:0:
346,109,73011,2,0,P|320:67|225:63,1,135,0|0,0:0|0:0,0:0:0:0:
223,70,73324,1,0,1:0:0:0:
316,200,73480,2,0,L|412:184,1,90,8|0,0:0|0:0,0:0:0:0:
269,127,73793,5,0,1:0:0:0:
415,48,73949,1,0,0:0:0:0:
261,137,74105,1,8,0:0:0:0:
477,237,74261,1,0,0:0:0:0:
477,237,74339,1,0,0:0:0:0:
477,237,74418,2,0,P|489:186|473:142,1,90,0|0,1:0|0:0,0:0:0:0:
308,235,74730,2,0,P|297:278|309:321,1,90,8|0,0:0|0:0,0:0:0:0:
369,174,75043,6,0,P|312:146|220:211,1,180,0|8,1:0|0:0,0:0:0:0:
58,103,75511,1,0,0:0:0:0:
58,103,75824,1,0,1:0:0:0:
133,217,75980,2,0,P|189:208|231:203,1,90,8|0,0:0|0:0,0:0:0:0:
177,286,76293,5,0,1:0:0:0:
35,207,76449,1,0,0:0:0:0:
149,92,76605,1,8,0:0:0:0:
344,269,76761,1,0,1:0:0:0:
344,269,76839,1,0,1:0:0:0:
344,269,76918,2,0,L|324:374,1,90,0|0,1:0|0:0,0:0:0:0:
249,278,77230,1,8,0:0:0:0:
429,221,77386,2,0,L|433:282,1,45,0|0,0:0|0:0,0:0:0:0:
327,357,77543,6,0,P|275:361|238:370,1,90,0|0,1:0|0:0,0:0:0:0:
413,348,77855,1,8,0:0:0:0:
249,278,78011,2,0,P|229:234|243:105,1,180,0|0,0:0|1:0,0:0:0:0:
83,42,78480,2,0,P|100:99|100:145,1,90,8|0,0:0|0:0,0:0:0:0:
166,37,78793,5,0,1:0:0:0:
25,116,78949,1,0,0:0:0:0:
200,201,79105,1,8,0:0:0:0:
67,292,79261,1,0,0:0:0:0:
184,117,79418,2,0,B|258:107|258:107|291:128|291:128|370:121,1,180,0|8,0:0|0:0,0:0:0:0:
488,172,79886,1,0,0:0:0:0:
378,52,80043,5,0,1:0:0:0:
257,200,80199,1,0,0:0:0:0:
257,200,80277,1,0,0:0:0:0:
257,200,80355,1,8,0:0:0:0:
411,360,80511,2,0,P|426:315|437:217,1,135,0|0,0:0|0:0,0:0:0:0:
437,228,80824,1,0,1:0:0:0:
345,151,80980,1,8,0:0:0:0:
212,289,81136,1,0,0:0:0:0:
42,198,81293,5,0,1:0:0:0:
118,224,81449,1,0,0:0:0:0:
57,278,81605,1,8,0:0:0:0:
96,97,81761,1,0,1:0:0:0:
96,97,81839,1,0,1:0:0:0:
96,97,81918,2,0,P|138:113|247:42,1,180,4|8,0:0|0:0,0:0:0:0:
326,193,82386,1,0,0:0:0:0:
484,103,82543,6,0,P|437:89|390:100,1,90,0|0,1:0|0:0,0:0:0:0:
383,107,82777,1,0,0:0:0:0:
369,118,82855,2,0,L|377:230,1,90,8|0,0:0|0:0,0:0:0:0:
512,353,83168,2,0,L|505:263,1,90,0|0,0:0|1:0,0:0:0:0:
317,312,83480,2,0,L|406:305,1,90,8|0,0:0|0:0,0:0:0:0:
293,190,83793,6,0,L|104:204,1,180,0|8,1:0|0:0,0:0:0:0:
113,203,84418,1,0,1:0:0:0:
166,296,84574,1,0,0:0:0:0:
72,350,84730,1,8,0:0:0:0:
214,214,84886,1,0,0:0:0:0:
42,143,85043,6,0,P|27:98|35:45,1,90,0|0,1:0|0:0,0:0:0:0:
43,43,85277,1,0,0:0:0:0:
56,30,85355,1,8,0:0:0:0:
151,144,85511,2,0,P|214:166|313:94,1,180,0|0,0:0|1:0,0:0:0:0:
417,172,85980,1,8,0:0:0:0:
347,36,86136,1,0,0:0:0:0:
508,147,86293,6,0,P|505:201|498:244,1,90,0|0,1:0|0:0,0:0:0:0:
262,350,86605,2,0,P|255:305|253:260,1,90,8|0,0:0|0:0,0:0:0:0:
299,198,86839,1,0,0:0:0:0:
299,198,86918,2,0,L|391:207,1,90,0|0,1:0|0:0,0:0:0:0:
217,186,87230,1,8,0:0:0:0:
336,296,87386,1,0,0:0:0:0:
163,354,87543,6,0,P|110:341|60:337,1,90,0|0,1:0|0:0,0:0:0:0:
74,337,87777,1,0,0:0:0:0:
74,337,87855,1,8,0:0:0:0:
8,97,88011,2,0,P|62:106|195:100,1,180,0|0,0:0|1:0,0:0:0:0:
287,31,88480,2,0,P|237:16|184:8,1,90,8|0,0:0|0:0,0:0:0:0:
287,129,88793,5,0,1:0:0:0:
385,47,88949,1,0,0:0:0:0:
186,101,89105,1,8,0:0:0:0:
324,206,89261,1,0,0:0:0:0:
322,214,89339,1,0,0:0:0:0:
320,222,89418,1,0,1:0:0:0:
236,195,89574,1,0,0:0:0:0:
404,246,89730,1,8,0:0:0:0:
253,279,89886,1,0,0:0:0:0:
423,341,90043,5,0,1:0:0:0:
394,166,90199,1,0,0:0:0:0:
391,157,90277,1,0,0:0:0:0:
388,148,90355,1,8,0:0:0:0:
500,240,90511,1,0,0:0:0:0:
330,336,90668,5,0,1:0:0:0:
474,157,90824,1,0,0:0:0:0:
277,80,90980,5,8,0:0:0:0:
421,259,91136,1,0,0:0:0:0:
215,175,91293,5,0,1:0:0:0:
394,31,91449,1,0,0:0:0:0:
501,238,91605,5,8,0:0:0:0:
296,350,91761,1,0,0:0:0:0:
296,350,91839,1,0,0:0:0:0:
296,350,91918,6,0,P|248:341|151:326,1,144,4|0,0:0|0:0,0:0:0:0:
78,370,92386,2,0,P|83:321|82:217,1,144
82,226,93011,1,0,0:0:0:0:
32,154,93168,2,0,P|29:108|29:59,2,72
156,257,93636,6,0,P|209:265|276:185,1,144
275,132,94105,2,0,P|233:140|208:171,1,72
344,175,94418,5,4,0:0:0:0:
394,105,94574,1,0,0:0:0:0:
338,39,94730,1,0,0:0:0:0:
329,180,94886,6,0,P|334:261|341:339,1,144
339,323,95511,1,0,0:0:0:0:
258,290,95668,5,0,0:0:0:0:
159,362,95824,1,0,0:0:0:0:
83,266,95980,1,0,0:0:0:0:
180,192,96136,1,0,0:0:0:0:
180,192,96449,1,0,0:0:0:0:
103,171,96605,2,0,P|107:136|110:81,1,72
331,32,96918,5,4,0:0:0:0:
359,121,97074,1,0,0:0:0:0:
270,150,97230,1,0,0:0:0:0:
245,59,97386,6,0,P|305:62|398:66,1,144
492,231,98011,1,0,0:0:0:0:
492,231,98168,2,0,P|442:246|414:266,1,72,6|0,0:0|0:0,0:0:0:0:
306,354,98480,1,0,0:0:0:0:
324,167,98636,2,0,P|360:212|308:279,1,144
97,340,99105,2,0,P|92:295|92:219,1,108
109,209,99418,5,0,1:0:0:0:
242,243,99574,1,0,0:0:0:0:
338,132,99730,1,0,1:0:0:0:
205,166,99886,1,0,0:0:0:0:
42,105,100043,6,0,P|88:123|159:74,1,135,0|0,1:0|0:0,0:0:0:0:
209,15,100355,2,0,B|180:63|180:63|199:125|205:170,1,161.999995056153,0|0,1:0|0:0,0:0:0:0:
205,166,100668,1,0,1:0:0:0:
338,132,100824,1,0,1:0:0:0:
134,196,100980,1,0,1:0:0:0:
279,352,101136,1,0,1:0:0:0:
475,283,101293,5,0,1:0:0:0:
470,271,101371,1,0,0:0:0:0:
466,258,101449,1,0,0:0:0:0:
463,245,101527,1,0,0:0:0:0:
460,232,101605,1,0,1:0:0:0:
417,258,101683,1,0,0:0:0:0:
367,251,101761,1,0,0:0:0:0:
343,206,101839,1,0,0:0:0:0:
359,157,101918,5,2,0:0:0:0:
261,200,102230,1,2,0:0:0:0:
211,111,102543,1,2,0:0:0:0:
300,64,102855,6,0,B|206:28|222:113|110:77,1,188.999994232178,2|0,0:1|0:0,0:0:0:0:
160,4,103168,6,0,P|208:88|164:156,1,180,4|8,0:0|0:0,0:0:0:0:
56,232,103636,1,0,0:0:0:0:
56,232,103949,6,0,L|108:220,2,45,0|0|8,1:0|0:0|0:0,0:0:0:0:
170,152,104261,1,0,1:0:0:0:
156,328,104418,2,0,L|60:368,1,90,0|0,1:0|0:0,0:0:0:0:
56,232,104730,1,8,0:0:0:0:
232,192,104886,2,0,L|272:288,1,90
392,148,105199,1,0,1:0:0:0:
328,212,105355,1,8,0:0:0:0:
328,212,105668,6,0,P|416:244|480:180,1,180,0|8,1:0|0:0,0:0:0:0:
484,104,106136,2,0,B|424:108|396:152|396:152|320:120,1,180,0|0,1:0|1:0,0:0:0:0:
212,48,106605,1,8,0:0:0:0:
68,156,106761,1,0,0:0:0:0:
200,124,106918,6,0,L|152:32,1,90,0|0,1:0|0:0,0:0:0:0:
44,180,107230,2,0,P|44:272|120:316,2,180,8|0|8,0:0|1:0|0:0,0:0:0:0:
208,232,108011,1,0,0:0:0:0:
208,232,108168,6,0,L|116:232,1,90,0|0,1:0|0:0,0:0:0:0:
112,320,108480,1,8,0:0:0:0:
248,312,108636,2,0,P|288:264|300:220,1,90,0|0,1:0|0:0,0:0:0:0:
316,108,108949,5,0,1:0:0:0:
316,108,109105,2,0,L|416:148,1,90,8|0,0:0|0:0,0:0:0:0:
408,324,109418,2,0,L|488:272,1,90,0|0,1:0|0:0,0:0:0:0:
404,248,109652,1,0,0:0:0:0:
404,248,109730,2,0,L|488:196,1,90,8|0,0:0|1:0,0:0:0:0:
352,44,110043,1,0,0:0:0:0:
492,72,110199,1,0,1:0:0:0:
316,108,110355,2,0,L|204:128,1,90,8|0,0:0|0:0,0:0:0:0:
72,232,110668,6,0,L|259:199,1,180,0|8,1:0|0:0,0:0:0:0:
352,44,111136,2,0,P|388:108|324:180,1,180,0|0,1:0|1:0,0:0:0:0:
256,291,111605,2,0,L|248:191,1,90,8|0,0:0|0:0,0:0:0:0:
161,31,111918,1,0,1:0:0:0:
325,179,112074,1,0,0:0:0:0:
169,267,112230,1,8,0:0:0:0:
273,119,112386,1,0,0:0:0:0:
373,323,112543,1,0,1:0:0:0:
373,323,112855,1,8,0:0:0:0:
373,323,113168,6,0,B|285:299|193:331,1,161.999995056153,2|0,0:0|0:0,0:0:0:0:
120,56,113793,2,0,B|208:80|300:48,1,161.999995056153,2|0,0:0|0:0,0:0:0:0:
120,56,114418,5,2,0:0:0:0:
192,166,114574,1,2,0:0:0:0:
96,188,114730,1,0,0:0:0:0:
240,128,114886,2,0,P|284:200|196:156,1,242.999992584229,2|0,0:0|0:0,0:0:0:0:
96,188,115668,6,0,L|56:176,1,33.7500012874604,0|0,1:0|0:0,0:0:0:0:
113,228,115824,2,0,L|64:232,1,33.7500012874604
148,256,115980,2,0,L|116:288,3,33.7500012874604,0|0|0|0,1:0|0:0|0:0|0:0,0:0:0:0:
192,264,116293,2,0,L|176:308,3,33.7500012874604,0|0|0|0,1:0|0:0|0:0|0:0,0:0:0:0:
192,264,116605,1,0,1:0:0:0:
236,272,116683,1,0,0:0:0:0:
260,232,116761,1,0,0:0:0:0:
232,196,116839,1,0,0:0:0:0:
188,212,116918,5,2,0:0:0:0:
20,280,117230,5,2,0:0:0:0:
296,48,117543,5,2,0:0:0:0:
184,128,117699,6,0,P|225:159|237:227,1,90,0|4,0:0|0:0,0:0:0:0:
144,216,118011,1,0,0:0:0:0:
76,100,118168,2,0,P|168:40|260:56,1,180,0|8,1:0|0:0,0:0:0:0:
284,120,118636,1,0,1:0:0:0:
292,128,118949,5,0,1:0:0:0:
292,128,119027,1,0,0:0:0:0:
292,128,119105,1,8,0:0:0:0:
452,48,119261,1,0,0:0:0:0:
468,139,119418,2,0,B|360:167|360:103|264:135,1,180,0|8,1:0|0:0,0:0:0:0:
212,172,119886,1,0,1:0:0:0:
296,208,120043,2,0,P|368:104|336:64,1,180,0|8,0:0|0:0,0:0:0:0:
268,44,120511,5,0,0:0:0:0:
124,156,120668,1,0,1:0:0:0:
124,156,120980,5,8,0:0:0:0:
212,172,121136,2,0,P|228:252|208:376,1,180,0|0,1:0|1:0,0:0:0:0:
148,292,121605,1,8,0:0:0:0:
72,340,121761,1,0,0:0:0:0:
36,164,121918,6,0,P|35:119|57:81,2,90,0|0|8,1:0|0:0|0:0,0:0:0:0:
204,100,122386,1,0,1:0:0:0:
104,136,122543,2,0,B|192:96|192:160|279:130,1,180,0|8,0:0|0:0,0:0:0:0:
278,130,123011,1,0,0:0:0:0:
380,280,123168,5,4,0:0:0:0:
380,163,123324,1,4,0:0:0:0:
481,221,123480,1,4,0:0:0:0:
481,221,123793,2,0,L|480:324,1,90
408,368,124105,1,0,1:0:0:0:
380,280,124261,1,0,0:0:0:0:
216,204,124418,5,4,0:0:0:0:
333,204,124574,2,0,L|300:264,1,45,4|0,0:0|0:0,0:0:0:0:
275,305,124730,1,4,0:0:0:0:
275,305,125043,2,0,P|224:296|148:320,1,90
108,344,125355,1,0,1:0:0:0:
40,284,125511,1,0,0:0:0:0:
124,180,125668,6,0,P|164:228|156:344,1,180,0|8,1:0|0:0,0:0:0:0:
40,284,126136,2,0,P|0:236|8:120,1,180,0|0,1:0|1:0,0:0:0:0:
84,76,126605,2,0,P|132:96|200:76,1,90,8|0,0:0|0:0,0:0:0:0:
260,88,126918,5,0,1:0:0:0:
232,248,127074,1,0,0:0:0:0:
393,233,127230,1,8,0:0:0:0:
268,192,127386,1,0,0:0:0:0:
348,330,127543,5,0,1:0:0:0:
377,285,127621,1,0,0:0:0:0:
393,233,127699,1,0,0:0:0:0:
388,180,127777,1,0,0:0:0:0:
351,143,127855,1,8,0:0:0:0:
299,149,127933,1,0,0:0:0:0:
268,192,128011,1,0,0:0:0:0:
273,244,128090,1,0,0:0:0:0:
313,279,128168,5,2,0:0:0:0:
476,204,128480,5,2,0:0:0:0:
216,128,128793,5,2,0:0:0:0:
216,128,129105,6,0,P|188:184|200:248,1,101.250003862381
210,248,129418,6,0,P|169:258|137:274,2,67.5000025749208
305,317,129886,2,0,P|346:327|378:343,2,67.5000025749208
211,353,130355,1,0,0:0:0:0:
312,226,130668,2,0,L|303:108,2,101.250003862381,2|2|2,0:0|0:0|0:0,0:0:0:0:
441,226,131293,5,0,0:0:0:0:
512,178,131449,1,0,0:0:0:0:
441,226,131605,1,0,0:0:0:0:
392,71,131761,5,0,0:0:0:0:
440,142,131917,1,0,0:0:0:0:
392,71,132073,1,0,0:0:0:0:
284,128,132230,1,0,0:0:0:0:
194,45,132386,2,0,L|240:38,1,33.7500012874604
300,136,132543,6,0,P|307:178|296:237,2,101.250003862381,2|2|2,0:0|0:0|0:0,0:0:0:0:
200,178,133168,1,0,0:0:0:0:
129,96,133324,1,0,0:0:0:0:
29,137,133480,1,0,0:0:0:0:
102,215,133636,2,0,P|112:254|116:296,2,67.5000025749208
35,261,134105,1,0,0:0:0:0:
189,234,134261,1,0,0:0:0:0:
182,360,134418,2,0,P|140:358|70:359,2,101.250003862381,2|2|2,0:0|0:0|0:0,0:0:0:0:
455,281,135043,6,0,L|315:269,1,135.000005149842,2|0,0:0|0:0,0:0:0:0:
257,204,135511,2,0,P|240:153|252:54,1,135.000005149842,2|0,0:0|0:0,0:0:0:0:
345,31,135980,1,2,0:0:0:0:
130,59,136293,5,2,0:0:0:0:
276,217,136605,2,0,L|266:363,2,135.000005149842,2|0|2,0:0|0:0|0:0,0:0:0:0:
167,208,137386,1,0,0:0:0:0:
167,208,137543,6,0,L|180:289,1,67.5000025749208,2|0,0:0|0:0,0:0:0:0:
226,132,137855,2,0,L|144:119,1,67.5000025749208
12,241,138168,2,0,L|94:228,1,67.5000025749208,2|0,0:0|0:0,0:0:0:0:
63,62,138480,2,0,L|73:128,1,67.5000025749208,2|0,0:0|0:0,0:0:0:0:
209,332,138793,6,0,P|266:348|379:310,1,180,4|0,1:2|1:0,0:0:0:0:
435,243,139261,1,0,0:0:0:0:
345,230,139418,2,0,L|331:134,2,90,8|0|0,0:0|0:0|0:0,0:0:0:0:
244,116,139886,6,0,B|302:106|302:106|361:125|361:125|427:116,1,180,0|0,1:0|0:0,0:0:0:0:
427,26,140355,1,0,1:0:0:0:
427,26,140511,1,0,0:0:0:0:
487,167,140668,1,8,0:0:0:0:
254,30,140980,1,0,0:0:0:0:
27,177,141293,6,0,P|19:235|15:275,2,90,0|0|0,1:0|0:0|1:0,0:0:0:0:
131,148,141761,1,0,0:0:0:0:
230,190,141918,1,8,0:0:0:0:
141,251,142074,1,0,0:0:0:0:
141,251,142152,1,0,0:0:0:0:
141,251,142230,1,0,0:0:0:0:
231,309,142386,6,0,P|286:298|416:289,1,180,0|0,1:0|0:0,0:0:0:0:
501,230,142855,2,0,P|462:193|431:159,1,90,0|0,1:0|0:0,0:0:0:0:
360,89,143168,2,0,P|329:121|296:152,1,90,8|0,0:0|0:0,0:0:0:0:
87,45,143480,6,0,L|168:41,1,67.5
184,24,143793,6,0,B|151:135|238:99|209:221,1,202.500007724762,4|0,1:2|0:0,0:0:0:0:
222,299,144105,2,0,P|247:304|221:318,1,67.5,2|0,0:0|0:0,0:0:0:0:
135,348,144418,6,0,B|100:291|100:291|125:148,1,202.500007724762,4|0,1:2|0:0,0:0:0:0:
24,88,144730,6,0,L|30:166,1,67.5,2|0,0:0|0:0,0:0:0:0:
173,213,145043,6,0,P|93:228|54:129,1,202.500007724762,4|0,1:2|0:0,0:0:0:0:
219,35,145355,6,0,L|213:113,1,67.5,2|0,0:0|0:0,0:0:0:0:
138,134,145668,6,0,B|211:132|211:132|259:164|259:164|339:162,1,202.500007724762,4|0,1:2|0:0,0:0:0:0:
404,128,145980,1,2,0:0:0:0:
404,128,146293,5,0,1:0:0:0:
463,218,146449,1,0,0:0:0:0:
375,280,146605,1,0,1:0:0:0:
312,191,146761,1,0,0:0:0:0:
175,339,146918,5,0,1:0:0:0:
116,249,147074,1,0,0:0:0:0:
204,187,147230,1,0,1:0:0:0:
267,276,147386,1,0,0:0:0:0:
25,233,147543,5,0,1:0:0:0:
25,233,147855,6,4,B|126:197|113:316|237:274,1,225,4|0,0:0|0:0,0:0:0:0:
351,229,148793,6,0,P|361:287|366:327,1,90,2|0,0:0|0:0,0:0:0:0:
475,149,149105,2,0,P|467:193|461:237,1,90,2|0,0:0|0:0,0:0:0:0:
351,33,149418,2,0,P|361:91|366:131,1,90,2|0,0:0|0:0,0:0:0:0:
93,179,149730,1,4,0:2:0:0:
284,156,149886,1,2,0:0:0:0:
59,93,150043,5,0,1:0:0:0:
184,196,150199,1,0,0:0:0:0:
120,260,150355,1,8,0:0:0:0:
160,104,150511,1,0,0:0:0:0:
160,104,150589,1,0,0:0:0:0:
160,104,150668,2,0,P|236:120|268:144,1,90,0|0,0:0|1:0,0:0:0:0:
320,176,150980,1,8,0:0:0:0:
460,96,151136,6,0,P|456:48|440:4,1,90,0|0,0:0|1:0,0:0:0:0:
368,60,151449,1,0,0:0:0:0:
412,216,151605,2,0,P|360:268|308:276,1,90,8|0,0:0|1:0,0:0:0:0:
212,180,151918,2,0,L|332:176,1,90,0|0,0:0|1:0,0:0:0:0:
372,344,152230,2,0,L|252:348,1,90,8|0,0:0|0:0,0:0:0:0:
104,260,152543,5,0,1:0:0:0:
192,280,152699,1,0,0:0:0:0:
32,292,152855,2,0,P|40:212|56:192,1,90,8|0,0:0|1:0,0:0:0:0:
92,128,153168,2,0,L|188:128,1,90,0|0,0:0|1:0,0:0:0:0:
228,132,153402,1,0,0:0:0:0:
228,132,153480,1,8,0:0:0:0:
332,256,153636,6,0,L|336:148,1,90,0|0,0:0|1:0,0:0:0:0:
256,208,153949,1,0,0:0:0:0:
340,348,154105,1,8,0:0:0:0:
412,164,154261,1,0,0:0:0:0:
252,284,154418,6,0,P|196:256|180:216,1,90,0|0,0:0|1:0,0:0:0:0:
412,88,154730,2,0,P|468:116|484:156,1,90,8|0,0:0|0:0,0:0:0:0:
480,220,154964,1,0,0:0:0:0:
480,220,155043,2,0,L|472:340,1,90,0|0,1:0|0:0,0:0:0:0:
392,344,155355,1,8,0:0:0:0:
304,332,155511,1,0,1:0:0:0:
404,208,155668,2,0,L|411:163,1,45
312,242,155824,1,0,1:0:0:0:
312,242,155902,1,0,0:0:0:0:
312,242,155980,2,0,L|300:374,1,90,8|0,0:0|0:0,0:0:0:0:
212,196,156293,5,0,1:0:0:0:
275,129,156449,1,0,0:0:0:0:
212,196,156605,2,0,P|192:116|200:84,1,90,8|0,0:0|1:0,0:0:0:0:
256,44,156918,2,0,P|276:124|268:156,1,90,0|0,0:0|1:0,0:0:0:0:
116,164,157230,2,0,L|4:176,1,90,8|0,0:0|1:0,0:0:0:0:
128,48,157543,5,0,1:0:0:0:
192,110,157699,1,0,0:0:0:0:
256,44,157855,5,8,0:0:0:0:
212,196,158011,1,0,1:0:0:0:
300,176,158168,2,0,L|392:224,1,90,0|0,0:0|1:0,0:0:0:0:
416,244,158402,1,0,0:0:0:0:
416,244,158480,1,8,0:0:0:0:
268,304,158636,5,0,0:0:0:0:
268,304,158949,1,0,0:0:0:0:
148,196,159105,1,8,0:0:0:0:
124,284,159261,1,0,1:0:0:0:
212,124,159418,5,0,0:0:0:0:
12,200,159574,1,0,1:0:0:0:
268,304,159730,2,0,L|372:304,1,90,8|0,0:0|0:0,0:0:0:0:
404,368,159964,1,0,0:0:0:0:
404,368,160043,2,0,P|388:276|412:184,1,180,0|0,1:0|0:0,0:0:0:0:
436,112,160511,1,0,1:0:0:0:
436,112,160668,2,0,P|484:152|492:196,1,90,0|0,0:0|1:0,0:0:0:0:
335,161,160980,2,0,L|327:61,1,90,8|0,0:0|0:0,0:0:0:0:
240,80,161293,5,0,1:0:0:0:
224,252,161449,1,0,0:0:0:0:
96,124,161605,2,0,P|92:64|140:20,1,90,8|0,0:0|0:0,0:0:0:0:
328,72,161918,2,0,B|268:64|268:64|216:92|216:92|152:88,1,180,0|8,0:0|0:0,0:0:0:0:
188,4,162386,1,0,0:0:0:0:
176,168,162543,6,0,L|140:264,1,90,0|0,1:0|0:0,0:0:0:0:
112,336,162855,1,8,0:0:0:0:
68,256,163011,1,0,1:0:0:0:
220,312,163168,2,0,P|280:336|336:312,1,90,0|0,0:0|1:0,0:0:0:0:
348,176,163480,1,8,0:0:0:0:
260,152,163636,2,0,P|268:224|304:260,1,90,0|0,0:0|1:0,0:0:0:0:
276,236,163871,1,0,0:0:0:0:
276,236,163949,1,0,0:0:0:0:
348,92,164105,2,0,L|360:-4,1,90,8|0,0:0|1:0,0:0:0:0:
212,68,164418,1,0,0:0:0:0:
180,152,164574,5,0,1:0:0:0:
120,0,164730,1,8,0:0:0:0:
180,152,164886,2,0,L|164:220,1,45,0|0,1:0|0:0,0:0:0:0:
44,224,165043,2,0,B|140:192|140:256|236:224,1,180,0|8,1:0|0:0,0:0:0:0:
300,192,165511,1,0,1:0:0:0:
452,132,165668,1,0,0:0:0:0:
432,44,165824,1,0,1:0:0:0:
372,196,165980,2,0,P|360:236|288:260,1,90,8|0,0:0|0:0,0:0:0:0:
244,288,166214,1,0,0:0:0:0:
244,288,166293,6,0,L|300:376,1,90,0|0,1:0|0:0,0:0:0:0:
160,268,166605,2,0,P|186:226|236:204,1,90,8|0,0:0|1:0,0:0:0:0:
188,368,166918,5,0,0:0:0:0:
44,232,167074,1,0,1:0:0:0:
160,72,167230,5,8,0:0:0:0:
160,268,167386,1,0,0:0:0:0:
160,268,167464,1,0,0:0:0:0:
160,268,167543,1,0,1:0:0:0:
304,192,167699,1,0,1:0:0:0:
148,152,167855,5,8,0:0:0:0:
304,116,168011,1,0,0:0:0:0:
160,72,168168,5,0,1:0:0:0:
276,276,168324,1,0,1:0:0:0:
276,276,168402,1,0,0:0:0:0:
276,276,168480,1,8,0:0:0:0:
244,80,168636,1,0,0:0:0:0:
391,72,168793,6,0,L|379:124,1,45,2|0,0:0|0:0,0:0:0:0:
368,193,168949,1,0,1:0:0:0:
160,72,169105,2,0,L|171:124,1,45,2|0,0:0|0:0,0:0:0:0:
182,193,169261,1,0,1:0:0:0:
419,56,169418,6,0,L|411:104,1,45,2|0,0:0|0:0,0:0:0:0:
391,208,169574,1,0,1:0:0:0:
131,56,169730,2,0,L|139:104,1,45,2|0,0:0|0:0,0:0:0:0:
159,208,169886,1,0,1:0:0:0:
168,242,169964,1,0,0:0:0:0:
178,277,170042,1,4,1:2:0:0:
256,192,170199,12,0,172230,0:0:0:0:
120,184,178793,6,0,P|168:152|176:120,1,80.9999975280763
108,112,179105,2,0,L|272:108,1,161.999995056153,2|0,0:0|0:0,0:0:0:0:
344,120,179418,6,0,L|336:212,1,80.9999975280763
272,184,179730,2,0,P|348:136|404:208,1,161.999995056153,2|0,0:0|0:0,0:0:0:0:
428,264,180043,6,0,P|436:317|420:363,1,94.499997116089,2|0,0:0|0:0,0:0:0:0:
412,365,180355,1,0,0:0:0:0:
292,337,180511,2,0,L|166:349,2,125.999996154785,2|0|0,0:0|0:0|0:0,0:0:0:0:
172,264,181293,6,0,P|136:261|104:252,1,62.9999980773926,2|2,0:0|0:0,0:0:0:0:
110,254,181527,1,0,0:0:0:0:
110,254,181605,1,0,0:0:0:0:
66,192,181761,1,0,0:0:0:0:
47,118,181918,1,2,0:0:0:0:
53,42,182074,1,2,0:0:0:0:
195,145,182230,2,0,L|243:150,1,40.4999987640381,2|0,0:0|0:0,0:0:0:0:
264,173,182543,6,0,P|330:179|375:120,1,125.999996154785,2|0,0:0|0:0,0:0:0:0:
404,42,183011,2,0,P|355:30|320:27,1,62.9999980773926,2|0,0:0|0:0,0:0:0:0:
464,142,183324,2,0,P|501:108|481:34,1,125.999996154785
416,211,183793,6,0,L|424:288,1,62.9999980773926,2|2,0:0|0:0,0:0:0:0:
409,273,184027,1,0,0:0:0:0:
396,273,184105,1,0,0:0:0:0:
490,321,184261,1,0,0:0:0:0:
350,362,184418,1,2,0:0:0:0:
350,362,184730,2,0,P|303:341|251:339,1,94.499997116089,2|0,0:0|0:0,0:0:0:0:
260,337,185043,6,0,P|276:288|266:211,1,125.999996154785,2|0,0:0|0:0,0:0:0:0:
153,318,185511,2,0,L|14:306,2,125.999996154785,2|0|0,0:0|0:0|0:0,0:0:0:0:
174,244,186293,5,2,0:0:0:0:
106,198,186449,1,2,0:0:0:0:
111,157,186527,1,0,0:0:0:0:
116,116,186605,1,0,0:0:0:0:
67,49,186761,1,0,0:0:0:0:
196,138,186918,1,2,0:0:0:0:
196,138,187074,1,2,0:0:0:0:
346,37,187230,2,0,P|344:60|342:85,1,40.4999987640381,2|0,0:0|0:0,0:0:0:0:
345,85,187543,6,0,P|306:53|237:84,1,125.999996154785,2|0,0:0|0:0,0:0:0:0:
316,176,188011,2,0,P|356:159|441:161,2,125.999996154785,2|0|0,0:0|0:0|0:0,0:0:0:0:
259,235,188793,6,0,P|234:211|221:196,1,45
142,331,189105,2,0,P|165:305|176:297,1,45
38,220,189418,2,0,P|56:236|75:257,1,45
155,124,189730,2,0,P|137:146|119:165,1,45
142,331,190043,6,0,P|217:306|317:322,1,180,6|0,0:0|0:0,0:0:0:0:
391,347,190511,1,2,0:0:0:0:
458,301,190668,2,0,P|467:249|467:207,1,90
395,174,190980,1,0,0:0:0:0:
280,212,191136,1,0,0:0:0:0:
364,93,191293,6,0,P|414:98|455:102,1,90,2|0,0:0|0:0,0:0:0:0:
453,101,191527,1,0,0:0:0:0:
453,101,191605,1,2,0:0:0:0:
414,30,191761,1,0,0:0:0:0:
354,86,191918,1,2,0:0:0:0:
299,26,192074,1,2,0:0:0:0:
262,98,192230,2,0,P|197:105|163:43,1,135,2|0,0:0|0:0,0:0:0:0:
172,42,192543,6,0,P|133:53|71:55,1,90,2|0,0:0|0:0,0:0:0:0:
12,147,192855,1,0,0:0:0:0:
12,147,193011,2,0,P|82:145|191:174,1,180,2|0,0:0|0:0,0:0:0:0:
265,148,193480,1,0,0:0:0:0:
265,148,193636,1,0,0:0:0:0:
211,276,193793,6,0,P|165:273|125:251,1,90,2|0,0:0|0:0,0:0:0:0:
126,252,194027,1,0,0:0:0:0:
126,252,194105,1,2,0:0:0:0:
296,232,194261,2,0,P|307:277|308:327,2,90,0|2|2,0:0|0:0|0:0,0:0:0:0:
468,348,194730,1,2,0:0:0:0:
308,242,194886,1,0,0:0:0:0:
439,263,195043,6,0,P|480:227|451:149,1,135,2|0,0:0|0:0,0:0:0:0:
449,150,195355,1,0,0:0:0:0:
350,52,195511,2,0,P|396:63|516:5,2,180,2|0|0,0:0|0:0|0:0,0:0:0:0:
218,133,196293,6,0,P|266:130|316:145,1,90,2|0,0:0|0:0,0:0:0:0:
306,140,196527,1,0,0:0:0:0:
306,140,196605,1,2,0:0:0:0:
199,151,196761,1,0,0:0:0:0:
142,75,196918,2,0,P|182:48|232:36,1,90,0|2,0:0|0:0,0:0:0:0:
97,163,197230,2,0,P|53:150|16:125,1,90,2|0,0:0|0:0,0:0:0:0:
199,151,197543,6,0,P|233:205|179:301,1,180,0|0,1:0|1:0,0:0:0:0:
183,299,198011,1,0,0:0:0:0:
77,261,198168,2,0,P|73:316|73:360,1,90,0|0,1:0|0:0,0:0:0:0:
287,330,198480,2,0,P|286:285|282:240,1,90,0|0,1:0|0:0,0:0:0:0:
154,130,198793,5,4,1:2:0:0:
240,57,198949,1,4,0:2:0:0:
259,168,199105,1,4,1:2:0:0:
218,116,199418,5,2,0:0:0:0:
218,116,199730,1,2,0:0:0:0:
124,142,200043,5,4,0:2:0:0:
248,37,200199,1,4,0:2:0:0:
276,197,200355,1,4,0:2:0:0:
218,116,200668,6,0,L|169:117,1,45,2|0,0:0|0:0,0:0:0:0:
223,127,200980,2,0,L|174:128,1,45,2|0,0:0|0:0,0:0:0:0:
42,211,201293,5,4,0:2:0:0:
248,37,201449,1,4,0:2:0:0:
295,303,201605,1,4,0:2:0:0:
295,303,201918,5,2,0:0:0:0:
404,280,202074,1,0,0:0:0:0:
197,259,202230,1,2,0:0:0:0:
220,368,202386,1,0,0:0:0:0:
322,219,202543,5,0,0:0:0:0:
152,159,202699,1,0,1:0:0:0:
152,159,203011,1,0,1:0:0:0:
73,181,203168,1,0,0:0:0:0:
130,237,203324,1,0,1:0:0:0:
132,245,203636,5,0,1:0:0:0:
134,253,203949,1,0,1:0:0:0:
136,261,204261,1,0,1:0:0:0:
55,252,204418,2,0,L|48:303,1,45,0|0,0:0|1:0,0:0:0:0:
228,354,204730,2,0,L|221:309,1,45,0|0,0:0|1:0,0:0:0:0:
212,219,205043,5,0,0:0:0:0:
238,221,205199,1,0,1:0:0:0:
150,170,205355,1,0,0:0:0:0:
124,172,205511,1,0,1:0:0:0:
199,87,205668,5,0,0:0:0:0:
228,88,205824,2,0,P|295:92|329:91,1,90,0|0,1:0|1:0,0:0:0:0:
470,35,206449,5,0,1:0:0:0:
504,117,206605,2,0,L|491:178,1,45,0|0,0:0|1:0,0:0:0:0:
409,190,206918,2,0,L|418:234,1,45,0|0,0:0|1:0,0:0:0:0:
475,303,207230,2,0,P|436:312|392:311,1,67.5
383,308,207543,6,0,L|345:298,7,31.4999990386963,4|0|0|0|0|0|0|0,1:2|0:0|0:0|0:0|0:0|0:0|0:0|0:0,0:0:0:0:
294,220,208168,2,0,L|340:211,7,40.4999987640381,0|0|0|0|0|0|0|0,1:0|0:0|0:0|0:0|0:0|0:0|0:0|0:0,0:0:0:0:
252,301,208793,6,0,P|256:327|264:360,3,45,0|0|0|0,1:0|0:0|0:0|0:0,0:0:0:0:
145,359,209105,2,0,P|148:336|153:314,3,45
194,236,209418,1,0,1:0:0:0:
207,211,209496,1,0,0:0:0:0:
215,184,209574,1,0,0:0:0:0:
216,156,209652,1,0,0:0:0:0:
212,128,209730,1,0,0:0:0:0:
203,102,209808,1,0,0:0:0:0:
187,78,209886,1,0,0:0:0:0:
167,58,209964,1,0,0:0:0:0:
144,43,210043,5,0,1:0:0:0:
66,205,210199,1,0,0:0:0:0:
26,29,210355,1,0,1:0:0:0:
216,156,210511,1,0,0:0:0:0:
130,126,210668,1,0,1:0:0:0:
202,72,210824,1,0,0:0:0:0:
342,247,210980,1,0,1:0:0:0:
366,26,211136,1,0,0:0:0:0:
194,236,211293,1,0,1:0:0:0:
204,227,211605,2,0,B|261:220|261:220|245:274|274:372|419:375|485:260|373:180|373:180|340:250,1,503.999984619141,4|0,1:0|0:0,0:0:0:0:
256,192,213793,12,0,214886,0:0:0:0:
204,227,215043,6,0,L|166:285,1,62.9999980773926,0|0,1:0|0:0,0:0:0:0:
219,359,215355,1,8,0:0:0:0:
122,196,215511,5,0,0:0:0:0:
105,223,215589,1,0,0:0:0:0:
86,249,215668,2,0,L|63:281,1,31.4999990386963
8,348,215824,1,0,1:0:0:0:
64,169,215980,2,0,L|135:202,1,62.9999980773926,8|0,0:0|0:0,0:0:0:0:
225,223,216293,5,0,1:0:0:0:
438,193,216449,1,0,0:0:0:0:
206,54,216605,1,8,0:0:0:0:
370,330,216761,1,0,1:0:0:0:
375,113,216918,1,0,0:0:0:0:
334,83,216996,1,0,0:0:0:0:
350,35,217074,1,0,1:0:0:0:
510,180,217230,2,0,P|497:236|450:264,1,107.999996704102,12|0,0:0|0:0,0:0:0:0:
309,157,217543,6,0,B|223:97|223:193|127:129,1,180,4|8,1:0|0:0,0:0:0:0:
56,29,218011,1,0,0:0:0:0:
52,164,218168,1,0,0:0:0:0:
266,229,218324,2,0,L|290:186,1,45
139,136,218480,1,8,0:0:0:0:
102,265,218636,2,0,P|91:337|123:371,2,90
139,136,219105,1,8,0:0:0:0:
165,313,219261,1,0,0:0:0:0:
266,229,219418,2,0,L|318:132,1,90
464,61,219730,2,0,P|476:104|433:188,1,135,8|0,0:0|0:0,0:0:0:0:
373,165,220043,6,0,B|310:149|310:149|256:181|256:181|199:168,1,180,0|8,0:0|0:0,0:0:0:0:
134,54,220511,1,0,0:0:0:0:
269,51,220668,2,0,L|378:79,1,90
439,182,220980,1,8,0:0:0:0:
319,245,221136,2,0,P|305:317|317:368,1,90
440,310,221449,1,0,0:0:0:0:
256,181,221605,1,8,0:0:0:0:
214,309,221761,1,0,0:0:0:0:
308,103,221918,2,0,L|170:73,1,135
110,59,222230,2,0,B|160:72|160:72|172:132,1,90,8|2,0:0|0:0,0:0:0:0:
169,176,222464,1,0,0:0:0:0:
169,176,222543,6,0,P|263:266|324:238,1,180,0|8,0:0|0:0,0:0:0:0:
411,187,223011,1,0,0:0:0:0:
408,322,223168,1,0,0:0:0:0:
272,138,223324,2,0,L|242:216,1,45
296,257,223480,1,8,0:0:0:0:
411,187,223636,2,0,P|442:113|392:17,1,180
268,30,224105,1,8,0:0:0:0:
328,148,224261,1,0,0:0:0:0:
197,112,224418,2,0,L|297:109,1,90
134,201,224730,2,0,L|263:200,1,90,8|0,0:0|0:0,0:0:0:0:
116,117,225043,6,0,P|65:146|95:283,1,180,0|8,0:0|0:0,0:0:0:0:
183,316,225511,1,0,0:0:0:0:
286,109,225668,1,0,0:0:0:0:
194,208,225824,1,0,0:0:0:0:
194,208,225902,1,0,0:0:0:0:
194,208,225980,1,8,0:0:0:0:
411,187,226136,1,0,0:0:0:0:
399,152,226449,5,2,0:0:0:0:
441,272,226605,2,0,L|456:386,1,90,8|0,0:0|0:0,0:0:0:0:
504,235,226918,1,2,0:0:0:0:
399,152,227074,1,2,0:0:0:0:
221,289,227230,2,2,B|179:306|179:306|105:286,1,90,10|0,0:0|0:0,0:0:0:0:
88,245,227464,1,0,0:0:0:0:
103,228,227543,6,0,P|79:173|153:42,1,180,0|8,0:0|0:0,0:0:0:0:
246,27,228011,1,0,0:0:0:0:
80,181,228168,1,0,0:0:0:0:
206,160,228324,1,0,0:0:0:0:
206,160,228402,1,0,0:0:0:0:
206,160,228480,2,0,L|313:156,1,90,8|0,0:0|0:0,0:0:0:0:
482,284,228793,6,0,L|375:288,1,90
295,156,229105,1,8,0:0:0:0:
428,135,229261,1,0,0:0:0:0:
304,324,229418,2,0,L|300:217,1,90
424,45,229730,2,0,L|428:152,1,90,10|0,0:0|0:0,0:0:0:0:
206,160,230043,6,0,P|96:161|50:83,1,180,0|8,0:0|0:0,0:0:0:0:
158,23,230511,1,0,0:0:0:0:
271,97,230668,2,0,P|292:158|279:222,1,90
293,205,230902,1,0,0:0:0:0:
293,205,230980,1,8,0:0:0:0:
161,174,231136,1,0,0:0:0:0:
143,205,231449,5,2,0:0:0:0:
185,332,231605,1,8,0:0:0:0:
314,293,231761,1,0,0:0:0:0:
244,77,231918,2,0,L|114:84,1,90,2|0,0:0|0:0,0:0:0:0:
68,185,232230,2,0,L|198:178,1,90,10|0,0:0|0:0,0:0:0:0:
225,178,232464,1,0,0:0:0:0:
225,178,232543,6,0,B|230:276|230:276|269:363,1,180,0|8,0:0|0:0,0:0:0:0:
394,320,233011,1,0,0:0:0:0:
327,201,233168,2,0,L|323:100,1,90
375,67,233402,1,0,0:0:0:0:
375,67,233480,2,0,P|432:106|422:159,1,90,8|0,0:0|0:0,0:0:0:0:
448,256,233793,5,2,0:0:0:0:
327,201,233949,1,0,0:0:0:0:
434,121,234105,1,8,0:0:0:0:
340,325,234261,1,0,0:0:0:0:
244,120,234418,2,0,P|254:65|317:32,1,90
385,239,234730,2,0,P|339:270|271:249,1,90,8|0,0:0|0:0,0:0:0:0:
240,257,234964,5,0,0:0:0:0:
240,257,235043,1,2,0:0:0:0:
142,54,235199,1,0,0:0:0:0:
101,182,235355,1,8,0:0:0:0:
281,48,235511,1,0,0:0:0:0:
281,48,235589,1,0,0:0:0:0:
281,48,235668,2,0,L|263:164,1,90,2|0,0:0|0:0,0:0:0:0:
201,19,235980,1,8,0:0:0:0:
398,126,236136,1,0,0:0:0:0:
181,218,236293,6,0,P|164:163|168:114,1,90,2|0,0:0|0:0,0:0:0:0:
359,243,236605,2,0,L|372:347,1,90,10|0,0:0|0:0,0:0:0:0:
350,61,236918,2,0,B|389:35|389:35|449:56,1,90,2|0,0:0|0:0,0:0:0:0:
261,259,237230,2,0,L|179:217,1,90,10|0,0:0|0:0,0:0:0:0:
164,131,237464,1,0,0:0:0:0:
208,144,237543,2,0,B|266:183|317:180|317:180|262:229|271:310|320:332|403:381|463:275|439:210|390:199|339:261,1,472.500018024445
209,310,238793,5,0,1:0:0:0:
208,144,238949,1,0,0:0:0:0:
317,179,239105,1,8,0:0:0:0:
106,116,239261,1,0,0:0:0:0:
371,62,239418,2,0,L|401:179,1,107.999996704102,0|0,1:0|0:0,0:0:0:0:
116,325,239730,2,0,L|137:202,1,107.999996704102,8|0,0:0|0:0,0:0:0:0:
333,343,240043,6,0,P|398:367|484:297,1,180,0|8,1:0|0:0,0:0:0:0:
257,239,240511,1,0,0:0:0:0:
280,157,240668,2,0,P|334:170|418:166,1,135,0|0,1:0|0:0,0:0:0:0:
443,159,240980,1,8,0:0:0:0:
257,239,241136,6,0,P|251:191|246:37,1,180
137,53,241605,1,8,0:0:0:0:
40,101,241761,1,0,0:0:0:0:
245,59,241918,1,2,1:2:0:0:
60,21,242074,1,2,0:0:0:0:
75,209,242230,1,10,0:0:0:0:
75,209,242543,6,0,P|142:200|166:198,1,90,0|0,1:0|0:0,0:0:0:0:
235,337,242855,2,0,P|190:330|145:326,1,90,8|0,0:0|0:0,0:0:0:0:
272,134,243168,1,0,1:0:0:0:
272,134,243324,2,0,P|256:192|281:269,1,135
306,295,243636,1,0,0:0:0:0:
481,344,243793,6,0,P|490:297|485:244,1,90,0|0,1:0|0:0,0:0:0:0:
387,164,244105,1,8,0:0:0:0:
507,104,244261,1,0,0:0:0:0:
387,177,244418,2,0,P|345:175|295:160,1,90,0|0,1:0|0:0,0:0:0:0:
416,68,244730,1,8,0:0:0:0:
487,255,244886,1,0,0:0:0:0:
257,348,245043,6,0,P|201:342|74:331,1,180,0|8,1:0|0:0,0:0:0:0:
24,232,245511,1,0,0:0:0:0:
218,206,245668,2,0,P|170:220|123:223,1,90,0|0,1:0|0:0,0:0:0:0:
130,223,245902,1,0,0:0:0:0:
130,223,245980,1,8,0:0:0:0:
26,52,246136,6,0,P|71:39|137:90,1,135
145,133,246449,1,0,0:0:0:0:
237,61,246605,1,8,0:0:0:0:
266,174,246761,1,0,0:0:0:0:
64,127,246918,5,2,1:2:0:0:
329,81,247074,1,2,0:0:0:0:
370,347,247230,1,10,0:0:0:0:
370,347,247543,6,0,P|347:300|371:180,1,180,4|8,0:0|0:0,0:0:0:0:
492,56,248011,1,0,0:0:0:0:
492,56,248089,1,0,0:0:0:0:
492,56,248168,2,0,L|393:47,1,90,0|0,1:0|0:0,0:0:0:0:
153,91,248480,1,8,0:0:0:0:
246,122,248636,1,0,0:0:0:0:
174,190,248793,6,0,P|157:245|150:278,1,90,0|0,1:0|0:0,0:0:0:0:
62,89,249105,2,0,P|75:131|85:175,1,90,8|0,0:0|0:0,0:0:0:0:
93,335,249418,1,0,1:0:0:0:
249,253,249574,1,0,0:0:0:0:
74,323,249730,1,8,0:0:0:0:
260,264,249886,1,0,0:0:0:0:
416,350,250043,6,0,P|466:358|479:278,1,135,0|0,1:0|0:0,0:0:0:0:
425,238,250355,2,0,P|357:242|318:256,1,90,8|0,0:0|0:0,0:0:0:0:
268,93,250668,2,0,P|311:103|356:103,1,90,0|0,1:0|0:0,0:0:0:0:
356,103,250902,1,0,0:0:0:0:
356,103,250980,1,8,0:0:0:0:
198,26,251136,6,0,P|220:76|169:184,1,180
29,141,251605,1,8,0:0:0:0:
121,95,251761,1,0,0:0:0:0:
171,272,251918,1,0,0:0:0:0:
79,226,252074,1,0,0:0:0:0:
182,352,252230,1,8,0:0:0:0:
256,209,252386,1,0,0:0:0:0:
182,352,252543,6,0,B|245:345|245:345|290:363|290:363|373:354,1,180,0|8,1:0|0:0,0:0:0:0:
484,289,253011,1,0,0:0:0:0:
366,244,253168,1,0,1:0:0:0:
443,121,253324,1,0,0:0:0:0:
448,147,253402,1,0,0:0:0:0:
453,173,253480,1,8,0:0:0:0:
339,61,253636,6,0,P|389:75|515:68,1,180
321,148,254105,2,0,P|268:131|226:126,1,90,8|0,0:0|0:0,0:0:0:0:
125,123,254418,1,0,1:0:0:0:
215,37,254574,1,0,0:0:0:0:
28,82,254730,2,0,P|42:140|45:227,1,135,8|0,0:0|0:0,0:0:0:0:
92,243,255043,5,0,1:0:0:0:
268,207,255199,1,0,1:0:0:0:
268,207,255355,2,0,P|339:218|425:229,1,135,8|0,0:0|0:0,0:0:0:0:
443,260,255668,5,0,1:0:0:0:
483,153,255824,1,0,1:0:0:0:
483,153,255902,1,0,0:0:0:0:
483,153,255980,1,8,0:0:0:0:
504,308,256136,1,0,0:0:0:0:
328,295,256293,5,0,1:0:0:0:
443,260,256449,1,0,0:0:0:0:
153,172,256605,1,0,1:0:0:0:
268,207,256761,1,0,0:0:0:0:
232,319,256918,1,0,1:0:0:0:
117,284,257074,1,0,0:0:0:0:
260,315,257230,1,0,1:0:0:0:
91,285,257386,2,0,P|75:264|66:240,1,45
35,152,257543,5,0,1:0:0:0:
72,127,257621,1,0,0:0:0:0:
116,126,257699,1,0,1:0:0:0:
157,143,257777,1,0,0:0:0:0:
183,179,257855,1,0,1:0:0:0:
217,207,257933,1,0,0:0:0:0:
261,214,258011,1,0,1:0:0:0:
303,198,258089,1,0,0:0:0:0:
333,164,258168,6,0,L|326:136,1,22.5,0|0,1:0|0:0,0:0:0:0:
365,133,258246,2,0,L|365:94,1,22.5
408,123,258324,2,0,L|417:89,1,22.5,0|0,1:0|0:0,0:0:0:0:
449,138,258402,2,0,L|472:109,1,22.5
475,174,258480,2,0,L|503:157,1,22.5,0|0,1:0|0:0,0:0:0:0:
475,218,258558,2,0,L|512:220,1,22.5
445,252,258636,2,0,L|470:269,1,22.5,0|0,1:0|0:0,0:0:0:0:
401,262,258714,2,0,L|412:292,1,22.5
357,250,258793,6,0,P|298:241|252:245,1,103.5,4|0,1:0|0:0,0:0:0:0:
