osu file format v14

[General]
AudioFilename: audio.mp3
AudioLeadIn: 0
PreviewTime: 68492
Countdown: 0
SampleSet: Soft
StackLeniency: 0.7
Mode: 0
LetterboxInBreaks: 0
WidescreenStoryboard: 1

[Editor]
Bookmarks: 15304,29997,39793,49589,59385,69181,91222,101018,110813,120608,130404,140200,162241,172037,184282,194078,211221,221017,235710,252853,257751,263721,266323,276119
DistanceSpacing: 1.4
BeatDivisor: 4
GridSize: 16
TimelineZoom: 2.450001

[Metadata]
Title:I
TitleUnicode:I
Artist:ShinRa-Bansho
ArtistUnicode:森羅万象
Creator:Ratarok
Version:Phantasm
Source:東方地霊殿 ~ Subterranean Animism.
Tags:danissima sanchkk sanch-kk aye1337 228 wenect wenet unranked mapper touhou toho vgm music zun 東方project 11 th11 chireiden extra stage theme Team Shanghai Alice 2hu シンラミュージアム shinra museum kaztora あよ ayo cheluce ラストリモート last remote 古明地こいし Komeiji Koishi eye rock jrock j-rock japanese 例大祭 reitaisai 16 video game videogame
BeatmapID:4410462
BeatmapSetID:2102240

[Difficulty]
HPDrainRate:4
CircleSize:4
OverallDifficulty:9.4
ApproachRate:9.6
SliderMultiplier:1.6
SliderTickRate:1

[Events]
//Background and Video events
0,0,"bg.jpg",0,0
//Break Periods
2,164889,170457
2,211221,219283
//Storyboard Layer 0 (Background)
//Storyboard Layer 1 (Fail)
//Storyboard Layer 2 (Pass)
//Storyboard Layer 3 (Foreground)
//Storyboard Layer 4 (Overlay)
//Storyboard Sound Samples

[TimingPoints]
629,306.122448979592,4,2,0,90,1,0
1241,-133.333333333333,4,2,0,60,0,0
15304,306.122448979592,4,2,0,90,1,0
15304,-90.9090909090909,4,2,0,90,0,0
18824,-76.9230769230769,4,2,0,90,0,0
19895,-62.5,4,2,0,90,0,0
20201,-90.9090909090909,4,2,0,90,0,0
28620,-76.9230769230769,4,2,0,90,0,0
29997,-111.111111111111,4,2,0,75,0,0
38416,-62.5,4,2,0,90,0,0
38875,-100,4,2,0,83,0,0
47140,-83.3333333333333,4,2,0,83,0,0
49589,-133.333333333333,4,2,0,70,0,0
56936,-100,4,2,0,75,0,0
57242,-100,4,2,0,80,0,0
57548,-100,4,2,0,85,0,0
57855,-100,4,2,0,90,0,0
58161,-100,4,2,0,95,0,0
58467,-100,4,2,0,85,0,0
59385,-90.9090909090909,4,2,0,85,0,0
67804,-83.3333333333333,4,2,0,90,0,0
68569,-250,4,2,0,90,0,0
69181,-66.6666666666667,4,2,0,90,0,1
69640,-83.3333333333333,4,2,0,90,0,1
73620,-133.333333333333,4,2,0,90,0,1
73926,-83.3333333333333,4,2,0,90,0,1
78671,-83.3333333333333,4,2,0,90,0,0
78977,-83.3333333333333,4,2,0,90,0,1
83875,-71.4285714285714,4,2,0,90,0,1
86018,-100,4,2,0,90,0,1
86324,-100,4,2,0,90,0,0
88773,-83.3333333333333,4,2,0,90,0,1
89844,-83.3333333333333,4,2,0,90,0,0
91222,-100,4,2,0,80,0,0
95814,-76.9230769230769,4,2,0,90,0,0
96120,-90.9090909090909,4,2,0,90,0,0
99640,-76.9230769230769,4,2,0,90,0,0
101018,-100,4,3,0,85,0,0
107446,315.789473684211,4,2,0,90,1,0
108393,306.122448979592,4,2,0,90,1,0
109464,-250,4,2,0,90,0,0
110813,306.122448979592,4,2,0,83,1,0
118159,-83.3333333333333,4,2,0,90,0,0
119690,-100,4,2,0,90,0,0
120608,-133.333333333333,4,2,0,70,0,0
127955,-100,4,2,0,75,0,0
128261,-100,4,2,0,80,0,0
128568,-100,4,2,0,85,0,0
128874,-100,4,2,0,90,0,0
129180,-100,4,2,0,95,0,0
129486,-100,4,2,0,85,0,0
130404,-90.9090909090909,4,2,0,85,0,0
135302,-76.9230769230769,4,2,0,90,0,0
138823,-66.6666666666667,4,2,0,90,0,0
140200,-66.6666666666667,4,2,0,90,0,1
140659,-83.3333333333333,4,2,0,90,0,1
149690,-83.3333333333333,4,2,0,90,0,0
149996,-83.3333333333333,4,2,0,90,0,1
154894,-71.4285714285714,4,2,0,90,0,1
157037,-100,4,2,0,90,0,1
157343,-100,4,2,0,90,0,0
159486,-83.3333333333333,4,2,0,90,0,0
159792,-83.3333333333333,4,2,0,90,0,1
160864,-83.3333333333333,4,2,0,90,0,0
162241,-181.818181818182,4,2,0,90,0,0
170966,-133.333333333333,4,2,0,90,0,0
171731,-83.3333333333333,4,2,0,90,0,0
179996,-83.3333333333333,4,2,0,90,0,1
181833,-83.3333333333333,4,2,0,90,0,0
184282,-133.333333333333,4,2,0,80,0,0
187955,-100,4,2,0,80,0,0
189180,-133.333333333333,4,2,0,85,0,0
191629,-133.333333333333,4,2,0,90,0,0
194078,-90.9090909090909,4,2,0,85,0,0
198823,-90.9090909090909,4,2,0,90,0,0
207394,-76.9230769230769,4,2,0,90,0,0
208466,-90.9090909090909,4,2,0,90,0,0
209843,-76.9230769230769,4,2,0,90,0,0
219792,-133.333333333333,4,2,0,70,0,0
221017,-111.111111111111,4,2,0,75,0,0
225915,-200,4,2,0,60,0,0
229588,-133.333333333333,4,2,0,70,0,0
230813,-100,4,2,0,80,0,0
234486,-200,4,2,0,65,0,0
235710,-71.4285714285714,4,2,0,90,0,0
236935,-83.3333333333333,4,2,0,90,0,1
245506,-133.333333333333,4,2,0,90,0,0
245813,-62.5,4,2,0,90,0,1
246272,-83.3333333333333,4,2,0,90,0,1
250404,-71.4285714285714,4,2,0,90,0,1
252853,-100,4,2,0,90,0,0
257751,-83.3333333333333,4,2,0,90,0,0
260200,-83.3333333333333,4,2,0,90,0,1
262649,-66.6666666666667,4,2,0,90,0,1
263721,-83.3333333333333,4,2,0,90,0,0
266323,-100,4,2,0,80,0,0
276119,-90.9090909090909,4,2,0,90,0,0
282088,-76.9230769230769,4,2,0,90,0,0
284690,-83.3333333333333,4,2,0,90,0,0
285608,-58.8235294117647,4,2,0,90,0,0
285915,-133.333333333333,4,2,0,75,0,0
288057,-238.095238095238,4,2,0,60,0,0
289588,-238.095238095238,4,2,1,45,0,0
290813,-238.095238095238,4,2,0,30,0,0
292037,-238.095238095238,4,2,1,15,0,0

[Colours]
Combo1 : 162,221,210
Combo2 : 166,205,234
Combo3 : 176,223,170
Combo4 : 234,236,159

[HitObjects]
52,288,1241,6,2,P|91:246|149:228,1,120.000004577637,2|0,0:0|0:0,0:0:0:0:
173,324,1853,2,0,L|193:140,1,180.000006866455,2|0,3:2|0:0,0:0:0:0:
219,56,2465,2,0,P|255:74|279:115,2,80.0000030517579,2|2|2,0:3|0:0|0:0,0:0:0:0:
192,145,3077,6,0,B|150:149|150:149|123:171|123:171|68:178,1,120.000004577637,2|2,0:3|0:0,0:0:0:0:
320,246,3690,2,0,B|362:250|362:250|389:272|389:272|444:279,1,120.000004577637,2|2,0:3|0:0,0:0:0:0:
269,352,4302,2,0,P|205:343|73:347,1,180.000006866455,2|0,0:3|0:0,0:0:0:0:
187,228,4914,2,0,P|196:273|180:323,2,90.0000034332277,2|2|2,0:3|0:0|0:0,0:0:0:0:
65,146,5526,6,0,L|147:140,1,60.0000022888184,2|0,0:1|0:0,0:0:0:0:
65,146,5833,1,2,0:3:0:0:
7,241,5986,2,0,L|189:227,1,180.000006866455,2|2,0:3|0:0,0:0:0:0:
383,210,6751,6,0,B|387:167|407:154|411:160|432:135|429:94,1,120.000004577637,2|0,3:0|0:0,0:0:0:0:
296,132,7210,2,0,B|292:89|272:76|268:82|247:57|250:16,1,120.000004577637,2|0,3:0|0:0,0:0:0:0:
356,32,7669,1,2,0:0:0:0:
201,143,7822,2,0,P|120:158|81:160,1,120.000004577637,2|0,3:0|0:0,0:0:0:0:
101,69,8282,2,0,P|141:61|161:60,1,60.0000022888184,2|0,0:0|0:0,0:0:0:0:
296,132,8588,2,0,P|309:203|298:272,1,120.000004577637,2|2,3:0|0:0,0:0:0:0:
216,197,9047,1,2,0:0:0:0:
392,134,9200,6,0,P|397:94|391:57,1,60.0000022888184,2|0,0:3|0:0,0:0:0:0:
245,0,9506,1,2,0:0:0:0:
245,0,9659,2,0,P|240:29|241:59,1,60.0000022888184,2|0,0:3|0:0,0:0:0:0:
454,77,9965,2,0,P|414:72|377:78,1,60.0000022888184,2|0,0:3|0:0,0:0:0:0:
235,156,10271,6,0,P|205:157|175:152,1,60.0000022888184,2|0,0:3|0:0,0:0:0:0:
37,141,10577,1,2,0:0:0:0:
113,66,10731,1,2,0:0:0:0:
175,152,10884,2,0,P|171:197|161:231,1,60.0000022888184,2|0,0:3|0:0,0:0:0:0:
88,297,11190,1,2,0:0:0:0:
233,346,11343,2,0,P|237:301|247:267,1,60.0000022888184,2|0,0:3|0:0,0:0:0:0:
298,115,11649,6,2,B|354:84|435:87|485:137|485:137|424:124|379:161,1,300.000011444092,0|0,0:0|0:0,0:1:0:0:
391,7,12567,1,2,3:2:0:0:
317,200,12720,1,2,3:0:0:0:
256,192,12873,12,0,15169,0:0:0:0:
94,127,15304,6,2,P|126:75|242:73,1,176.000005371094,4|8,1:1|0:0,0:1:0:0:
465,229,15763,2,2,P|409:223|368:204,1,88.000002685547,0|0,1:0|0:0,0:1:0:0:
325,21,16069,1,0,3:0:0:0:
380,211,16222,1,8,3:2:0:0:
187,150,16375,1,0,3:0:0:0:
511,148,16528,5,2,1:0:0:0:
508,188,16604,1,0,3:0:0:0:
506,230,16681,1,0,3:0:0:0:
502,271,16757,1,0,3:0:0:0:
495,313,16834,1,8,0:0:0:0:
269,246,16987,2,2,B|208:237|208:237|155:266|59:261,1,176.000005371094,0|0,1:0|0:0,0:1:0:0:
325,345,17446,1,8,3:2:0:0:
187,150,17599,1,0,3:2:0:0:
10,298,17752,5,0,1:0:0:0:
39,326,17828,1,0,1:0:0:0:
79,341,17905,1,0,1:0:0:0:
123,339,17981,1,0,1:0:0:0:
161,318,18058,1,0,1:0:0:0:
187,284,18134,1,0,3:0:0:0:
197,241,18212,1,0,3:0:0:0:
204,207,18289,1,0,3:0:0:0:
225,180,18365,1,2,3:2:0:0:
254,163,18442,1,0,3:0:0:0:
289,161,18518,1,2,3:2:0:0:
320,174,18595,1,0,3:0:0:0:
344,196,18671,2,0,P|344:216|341:240,1,44.0000013427735,2|0,1:2|0:0,0:0:0:0:
419,357,18824,6,0,P|419:305|425:244,1,103.999995239258,6|0,1:0|0:0,0:0:0:0:
93,27,19130,2,0,P|93:79|87:140,1,103.999995239258,6|0,1:0|0:0,0:0:0:0:
313,58,19436,1,10,3:1:0:0:
185,312,19589,1,10,3:1:0:0:
490,119,19742,1,0,1:0:0:0:
484,133,19819,1,0,1:0:0:0:
478,147,19895,2,2,B|440:154|406:153|406:153|373:175|373:175|333:172|291:184,1,192,8|0,1:0|0:0,0:1:0:0:
183,202,20201,5,2,1:0:0:0:
225,116,20355,1,0,3:0:0:0:
293,183,20508,1,8,3:2:0:0:
64,313,20661,2,2,P|66:263|57:215,1,88.000002685547,0|0,1:0|0:0,0:1:0:0:
97,99,20967,1,0,3:0:0:0:
255,284,21120,1,8,3:2:0:0:
337,55,21273,1,2,1:0:0:0:
387,261,21426,5,0,3:0:0:0:
183,202,21579,1,0,3:0:0:0:
336,54,21732,1,8,3:2:0:0:
301,164,21885,1,0,3:0:0:0:
301,164,21962,1,0,3:0:0:0:
301,164,22038,2,2,P|356:164|398:157,1,88.000002685547,0|0,1:0|0:0,0:1:0:0:
423,49,22344,2,2,P|368:49|326:56,1,88.000002685547,8|0,0:0|0:0,0:1:0:0:
388,159,22650,5,2,1:0:0:0:
335,53,22804,1,0,3:0:0:0:
492,124,22957,1,8,3:2:0:0:
224,96,23110,1,2,3:1:0:0:
224,96,23186,1,0,3:0:0:0:
224,96,23263,1,0,1:0:0:0:
334,343,23416,1,0,3:0:0:0:
492,124,23569,1,8,3:2:0:0:
349,200,23722,5,2,1:0:0:0:
234,210,23875,1,0,3:0:0:0:
224,96,24028,1,0,3:0:0:0:
338,85,24181,1,8,3:2:0:0:
174,299,24334,1,0,3:0:0:0:
174,299,24411,1,0,3:0:0:0:
174,299,24487,2,2,P|130:295|86:295,1,88.000002685547,0|0,1:1|0:1,0:1:0:0:
338,85,24793,2,2,P|381:88|425:88,1,88.000002685547,8|0,0:0|0:0,0:1:0:0:
152,22,25099,6,2,P|152:66|149:110,1,88.000002685547,0|0,1:0|0:0,0:1:0:0:
69,207,25406,1,8,3:2:0:0:
359,361,25559,1,0,3:0:0:0:
359,361,25635,1,0,3:0:0:0:
359,361,25712,2,2,P|359:317|363:274,1,88.000002685547,0|0,1:0|0:0,0:1:0:0:
443,177,26018,1,8,3:2:0:0:
155,285,26171,6,2,P|155:197|148:109,1,176.000005371094,0|0,1:0|0:0,0:1:0:0:
51,351,26630,1,8,3:2:0:0:
255,173,26783,1,0,3:0:0:0:
255,173,26860,1,0,3:0:0:0:
255,173,26936,1,2,1:0:0:0:
148,109,27089,1,0,3:0:0:0:
234,0,27242,2,2,P|234:44|231:88,1,88.000002685547,8|0,0:0|0:0,0:1:0:0:
191,321,27548,5,4,1:2:0:0:
399,266,27701,1,0,3:0:0:0:
137,211,27855,5,4,1:2:0:0:
423,271,28008,1,0,3:0:0:0:
231,87,28161,5,4,1:2:0:0:
168,345,28314,1,0,3:0:0:0:
0,143,28467,1,4,1:2:0:0:
286,239,28620,6,2,P|306:168|316:28,1,207.999990478516,4|0,1:2|1:0,0:1:0:0:
388,384,29079,1,8,3:2:0:0:
262,352,29232,1,0,3:0:0:0:
262,352,29309,1,0,3:0:0:0:
262,352,29385,1,0,1:0:0:0:
146,362,29538,1,2,3:0:0:0:
99,256,29691,1,0,1:0:0:0:
186,179,29844,1,2,3:0:0:0:
286,238,29997,6,0,P|320:241|359:242,1,71.9999978027344,6|0,1:2|0:0,0:0:0:0:
450,236,30304,2,0,P|437:191|398:167,1,71.9999978027344,2|0,1:2|0:0,0:0:0:0:
329,122,30610,2,0,P|293:118|257:117,1,71.9999978027344,2|0,1:2|0:0,0:0:0:0:
195,186,30916,2,0,P|170:159|164:125,1,71.9999978027344,2|0,1:2|0:0,0:0:0:0:
264,45,31222,6,0,L|256:129,1,71.9999978027344,2|0,1:2|0:0,0:0:0:0:
96,292,31528,2,0,L|102:220,1,71.9999978027344,0|0,1:0|0:0,0:0:0:0:
257,116,31834,1,2,1:2:0:0:
322,158,31987,1,0,3:0:0:0:
344,234,32140,1,4,1:2:0:0:
312,307,32293,1,0,3:0:0:0:
241,342,32446,6,0,P|205:340|169:337,1,71.9999978027344,2|0,1:2|0:0,0:0:0:0:
177,219,32752,2,0,P|212:220|248:223,1,71.9999978027344,2|0,1:2|0:0,0:0:0:0:
401,309,33059,1,2,1:2:0:0:
401,309,33212,1,0,3:0:0:0:
248,223,33365,2,0,P|249:187|252:151,1,71.9999978027344,2|0,1:2|0:0,0:0:0:0:
423,40,33671,5,2,1:0:0:0:
447,119,33824,1,0,3:0:0:0:
301,79,33977,5,2,1:0:0:0:
325,0,34130,1,0,3:0:0:0:
187,67,34283,5,2,1:0:0:0:
211,146,34436,1,0,3:0:0:0:
65,186,34589,5,2,1:0:0:0:
89,107,34742,1,0,3:0:0:0:
167,280,34895,6,0,P|236:283|328:294,1,143.999995605469,6|0,1:2|1:0,0:0:0:0:
392,348,35355,1,0,3:0:0:0:
310,291,35508,2,0,B|305:251|306:199|310:212,1,71.9999978027344,2|0,1:2|0:0,0:0:0:0:
391,180,35814,1,0,1:0:0:0:
218,94,35967,1,8,3:2:0:0:
80,282,36120,5,2,1:2:0:0:
149,188,36273,1,0,3:0:0:0:
195,294,36426,1,0,1:0:0:0:
264,200,36579,1,0,3:0:0:0:
310,306,36732,1,0,1:0:0:0:
218,94,36885,5,2,3:0:0:0:
80,282,37038,1,10,1:0:0:0:
310,306,37191,1,2,3:0:0:0:
310,306,38416,6,2,P|324:219|327:43,1,256,4|0,1:0|0:0,0:1:0:0:
417,145,38875,2,0,P|469:154|523:152,1,80,8|0,3:2|0:0,0:0:0:0:
242,74,39181,5,10,1:2:0:0:
206,67,39257,1,0,3:0:0:0:
172,76,39334,1,0,3:0:0:0:
143,98,39410,1,0,3:0:0:0:
126,129,39487,1,10,1:2:0:0:
108,160,39564,1,0,3:0:0:0:
80,181,39640,1,0,3:0:0:0:
45,190,39717,1,0,3:0:0:0:
10,184,39793,6,2,P|5:133|9:78,1,80,6|0,1:2|0:0,0:1:0:0:
218,173,40099,2,0,P|223:224|219:279,1,80,10|0,3:2|1:0,0:0:0:0:
75,338,40406,1,0,3:0:0:0:
75,338,40559,1,0,1:0:0:0:
222,252,40712,2,0,P|269:247|317:249,1,80,10|2,3:2|1:0,0:0:0:0:
459,175,41018,5,2,3:2:0:0:
273,107,41171,1,0,3:0:0:0:
388,0,41324,2,0,P|390:47|385:95,1,80,8|0,3:2|0:0,0:0:0:0:
157,213,41630,1,2,1:2:0:0:
153,189,41706,1,0,3:0:0:0:
152,165,41783,1,2,3:2:0:0:
152,141,41859,1,0,3:0:0:0:
154,117,41936,1,10,0:2:0:0:
204,20,42089,1,0,3:0:0:0:
87,280,42242,6,0,P|36:285|-19:281,1,80,2|0,1:2|0:0,0:0:0:0:
249,161,42548,2,0,P|300:156|355:160,1,80,10|0,0:0|1:0,0:0:0:0:
328,156,42778,1,0,3:0:0:0:
328,156,42855,1,2,3:2:0:0:
293,266,43008,1,2,1:2:0:0:
249,161,43161,1,10,3:2:0:0:
284,51,43314,6,2,P|355:47|458:57,1,160,6|0,1:2|0:0,0:1:0:0:
478,255,43773,1,10,3:2:0:0:
328,156,43926,1,0,0:0:0:0:
258,319,44079,1,2,1:0:0:0:
258,319,44156,1,0,3:0:0:0:
258,319,44232,1,2,3:2:0:0:
413,190,44385,1,10,1:0:0:0:
240,92,44538,1,2,3:2:0:0:
86,220,44691,6,2,L|180:215,1,80,6|0,1:2|0:0,0:1:0:0:
337,315,44997,2,0,L|228:320,1,80,10|0,3:2|1:0,0:0:0:0:
165,216,45304,1,2,3:2:0:0:
382,203,45457,1,2,1:0:0:0:
382,203,45533,1,0,3:0:0:0:
382,203,45610,1,10,3:2:0:0:
262,70,45763,1,2,1:1:0:0:
165,216,45916,5,0,3:0:0:0:
243,161,46069,1,0,3:0:0:0:
298,239,46222,1,8,3:2:0:0:
228,302,46375,1,0,3:0:0:0:
228,302,46451,1,0,3:0:0:0:
228,302,46528,1,2,1:0:0:0:
137,91,46681,1,2,3:0:0:0:
363,118,46834,1,10,1:0:0:0:
363,118,47140,6,2,P|373:69|367:13,1,95.9999970703126,6|0,1:2|0:0,0:1:0:0:
218,201,47446,1,2,3:2:0:0:
492,337,47599,2,2,P|473:245|484:140,1,191.999994140625,6|0,1:2|0:0,0:1:0:0:
369,23,48059,1,10,3:2:0:0:
218,201,48212,6,2,B|142:212|142:212|106:242|106:242|26:258,1,191.999994140625,6|0,1:2|0:0,0:1:0:0:
194,296,48671,1,0,3:0:0:0:
61,162,48824,1,0,3:0:0:0:
61,162,48900,1,0,3:0:0:0:
61,162,48977,1,0,1:0:0:0:
105,92,49130,1,2,3:0:0:0:
182,60,49283,1,0,1:0:0:0:
262,78,49436,1,2,3:0:0:0:
318,139,49589,6,0,P|326:197|315:270,1,120.000004577637,6|0,3:2|0:0,0:0:0:0:
431,370,50048,2,0,P|423:312|434:239,1,120.000004577637,2|0,3:2|0:0,0:0:0:0:
431,251,50508,1,10,0:0:0:0:
193,139,50814,6,0,P|186:197|197:270,1,120.000004577637,0|0,3:0|0:0,0:0:0:0:
81,370,51273,2,0,P|88:312|77:239,1,120.000004577637,0|0,3:0|0:0,0:0:0:0:
80,251,51733,1,8,0:0:0:0:
354,51,52038,6,0,L|436:57,1,60.0000022888184,2|0,3:2|0:0,0:0:0:0:
354,51,52344,1,0,0:0:0:0:
315,133,52497,2,0,L|436:141,1,120.000004577637,2|0,3:2|0:0,0:0:0:0:
434,141,52957,1,8,0:0:0:0:
158,51,53263,5,2,3:0:0:0:
158,51,53416,2,0,L|76:57,1,60.0000022888184,2|0,3:0|0:0,0:0:0:0:
197,133,53722,2,0,L|75:141,1,120.000004577637,0|0,3:0|0:0,0:0:0:0:
78,141,54182,1,8,0:0:0:0:
356,325,54487,6,0,P|354:368|344:400,2,60.0000022888184,2|0|0,3:2|0:0|0:0,0:0:0:0:
314,230,54946,1,0,3:0:0:0:
314,230,55099,2,0,P|381:244|453:235,1,120.000004577637,2|8,3:2|0:0,0:0:0:0:
156,325,55712,6,0,P|158:368|168:400,1,60.0000022888184,2|0,3:2|0:0,0:0:0:0:
198,230,56018,1,0,3:0:0:0:
198,230,56171,2,0,P|131:244|59:235,1,120.000004577637,2|0,3:2|0:0,0:0:0:0:
80,240,56630,1,8,0:0:0:0:
135,89,56936,6,0,P|193:99|221:124,1,80,2|0,3:0|0:0,0:0:0:0:
298,345,57242,2,0,P|256:302|248:265,1,80,2|0,3:0|0:0,0:0:0:0:
316,45,57548,2,0,P|324:103|309:138,1,80,2|0,3:0|0:0,0:0:0:0:
123,276,57855,2,0,P|150:223|183:204,1,80,2|0,3:0|0:0,0:0:0:0:
416,201,58161,2,0,P|362:227|325:223,1,80,2|8,3:0|0:0,0:0:0:0:
256,192,58467,5,0,1:0:0:0:
224,191,58543,1,0,3:0:0:0:
194,181,58620,1,0,3:0:0:0:
167,163,58696,1,0,3:0:0:0:
147,138,58773,1,0,1:0:0:0:
100,123,58849,1,0,3:0:0:0:
53,137,58926,1,0,3:0:0:0:
22,176,59002,1,0,3:0:0:0:
18,225,59079,2,0,P|66:223|111:217,1,80,0|0,1:0|0:0,0:0:0:0:
252,93,59385,6,0,P|349:91|439:79,1,176.000005371094,6|8,1:2|0:0,0:0:0:0:
349,321,59844,1,0,3:0:0:0:
355,288,59920,1,0,3:0:0:0:
357,255,59997,1,2,1:2:0:0:
357,222,60073,1,0,3:0:0:0:
353,189,60150,1,0,3:0:0:0:
240,252,60304,1,10,3:2:0:0:
455,170,60457,1,2,3:0:0:0:
282,13,60610,6,0,P|217:20|99:14,1,176.000005371094,2|8,1:2|0:0,0:0:0:0:
82,213,61069,1,0,3:0:0:0:
114,211,61145,1,0,3:0:0:0:
144,198,61222,1,2,1:2:0:0:
168,175,61298,1,0,3:0:0:0:
182,146,61375,1,0,3:0:0:0:
97,114,61528,1,10,3:2:0:0:
210,288,61681,1,2,3:0:0:0:
304,103,61834,6,0,P|308:54|307:1,1,88.000002685547,2|0,1:2|0:0,0:0:0:0:
396,192,62140,1,8,0:0:0:0:
274,300,62293,1,0,3:0:0:0:
242,293,62369,1,0,3:0:0:0:
210,288,62446,1,2,1:2:0:0:
177,285,62522,1,0,3:0:0:0:
144,285,62599,1,0,3:0:0:0:
378,384,62752,2,0,P|382:335|381:282,1,88.000002685547,10|2,3:2|0:3,0:0:0:0:
68,135,63059,5,2,1:2:0:0:
41,253,63212,1,0,3:0:0:0:
339,154,63365,5,10,1:2:0:0:
312,36,63518,1,0,3:0:0:0:
200,36,63671,5,2,1:2:0:0:
173,154,63824,1,0,3:0:0:0:
173,154,63900,1,0,3:0:0:0:
173,154,63977,1,10,1:2:0:0:
471,253,64130,1,0,3:0:0:0:
443,135,64283,5,4,1:2:0:0:
324,272,64436,1,0,3:0:0:0:
350,97,64589,5,4,1:2:0:0:
408,335,64742,1,0,3:0:0:0:
426,46,64895,5,4,1:2:0:0:
318,292,65048,1,0,3:0:0:0:
333,8,65201,5,4,1:2:0:0:
423,360,65355,1,0,3:0:0:0:
423,360,65431,1,0,3:0:0:0:
423,360,65508,5,4,1:2:0:0:
188,328,65661,1,0,3:0:0:0:
462,226,65814,5,4,1:2:0:0:
164,240,65967,1,0,3:0:0:0:
444,105,66120,5,4,1:2:0:0:
116,157,66273,1,0,3:0:0:0:
368,0,66426,5,4,1:2:0:0:
286,302,66579,1,0,3:0:0:0:
286,302,66656,1,0,3:0:0:0:
286,302,66732,5,4,1:2:0:0:
172,10,66885,1,0,3:0:0:0:
93,310,67038,1,4,1:2:0:0:
334,114,67191,1,0,3:0:0:0:
23,130,67344,5,2,1:2:0:0:
286,302,67497,1,0,3:0:0:0:
93,310,67650,1,2,1:2:0:0:
334,114,67804,6,2,P|420:127|524:189,1,191.999994140625,12|8,1:2|0:0,0:1:0:0:
93,310,68263,1,8,0:0:0:0:
381,312,68569,6,2,P|374:275|393:216,1,96,0|0,0:0|0:0,0:0:0:0:
502,280,69181,6,2,P|406:275|255:221,1,240.000009155274,4|8,1:0|0:0,0:1:0:0:
374,116,69640,1,0,3:0:0:0:
212,91,69793,2,0,P|187:58|160:0,1,95.9999970703126,2|0,1:0|0:1,0:0:0:0:
374,116,70099,1,8,0:0:0:0:
270,229,70252,1,0,3:0:0:0:
375,20,70406,6,2,P|376:72|373:120,1,95.9999970703126,0|0,1:0|0:0,0:1:0:0:
272,324,70712,2,0,P|269:276|270:228,1,95.9999970703126,8|0,0:0|0:0,0:0:0:0:
364,271,71018,1,2,1:1:0:0:
274,130,71171,1,2,3:0:0:0:
176,267,71324,1,10,3:1:0:0:
373,115,71477,1,2,3:0:0:0:
406,361,71630,5,2,1:0:0:0:
462,279,71783,1,0,3:0:0:0:
364,271,71936,1,8,3:2:0:0:
406,361,72089,1,0,3:0:0:0:
420,185,72242,5,2,1:0:0:0:
508,370,72395,1,0,3:0:0:0:
508,370,72472,1,0,3:0:0:0:
508,370,72548,1,10,3:2:0:0:
302,354,72701,1,0,3:0:0:0:
420,185,72855,5,2,1:0:0:0:
215,170,73008,1,2,3:2:0:0:
328,0,73161,1,10,1:2:0:0:
219,271,73314,1,0,3:0:0:0:
183,267,73390,1,0,3:0:0:0:
151,251,73467,1,0,1:0:0:0:
127,224,73543,1,0,3:0:0:0:
115,191,73620,1,0,3:0:0:0:
215,170,73773,1,10,3:2:0:0:
111,334,73926,6,2,P|38:333|-9:339,1,95.9999970703126,4|0,1:2|0:0,0:1:0:0:
291,227,74232,1,0,3:0:0:0:
291,227,74385,1,8,3:2:0:0:
374,277,74538,2,2,P|445:262|504:157,1,191.999994140625,0|0,1:0|3:0,0:1:0:0:
383,156,74997,1,8,3:2:0:0:
280,349,75150,1,0,3:0:0:0:
374,277,75304,5,2,1:0:0:0:
194,170,75457,1,2,3:0:0:0:
376,67,75610,2,2,P|435:77|493:77,1,95.9999970703126,8|0,3:2|1:0,0:1:0:0:
471,78,75839,1,0,3:0:0:0:
471,78,75916,1,0,3:2:0:0:
289,181,76069,2,2,P|241:172|193:169,1,95.9999970703126,0|8,1:0|0:0,0:1:0:0:
194,170,76298,1,0,3:0:0:0:
193,169,76375,1,0,3:0:0:0:
78,45,76528,5,4,1:2:0:0:
26,217,76681,1,0,3:0:0:0:
82,23,76834,5,4,1:2:0:0:
156,303,76987,1,0,3:0:0:0:
310,42,77140,1,4,1:2:0:0:
120,220,77293,1,0,3:0:0:0:
120,220,77370,1,0,3:0:0:0:
120,220,77446,1,4,1:2:0:0:
289,181,77599,1,0,3:0:0:0:
82,23,77752,6,0,P|75:70|77:118,1,95.9999970703126,4|0,1:2|0:0,0:0:0:0:
430,361,78059,2,0,P|436:313|434:265,1,95.9999970703126,4|0,1:2|0:0,0:0:0:0:
252,102,78365,1,0,1:0:0:0:
156,303,78518,1,0,1:0:0:0:
108,304,78594,1,0,1:0:0:0:
63,287,78671,1,10,1:1:0:0:
363,97,78824,1,0,1:0:0:0:
413,119,78900,1,0,1:0:0:0:
438,170,78977,6,0,P|440:217|433:265,1,95.9999970703126,6|0,1:1|0:0,0:0:0:0:
257,374,79283,2,0,P|255:326|259:278,1,95.9999970703126,8|0,0:0|0:0,0:0:0:0:
198,166,79589,1,2,1:0:0:0:
39,263,79742,1,2,3:0:0:0:
111,91,79895,1,10,3:1:0:0:
153,273,80048,1,2,3:0:0:0:
39,263,80201,5,2,1:0:0:0:
13,150,80355,1,0,3:0:0:0:
111,91,80508,1,10,3:2:0:0:
198,166,80661,1,0,3:0:0:0:
153,273,80814,2,2,P|149:320|151:368,1,95.9999970703126,0|0,1:0|0:0,0:1:0:0:
13,150,81120,2,2,P|16:102|14:54,1,95.9999970703126,8|0,3:2|0:0,0:1:0:0:
275,261,81426,6,2,B|333:257|368:273|368:273|416:258|492:274,1,191.999994140625,4|8,1:2|0:0,0:1:0:0:
297,362,81885,1,0,3:0:0:0:
371,170,82038,1,2,1:0:0:0:
172,248,82191,1,0,3:0:0:0:
152,245,82268,1,0,3:0:0:0:
133,242,82344,1,8,3:2:0:0:
275,261,82497,5,0,3:0:0:0:
28,222,82650,1,2,1:0:0:0:
185,28,82804,1,2,3:0:0:0:
275,261,82957,5,10,3:1:0:0:
228,141,83110,1,2,3:0:0:0:
357,162,83263,1,2,1:0:0:0:
327,361,83416,5,0,3:0:0:0:
280,372,83492,1,0,3:0:0:0:
233,364,83569,1,0,1:0:0:0:
193,338,83645,1,0,3:0:0:0:
153,312,83722,1,0,3:0:0:0:
106,304,83799,1,0,3:0:0:0:
60,316,83875,6,2,P|59:237|29:95,1,223.999993164063,6|0,1:2|0:0,0:1:0:0:
452,68,84334,2,2,P|453:147|483:289,1,223.999993164063,6|0,1:2|0:0,0:1:0:0:
482,288,84793,1,8,3:2:0:0:
256,218,84946,5,6,1:2:0:0:
256,218,85099,1,0,3:0:0:0:
198,317,85252,1,0,3:0:0:0:
372,216,85406,1,8,3:2:0:0:
199,117,85559,1,0,3:0:0:0:
364,14,85712,5,2,1:1:0:0:
361,41,85788,1,0,3:0:0:0:
358,69,85865,1,0,3:0:0:0:
355,97,85941,1,0,3:0:0:0:
352,125,86018,1,8,3:2:0:0:
277,54,86171,1,0,3:0:0:0:
199,117,86324,6,0,P|148:108|123:83,1,80,2|0,1:2|0:0,0:0:0:0:
31,143,86630,1,0,1:0:0:0:
31,143,86783,2,0,P|59:184|55:232,1,80,2|0,1:2|0:0,0:0:0:0:
157,213,87089,2,0,P|147:261|111:292,1,80,2|0,1:2|0:0,0:0:0:0:
23,333,87395,5,2,1:2:0:0:
18,317,87472,1,0,3:0:0:0:
13,301,87548,1,0,3:0:0:0:
60,213,87701,1,2,1:3:0:0:
157,213,87855,1,2,1:2:0:0:
229,290,88008,2,0,P|279:295|323:288,1,80,2|0,1:3|0:0,0:0:0:0:
374,206,88314,5,2,1:3:0:0:
455,279,88467,2,0,P|479:231|484:194,1,80,2|0,1:0|0:0,0:0:0:0:
336,46,88773,6,2,L|124:66,1,191.999994140625,6|0,1:2|1:0,0:1:0:0:
74,203,89232,1,0,1:0:0:0:
228,195,89385,1,0,1:0:0:0:
144,64,89538,1,0,1:0:0:0:
4,342,89691,1,0,1:0:0:0:
312,326,89844,1,8,3:2:0:0:
485,114,91222,6,2,P|412:112|320:128,1,160,0|0,1:0|0:0,0:1:0:0:
210,307,91681,2,2,P|270:291|266:196,1,160,0|0,1:0|0:0,0:1:0:0:
223,121,92140,1,2,3:2:0:0:
132,151,92293,1,2,3:0:0:0:
41,117,92446,1,2,1:2:0:0:
22,25,92599,2,2,P|71:18|114:27,1,80,2|0,3:2|0:0,0:1:0:0:
223,121,92906,1,0,3:0:0:0:
124,241,93059,2,2,P|75:248|32:239,1,80,2|0,1:2|0:0,0:1:0:0:
291,261,93365,2,2,P|292:314|276:355,1,80,2|0,1:2|0:0,0:1:0:0:
223,121,93671,6,2,P|320:116|415:91,1,160,0|0,1:0|0:0,0:1:0:0:
469,331,94130,2,2,B|464:275|464:275|429:255|429:255|422:174,1,160,8|0,3:2|0:0,0:1:0:0:
293,14,94589,2,0,B|301:56|301:56|290:106,1,80,8|0,3:1|0:0,0:0:0:0:
234,207,94895,1,0,1:0:0:0:
234,207,95048,1,2,3:0:0:0:
197,124,95201,1,2,3:2:0:0:
292,92,95355,1,2,3:0:0:0:
341,205,95508,2,2,L|348:291,1,80,8|0,3:2|0:0,0:1:0:0:
122,343,95814,2,2,L|111:226,1,103.999995239258,8|0,3:2|0:0,0:1:0:0:
98,82,96120,5,2,1:0:0:0:
147,154,96273,1,0,3:0:0:0:
59,161,96426,1,10,3:2:0:0:
280,29,96579,2,2,P|279:81|273:128,1,88.000002685547,0|0,1:0|0:0,0:1:0:0:
242,262,96885,1,0,3:0:0:0:
373,78,97038,1,8,3:2:0:0:
465,283,97191,1,2,1:0:0:0:
357,207,97344,5,0,3:0:0:0:
341,336,97497,1,0,3:0:0:0:
359,191,97650,1,8,3:2:0:0:
242,262,97804,1,0,3:0:0:0:
457,131,97957,2,2,P|468:80|463:22,1,88.000002685547,0|0,1:0|0:0,0:1:0:0:
289,25,98263,2,2,P|278:76|283:134,1,88.000002685547,8|0,3:2|0:0,0:1:0:0:
341,336,98569,5,4,1:2:0:0:
95,285,98722,1,0,3:0:0:0:
359,191,98875,5,4,1:2:0:0:
74,292,99028,1,0,3:0:0:0:
239,107,99181,5,4,1:2:0:0:
341,336,99334,1,0,3:0:0:0:
488,133,99487,1,4,1:2:0:0:
359,191,99640,6,2,P|261:193|141:227,1,207.999990478516,4|0,1:2|0:0,0:1:0:0:
64,379,100099,1,10,3:2:0:0:
235,336,100252,1,0,3:0:0:0:
245,317,100329,1,0,3:0:0:0:
248,296,100406,1,0,1:0:0:0:
216,179,100559,1,2,3:0:0:0:
263,77,100712,1,0,3:0:0:0:
376,76,100865,1,2,3:0:0:0:
438,176,101018,1,4,1:2:0:0:
438,176,101324,5,2,0:2:0:0:
324,215,101477,1,8,0:2:0:0:
341,120,101630,1,2,0:2:0:0:
184,141,101783,1,8,0:2:0:0:
225,229,101936,1,2,0:2:0:0:
255,74,102089,5,6,1:2:0:0:
167,51,102242,1,0,0:2:0:0:
97,109,102395,1,0,0:2:0:0:
9,86,102548,1,0,0:2:0:0:
79,28,102701,1,2,0:0:0:0:
79,28,102778,1,2,0:0:0:0:
79,28,102855,1,2,1:2:0:0:
97,109,103008,1,2,0:0:0:0:
54,192,103161,1,2,0:2:0:0:
119,258,103314,1,2,0:0:0:0:
201,216,103467,1,4,1:2:0:0:
201,216,103773,5,2,0:2:0:0:
315,185,103926,1,8,0:2:0:0:
298,280,104079,1,2,0:2:0:0:
455,259,104232,1,12,0:2:0:0:
414,171,104385,1,2,0:2:0:0:
384,326,104538,5,6,1:2:0:0:
315,185,104691,1,0,0:2:0:0:
214,313,104844,1,2,0:0:0:0:
214,313,104921,1,2,0:0:0:0:
214,313,104997,1,0,0:2:0:0:
298,280,105150,1,2,0:0:0:0:
298,280,105227,1,2,0:0:0:0:
298,280,105304,1,0,1:2:0:0:
315,185,105457,1,2,0:0:0:0:
247,117,105610,1,0,0:2:0:0:
157,144,105763,1,2,0:0:0:0:
134,236,105916,1,4,1:2:0:0:
134,236,106222,5,2,0:2:0:0:
227,209,106375,1,8,0:2:0:0:
247,117,106528,1,2,0:2:0:0:
87,78,106681,1,12,0:2:0:0:
181,57,106834,1,2,1:2:0:0:
65,171,106987,1,12,0:2:0:0:
134,236,107140,2,0,P|132:294|119:327,1,80,2|0,0:2|0:2,0:2:0:0:
254,294,107446,5,2,1:2:0:0:
299,322,107551,2,2,P|322:325|351:324,1,53.3333333333333,0|0,1:0|1:0,0:1:0:0:
503,205,107761,5,0,1:2:0:0:
458,233,107866,2,2,P|433:236|404:235,1,53.3333333333333,0|0,1:0|1:0,0:1:0:0:
315,153,108077,5,10,1:2:0:0:
286,105,108182,5,2,1:2:0:0:
299,51,108288,5,2,1:2:0:0:
352,32,108393,5,2,1:2:0:0:
352,32,109464,6,2,B|314:76|258:57|258:57|232:142|136:140,1,256,0|0,3:0|0:0,0:0:0:0:
144,139,110813,6,2,P|149:89|144:41,1,80,6|0,1:0|0:0,0:1:0:0:
13,205,111119,2,0,P|8:255|13:303,1,80,10|0,3:2|1:0,0:0:0:0:
206,373,111425,1,2,3:2:0:0:
206,373,111578,1,0,1:0:0:0:
108,252,111731,1,10,3:2:0:0:
277,283,111884,6,0,P|316:284|356:279,1,80,2|0,1:0|3:0,0:0:0:0:
471,161,112190,1,0,3:0:0:0:
267,101,112343,1,8,3:2:0:0:
375,51,112496,1,0,3:0:0:0:
376,80,112572,1,0,3:0:0:0:
375,110,112649,1,2,1:2:0:0:
371,140,112725,1,0,3:0:0:0:
363,169,112802,1,0,3:0:0:0:
160,119,112955,2,0,P|168:57|181:28,1,80,10|0,0:0|3:0,0:0:0:0:
108,252,113261,6,0,P|58:247|10:252,1,80,2|0,1:0|0:0,0:0:0:0:
206,373,113568,2,0,P|245:377|285:376,1,80,10|0,0:0|1:0,0:0:0:0:
285,376,113797,1,0,3:0:0:0:
285,376,113874,1,2,3:2:0:0:
256,283,114027,1,2,1:2:0:0:
206,373,114180,1,10,3:2:0:0:
108,252,114333,6,2,P|113:193|101:84,1,160,6|0,1:2|0:0,0:1:0:0:
4,223,114792,1,10,3:2:0:0:
235,123,114945,1,0,3:0:0:0:
206,373,115098,1,2,1:0:0:0:
206,373,115175,1,0,3:0:0:0:
206,373,115251,1,2,3:0:0:0:
335,262,115404,1,10,1:0:0:0:
235,123,115557,1,2,3:0:0:0:
96,223,115710,6,2,P|141:222|199:212,1,80,6|0,1:2|0:0,0:1:0:0:
414,256,116017,2,0,P|369:257|311:267,1,80,10|0,3:2|1:0,0:0:0:0:
235,123,116323,1,2,3:0:0:0:
334,261,116476,1,2,1:2:0:0:
404,106,116629,1,10,3:2:0:0:
314,14,116782,6,0,P|314:84|332:186,1,160,2|0,1:1|3:0,0:0:0:0:
148,268,117241,2,0,P|148:230|138:176,1,80,10|0,3:2|3:0,0:0:0:0:
130,65,117547,1,2,1:0:0:0:
56,239,117700,1,2,3:0:0:0:
242,215,117853,1,10,1:0:0:0:
130,65,118006,1,0,3:0:0:0:
158,368,118159,5,6,1:2:0:0:
193,364,118235,1,0,3:0:0:0:
229,361,118312,1,0,3:0:0:0:
265,357,118388,1,0,3:0:0:0:
301,354,118465,1,8,3:2:0:0:
383,123,118619,2,2,B|435:153|436:200|436:200|384:231|383:293,1,191.999994140625,4|0,3:2|0:0,0:1:0:0:
494,297,119078,1,8,0:0:0:0:
295,185,119231,2,2,P|247:185|98:228,1,191.999994140625,4|0,3:2|0:0,0:1:0:0:
4,125,119690,5,8,1:0:0:0:
44,64,119792,2,0,P|51:23|48:-5,1,53.3333333333333,0|0,1:0|3:0,0:0:0:0:
189,178,119996,5,0,1:0:0:0:
216,221,120098,2,0,P|220:247|216:276,1,53.3333333333333,0|0,1:0|3:0,0:0:0:0:
314,111,120302,5,0,1:0:0:0:
333,82,120404,2,0,P|337:56|334:30,1,53.3333333333333,0|0,1:0|3:0,0:0:0:0:
344,236,120608,6,0,P|397:238|474:254,1,120.000004577637,2|0,3:2|0:0,0:0:0:0:
450,352,121068,2,0,P|397:350|320:334,1,120.000004577637,2|0,3:0|0:0,0:0:0:0:
331,337,121527,1,8,0:0:0:0:
175,322,121833,5,2,3:0:0:0:
175,322,121986,2,0,P|175:278|164:242,1,60.0000022888184,2|0,3:0|0:0,0:0:0:0:
87,354,122292,2,0,P|76:293|80:232,1,120.000004577637,2|0,3:0|0:0,0:0:0:0:
79,235,122751,1,8,0:0:0:0:
168,148,123057,6,0,P|115:146|38:130,1,120.000004577637,2|0,3:2|0:0,0:0:0:0:
93,43,123517,2,0,P|119:44|158:51,1,60.0000022888184,0|0,3:0|0:0,0:0:0:0:
93,43,123823,1,0,3:0:0:0:
231,82,123976,2,0,P|232:52|238:22,1,60.0000022888184,8|0,0:0|0:0,0:0:0:0:
368,143,124282,5,2,3:0:0:0:
368,143,124435,2,0,P|394:142|433:134,1,60.0000022888184,2|0,3:0|0:0,0:0:0:0:
443,38,124741,2,0,P|390:40|313:56,1,120.000004577637,2|0,3:0|0:0,0:0:0:0:
324,52,125201,1,8,0:0:0:0:
356,325,125506,6,0,P|354:368|344:400,2,60.0000022888184,2|0|0,3:0|0:0|0:0,0:0:0:0:
314,230,125965,1,2,3:0:0:0:
314,230,126119,2,0,P|381:244|453:235,1,120.000004577637,2|8,3:0|0:0,0:0:0:0:
156,59,126731,6,0,P|158:16|168:-16,1,60.0000022888184,2|0,3:0|0:0,0:0:0:0:
198,154,127037,1,2,3:0:0:0:
198,154,127190,2,0,P|131:140|59:149,1,120.000004577637,2|0,3:0|0:0,0:0:0:0:
80,144,127649,1,8,0:0:0:0:
135,295,127955,6,0,P|193:285|221:260,1,80,2|0,3:0|0:0,0:0:0:0:
298,39,128261,2,0,P|256:82|248:119,1,80,2|0,3:0|0:0,0:0:0:0:
316,339,128567,2,0,P|324:281|309:246,1,80,2|0,3:0|0:0,0:0:0:0:
123,108,128874,2,0,P|150:161|183:180,1,80,2|0,3:0|0:0,0:0:0:0:
416,183,129180,2,0,P|362:157|325:161,1,80,10|0,3:2|0:0,0:0:0:0:
93,245,129486,6,0,P|147:271|184:267,1,80,0|2,1:0|3:0,0:0:0:0:
165,270,129716,1,2,3:0:0:0:
165,270,129792,1,0,3:0:0:0:
272,72,129945,1,2,3:0:0:0:
272,72,130022,1,2,3:0:0:0:
272,72,130098,1,8,3:2:0:0:
391,263,130251,1,0,3:0:0:0:
165,172,130404,6,0,P|250:155|357:160,1,176.000005371094,6|8,1:2|0:0,0:0:0:0:
296,381,130864,1,0,3:0:0:0:
281,351,130940,1,0,3:0:0:0:
271,319,131017,1,2,1:2:0:0:
263,287,131093,1,0,3:0:0:0:
259,255,131170,1,0,3:0:0:0:
145,333,131323,1,10,3:2:0:0:
391,263,131476,1,2,3:0:0:0:
207,84,131629,6,0,P|146:78|10:74,1,176.000005371094,2|8,1:2|0:0,0:0:0:0:
344,144,132088,1,0,3:0:0:0:
375,136,132164,1,0,3:0:0:0:
402,117,132241,1,2,1:2:0:0:
419,89,132317,1,0,3:0:0:0:
423,56,132394,1,0,3:0:0:0:
333,43,132547,1,10,3:2:0:0:
457,287,132700,1,2,3:0:0:0:
457,287,132777,1,0,3:0:0:0:
457,287,132853,6,0,P|470:220|471:172,1,88.000002685547,2|0,1:2|0:0,0:0:0:0:
220,267,133159,2,0,P|207:334|206:382,1,88.000002685547,8|0,0:0|3:0,0:0:0:0:
205,353,133389,1,0,3:0:0:0:
205,353,133466,1,2,1:2:0:0:
341,215,133619,1,0,3:0:0:0:
86,273,133772,2,0,P|91:229|101:187,1,88.000002685547,10|2,3:2|0:3,0:0:0:0:
397,131,134078,5,2,1:2:0:0:
215,76,134231,1,0,3:0:0:0:
397,131,134384,5,10,1:2:0:0:
101,186,134537,1,0,3:0:0:0:
302,1,134690,1,0,1:0:0:0:
307,44,134766,1,0,3:0:0:0:
308,87,134843,1,0,3:0:0:0:
304,128,134919,1,0,3:0:0:0:
296,171,134996,1,8,1:2:0:0:
485,305,135149,1,0,3:0:0:0:
485,305,135226,1,0,3:0:0:0:
485,305,135302,6,2,P|482:193|503:96,1,207.999990478516,6|8,1:2|0:0,0:1:0:0:
289,277,135761,5,0,3:0:0:0:
320,242,135837,1,0,3:0:0:0:
326,195,135914,1,2,1:3:0:0:
304,153,135990,1,0,3:0:0:0:
261,132,136067,1,0,3:0:0:0:
215,141,136143,1,0,3:0:0:0:
179,170,136221,1,2,1:3:0:0:
141,191,136297,1,0,3:0:0:0:
95,190,136374,1,0,3:0:0:0:
54,172,136450,1,0,3:0:0:0:
29,133,136527,5,10,0:1:0:0:
42,82,136603,1,0,3:0:0:0:
77,45,136680,1,0,3:0:0:0:
124,24,136756,1,0,3:0:0:0:
174,25,136833,1,10,0:1:0:0:
221,47,136909,1,0,3:0:0:0:
254,88,136986,1,0,3:0:0:0:
264,139,137063,1,0,3:0:0:0:
254,189,137139,1,10,0:1:0:0:
242,240,137215,1,0,3:0:0:0:
254,294,137292,1,0,3:0:0:0:
287,338,137369,1,0,3:0:0:0:
337,361,137445,1,10,0:1:0:0:
390,361,137522,1,0,3:0:0:0:
440,340,137598,1,0,3:0:0:0:
477,301,137675,1,0,3:0:0:0:
486,248,137751,5,10,1:0:0:0:
426,220,137827,1,0,1:0:0:0:
362,221,137904,1,0,1:0:0:0:
305,246,137980,1,0,1:0:0:0:
260,291,138057,1,2,1:3:0:0:
215,336,138135,1,0,1:0:0:0:
159,361,138211,1,0,1:0:0:0:
95,361,138288,1,0,1:0:0:0:
37,339,138364,1,2,1:3:0:0:
97,134,138517,5,0,1:0:0:0:
97,134,138593,1,0,1:0:0:0:
97,134,138670,1,8,1:0:0:0:
286,279,138823,2,2,B|326:286|362:280|362:280|395:308|411:332|411:332|451:326|501:336,1,240.000009155274,12|8,1:0|0:0,0:1:0:0:
328,186,139282,1,8,0:0:0:0:
243,369,139435,1,0,1:0:0:0:
206,345,139511,1,0,1:0:0:0:
192,304,139588,1,0,1:0:0:0:
346,87,139741,5,0,1:0:0:0:
388,107,139817,1,0,1:0:0:0:
414,146,139894,1,0,1:0:0:0:
418,193,139970,1,0,1:0:0:0:
396,235,140047,1,0,1:0:0:0:
357,262,140123,1,0,1:0:0:0:
309,264,140200,6,2,P|283:181|276:9,1,240.000009155274,4|8,1:0|0:0,0:1:0:0:
167,164,140659,1,0,3:0:0:0:
407,180,140813,2,0,P|394:138|390:52,1,95.9999970703126,2|0,1:0|3:1,0:0:0:0:
388,86,141042,1,0,3:0:0:0:
388,86,141119,1,8,3:2:0:0:
506,214,141272,1,0,3:0:0:0:
336,252,141425,5,0,1:0:0:0:
492,107,141578,1,2,3:0:0:0:
340,266,141731,5,8,0:0:0:0:
291,59,141884,1,2,3:0:0:0:
344,280,142037,5,2,1:1:0:0:
148,209,142190,1,2,3:0:0:0:
291,59,142343,1,10,3:1:0:0:
291,59,142420,1,0,3:0:0:0:
291,59,142496,1,2,3:0:0:0:
211,358,142649,6,0,P|157:355|107:347,1,95.9999970703126,2|0,1:0|3:0,0:0:0:0:
410,204,142955,2,0,P|464:207|514:215,1,95.9999970703126,8|0,3:2|3:0,0:0:0:0:
115,348,143261,1,2,1:0:0:0:
248,137,143415,1,0,3:0:0:0:
248,137,143491,1,0,3:0:0:0:
248,137,143568,1,10,3:2:0:0:
363,358,143721,1,0,3:0:0:0:
108,185,143874,5,2,1:0:0:0:
363,358,144027,1,2,3:0:0:0:
385,50,144180,1,10,3:2:0:0:
457,213,144333,1,2,3:0:0:0:
279,193,144486,2,0,P|281:137|291:96,1,95.9999970703126,0|0,1:0|3:0,0:0:0:0:
363,358,144792,1,10,3:2:0:0:
185,338,144945,6,2,P|183:282|173:241,1,95.9999970703126,4|0,1:2|0:0,0:1:0:0:
37,99,145251,2,0,P|39:155|49:196,1,95.9999970703126,0|8,3:0|3:2,0:0:0:0:
173,243,145557,1,2,1:0:0:0:
48,193,145710,1,0,3:0:0:0:
67,326,145864,1,0,3:0:0:0:
154,110,146017,1,10,1:0:0:0:
297,293,146170,1,0,3:0:0:0:
173,243,146323,5,2,1:0:0:0:
279,160,146476,1,0,3:0:0:0:
191,376,146629,1,8,3:2:0:0:
52,197,146782,2,2,P|52:137|40:81,1,95.9999970703126,0|0,1:0|3:2,0:1:0:0:
228,0,147088,1,0,1:0:0:0:
228,0,147165,1,0,3:0:0:0:
228,0,147241,2,2,P|228:60|240:116,1,95.9999970703126,8|0,0:0|0:0,0:1:0:0:
459,334,147547,5,4,1:2:0:0:
511,116,147700,1,0,3:0:0:0:
371,271,147853,5,4,1:2:0:0:
318,53,148006,1,0,3:0:0:0:
140,271,148159,5,4,1:2:0:0:
193,53,148312,1,0,3:0:0:0:
52,334,148466,5,4,1:2:0:0:
0,116,148619,1,0,3:0:0:0:
223,241,148772,6,2,P|289:243|442:288,1,191.999994140625,4|4,1:2|1:2,0:1:0:0:
256,106,149231,2,0,P|249:158|254:181,1,47.9999985351563,2|0,3:2|0:0,0:0:0:0:
227,336,149384,1,2,1:0:0:0:
181,326,149460,1,0,3:0:0:0:
145,299,149537,1,0,3:0:0:0:
125,259,149613,1,0,3:0:0:0:
126,214,149690,1,10,1:1:0:0:
150,173,149767,1,0,3:0:0:0:
164,122,149843,1,0,3:0:0:0:
148,71,149920,1,0,3:0:0:0:
105,40,149996,6,0,P|47:35|-8:35,1,95.9999970703126,6|0,1:1|0:0,0:0:0:0:
223,241,150302,2,0,P|281:246|336:246,1,95.9999970703126,8|0,0:0|3:0,0:0:0:0:
318,246,150532,1,0,3:0:0:0:
318,246,150608,1,2,1:0:0:0:
277,147,150761,1,2,3:0:0:0:
266,337,150915,1,10,3:1:0:0:
278,125,151068,1,2,3:0:0:0:
88,220,151221,5,2,1:0:0:0:
372,173,151374,1,0,3:0:0:0:
204,0,151527,2,0,B|200:55|208:104,1,95.9999970703126,10|0,3:2|3:0,0:0:0:0:
328,257,151833,1,0,1:0:0:0:
328,257,151909,1,0,3:0:0:0:
328,257,151986,1,2,3:0:0:0:
88,220,152139,2,2,B|94:179|90:124,1,95.9999970703126,8|0,3:2|0:0,0:1:0:0:
474,38,152445,6,2,B|460:121|468:233,1,191.999994140625,4|8,1:2|0:0,0:1:0:0:
262,267,152904,1,0,3:0:0:0:
262,267,152981,1,0,3:0:0:0:
262,267,153057,5,2,1:0:0:0:
322,193,153210,1,0,3:0:0:0:
257,125,153364,1,8,3:2:0:0:
188,190,153517,1,0,3:0:0:0:
252,344,153669,5,2,1:0:0:0:
103,188,153822,1,2,3:0:0:0:
259,40,153975,1,10,3:1:0:0:
408,195,154129,1,2,3:0:0:0:
64,262,154282,5,2,1:0:0:0:
64,226,154358,1,0,3:0:0:0:
61,190,154435,1,0,3:0:0:0:
54,154,154511,1,0,3:0:0:0:
44,120,154588,1,0,1:0:0:0:
263,276,154741,1,0,1:0:0:0:
266,312,154818,1,0,1:0:0:0:
273,348,154894,6,2,B|332:327|387:348|379:356|421:394|503:370,1,223.999993164063,6|8,1:2|0:0,0:1:0:0:
290,67,155353,2,2,B|231:46|176:67|184:75|142:113|60:89,1,223.999993164063,6|0,1:2|0:0,0:1:0:0:
73,92,155813,1,8,3:2:0:0:
307,255,155966,5,6,1:2:0:0:
240,161,156119,1,0,3:0:0:0:
191,264,156272,1,0,3:0:0:0:
307,255,156425,1,8,3:2:0:0:
133,171,156578,1,0,3:0:0:0:
289,58,156731,1,2,1:1:0:0:
316,55,156807,1,0,3:0:0:0:
344,53,156884,1,0,3:0:0:0:
372,51,156960,1,0,3:0:0:0:
399,48,157037,1,8,3:2:0:0:
487,150,157190,1,0,3:0:0:0:
398,251,157343,6,0,P|379:204|375:158,1,80,2|0,1:2|0:0,0:0:0:0:
385,352,157649,1,0,1:0:0:0:
385,352,157802,2,0,P|338:332|302:302,1,80,2|0,1:2|0:0,0:0:0:0:
250,154,158108,2,0,P|256:204|248:249,1,80,2|0,1:2|0:0,0:0:0:0:
214,327,158415,5,2,1:2:0:0:
198,330,158491,1,0,3:0:0:0:
182,333,158568,1,0,3:0:0:0:
90,295,158721,1,2,1:3:0:0:
76,196,158874,1,2,1:2:0:0:
136,116,159027,2,0,P|142:67|132:22,1,80,2|0,1:3|0:0,0:0:0:0:
256,258,159333,5,2,1:3:0:0:
295,265,159409,1,0,3:0:0:0:
334,274,159486,2,0,B|357:220|357:220|346:132,1,143.999995605469,2|0,1:0|0:0,0:0:0:0:
259,88,159792,6,2,L|483:110,1,191.999994140625,6|0,1:2|1:0,0:1:0:0:
125,136,160251,1,0,1:0:0:0:
111,89,160328,1,0,3:0:0:0:
124,43,160404,1,0,1:0:0:0:
256,258,160557,1,0,1:0:0:0:
3,264,160710,1,0,1:0:0:0:
259,88,160864,1,8,3:2:0:0:
31,294,162241,6,0,B|71:236|165:228|165:228|250:274|249:343|176:417|98:347|107:280|165:228|165:228|210:154|206:97|148:26,1,704.000021484376,2|0,0:0|0:0,0:0:0:0:
169,101,170966,6,0,L|84:93,1,60.0000022888184,8|0,3:0|0:0,0:0:0:0:
254,151,171272,2,0,L|384:138,1,120.000004577637,8|0,3:0|0:0,0:0:0:0:
394,10,171731,2,0,P|330:40|314:116,1,143.999995605469,4|0,1:2|0:0,0:0:0:0:
325,231,172037,5,2,1:0:0:0:
477,215,172190,1,2,3:0:0:0:
414,354,172343,1,10,3:2:0:0:
388,92,172496,1,2,3:1:0:0:
298,70,172649,1,0,3:0:0:0:
218,118,172802,1,0,3:0:0:0:
195,208,172955,1,8,3:2:0:0:
126,49,173108,1,0,3:0:0:0:
126,49,173185,1,0,3:0:0:0:
126,49,173261,6,2,P|79:50|11:39,1,95.9999970703126,0|0,1:0|0:0,0:1:0:0:
218,118,173568,1,8,0:0:0:0:
298,217,173721,1,2,3:1:0:0:
333,220,173797,1,0,3:0:0:0:
369,222,173874,1,0,3:0:0:0:
405,221,173950,1,0,3:0:0:0:
441,218,174027,1,2,3:0:0:0:
366,127,174180,1,8,3:2:0:0:
244,318,174333,1,2,3:0:0:0:
441,218,174486,5,2,1:0:0:0:
255,97,174639,1,2,3:0:0:0:
244,318,174792,1,8,3:2:0:0:
366,127,174945,1,2,3:1:0:0:
373,91,175021,1,0,3:0:0:0:
368,56,175098,1,0,3:0:0:0:
351,24,175174,1,0,3:0:0:0:
325,0,175251,1,2,3:0:0:0:
255,97,175404,1,8,3:2:0:0:
140,140,175557,6,2,P|86:131|28:15,1,191.999994140625,4|0,3:2|0:0,0:1:0:0:
124,37,176017,1,8,3:2:0:0:
140,140,176170,1,2,3:0:0:0:
88,235,176323,1,2,3:1:0:0:
162,313,176476,1,2,3:0:0:0:
259,266,176629,1,10,3:1:0:0:
244,159,176782,1,2,3:0:0:0:
162,313,176935,5,2,1:1:0:0:
331,92,177088,1,2,3:0:0:0:
331,92,177241,1,10,3:2:0:0:
322,368,177394,5,2,1:0:0:0:
148,81,177547,1,2,3:0:0:0:
148,81,177700,1,2,3:0:0:0:
90,204,177853,5,0,1:2:0:0:
224,192,178006,1,0,1:0:0:0:
6,91,178159,5,2,1:0:0:0:
162,313,178313,1,2,3:0:0:0:
162,313,178466,1,10,3:2:0:0:
279,69,178619,5,2,1:0:0:0:
6,267,178772,1,2,3:0:0:0:
6,267,178925,1,2,3:0:0:0:
148,81,179078,2,2,P|153:138|151:186,1,95.9999970703126,8|0,0:0|0:0,0:1:0:0:
419,384,179384,6,0,P|418:336|422:288,1,95.9999970703126,4|0,1:2|0:0,0:1:0:0:
202,269,179690,2,0,P|154:268|106:272,1,95.9999970703126,8|0,3:2|0:0,0:0:0:0:
321,170,179996,5,2,1:0:0:0:
364,105,180098,2,0,P|367:71|360:22,1,63.9999980468751,2|0,1:2|1:0,0:0:0:0:
191,16,180302,5,10,1:0:0:0:
148,81,180404,2,0,P|145:115|152:164,1,63.9999980468751,2|0,1:2|1:0,0:0:0:0:
393,195,180608,5,2,1:0:0:0:
321,170,180710,1,2,1:2:0:0:
253,201,180812,1,2,1:2:0:0:
221,265,180914,5,10,1:0:0:0:
237,337,181016,1,2,1:2:0:0:
295,381,181118,1,2,1:2:0:0:
369,376,181220,5,2,1:0:0:0:
422,328,181323,1,2,1:2:0:0:
431,254,181425,1,2,1:2:0:0:
393,195,181527,6,0,P|389:152|393:99,1,95.9999970703126,10|0,1:0|0:0,0:0:0:0:
439,37,181833,5,4,1:2:0:0:
246,304,181986,1,0,3:0:0:0:
505,144,182139,1,4,1:2:0:0:
179,195,182292,1,0,3:0:0:0:
179,195,182369,1,0,3:0:0:0:
179,195,182445,1,4,1:2:0:0:
505,144,182598,1,0,3:0:0:0:
367,333,182751,1,4,1:2:0:0:
316,9,182904,5,4,1:2:0:0:
439,37,183057,1,0,3:0:0:0:
505,144,183210,1,2,3:0:0:0:
475,267,183364,1,8,3:2:0:0:
367,333,183516,1,2,3:0:0:0:
367,333,183593,1,2,3:0:0:0:
367,333,183670,1,0,1:0:0:0:
246,304,183823,1,2,3:0:0:0:
179,195,183976,1,8,3:2:0:0:
209,73,184129,1,2,3:0:0:0:
340,165,184282,6,0,L|333:230,1,60.0000022888184,6|0,1:2|0:0,0:0:0:0:
239,363,184588,2,0,L|245:303,1,60.0000022888184,0|0,1:0|0:0,0:0:0:0:
443,174,184894,2,0,L|436:239,1,60.0000022888184,2|0,1:2|0:0,0:0:0:0:
137,355,185200,2,0,L|143:295,1,60.0000022888184,0|0,1:0|0:0,0:0:0:0:
16,166,185506,5,0,1:0:0:0:
64,107,185659,1,2,3:0:0:0:
136,82,185812,1,0,1:0:0:0:
211,97,185965,1,2,3:0:0:0:
267,149,186119,2,0,L|260:214,1,60.0000022888184,0|0,1:0|0:0,0:0:0:0:
136,82,186425,2,0,L|142:22,1,60.0000022888184,2|0,1:2|0:0,0:0:0:0:
103,234,186731,6,0,P|68:220|46:197,1,60.0000022888184,2|0,1:2|0:0,0:0:0:0:
170,319,187037,1,0,1:0:0:0:
170,319,187190,2,0,P|175:356|166:386,1,60.0000022888184,2|0,1:2|0:0,0:0:0:0:
211,219,187496,1,0,1:0:0:0:
211,219,187649,2,0,P|240:195|271:188,1,60.0000022888184,2|0,1:2|0:0,0:0:0:0:
352,305,187955,6,2,P|312:296|279:273,1,80,0|0,1:0|0:0,0:1:0:0:
160,79,188261,2,2,P|200:88|233:111,1,80,0|0,1:0|0:0,0:1:0:0:
116,324,188568,2,2,P|113:273|104:244,1,80,0|0,1:0|0:0,0:1:0:0:
396,60,188874,2,2,P|399:111|408:140,1,80,0|0,1:0|0:0,0:1:0:0:
363,306,189180,5,6,1:2:0:0:
305,226,189333,1,0,3:0:0:0:
403,216,189486,1,0,1:0:0:0:
207,236,189639,5,0,3:0:0:0:
197,138,189792,1,0,1:0:0:0:
99,148,189945,1,0,3:0:0:0:
109,246,190098,1,0,1:0:0:0:
295,128,190251,5,0,3:0:0:0:
295,128,190328,1,0,3:0:0:0:
295,128,190404,1,6,1:2:0:0:
393,118,190557,1,0,3:0:0:0:
335,38,190710,1,0,1:0:0:0:
207,236,190864,5,0,3:0:0:0:
305,226,191017,1,0,1:0:0:0:
403,216,191170,1,0,3:0:0:0:
501,206,191323,1,0,1:0:0:0:
295,128,191476,1,0,3:0:0:0:
315,324,191629,5,6,1:2:0:0:
403,216,191782,1,0,3:0:0:0:
295,128,191935,1,2,1:2:0:0:
207,236,192088,1,0,3:0:0:0:
119,344,192241,1,6,1:2:0:0:
11,256,192394,1,0,3:0:0:0:
99,148,192547,1,2,1:2:0:0:
207,236,192700,1,0,3:2:0:0:
93,22,192853,5,6,1:2:0:0:
11,256,193006,1,2,3:0:0:0:
220,89,193159,1,0,1:0:0:0:
260,353,193313,1,2,3:0:0:0:
260,353,193390,1,2,3:0:0:0:
260,353,193466,1,6,1:2:0:0:
59,108,193619,1,2,3:0:0:0:
371,56,193772,1,8,1:0:0:0:
371,56,194078,6,0,P|378:127|373:249,1,176.000005371094,6|8,1:2|0:0,0:0:0:0:
158,158,194537,1,0,3:0:0:0:
189,149,194613,1,0,3:0:0:0:
222,144,194690,1,2,1:2:0:0:
255,141,194766,1,0,3:0:0:0:
288,141,194843,1,0,3:0:0:0:
231,328,194996,2,0,P|227:284|228:240,1,88.000002685547,10|2,3:2|3:0,0:0:0:0:
242,44,195302,6,0,P|159:49|61:69,1,176.000005371094,2|8,1:2|0:0,0:0:0:0:
288,141,195761,1,0,3:0:0:0:
315,122,195837,1,0,3:0:0:0:
334,96,195914,1,2,1:2:0:0:
345,65,195990,1,0,3:0:0:0:
345,32,196067,1,0,3:0:0:0:
242,44,196221,1,10,3:2:0:0:
422,141,196374,1,2,3:0:0:0:
247,248,196527,6,0,P|306:243|427:253,1,176.000005371094,2|8,1:2|0:0,0:0:0:0:
161,349,196986,1,0,3:0:0:0:
161,349,197063,1,0,3:0:0:0:
161,349,197139,2,0,P|161:317|155:283,1,44.0000013427735,2|0,1:2|3:0,0:0:0:0:
77,135,197292,2,0,P|79:197|87:232,1,88.000002685547,0|10,3:0|3:2,0:0:0:0:
300,351,197598,1,2,0:3:0:0:
238,137,197751,5,4,1:2:0:0:
65,316,197904,1,0,3:0:0:0:
232,112,198057,5,12,1:2:0:0:
300,351,198210,1,0,3:0:0:0:
226,87,198364,5,12,1:2:0:0:
447,164,198517,1,0,3:0:0:0:
473,170,198593,1,0,3:0:0:0:
499,176,198670,1,12,1:2:0:0:
219,59,198823,6,2,B|150:68|150:68|117:91|117:91|50:102,1,176.000005371094,4|0,1:2|0:0,0:1:0:0:
198,156,199282,1,8,3:2:0:0:
73,9,199435,1,0,3:0:0:0:
8,190,199588,1,0,1:0:0:0:
8,190,199665,1,0,3:0:0:0:
8,190,199741,1,0,3:0:0:0:
198,156,199894,1,8,3:2:0:0:
133,337,200047,6,2,P|217:330|332:344,1,176.000005371094,4|0,1:2|0:0,0:1:0:0:
312,118,200506,1,8,3:2:0:0:
205,61,200659,1,0,1:2:0:0:
192,108,200736,1,0,1:2:0:0:
198,156,200813,1,10,1:0:0:0:
419,175,200965,1,0,1:2:0:0:
432,128,201042,1,0,1:2:0:0:
426,80,201119,1,10,1:0:0:0:
302,256,201272,6,2,B|247:241|247:241|102:266,1,176.000005371094,4|0,1:2|0:0,0:1:0:0:
242,343,201731,1,8,3:2:0:0:
121,133,201884,1,0,3:0:0:0:
121,133,201960,1,0,3:0:0:0:
121,133,202037,2,0,P|109:70|116:17,1,88.000002685547,0|0,1:0|0:0,0:0:0:0:
21,212,202343,1,8,3:2:0:0:
223,76,202496,6,2,P|299:74|430:94,1,176.000005371094,4|0,1:2|0:0,0:1:0:0:
387,242,202955,2,0,P|338:215|321:185,1,88.000002685547,8|0,3:2|0:0,0:0:0:0:
223,76,203261,1,0,1:0:0:0:
184,55,203337,1,0,3:0:0:0:
141,50,203414,1,0,3:0:0:0:
99,61,203490,1,0,3:0:0:0:
64,88,203568,2,0,P|63:146|75:187,1,88.000002685547,8|0,3:2|0:0,0:0:0:0:
302,244,203874,5,4,1:2:0:0:
115,311,204027,1,0,3:0:0:0:
362,308,204180,5,4,1:2:0:0:
170,196,204333,1,0,3:0:0:0:
423,244,204486,5,4,1:2:0:0:
94,313,204639,1,0,3:0:0:0:
484,308,204792,5,4,1:2:0:0:
151,200,204945,1,0,3:0:0:0:
151,200,205022,1,0,3:0:0:0:
151,200,205098,5,4,1:2:0:0:
58,376,205251,1,0,3:0:0:0:
273,123,205404,5,4,1:2:0:0:
291,381,205557,1,0,3:0:0:0:
347,8,205710,5,4,1:2:0:0:
496,272,205864,1,0,3:0:0:0:
151,184,206017,5,4,1:2:0:0:
512,117,206170,1,0,3:0:0:0:
512,117,206246,1,0,3:0:0:0:
512,117,206323,5,4,1:2:0:0:
300,11,206476,1,0,3:0:0:0:
369,369,206629,1,4,1:2:0:0:
433,151,206782,1,0,3:0:0:0:
433,151,206858,1,0,3:0:0:0:
433,151,206935,5,4,1:2:0:0:
183,216,207088,1,0,3:0:0:0:
493,285,207241,1,4,1:2:0:0:
279,116,207394,2,2,B|208:108|208:108|162:76|162:76|83:63,1,207.999990478516,4|0,1:2|0:0,0:1:0:0:
254,9,207853,1,0,3:0:0:0:
234,299,208006,5,0,3:0:0:0:
185,310,208083,1,0,3:0:0:0:
145,285,208159,1,2,3:0:0:0:
372,137,208313,5,0,1:0:0:0:
401,183,208390,1,0,1:0:0:0:
375,233,208466,2,2,L|177:212,1,176.000005371094,4|0,1:2|0:0,0:1:0:0:
156,115,208925,5,2,3:0:0:0:
92,202,209078,1,0,3:0:0:0:
200,215,209231,1,0,3:0:0:0:
167,14,209384,5,2,3:0:0:0:
285,274,209537,1,0,3:0:0:0:
0,242,209690,1,0,3:0:0:0:
294,113,209843,6,2,B|356:107|411:124|411:124|413:74|450:37,1,207.999990478516,4|0,1:2|3:0,0:1:0:0:
411,264,210302,1,8,3:2:0:0:
122,131,219792,6,0,P|170:117|203:75,2,90.0000034332277,10|2|2,3:0|3:0|3:0,0:0:0:0:
394,102,220404,2,0,P|343:99|302:64,2,90.0000034332277,10|2|2,3:0|3:0|3:0,3:0:0:0:
264,168,221017,6,0,L|277:320,1,143.999995605469,2|0,1:2|0:0,0:0:0:0:
494,307,221476,2,0,P|443:253|362:231,1,143.999995605469,2|0,1:2|0:0,0:0:0:0:
276,311,221935,6,0,P|242:299|218:273,1,71.9999978027344,2|0,1:2|0:0,0:0:0:0:
244,73,222241,2,0,P|264:102|268:137,1,71.9999978027344,2|0,1:2|0:0,0:0:0:0:
131,284,222547,2,0,P|131:248|149:217,1,71.9999978027344,2|0,1:2|0:0,0:0:0:0:
346,180,222853,2,0,P|324:208|292:223,1,71.9999978027344,2|0,1:2|0:0,0:0:0:0:
111,137,223159,2,0,P|145:126|180:133,1,71.9999978027344,2|0,1:2|0:0,0:0:0:0:
390,287,223466,6,0,P|394:333|386:373,1,71.9999978027344,2|0,1:2|0:0,0:0:0:0:
309,318,223772,1,0,1:0:0:0:
470,243,223925,2,0,P|474:227|475:193,1,35.9999989013672,8|0,3:2|0:0,0:0:0:0:
468,128,224078,1,0,1:0:0:0:
395,178,224231,2,0,P|386:163|363:139,1,35.9999989013672,8|0,3:2|0:0,0:0:0:0:
312,99,224384,2,0,P|265:79|214:73,1,71.9999978027344,0|0,1:0|0:0,0:0:0:0:
129,149,224690,5,0,1:0:0:0:
34,159,224843,1,2,3:0:0:0:
72,71,224996,1,0,1:0:0:0:
129,149,225149,1,2,3:0:0:0:
91,237,225302,1,0,1:0:0:0:
34,159,225455,1,2,3:0:0:0:
129,149,225608,1,0,1:0:0:0:
186,227,225761,1,2,3:0:0:0:
146,315,225915,6,2,B|214:334|266:302|252:292|318:263|386:296,1,240,2|0,3:2|0:0,0:0:0:0:
416,189,227139,2,2,P|373:245|380:298,1,120,2|0,3:2|0:0,0:0:0:0:
432,375,227751,2,2,P|474:318|467:265,1,120,2|0,3:2|0:0,0:0:0:0:
287,185,228364,2,2,B|215:162|161:184|161:184|154:132|92:93,1,240,2|0,3:2|0:0,0:0:0:0:
97,96,229588,5,0,1:0:0:0:
221,30,229741,2,0,L|215:103,1,60.0000022888184,0|0,1:0|0:0,0:0:0:0:
317,246,230047,2,0,L|326:121,1,120.000004577637,0|0,1:0|0:0,0:0:0:0:
206,314,230506,1,8,3:0:0:0:
206,314,230813,6,0,P|150:308|106:310,1,80,2|0,1:2|0:0,0:0:0:0:
0,215,231119,2,0,P|39:215|79:220,1,80,2|0,1:2|0:0,0:0:0:0:
32,310,231425,1,0,1:0:0:0:
32,310,231578,1,2,3:0:0:0:
174,217,231731,2,0,P|180:161|178:117,1,80,2|0,1:2|0:0,0:0:0:0:
67,37,232037,6,0,P|66:76|61:116,1,80,2|0,1:2|0:0,0:0:0:0:
174,217,232343,1,0,1:0:0:0:
60,116,232496,1,2,3:0:0:0:
234,57,232649,2,0,P|273:57|313:62,1,80,2|0,1:2|0:0,0:0:0:0:
316,237,232955,1,0,1:0:0:0:
179,137,233108,1,2,3:0:0:0:
197,338,233261,6,2,P|262:326|374:335,1,160,4|0,1:2|0:0,0:1:0:0:
359,147,233721,1,0,3:0:0:0:
313,134,233797,1,0,3:0:0:0:
270,147,233875,1,2,1:3:0:0:
238,180,233950,1,0,3:0:0:0:
229,224,234027,1,0,3:0:0:0:
219,269,234103,1,0,3:0:0:0:
187,302,234180,1,2,1:3:0:0:
144,315,234256,1,0,3:0:0:0:
99,302,234333,1,0,3:0:0:0:
73,265,234409,1,0,3:0:0:0:
66,220,234486,6,2,P|67:165|51:49,1,160,6|0,1:2|0:0,0:1:0:0:
414,180,235710,5,0,1:0:0:0:
359,169,235786,1,0,1:0:0:0:
316,134,235863,1,0,1:0:0:0:
293,84,235939,1,0,1:0:0:0:
297,28,236017,2,0,P|316:97|288:200,1,167.999994873047,6|0,1:2|0:0,0:0:0:0:
263,261,236323,6,2,P|318:227|370:224,1,111.999996582031,0|0,1:0|0:0,0:1:0:0:
426,380,236552,2,2,P|369:349|340:305,1,111.999996582031,8|0,1:0|0:0,0:1:0:0:
465,215,236782,2,2,P|465:247|454:270,1,55.9999982910157,8|0,1:0|0:0,0:1:0:0:
255,356,236935,6,2,P|201:348|158:348,1,95.9999970703126,4|0,1:2|0:0,0:1:0:0:
0,222,237241,2,2,P|54:230|97:230,1,95.9999970703126,8|0,3:2|0:0,0:1:0:0:
272,137,237547,2,2,P|218:129|175:129,1,95.9999970703126,0|0,1:0|0:0,0:1:0:0:
17,3,237853,2,2,P|71:11|114:11,1,95.9999970703126,8|0,3:2|0:0,0:1:0:0:
272,137,238159,5,2,1:0:0:0:
217,216,238313,1,0,3:2:0:0:
176,128,238466,1,8,3:2:0:0:
231,48,238619,1,0,3:2:0:0:
313,226,238772,5,2,1:0:0:0:
121,206,238924,1,2,3:2:0:0:
121,206,239001,1,2,3:0:0:0:
121,206,239078,1,8,3:2:0:0:
231,48,239231,1,2,3:0:0:0:
201,348,239384,5,2,1:0:0:0:
236,18,239537,1,2,3:0:0:0:
405,240,239690,2,0,P|461:247|509:237,1,95.9999970703126,8|0,3:2|0:0,0:0:0:0:
274,194,239996,1,0,1:0:0:0:
274,248,240072,1,0,3:0:0:0:
297,301,240149,1,0,3:0:0:0:
337,340,240225,1,0,3:0:0:0:
389,360,240302,1,8,3:2:0:0:
369,117,240455,6,2,P|306:114|254:117,1,95.9999970703126,0|0,1:0|0:0,0:1:0:0:
42,226,240761,1,0,3:0:0:0:
42,226,240915,1,8,3:2:0:0:
101,289,241068,2,2,P|148:286|196:287,1,95.9999970703126,0|0,1:0|0:0,0:1:0:0:
273,115,241374,1,0,3:0:0:0:
343,382,241527,1,10,3:1:0:0:
134,150,241680,1,0,3:0:0:0:
439,85,241833,5,2,1:1:0:0:
368,180,241986,1,2,3:0:0:0:
485,193,242139,1,10,3:1:0:0:
439,85,242292,2,0,P|373:78|322:80,1,95.9999970703126,2|0,1:3|0:0,0:1:0:0:
196,287,242598,1,2,3:0:0:0:
368,180,242751,1,8,3:2:0:0:
189,84,242904,1,2,3:0:0:0:
193,330,243057,5,4,1:2:0:0:
109,145,243210,1,0,3:0:0:0:
274,177,243364,5,4,1:2:0:0:
261,9,243517,1,0,3:0:0:0:
391,308,243670,5,4,1:2:0:0:
433,109,243823,1,0,3:0:0:0:
438,80,243899,1,0,3:0:0:0:
444,51,243976,5,4,1:2:0:0:
109,145,244129,1,0,3:0:0:0:
391,308,244282,1,4,1:2:0:0:
261,9,244435,1,0,3:0:0:0:
207,2,244511,1,0,3:0:0:0:
158,25,244588,1,4,1:2:0:0:
196,309,244741,5,0,1:0:0:0:
252,318,244817,1,0,1:0:0:0:
306,297,244894,1,4,1:2:0:0:
326,242,244971,1,0,1:0:0:0:
298,192,245047,1,0,1:0:0:0:
241,180,245124,1,0,1:0:0:0:
186,198,245200,1,4,1:2:0:0:
128,198,245277,1,0,1:0:0:0:
82,163,245353,1,0,1:0:0:0:
63,107,245430,1,0,1:0:0:0:
69,50,245506,6,0,L|75:-3,1,30.0000011444092,0|0,1:0|0:0,0:0:0:0:
168,8,245659,2,0,L|164:37,1,30.0000011444092,0|0,1:0|0:0,0:0:0:0:
0,69,245813,6,2,L|256:97,1,256,12|0,1:0|1:0,0:1:0:0:
462,226,246272,1,0,3:0:0:0:
364,31,246425,1,8,3:2:0:0:
247,219,246578,1,0,3:0:0:0:
247,219,246654,1,0,3:0:0:0:
247,219,246731,5,2,1:0:0:0:
357,163,246884,1,2,3:0:0:0:
350,286,247037,5,8,3:2:0:0:
254,96,247190,1,2,3:0:0:0:
206,240,247343,5,2,1:0:0:0:
402,140,247496,1,2,3:0:0:0:
390,360,247649,5,10,3:1:0:0:
218,20,247802,1,2,3:0:0:0:
119,131,247955,6,2,P|61:124|15:127,1,95.9999970703126,0|0,1:0|0:0,0:1:0:0:
393,252,248261,2,2,P|440:259|488:258,1,95.9999970703126,8|0,3:2|3:0,0:1:0:0:
488,258,248491,1,0,3:0:0:0:
488,258,248568,1,0,1:0:0:0:
254,89,248721,1,0,3:0:0:0:
254,89,248797,1,0,3:0:0:0:
254,89,248874,1,8,3:2:0:0:
225,376,249027,1,0,3:0:0:0:
393,252,249180,6,2,P|401:198|397:153,1,95.9999970703126,0|0,1:0|0:0,0:1:0:0:
172,6,249486,1,8,3:2:0:0:
299,192,249639,1,2,1:0:0:0:
74,208,249792,1,8,3:2:0:0:
493,160,249945,5,0,3:0:0:0:
495,209,250021,1,0,3:0:0:0:
488,258,250098,1,0,1:0:0:0:
239,88,250251,1,2,3:0:0:0:
194,359,250404,6,2,P|101:348|76:219,1,223.999993164063,4|8,1:2|0:0,0:1:0:0:
315,49,250864,2,2,B|386:47|421:79|410:88|436:139|524:135,1,223.999993164063,4|0,1:2|0:0,0:1:0:0:
512,135,251323,1,8,3:2:0:0:
159,266,251476,6,2,P|169:204|155:139,1,111.999996582031,4|0,1:2|0:0,0:1:0:0:
35,142,251782,1,0,3:0:0:0:
309,241,251935,1,8,3:2:0:0:
35,142,252088,1,2,3:1:0:0:
396,172,252241,1,0,1:0:0:0:
412,217,252318,1,0,3:0:0:0:
412,266,252394,1,0,3:0:0:0:
396,313,252471,1,0,3:0:0:0:
364,351,252547,1,8,3:2:0:0:
309,241,252700,1,0,3:0:0:0:
479,125,252853,6,0,P|488:77|486:40,1,80,2|0,1:2|0:0,0:0:0:0:
333,29,253159,1,2,1:2:0:0:
333,29,253313,2,0,P|370:60|403:77,1,80,2|0,1:2|0:0,0:0:0:0:
296,128,253619,2,0,P|258:159|225:176,1,80,2|0,1:2|0:0,0:0:0:0:
132,179,253925,5,2,3:2:0:0:
116,175,254001,1,0,3:0:0:0:
100,171,254078,1,0,1:0:0:0:
55,83,254231,1,2,1:3:0:0:
108,1,254384,1,2,1:2:0:0:
152,87,254537,2,0,P|199:86|248:71,1,80,2|0,1:3|0:0,0:0:0:0:
108,1,254843,1,0,1:0:0:0:
100,171,254996,2,0,P|98:208|92:254,1,80,2|0,1:2|0:0,0:0:0:0:
101,354,255302,6,0,P|50:347|25:328,1,80,2|0,1:2|0:0,0:0:0:0:
199,231,255608,1,2,1:2:0:0:
199,231,255761,2,0,P|250:238|275:257,1,80,2|0,1:2|0:0,0:0:0:0:
366,384,256068,2,0,P|346:336|350:304,1,80,2|0,1:2|0:0,0:0:0:0:
400,177,256374,5,2,3:2:0:0:
403,153,256450,1,0,3:0:0:0:
406,129,256527,1,0,1:0:0:0:
329,55,256680,1,2,1:3:0:0:
512,174,256833,1,2,1:2:0:0:
317,272,256986,1,2,1:3:0:0:
410,378,257139,1,2,1:2:0:0:
412,358,257215,1,0,3:0:0:0:
414,338,257292,1,0,3:0:0:0:
416,318,257368,1,0,3:0:0:0:
417,298,257445,2,0,P|452:292|522:293,1,80,0|0,1:0|0:0,0:0:0:0:
256,192,257751,6,2,L|64:176,1,191.999994140625,12|8,1:2|0:0,0:1:0:0:
323,79,258210,5,0,3:0:0:0:
327,110,258287,1,0,3:0:0:0:
316,141,258364,1,2,1:3:0:0:
126,238,258516,1,0,3:0:0:0:
143,209,258593,1,0,3:0:0:0:
172,188,258670,1,2,1:3:0:0:
397,224,258822,1,0,3:0:0:0:
363,239,258899,1,0,3:0:0:0:
325,238,258976,1,2,1:3:0:0:
148,62,259129,1,0,3:0:0:0:
189,71,259206,1,0,3:0:0:0:
222,98,259282,1,2,1:3:0:0:
265,357,259435,1,0,3:0:0:0:
236,324,259512,1,0,3:0:0:0:
224,282,259588,1,2,1:3:0:0:
350,32,259741,1,0,3:0:0:0:
355,79,259818,1,0,3:0:0:0:
341,124,259894,1,2,1:3:0:0:
19,275,260047,5,0,3:0:0:0:
45,227,260124,1,0,3:0:0:0:
90,196,260200,1,2,1:3:0:0:
142,194,260277,1,0,3:0:0:0:
193,218,260353,1,0,3:0:0:0:
224,263,260430,1,0,3:0:0:0:
238,315,260506,1,2,1:3:0:0:
276,354,260583,1,0,3:0:0:0:
330,368,260659,1,0,3:0:0:0:
385,355,260736,1,0,3:0:0:0:
425,315,260813,1,2,1:3:0:0:
434,259,260889,1,0,3:0:0:0:
409,210,260966,1,0,3:0:0:0:
365,177,261042,1,0,3:0:0:0:
346,122,261119,1,2,1:3:0:0:
363,68,261195,1,0,3:0:0:0:
406,35,261272,1,0,3:0:0:0:
459,40,261348,1,0,3:0:0:0:
505,78,261425,5,2,1:0:0:0:
510,140,261501,1,0,1:0:0:0:
464,184,261578,1,0,1:0:0:0:
400,188,261654,1,0,1:0:0:0:
348,147,261731,1,2,1:0:0:0:
286,128,261807,1,0,1:0:0:0:
226,142,261884,1,0,1:0:0:0:
182,192,261960,1,0,1:0:0:0:
172,253,262037,1,2,1:0:0:0:
195,311,262114,1,0,1:0:0:0:
249,345,262189,1,0,1:0:0:0:
311,349,262267,1,0,1:0:0:0:
365,317,262343,2,0,P|368:288|367:245,3,47.9999985351563,2|0|0|0,1:0|3:0|3:0|3:0,0:0:0:0:
283,238,262649,6,2,P|187:237|20:266,1,240.000009155274,4|0,1:2|1:0,0:1:0:0:
298,69,263107,1,0,1:2:0:0:
370,384,263261,1,0,1:0:0:0:
127,171,263415,1,0,1:0:0:0:
448,198,263568,1,0,1:2:0:0:
172,364,263721,1,8,3:2:0:0:
120,279,266323,6,0,P|175:274|304:272,1,160,2|0,1:2|0:0,0:0:0:0:
272,161,266782,2,0,P|184:167|96:168,1,160,2|0,1:2|0:0,0:0:0:0:
39,232,267241,1,2,1:2:0:0:
195,233,267394,6,0,P|195:145|202:57,1,160,2|0,1:2|0:0,0:0:0:0:
300,198,267853,2,0,P|300:154|303:110,1,80,0|0,1:2|0:0,0:0:0:0:
386,261,268159,2,2,P|423:283|460:308,1,80,0|0,1:2|0:0,0:1:0:0:
288,303,268466,2,2,P|249:324|210:343,1,80,2|0,1:2|0:0,0:1:0:0:
386,180,268772,5,2,1:2:0:0:
456,153,268925,1,2,3:0:0:0:
488,84,269078,1,2,1:2:0:0:
461,18,269231,2,0,P|381:12|301:12,1,160,2|0,3:0|0:0,0:0:0:0:
380,200,269690,1,2,1:2:0:0:
416,112,269843,6,0,P|376:109|336:109,1,80,2|0,1:2|0:0,0:0:0:0:
344,288,270149,2,0,P|383:290|423:290,1,80,2|0,1:2|0:0,0:0:0:0:
253,354,270455,1,2,1:2:0:0:
187,179,270608,6,2,P|184:218|184:258,1,80,0|0,1:0|0:0,0:1:0:0:
0,248,270915,2,2,P|2:208|2:168,1,80,0|0,1:0|0:0,0:1:0:0:
113,36,271221,5,2,1:2:0:0:
95,159,271374,1,2,3:0:0:0:
113,36,271527,1,2,1:2:0:0:
95,159,271680,2,0,P|156:155|226:76,1,160,2|0,3:0|0:0,0:0:0:0:
372,211,272139,1,2,1:2:0:0:
285,178,272292,6,0,P|284:238|304:281,1,80,2|0,1:2|0:0,0:0:0:0:
459,244,272598,2,0,P|460:184|440:141,1,80,2|0,1:2|0:0,0:0:0:0:
290,256,272904,1,2,1:2:0:0:
366,116,273057,5,2,1:2:0:0:
279,77,273210,1,2,3:0:0:0:
130,226,273364,5,2,1:2:0:0:
216,188,273517,1,2,3:0:0:0:
377,307,273670,6,0,P|385:244|376:198,2,80,2|2|2,1:2|0:3|0:3,0:0:0:0:
296,356,274129,2,0,P|219:334|139:335,1,160,2|0,1:2|0:0,0:0:0:0:
57,360,274588,1,2,1:2:0:0:
240,238,274741,6,0,L|249:149,1,80,10|0,1:2|0:0,0:0:0:0:
146,193,275047,1,0,3:0:0:0:
345,146,275200,1,0,1:0:0:0:
221,34,275353,1,0,3:0:0:0:
218,53,275430,1,0,3:0:0:0:
215,72,275506,1,0,1:0:0:0:
342,0,275659,1,0,3:0:0:0:
350,285,275813,1,8,1:2:0:0:
350,285,276119,5,2,1:0:0:0:
412,212,276272,1,0,3:0:0:0:
444,302,276425,1,8,3:2:0:0:
318,195,276578,2,2,P|313:136|318:88,1,88.000002685547,0|0,1:0|0:0,0:1:0:0:
382,375,276884,1,0,3:0:0:0:
194,340,277037,1,8,3:2:0:0:
297,305,277190,5,2,1:0:0:0:
215,233,277343,1,0,3:0:0:0:
194,340,277496,1,0,3:0:0:0:
318,195,277649,2,0,P|319:151|314:107,1,88.000002685547,8|0,3:2|3:0,0:0:0:0:
147,108,277955,2,2,P|184:131|224:149,1,88.000002685547,0|0,1:0|0:0,0:1:0:0:
307,3,278261,2,2,P|268:23|232:49,1,88.000002685547,8|0,0:0|0:0,0:1:0:0:
135,218,278568,5,2,1:0:0:0:
38,50,278721,1,0,3:0:0:0:
232,49,278874,1,8,3:2:0:0:
258,174,279027,1,2,3:1:0:0:
258,174,279103,1,0,3:0:0:0:
258,174,279180,1,0,1:0:0:0:
136,134,279333,1,0,3:0:0:0:
232,49,279486,1,8,3:2:0:0:
376,250,279639,6,0,P|419:255|463:257,1,88.000002685547,2|0,1:0|3:0,0:0:0:0:
136,134,279945,2,2,P|83:128|42:126,1,88.000002685547,0|8,3:0|3:2,0:1:0:0:
209,286,280251,1,0,3:0:0:0:
209,286,280328,1,0,3:0:0:0:
209,286,280404,2,2,P|203:330|201:374,1,88.000002685547,0|0,1:1|0:1,0:1:0:0:
302,96,280710,2,2,P|307:45|309:6,1,88.000002685547,8|0,0:0|0:0,0:1:0:0:
481,334,281017,5,4,1:2:0:0:
427,105,281170,1,0,3:0:0:0:
324,355,281323,5,4,1:2:0:0:
368,169,281476,1,0,3:0:0:0:
177,295,281629,5,4,1:2:0:0:
284,195,281782,1,0,3:0:0:0:
79,170,281935,5,4,1:2:0:0:
159,87,282088,2,2,L|180:340,1,207.999990478516,4|0,1:2|0:0,0:1:0:0:
318,0,282547,2,0,L|307:126,1,103.999995239258,8|0,3:2|0:0,0:0:0:0:
58,234,282853,2,0,L|173:180,1,103.999995239258,4|0,1:2|0:0,0:0:0:0:
391,341,283159,2,0,L|287:269,1,103.999995239258,4|0,1:2|0:0,0:0:0:0:
132,384,283466,5,4,1:2:0:0:
420,251,283619,1,0,3:0:0:0:
232,368,283772,5,4,1:2:0:0:
355,179,283925,1,0,3:0:0:0:
310,304,284078,5,4,1:2:0:0:
262,149,284231,1,0,3:0:0:0:
200,257,284384,1,4,1:2:0:0:
200,257,284537,1,0,3:0:0:0:
355,179,284690,6,2,P|363:138|365:82,1,95.9999970703126,8|0,1:2|0:0,0:1:0:0:
94,209,284996,2,2,P|85:249|83:305,1,95.9999970703126,8|0,3:2|0:0,0:1:0:0:
436,336,285302,2,2,P|395:283|464:253,1,143.999995605469,8|0,1:0|0:0,0:1:0:0:
512,303,285608,2,2,P|425:289|309:283,1,204.000003890991,8|0,1:0|0:0,0:1:0:0:
167,318,285915,5,2,0:0:0:0:
245,331,286068,1,2,0:0:0:0:
309,282,286221,1,2,0:0:0:0:
318,203,286374,1,2,0:0:0:0:
318,203,286833,5,2,0:0:0:0:
327,124,286986,1,2,0:0:0:0:
391,75,287139,1,2,0:0:0:0:
469,88,287292,1,2,0:0:0:0:
222,227,287598,5,2,0:0:0:0:
222,227,287751,2,0,P|222:180|217:153,1,60.0000022888184,2|0,0:0|0:0,0:0:0:0:
422,179,288057,6,0,B|494:216|540:140|540:140|445:51|309:109|309:109|226:161|157:109|165:40|165:40|236:-24|320:28|343:129|204:200|307:327,1,1007.99996923828,6|0,3:2|0:0,0:0:0:0:
