osu file format v14

[General]
AudioFilename: audio.mp3
AudioLeadIn: 0
PreviewTime: 68492
Countdown: 0
SampleSet: Soft
StackLeniency: 0.7
Mode: 0
LetterboxInBreaks: 0
WidescreenStoryboard: 1

[Editor]
Bookmarks: 15304,29997,39793,49589,59385,69181,77829,91222,101018,110813,120608,130404,140200,162241,172037,184282,194078,211221,221017,235710,252853,257751,263721,266323,276119
DistanceSpacing: 1.9
BeatDivisor: 4
GridSize: 16
TimelineZoom: 2.450001

[Metadata]
Title:I
TitleUnicode:I
Artist:ShinRa-Bansho
ArtistUnicode:森羅万象
Creator:Ratarok
Version:Hard
Source:東方地霊殿 ~ Subterranean Animism.
Tags:danissima sanchkk sanch-kk aye1337 228 wenect wenet unranked mapper touhou toho vgm music zun 東方project 11 th11 chireiden extra stage theme Team Shanghai Alice 2hu シンラミュージアム shinra museum kaztora あよ ayo cheluce ラストリモート last remote 古明地こいし Komeiji Koishi eye rock jrock j-rock japanese 例大祭 reitaisai 16 video game videogame
BeatmapID:4465801
BeatmapSetID:2102240

[Difficulty]
HPDrainRate:4
CircleSize:4
OverallDifficulty:6.5
ApproachRate:8
SliderMultiplier:1.2
SliderTickRate:1

[Events]
//Background and Video events
0,0,"bg.jpg",0,0
//Break Periods
2,93871,95370
2,164890,170216
2,184482,190879
2,211221,220267
//Storyboard Layer 0 (Background)
//Storyboard Layer 1 (Fail)
//Storyboard Layer 2 (Pass)
//Storyboard Layer 3 (Foreground)
//Storyboard Layer 4 (Overlay)
//Storyboard Sound Samples

[TimingPoints]
629,306.122448979592,4,2,0,90,1,0
15304,306.122448979592,4,2,0,90,1,0
29997,-125,4,2,0,75,0,0
38416,-100,4,2,0,90,0,0
38875,-100,4,2,0,83,0,0
49589,-133.333333333333,4,2,0,70,0,0
55252,-133.333333333333,4,2,0,90,0,0
55406,-133.333333333333,4,2,0,70,0,0
55559,-133.333333333333,4,2,0,90,0,0
55712,-133.333333333333,4,2,0,70,0,0
56936,-111.111111111111,4,2,0,75,0,0
57242,-111.111111111111,4,2,0,80,0,0
57548,-111.111111111111,4,2,0,85,0,0
57854,-111.111111111111,4,2,0,90,0,0
58161,-111.111111111111,4,2,0,95,0,0
58467,-111.111111111111,4,2,0,85,0,0
59385,-100,4,2,0,85,0,0
60763,-100,4,2,0,90,0,0
60916,-100,4,2,0,85,0,0
63747,-100,4,2,0,90,0,0
63824,-100,4,2,0,85,0,0
67804,-100,4,2,0,90,0,0
69181,-90.9090909090909,4,2,0,90,0,1
86324,-100,4,2,0,90,0,0
88773,-100,4,2,0,90,0,1
89844,-100,4,2,0,90,0,0
91222,-100,4,2,0,80,0,0
96120,-100,4,2,0,90,0,0
101018,-100,4,2,0,85,0,0
107446,315.789473684211,4,2,0,90,1,0
108393,306.122448979592,4,2,0,90,1,0
110813,306.122448979592,4,2,0,83,1,0
118159,-100,4,2,0,90,0,0
118772,-100,4,2,0,83,0,0
118925,-100,4,2,0,90,0,0
120608,-133.333333333333,4,2,0,70,0,0
123210,-133.333333333333,4,2,0,83,0,0
123363,-133.333333333333,4,2,0,70,0,0
126272,-133.333333333333,4,2,0,83,0,0
126425,-133.333333333333,4,2,0,70,0,0
126578,-133.333333333333,4,2,0,83,0,0
126731,-133.333333333333,4,2,0,70,0,0
127343,-133.333333333333,4,2,0,83,0,0
127496,-133.333333333333,4,2,0,70,0,0
127802,-133.333333333333,4,2,0,83,0,0
127955,-111.111111111111,4,2,0,75,0,0
128261,-111.111111111111,4,2,0,80,0,0
128568,-111.111111111111,4,2,0,85,0,0
128874,-111.111111111111,4,2,0,90,0,0
129180,-111.111111111111,4,2,0,95,0,0
129486,-111.111111111111,4,2,0,85,0,0
130404,-100,4,2,0,85,0,0
131782,-100,4,2,0,83,0,0
131935,-100,4,2,0,85,0,0
135302,-100,4,2,0,90,0,0
135455,-100,4,2,0,83,0,0
135608,-100,4,2,0,90,0,0
140200,-83.3333333333333,4,2,0,90,0,1
157343,-100,4,2,0,90,0,0
159792,-100,4,2,0,90,0,1
160864,-100,4,2,0,90,0,0
170813,-133.333333333333,4,2,0,83,0,0
170966,-133.333333333333,4,2,0,90,0,0
172037,-100,4,2,0,90,0,0
180072,-100,4,2,0,83,0,0
180302,-100,4,2,0,90,0,0
180378,-100,4,2,0,83,0,0
180608,-100,4,2,0,90,0,0
181068,-100,4,2,0,83,0,0
181221,-100,4,2,0,90,0,0
181374,-100,4,2,0,83,0,0
181527,-100,4,2,0,90,0,0
184282,-100,4,2,0,80,0,0
191629,-100,4,2,0,90,0,0
193772,-100,4,2,0,83,0,0
194078,-100,4,2,0,85,0,0
196680,-100,4,2,0,83,0,0
196833,-100,4,2,0,85,0,0
198822,-100,4,2,0,90,0,0
200200,-100,4,2,0,83,0,0
200353,-100,4,2,0,90,0,0
207547,-100,4,2,0,83,0,0
207700,-100,4,2,0,90,0,0
221017,-111.111111111111,4,2,0,75,0,0
225915,-111.111111111111,4,2,0,60,0,0
230506,-111.111111111111,4,2,0,83,0,0
230813,-111.111111111111,4,2,0,80,0,0
233261,-100,4,2,0,80,0,0
235710,-83.3333333333333,4,2,0,90,0,1
236170,-83.3333333333333,4,2,0,83,0,1
236323,-83.3333333333333,4,2,0,90,0,1
252853,-100,4,2,0,90,0,0
257751,-100,4,2,0,90,0,1
263721,-100,4,2,0,90,0,0
266323,-100,4,2,0,80,0,0
267547,-100,4,2,0,83,0,0
267700,-100,4,2,0,80,0,0
276119,-100,4,2,0,90,0,0
285915,-133.333333333333,4,2,0,75,0,0
288057,-133.333333333333,4,2,0,60,0,0
288134,-133.333333333333,4,2,0,83,0,0
289588,-133.333333333333,4,2,0,45,0,0
290813,-133.333333333333,4,2,0,30,0,0
292037,-133.333333333333,4,2,0,15,0,0
292649,-133.333333333333,4,2,0,5,0,0

[Colours]
Combo1 : 162,221,210
Combo2 : 166,205,234
Combo3 : 176,223,170
Combo4 : 234,236,159

[HitObjects]
42,238,15304,6,2,P|88:231|166:190,1,120,4|8,1:1|0:0,0:1:0:0:
213,253,15763,2,2,P|234:205|240:127,1,120,0|0,1:0|3:0,0:1:0:0:
315,112,16222,2,0,P|297:68|276:57,1,60,8|0,3:2|3:0,0:0:0:0:
237,3,16528,2,0,P|216:24|210:53,1,60,2|0,1:0|3:0,0:0:0:0:
241,138,16834,1,8,0:0:0:0:
164,130,16987,2,2,P|109:136|37:163,1,120,0|0,1:0|0:0,0:1:0:0:
24,231,17446,2,0,P|29:271|38:299,1,60,8|0,3:2|3:2,0:0:0:0:
122,318,17752,6,0,P|117:278|108:250,1,60,0|0,1:0|1:0,0:0:0:0:
193,283,18059,2,0,P|241:284|317:300,1,120,0|2,1:0|3:2,0:0:0:0:
374,339,18518,1,2,3:2:0:0:
448,347,18671,1,2,1:2:0:0:
505,295,18824,5,6,1:0:0:0:
415,167,19130,1,6,1:0:0:0:
256,201,19436,1,10,3:1:0:0:
256,201,19589,1,10,3:1:0:0:
301,50,19895,1,8,1:0:0:0:
135,153,20201,6,0,P|81:143|20:93,1,120,2|8,1:0|3:2,0:0:0:0:
64,34,20661,2,2,P|118:44|179:94,1,120,0|0,1:0|3:0,0:1:0:0:
214,146,21120,1,8,3:2:0:0:
273,201,21273,2,0,P|306:210|346:209,1,60,2|0,1:0|3:0,0:0:0:0:
392,161,21579,1,0,3:0:0:0:
392,161,21732,2,0,P|421:162|450:170,1,60,8|0,3:2|3:0,0:0:0:0:
413,248,22038,2,2,P|416:292|402:380,1,120,0|8,1:0|0:0,0:1:0:0:
261,278,22650,5,2,1:0:0:0:
261,278,22804,2,0,P|219:276|182:285,1,60,0|8,3:0|3:2,0:0:0:0:
168,206,23110,2,0,P|132:237|129:309,1,120,2|0,3:1|3:0,0:0:0:0:
53,351,23569,1,8,3:2:0:0:
53,351,23722,2,0,P|49:311|36:276,1,60,2|0,1:0|3:0,0:0:0:0:
57,209,24028,1,0,3:0:0:0:
57,209,24181,2,0,P|53:167|61:135,1,60,8|0,3:2|3:0,0:0:0:0:
8,67,24487,2,2,P|45:73|129:68,1,120,0|8,1:1|0:0,0:1:0:0:
250,169,25099,5,0,1:0:0:0:
250,169,25252,2,0,P|285:155|312:150,1,60,0|8,3:0|3:2,0:0:0:0:
388,166,25559,2,0,P|436:166|500:117,1,120,0|0,3:0|0:0,0:0:0:0:
491,47,26018,1,8,3:2:0:0:
413,17,26171,2,2,P|411:60|415:83,1,60,0|0,1:0|0:0,0:1:0:0:
328,55,26477,2,0,P|291:45|198:39,1,120,0|0,3:0|3:0,0:0:0:0:
130,47,26936,2,0,P|143:88|161:105,1,60,2|0,1:0|3:0,0:0:0:0:
222,152,27242,2,2,P|204:175|197:204,1,60,8|0,0:0|0:0,0:1:0:0:
213,297,27548,5,4,1:2:0:0:
213,297,27701,1,0,3:0:0:0:
285,243,27855,2,0,P|338:240|430:255,1,120,4|4,1:2|1:2,0:0:0:0:
466,192,28314,1,0,3:0:0:0:
465,106,28467,1,4,1:2:0:0:
403,51,28620,6,2,P|350:54|258:39,1,120,4|0,1:2|1:0,0:1:0:0:
217,102,29079,2,0,P|239:129|248:158,1,60,8|0,3:2|3:0,0:0:0:0:
214,232,29385,1,0,1:0:0:0:
214,232,29538,1,2,3:0:0:0:
131,206,29691,2,0,P|109:179|100:150,1,60,0|2,1:0|3:0,0:0:0:0:
75,79,29997,6,0,P|110:59|175:37,3,96,6|2|2|2,1:2|3:2|3:2|3:2,0:0:0:0:
273,101,31222,2,0,P|322:112|384:118,1,96,2|0,1:2|3:0,0:0:0:0:
345,235,31834,2,0,P|296:224|234:218,1,96,2|0,1:2|3:2,0:0:0:0:
124,245,32446,6,0,P|121:302|111:350,3,96,2|2|2|2,1:2|3:2|3:2|3:2,0:0:0:0:
44,360,33518,1,0,0:0:0:0:
44,360,33671,2,0,P|36:317|34:295,1,48,2|0,1:0|3:0,0:0:0:0:
94,265,33977,2,0,P|128:262|205:259,1,96,2|2,1:0|3:0,0:0:0:0:
312,350,34589,2,0,P|317:314|315:289,1,48,2|0,1:0|3:0,0:0:0:0:
383,276,34895,6,0,P|374:235|379:174,1,96,6|0,1:2|1:0,0:0:0:0:
304,169,35355,1,0,3:0:0:0:
304,169,35508,2,0,P|305:126|299:106,1,48,2|0,1:2|0:0,0:0:0:0:
363,73,35814,2,0,P|362:30|368:10,1,48,0|0,1:0|3:2,0:0:0:0:
285,45,36120,2,0,P|259:44|171:27,1,96,2|0,1:2|1:0,0:0:0:0:
120,67,36579,1,0,3:0:0:0:
155,136,36732,2,0,P|145:178|136:192,1,48,0|2,1:0|3:0,0:0:0:0:
180,251,37038,1,10,1:0:0:0:
258,239,37191,1,2,3:0:0:0:
258,239,38416,6,2,L|393:253,1,120,4|0,1:0|0:0,0:1:0:0:
454,260,38875,2,0,L|443:189,1,60,8|0,3:2|0:0,0:0:0:0:
368,145,39181,2,0,L|374:182,2,30,10|0|0,1:2|3:0|3:0,0:0:0:0:
423,93,39487,2,0,L|489:106,1,60,10|0,1:2|3:0,0:0:0:0:
460,24,39793,6,2,P|418:15|351:69,1,120,6|8,1:2|3:2,0:1:0:0:
297,109,40252,2,0,P|253:107|219:87,1,60,2|0,1:2|3:0,0:0:0:0:
165,117,40559,2,0,P|136:108|106:109,1,60,2|8,1:2|3:2,0:0:0:0:
69,189,40865,6,0,P|128:185|185:203,1,120,2|0,1:0|3:0,0:0:0:0:
237,262,41324,2,0,L|228:326,1,60,8|0,3:2|0:0,0:0:0:0:
164,364,41630,1,2,1:2:0:0:
313,310,41936,2,0,P|345:310|379:319,1,60,10|0,0:2|3:0,0:0:0:0:
447,329,42242,6,0,P|448:291|469:211,1,120,2|8,1:0|0:0,0:0:0:0:
393,191,42701,2,0,P|392:153|371:73,1,120,2|0,1:2|1:0,0:0:0:0:
302,37,43161,1,10,3:2:0:0:
229,69,43314,2,2,P|188:64|92:26,1,120,6|0,1:2|0:0,0:1:0:0:
42,72,43773,2,0,P|40:108|36:136,1,60,10|0,3:2|0:0,0:0:0:0:
41,210,44079,2,0,P|39:246|35:274,1,60,2|0,1:0|3:0,0:0:0:0:
116,190,44385,2,0,P|118:154|122:126,1,60,10|0,1:0|3:0,0:0:0:0:
205,96,44691,6,2,P|203:132|193:226,1,120,6|8,1:2|3:2,0:1:0:0:
270,224,45150,2,0,P|268:260|264:288,1,60,2|0,1:2|3:0,0:0:0:0:
189,311,45457,2,0,P|187:347|183:375,1,60,2|8,1:2|3:2,0:0:0:0:
259,362,45763,2,0,P|306:354|402:358,1,120,2|0,1:1|3:0,0:0:0:0:
433,302,46222,2,0,P|438:271|434:234,1,60,8|0,3:2|3:0,0:0:0:0:
364,221,46528,1,2,1:0:0:0:
364,221,46681,1,2,3:0:0:0:
364,221,46834,1,10,1:0:0:0:
255,82,47140,5,4,1:2:0:0:
389,130,47446,1,2,3:2:0:0:
470,105,47599,2,2,L|453:235,1,120,4|0,1:2|0:0,0:1:0:0:
398,285,48059,1,10,3:2:0:0:
316,275,48212,6,2,L|184:289,1,120,4|0,1:2|0:0,0:1:0:0:
126,321,48671,2,0,B|118:291|118:291|124:255,1,60,0|0,3:0|3:0,0:0:0:0:
174,205,48977,1,0,1:0:0:0:
204,137,49130,1,2,3:0:0:0:
170,69,49283,1,0,1:0:0:0:
97,64,49436,1,2,3:0:0:0:
43,119,49589,6,0,P|38:161|41:219,1,90.0000034332277,4|0,3:2|0:0,0:0:0:0:
89,262,50048,2,0,P|128:260|188:272,1,90.0000034332277,0|0,3:0|0:0,0:0:0:0:
242,303,50508,1,8,0:0:0:0:
355,248,50814,2,0,P|350:203|357:142,1,90.0000034332277,0|0,3:0|0:0,0:0:0:0:
308,100,51273,2,0,P|270:93|203:93,1,90.0000034332277,0|0,3:0|0:0,0:0:0:0:
146,103,51732,1,8,0:0:0:0:
200,209,52038,6,0,P|197:231|193:253,2,45.0000017166138,0|0|0,3:0|0:0|0:0,0:0:0:0:
263,175,52497,2,0,P|298:163|363:155,1,90.0000034332277,0|0,3:0|0:0,0:0:0:0:
421,159,52957,1,8,0:0:0:0:
395,277,53263,5,2,3:0:0:0:
395,277,53416,2,0,P|398:314|402:328,1,45.0000017166138,2|0,3:0|0:0,0:0:0:0:
346,366,53722,2,0,P|297:354|255:349,1,90.0000034332277,0|0,3:0|0:0,0:0:0:0:
187,342,54181,1,8,0:0:0:0:
89,264,54487,6,0,P|86:228|61:162,1,90.0000034332277,0|0,3:0|0:0,0:0:0:0:
104,113,54946,2,0,P|138:133|207:146,1,90.0000034332277,0|0,3:0|0:0,0:0:0:0:
257,152,55406,2,0,P|271:130|275:104,1,45.0000017166138,8|0,0:0|0:0,0:0:0:0:
291,43,55712,2,0,P|299:14|316:-2,2,45.0000017166138,0|0|0,3:0|0:0|3:0,0:0:0:0:
346,98,56171,2,0,P|388:102|448:121,1,90.0000034332277,0|0,3:0|0:0,0:0:0:0:
497,151,56630,1,8,0:0:0:0:
372,226,56936,6,0,P|373:261|363:292,1,53.9999983520508,2|0,3:0|0:0,0:0:0:0:
306,330,57242,2,0,P|271:331|240:321,1,53.9999983520508,2|0,3:0|0:0,0:0:0:0:
202,264,57548,2,0,P|201:229|211:198,1,53.9999983520508,2|0,3:0|0:0,0:0:0:0:
268,160,57854,2,0,P|303:159|334:169,1,53.9999983520508,2|0,3:0|0:0,0:0:0:0:
398,146,58161,5,2,3:0:0:0:
439,75,58314,1,8,0:0:0:0:
397,8,58467,2,0,P|362:7|329:10,1,53.9999983520508,0|0,1:0|3:0,0:0:0:0:
277,49,58773,2,0,L|273:80,2,26.9999991760254,0|0|0,1:0|3:0|3:0,0:0:0:0:
206,10,59079,2,0,P|171:9|138:12,1,53.9999983520508,0|0,1:0|0:0,0:0:0:0:
99,68,59385,6,0,P|83:99|-7:158,1,120,6|8,1:2|0:0,0:0:0:0:
61,220,59844,1,0,3:0:0:0:
61,220,59997,2,0,P|86:245|96:274,1,60,2|0,1:2|3:0,0:0:0:0:
132,336,60304,1,10,3:2:0:0:
212,332,60457,2,0,P|261:327|333:341,1,120,2|0,3:0|0:0,0:0:0:0:
357,264,60916,2,0,P|392:282|412:315,1,60,8|0,0:0|3:0,0:0:0:0:
462,361,61222,1,2,1:2:0:0:
462,361,61375,1,0,3:0:0:0:
506,294,61528,2,0,P|511:255|506:221,1,60,10|2,3:2|3:0,0:0:0:0:
469,168,61834,6,0,P|419:156|356:100,1,120,2|8,1:2|0:0,0:0:0:0:
321,53,62293,1,0,3:0:0:0:
321,53,62446,2,0,P|282:35|246:27,1,60,2|0,1:2|3:0,0:0:0:0:
194,42,62752,1,10,3:2:0:0:
144,98,62906,2,0,P|91:84|13:82,1,120,2|0,0:3|3:0,0:0:0:0:
0,152,63365,1,10,1:2:0:0:
125,254,63671,6,0,L|121:288,2,30,2|0|0,1:2|0:0|3:0,0:0:0:0:
185,204,63977,2,0,P|221:202|261:194,1,60,10|0,1:2|3:0,0:0:0:0:
317,147,64283,6,0,L|325:82,1,60,4|0,1:2|3:0,0:0:0:0:
413,46,64589,2,0,L|405:105,1,60,4|0,1:2|3:0,0:0:0:0:
453,181,64895,2,0,L|518:173,1,60,4|0,1:2|3:0,0:0:0:0:
477,259,65201,2,0,L|417:266,1,60,4|0,1:2|3:0,0:0:0:0:
349,312,65508,1,4,1:2:0:0:
267,321,65661,1,0,3:0:0:0:
201,267,65814,2,0,P|191:231|187:196,1,60,4|0,1:2|3:0,0:0:0:0:
166,128,66120,1,4,1:2:0:0:
95,85,66273,1,0,3:0:0:0:
16,93,66426,2,0,P|11:137|14:170,1,60,4|0,1:2|3:0,0:0:0:0:
49,225,66732,6,0,P|37:264|35:295,1,60,4|0,1:2|3:0,0:0:0:0:
128,209,67038,2,0,P|160:206|203:212,1,60,4|0,1:2|3:0,0:0:0:0:
263,242,67344,1,2,1:2:0:0:
348,253,67497,1,0,3:0:0:0:
399,188,67650,1,2,1:2:0:0:
383,104,67804,1,12,1:2:0:0:
230,22,68110,1,8,0:0:0:0:
248,100,68264,1,8,0:0:0:0:
177,243,69181,6,2,P|111:243|47:258,2,132.00000402832,4|8|2,1:0|0:0|1:0,0:1:0:0:
255,271,69946,1,0,3:1:0:0:
336,265,70099,2,0,P|365:242|380:204,1,66.0000020141602,8|0,0:0|3:0,0:0:0:0:
299,186,70406,2,2,L|291:37,1,132.00000402832,0|8,1:0|0:0,0:1:0:0:
224,8,70865,1,0,3:0:0:0:
156,58,71018,2,0,P|156:100|162:130,1,66.0000020141602,2|2,1:1|3:0,0:0:0:0:
146,207,71324,2,0,P|112:199|70:201,1,66.0000020141602,10|2,3:1|3:0,0:0:0:0:
38,282,71630,6,0,P|104:282|168:297,1,132.00000402832,2|8,1:0|3:2,0:0:0:0:
351,358,72242,2,0,P|376:334|388:288,1,66.0000020141602,2|0,1:0|3:0,0:0:0:0:
474,289,72548,2,0,P|458:252|463:208,1,66.0000020141602,10|0,3:2|3:0,0:0:0:0:
456,142,72855,1,2,1:0:0:0:
376,113,73008,1,2,3:2:0:0:
290,120,73161,2,0,P|287:170|294:201,1,66.0000020141602,10|0,1:2|3:0,0:0:0:0:
204,234,73467,2,0,P|207:201|203:168,1,66.0000020141602,0|0,1:0|3:0,0:0:0:0:
152,103,73773,1,10,3:2:0:0:
211,37,73926,6,2,P|259:33|356:42,1,132.00000402832,4|0,1:2|3:0,0:1:0:0:
474,127,74538,2,0,P|470:169|493:279,1,132.00000402832,0|0,1:0|3:0,0:0:0:0:
424,318,74997,2,0,P|391:300|353:291,1,66.0000020141602,8|0,3:2|3:0,0:0:0:0:
282,317,75304,5,2,1:0:0:0:
203,343,75457,1,2,3:0:0:0:
120,338,75610,1,8,3:2:0:0:
58,281,75763,2,0,P|42:247|37:217,1,66.0000020141602,0|0,1:0|3:2,0:0:0:0:
119,196,76069,2,2,P|135:230|140:260,2,66.0000020141602,0|8|0,1:0|0:0|3:0,0:1:0:0:
53,131,76528,6,0,P|89:117|148:36,1,132.00000402832,4|4,1:2|1:2,0:0:0:0:
321,96,77140,2,0,P|328:143|322:178,1,66.0000020141602,4|0,1:2|3:0,0:0:0:0:
415,187,77446,2,0,P|386:225|357:245,1,66.0000020141602,4|0,1:2|3:0,0:0:0:0:
287,240,77752,1,4,1:2:0:0:
201,221,77906,1,0,3:0:0:0:
126,267,78059,2,0,P|85:263|35:176,1,132.00000402832,4|0,1:2|1:0,0:0:0:0:
35,105,78518,2,0,P|11:100|-10:96,2,33.0000010070801,0|0|10,1:0|1:0|1:1,0:0:0:0:
111,155,78824,1,0,1:0:0:0:
176,97,78977,6,0,P|213:91|335:92,2,132.00000402832,6|8|2,1:1|0:0|1:0,0:0:0:0:
111,155,79742,1,2,3:0:0:0:
103,240,79895,2,0,P|104:280|116:313,1,66.0000020141602,10|2,3:1|3:0,0:0:0:0:
197,331,80201,2,0,P|196:291|184:258,1,66.0000020141602,2|0,1:0|3:0,0:0:0:0:
279,289,80508,2,0,P|337:293|425:319,1,132.00000402832,10|0,3:2|1:0,0:0:0:0:
481,266,80967,1,0,3:0:0:0:
503,180,81120,1,8,3:2:0:0:
380,63,81426,6,2,P|374:113|354:199,1,132.00000402832,4|8,1:2|0:0,0:1:0:0:
275,222,81885,1,0,3:0:0:0:
214,162,82038,2,0,P|221:129|226:97,1,66.0000020141602,2|0,1:0|3:0,0:0:0:0:
172,32,82344,1,8,3:2:0:0:
90,18,82497,1,0,3:0:0:0:
24,74,82650,6,0,P|18:124|-2:210,1,132.00000402832,2|10,1:0|3:1,0:0:0:0:
163,318,83263,2,0,P|209:312|250:310,1,66.0000020141602,2|0,1:0|3:0,0:0:0:0:
316,302,83569,2,0,L|311:345,2,33.0000010070801,0|0|0,1:0|3:0|3:0,0:0:0:0:
392,250,83875,6,2,P|446:247|513:193,1,132.00000402832,6|0,1:2|0:0,0:1:0:0:
419,159,84334,2,2,P|402:120|408:10,1,132.00000402832,6|0,1:2|0:0,0:1:0:0:
324,7,84793,1,8,3:2:0:0:
246,62,84946,2,0,P|212:56|106:56,2,132.00000402832,6|0|0,1:2|3:0|3:0,0:0:0:0:
305,135,85712,2,0,P|332:140|351:141,2,33.0000010070801,2|0|0,1:1|3:0|3:0,0:0:0:0:
216,161,86018,1,8,3:2:0:0:
156,230,86171,1,0,3:0:0:0:
129,317,86324,5,2,1:2:0:0:
277,291,86630,1,0,1:0:0:0:
277,291,86783,1,2,1:2:0:0:
413,337,87089,1,2,1:2:0:0:
509,215,87395,2,0,P|461:196|380:187,1,120,2|2,1:2|1:3,0:0:0:0:
315,172,87855,1,2,1:2:0:0:
315,172,88008,1,2,1:3:0:0:
203,56,88314,1,2,1:3:0:0:
203,56,88467,2,0,P|206:112|213:136,1,60,2|0,1:0|0:0,0:0:0:0:
131,177,88773,6,2,P|181:191|244:214,1,120,6|0,1:2|1:0,0:1:0:0:
310,260,89232,1,0,1:0:0:0:
363,314,89385,1,0,1:0:0:0:
324,384,89538,1,0,1:0:0:0:
246,368,89691,1,0,1:0:0:0:
235,291,89844,1,8,3:2:0:0:
256,192,91222,12,4,93671,1:2:0:0:
117,149,96120,6,0,L|246:131,1,120,2|10,1:0|3:2,0:0:0:0:
312,124,96579,2,2,L|294:253,1,120,0|0,1:0|3:0,0:1:0:0:
334,314,97038,1,8,3:2:0:0:
410,333,97191,2,0,L|421:249,1,60,2|0,1:0|3:0,0:0:0:0:
474,218,97497,1,0,3:0:0:0:
474,218,97650,2,0,L|462:134,1,60,8|0,3:2|3:0,0:0:0:0:
447,82,97957,1,0,1:0:0:0:
294,26,98263,2,2,L|219:35,1,60,8|0,3:2|0:0,0:1:0:0:
176,97,98569,5,4,1:2:0:0:
176,97,98722,1,0,3:0:0:0:
216,169,98875,2,0,P|211:206|214:294,1,120,4|4,1:2|1:2,0:0:0:0:
146,345,99334,1,0,3:0:0:0:
62,345,99487,1,4,1:2:0:0:
2,279,99640,2,2,P|7:242|4:154,1,120,4|0,1:2|0:0,0:1:0:0:
88,141,100099,2,0,P|70:103|44:83,1,60,10|0,3:2|3:0,0:0:0:0:
144,68,100406,2,0,P|162:30|188:10,1,60,0|2,1:0|3:0,0:0:0:0:
228,88,100712,2,0,L|217:159,1,60,0|2,3:0|3:0,0:0:0:0:
261,222,101018,5,4,1:2:0:0:
429,214,101324,1,2,0:2:0:0:
429,214,101477,1,8,0:2:0:0:
341,84,101783,1,8,0:2:0:0:
261,222,102089,2,0,P|185:239|147:263,1,120,6|0,1:2|0:2,0:0:0:0:
73,241,102548,2,0,P|61:208|57:167,1,60,8|2,0:3|0:0,0:0:0:0:
82,111,102855,1,2,1:2:0:0:
154,96,103008,1,2,3:0:0:0:
223,61,103161,2,0,P|227:28|226:-10,1,60,2|2,0:2|0:0,0:0:0:0:
288,110,103467,6,0,P|333:119|420:160,1,120,4|2,1:2|0:2,0:0:0:0:
427,219,103926,1,8,0:2:0:0:
400,62,104232,2,0,P|370:48|341:42,1,60,12|2,0:2|0:2,0:0:0:0:
288,110,104538,2,0,P|247:111|169:140,1,120,6|2,1:2|0:0,0:0:0:0:
112,186,104997,1,2,1:2:0:0:
210,38,105304,1,10,1:2:0:0:
257,207,105610,1,2,1:2:0:0:
257,207,105763,1,2,3:0:0:0:
257,207,105916,6,0,P|312:216|389:247,1,120,4|2,1:2|0:2,0:0:0:0:
418,302,106375,2,0,P|416:339|401:370,1,60,8|2,0:2|0:2,0:0:0:0:
328,368,106681,2,0,P|330:330|345:300,1,60,12|2,0:2|0:2,0:0:0:0:
246,323,106987,2,0,P|197:320|100:330,1,120,12|0,0:2|0:2,0:0:0:0:
256,192,107446,12,2,108393,1:2:0:0:
127,138,110813,6,2,P|158:138|245:101,1,120,6|8,1:2|3:2,0:1:0:0:
327,104,111272,2,0,P|310:139|313:169,1,60,2|0,1:2|3:0,0:0:0:0:
249,203,111578,2,0,P|253:232|266:259,1,60,2|8,1:2|3:2,0:0:0:0:
338,292,111884,2,0,L|469:279,1,120,2|0,1:0|3:0,0:0:0:0:
490,207,112343,1,10,3:2:0:0:
375,87,112649,2,0,L|371:43,2,30,2|0|0,1:2|3:0|3:0,0:0:0:0:
314,141,112955,2,0,P|277:136|236:119,1,60,10|0,0:2|3:0,0:0:0:0:
369,206,113261,6,0,P|361:267|328:338,1,120,2|8,1:0|0:0,0:0:0:0:
266,350,113721,2,0,P|226:348|186:333,1,60,2|0,1:2|3:0,0:0:0:0:
158,283,114027,1,2,1:2:0:0:
158,283,114180,1,10,3:2:0:0:
158,283,114333,2,2,P|106:286|32:326,1,120,6|0,1:2|0:0,0:1:0:0:
57,223,114792,2,0,P|69:192|74:157,1,60,10|0,3:2|3:0,0:0:0:0:
149,201,115098,2,0,P|194:204|230:222,1,60,2|0,1:0|3:0,0:0:0:0:
184,124,115404,2,0,P|178:85|179:46,1,60,10|0,1:0|3:0,0:0:0:0:
232,10,115710,5,6,1:2:0:0:
364,140,116017,1,10,3:2:0:0:
436,103,116170,2,0,P|469:100|512:110,1,60,2|0,1:2|3:0,0:0:0:0:
373,62,116476,2,0,P|363:27|362:-4,1,60,2|8,1:2|3:2,0:0:0:0:
295,82,116782,2,0,P|252:80|163:59,1,120,2|0,1:1|3:0,0:0:0:0:
109,20,117241,1,10,3:2:0:0:
35,36,117394,1,2,3:0:0:0:
4,109,117547,2,0,P|3:152|6:180,2,60,2|2|8,1:0|3:0|0:0,0:0:0:0:
80,137,118006,1,0,3:0:0:0:
113,213,118159,6,0,P|150:214|190:209,2,60,6|0|8,1:2|3:0|3:2,0:0:0:0:
65,278,118619,2,2,P|61:320|64:359,1,60,4|0,3:2|0:0,0:1:0:0:
141,321,118925,2,0,P|183:317|222:320,1,60,0|8,1:0|0:0,0:0:0:0:
276,362,119231,1,4,3:2:0:0:
505,273,119690,2,0,B|515:149|390:189|418:41,1,240,8|0,1:0|1:0,0:0:0:0:
415,64,120608,6,0,P|366:55|316:52,1,90.0000034332277,2|0,3:2|0:0,0:0:0:0:
259,77,121068,2,0,P|214:73|169:65,1,90.0000034332277,0|0,3:0|0:0,0:0:0:0:
102,42,121527,1,8,0:0:0:0:
42,149,121833,2,0,P|46:181|46:249,1,90.0000034332277,2|0,3:0|0:0,0:0:0:0:
108,277,122292,2,0,P|128:266|207:252,1,90.0000034332277,2|0,3:0|0:0,0:0:0:0:
265,256,122751,1,8,0:0:0:0:
368,328,123057,6,0,L|365:372,2,45.0000017166138,2|0|0,3:2|0:0|0:0,0:0:0:0:
425,281,123517,2,0,L|431:180,1,90.0000034332277,0|0,3:0|3:0,0:0:0:0:
439,117,123976,1,8,0:0:0:0:
316,184,124282,5,2,3:0:0:0:
316,184,124435,2,0,P|282:181|263:175,1,45.0000017166138,2|0,3:0|0:0,0:0:0:0:
207,213,124741,2,0,P|168:196|130:160,1,90.0000034332277,2|0,3:0|0:0,0:0:0:0:
127,93,125200,1,8,0:0:0:0:
38,214,125506,6,0,P|36:245|39:276,1,45.0000017166138,2|0,3:0|0:0,0:0:0:0:
92,306,125813,2,0,P|117:306|156:311,1,45.0000017166138,2|0,3:2|0:0,0:0:0:0:
209,325,126119,2,0,P|245:330|267:327,2,45.0000017166138,2|0|8,3:0|0:0|0:0,0:0:0:0:
188,254,126578,1,0,0:0:0:0:
188,254,126731,1,2,3:0:0:0:
316,212,127037,1,2,3:0:0:0:
316,212,127190,2,0,P|322:183|323:150,1,45.0000017166138,2|0,3:0|0:0,0:0:0:0:
383,128,127496,2,0,P|382:96|394:27,1,90.0000034332277,2|0,3:0|0:0,0:0:0:0:
309,61,127955,6,0,P|280:59|251:53,1,53.9999983520508,2|0,3:0|0:0,0:0:0:0:
194,100,128261,2,0,P|165:98|136:92,1,53.9999983520508,2|0,3:0|0:0,0:0:0:0:
87,176,128568,2,0,P|116:174|145:168,1,53.9999983520508,2|0,3:0|0:0,0:0:0:0:
202,215,128874,2,0,P|231:213|260:207,1,53.9999983520508,2|0,3:0|0:0,0:0:0:0:
318,165,129180,5,10,3:2:0:0:
285,335,129486,1,0,1:0:0:0:
364,358,129639,2,0,L|369:399,2,26.9999991760254,2|2|0,3:0|3:0|3:0,0:0:0:0:
444,349,129945,2,0,L|449:390,2,26.9999991760254,2|2|8,3:0|3:0|3:2,0:0:0:0:
468,217,130404,6,0,P|463:184|494:83,1,120,6|8,1:2|0:0,0:0:0:0:
391,113,130864,1,0,3:0:0:0:
391,113,131017,2,0,P|391:78|381:38,1,60,2|0,1:2|3:0,0:0:0:0:
312,21,131323,1,10,3:2:0:0:
236,56,131476,2,0,P|189:52|96:52,1,120,2|0,3:0|0:0,0:0:0:0:
153,129,131935,2,0,P|152:164|138:204,1,60,8|0,0:0|3:0,0:0:0:0:
226,216,132241,2,0,P|205:244|164:270,1,60,2|0,1:2|3:0,0:0:0:0:
108,271,132547,1,10,3:2:0:0:
45,222,132700,1,2,3:0:0:0:
34,143,132853,6,0,P|65:135|181:131,1,120,2|8,1:2|0:0,0:0:0:0:
229,138,133313,1,0,3:0:0:0:
302,103,133466,2,0,P|314:64|313:24,1,60,2|0,1:2|3:0,0:0:0:0:
403,42,133772,1,10,3:2:0:0:
403,42,133925,2,0,P|403:101|369:168,1,120,2|0,0:3|3:0,0:0:0:0:
461,205,134384,2,0,P|436:227|400:240,1,60,10|0,1:2|3:0,0:0:0:0:
334,227,134690,1,0,1:0:0:0:
269,287,134843,2,0,L|272:332,2,30,0|0|8,3:0|3:0|1:2,0:0:0:0:
90,215,135302,6,2,L|82:141,1,60,6|0,1:2|0:0,0:1:0:0:
150,61,135608,2,0,L|155:121,1,60,8|0,0:0|3:0,0:0:0:0:
242,200,135915,2,0,L|234:126,1,60,0|0,1:0|3:0,0:0:0:0:
305,45,136221,2,0,L|310:105,1,60,0|0,1:0|3:0,0:0:0:0:
384,178,136527,5,10,0:1:0:0:
384,178,136680,1,0,3:0:0:0:
384,178,136833,2,0,P|418:171|462:171,1,60,10|0,0:1|3:0,0:0:0:0:
512,261,137139,1,10,0:1:0:0:
512,261,137292,1,0,3:0:0:0:
512,261,137445,2,0,P|478:268|434:268,1,60,10|0,0:1|3:0,0:0:0:0:
354,298,137751,6,0,L|349:338,2,30,10|0|0,0:1|3:0|3:0,0:0:0:0:
265,252,138057,2,0,L|268:222,2,30,2|0|0,1:0|3:0|3:0,0:0:0:0:
179,300,138364,1,0,1:0:0:0:
102,270,138517,1,0,1:0:0:0:
75,190,138670,1,8,1:0:0:0:
107,109,138823,1,12,1:0:0:0:
266,55,139129,1,8,0:0:0:0:
331,115,139282,2,0,P|371:108|411:111,1,60,8|0,0:0|0:0,0:0:0:0:
472,66,139588,2,0,L|459:206,1,120,0|0,1:0|1:0,0:0:0:0:
320,211,140200,6,2,B|274:211|241:231|259:241|226:266|168:271,2,143.999995605469,4|8|2,1:0|0:0|1:0,0:1:0:0:
393,254,140966,1,0,3:1:0:0:
475,222,141119,2,0,P|494:192|495:153,1,71.9999978027344,8|0,3:2|3:0,0:0:0:0:
428,91,141425,2,0,P|409:120|408:160,1,71.9999978027344,0|2,1:0|3:0,0:0:0:0:
331,99,141731,2,0,P|291:93|175:95,1,143.999995605469,8|2,0:0|1:1,0:0:0:0:
101,115,142190,1,2,3:0:0:0:
24,69,142343,2,0,P|11:31|14:-13,1,71.9999978027344,10|2,3:1|3:0,0:0:0:0:
101,115,142649,6,0,P|114:153|111:197,1,71.9999978027344,2|0,1:0|3:0,0:0:0:0:
34,224,142955,2,0,P|99:219|178:264,1,143.999995605469,8|2,3:2|1:0,0:0:0:0:
215,327,143415,1,0,3:0:0:0:
302,356,143568,2,0,P|342:367|391:365,1,71.9999978027344,10|0,3:2|3:0,0:0:0:0:
438,314,143874,5,2,1:0:0:0:
460,230,144027,1,2,3:0:0:0:
412,155,144180,2,0,P|375:144|330:143,1,71.9999978027344,10|2,3:2|3:0,0:0:0:0:
264,171,144486,1,0,1:0:0:0:
181,153,144639,1,0,3:0:0:0:
140,77,144792,1,10,3:2:0:0:
181,6,144945,6,2,P|252:10|328:40,1,143.999995605469,4|0,1:2|3:0,0:1:0:0:
479,25,145557,2,0,P|484:73|525:187,1,143.999995605469,2|0,1:0|3:0,0:0:0:0:
488,246,146017,2,0,P|438:232|399:230,1,71.9999978027344,10|0,1:0|3:0,0:0:0:0:
335,222,146323,5,2,1:0:0:0:
274,164,146476,1,0,3:0:0:0:
191,140,146629,1,8,3:2:0:0:
105,147,146782,2,2,P|90:196|92:225,1,71.9999978027344,0|0,1:0|3:2,0:1:0:0:
168,298,147088,2,0,P|183:249|181:220,2,71.9999978027344,0|8|0,1:0|0:0|0:0,0:0:0:0:
100,351,147547,6,0,L|270:339,1,143.999995605469,4|4,1:2|1:2,0:0:0:0:
405,228,148159,1,4,1:2:0:0:
325,191,148313,1,0,3:0:0:0:
282,110,148466,2,0,P|277:68|287:31,1,71.9999978027344,4|0,1:2|3:0,0:0:0:0:
233,186,148772,2,2,P|188:184|85:204,1,143.999995605469,4|4,1:2|1:2,0:1:0:0:
33,285,149231,1,0,3:0:0:0:
114,360,149384,2,0,P|127:315|125:269,1,71.9999978027344,2|0,1:0|3:0,0:0:0:0:
237,261,149690,2,0,P|224:306|226:352,1,71.9999978027344,10|0,1:1|3:0,0:0:0:0:
320,308,149996,6,0,P|394:299|473:300,1,143.999995605469,6|8,1:1|0:0,0:0:0:0:
334,129,150608,2,0,P|330:178|344:209,1,71.9999978027344,2|2,1:0|3:0,0:0:0:0:
427,190,150915,2,0,P|431:140|417:110,1,71.9999978027344,10|2,3:1|3:0,3:0:0:0:
368,48,151221,5,2,1:0:0:0:
287,25,151374,1,0,3:0:0:0:
205,51,151527,2,0,P|164:53|119:44,1,71.9999978027344,10|0,3:2|3:0,0:0:0:0:
73,124,151833,1,0,1:0:0:0:
73,124,151986,1,0,3:0:0:0:
73,124,152139,2,2,P|106:152|118:204,1,71.9999978027344,8|0,3:2|0:0,0:1:0:0:
65,264,152445,6,2,P|117:254|210:247,1,143.999995605469,4|8,1:2|0:0,0:1:0:0:
288,218,152904,1,0,3:0:0:0:
338,149,153057,2,0,P|345:110|327:63,1,71.9999978027344,2|0,1:0|3:0,0:0:0:0:
258,28,153364,2,0,P|251:67|269:114,1,71.9999978027344,8|0,3:2|3:0,0:0:0:0:
185,147,153670,5,2,1:0:0:0:
185,147,153823,1,2,3:0:0:0:
185,147,153976,2,0,P|138:138|91:137,1,71.9999978027344,10|2,3:1|3:0,0:0:0:0:
39,187,154282,1,2,1:0:0:0:
18,275,154435,2,0,L|23:317,2,35.9999989013672,0|0|0,3:0|3:0|1:0,0:0:0:0:
103,248,154741,1,0,1:0:0:0:
163,324,154894,6,2,P|213:323|324:345,1,143.999995605469,6|8,1:2|0:0,0:1:0:0:
366,245,155353,2,2,P|316:246|205:224,1,143.999995605469,6|0,1:2|0:0,0:1:0:0:
164,167,155813,1,8,3:2:0:0:
161,80,155966,2,0,P|90:65|18:65,2,143.999995605469,6|0|0,1:2|3:0|3:0,0:0:0:0:
240,37,156731,2,0,P|240:6|244:-15,2,35.9999989013672,2|0|0,1:1|3:0|3:0,0:0:0:0:
292,104,157037,1,8,3:2:0:0:
374,126,157190,1,0,3:0:0:0:
461,111,157343,5,2,1:2:0:0:
382,227,157649,1,0,1:0:0:0:
382,227,157802,1,2,1:2:0:0:
243,204,158108,1,2,1:2:0:0:
119,283,158415,2,0,P|124:212|109:161,1,120,2|2,1:2|1:3,0:0:0:0:
64,103,158874,1,2,1:2:0:0:
64,103,159027,1,2,1:3:0:0:
213,44,159333,2,0,L|215:14,2,30,2|0|0,1:3|3:0|3:0,0:0:0:0:
379,165,159792,6,2,P|329:160|238:177,1,120,6|0,1:2|1:0,0:1:0:0:
196,214,160251,1,0,1:0:0:0:
143,268,160404,1,0,1:0:0:0:
182,338,160557,1,0,1:0:0:0:
260,322,160710,1,0,1:0:0:0:
271,245,160863,1,8,3:2:0:0:
256,192,162241,12,0,164690,0:0:0:0:
114,137,170966,6,0,L|109:186,1,45.0000017166138,8|0,3:0|0:0,0:0:0:0:
70,219,171272,2,0,L|178:206,1,90.0000034332277,8|0,3:0|0:0,0:0:0:0:
232,195,171731,1,4,1:2:0:0:
297,324,172037,6,0,P|336:312|425:311,1,120,2|10,1:0|3:2,0:0:0:0:
492,321,172496,2,0,P|500:283|496:253,1,60,2|0,3:1|3:0,0:0:0:0:
440,208,172802,2,0,P|438:175|445:143,1,60,0|8,3:0|3:2,0:0:0:0:
381,98,173108,2,0,P|343:89|259:43,1,120,0|0,3:0|0:0,0:0:0:0:
202,86,173568,1,8,0:0:0:0:
124,74,173721,1,2,3:1:0:0:
52,108,173874,2,0,P|47:143|46:173,2,60,0|2|8,3:0|3:0|3:2,0:0:0:0:
123,146,174333,1,2,3:0:0:0:
144,223,174486,6,0,P|188:215|223:210,1,60,2|2,1:0|3:0,0:0:0:0:
277,207,174792,1,8,3:2:0:0:
338,258,174945,2,0,P|372:249|420:254,1,60,2|0,3:1|3:0,0:0:0:0:
475,252,175251,1,2,3:0:0:0:
509,319,175404,1,8,3:2:0:0:
450,367,175557,6,2,P|390:368|332:384,2,120,4|0|2,3:2|0:0|3:0,0:1:0:0:
401,287,176323,2,0,P|388:240|387:212,1,60,2|2,3:1|3:0,0:0:0:0:
387,154,176629,1,10,3:1:0:0:
333,97,176782,1,2,3:0:0:0:
251,126,176935,6,0,P|206:123|181:128,1,60,2|2,1:1|3:0,0:0:0:0:
215,209,177241,1,10,3:2:0:0:
215,209,177394,2,0,P|202:236|184:260,1,60,2|2,1:0|3:0,0:0:0:0:
130,187,177700,1,2,3:0:0:0:
130,187,177853,2,0,P|112:162|100:135,1,60,0|0,1:2|1:0,0:0:0:0:
152,54,178159,6,0,P|204:42|294:45,1,120,2|10,1:0|3:2,0:0:0:0:
344,89,178619,1,2,1:0:0:0:
367,170,178772,1,2,3:0:0:0:
337,248,178925,1,2,3:0:0:0:
253,270,179078,2,2,P|240:235|241:205,1,60,8|0,0:0|0:0,0:1:0:0:
184,315,179384,6,2,P|127:314|54:339,1,120,4|8,1:2|3:2,0:1:0:0:
6,273,179843,1,0,0:0:0:0:
39,190,179996,2,0,L|43:144,2,30,2|0|0,1:0|0:0|0:0,0:0:0:0:
120,191,180302,2,0,L|122:161,2,30,10|0|0,1:0|0:0|0:0,0:0:0:0:
205,225,180608,6,0,P|249:215|296:140,1,120,2|10,1:0|1:0,0:0:0:0:
208,140,181068,1,0,3:0:0:0:
164,67,181221,2,0,P|159:31|161:-13,1,60,2|0,1:0|0:0,0:0:0:0:
244,33,181527,1,10,1:0:0:0:
333,40,181680,1,0,3:0:0:0:
425,35,181833,5,4,1:2:0:0:
502,203,182139,1,4,1:2:0:0:
313,187,182445,1,4,1:2:0:0:
269,258,182598,1,0,3:0:0:0:
225,329,182751,1,4,1:2:0:0:
139,358,182904,6,0,L|0:371,1,120,4|2,1:2|3:0,0:0:0:0:
60,292,183364,2,0,L|73:228,1,60,8|2,3:2|3:0,0:0:0:0:
113,167,183670,1,0,1:0:0:0:
191,152,183823,1,2,3:0:0:0:
266,180,183976,1,8,3:2:0:0:
300,252,184129,1,2,3:0:0:0:
373,277,184282,1,6,1:2:0:0:
256,192,191629,12,0,193772,1:0:0:0:
116,281,194078,6,0,P|178:264|242:264,1,120,6|8,1:2|0:0,0:0:0:0:
309,286,194537,1,0,3:0:0:0:
309,286,194690,2,0,P|263:240|231:185,1,120,2|10,1:2|3:2,0:0:0:0:
217,117,195149,1,2,3:0:0:0:
217,117,195302,2,0,P|200:179|168:234,2,120,2|8|2,1:2|0:0|1:2,0:0:0:0:
189,43,196067,1,0,3:0:0:0:
117,73,196220,1,10,3:2:0:0:
74,139,196373,6,0,P|44:139|1:131,1,60,2|2,3:0|1:2,0:0:0:0:
131,194,196680,2,0,P|161:194|204:186,1,60,0|8,0:0|0:0,0:0:0:0:
245,248,196986,2,0,P|297:249|367:270,1,120,0|0,3:0|3:0,0:0:0:0:
418,326,197445,1,10,3:2:0:0:
495,309,197598,1,2,0:3:0:0:
512,231,197751,5,4,1:2:0:0:
385,105,198057,2,0,L|376:36,1,60,12|0,1:2|3:0,0:0:0:0:
295,53,198363,2,0,L|302:112,1,60,12|0,1:2|3:0,0:0:0:0:
264,183,198669,1,12,1:2:0:0:
184,188,198822,6,2,L|64:175,1,120,4|0,1:2|0:0,0:1:0:0:
13,105,199282,1,8,3:2:0:0:
84,46,199435,2,0,L|95:125,1,60,0|0,3:0|1:0,0:0:0:0:
143,167,199741,1,0,3:0:0:0:
220,183,199894,1,8,3:2:0:0:
299,157,200047,6,2,L|290:86,1,60,4|0,1:2|0:0,0:1:0:0:
372,35,200353,2,0,L|379:94,1,60,0|8,3:0|3:2,0:0:0:0:
402,174,200659,1,0,1:2:0:0:
453,243,200812,2,0,L|536:236,1,60,10|0,1:0|1:2,0:0:0:0:
484,319,201118,1,10,1:0:0:0:
412,361,201271,6,2,L|277:349,1,120,4|0,1:2|0:0,0:1:0:0:
222,314,201731,1,8,3:2:0:0:
145,335,201884,1,0,3:0:0:0:
70,304,202037,2,0,L|61:241,1,60,0|0,1:0|0:0,0:0:0:0:
74,166,202343,1,8,3:2:0:0:
142,127,202496,6,2,L|130:6,1,120,4|0,1:2|0:0,0:1:0:0:
59,43,202955,1,8,3:2:0:0:
288,58,203261,2,0,L|328:53,2,30,0|0|0,1:0|3:0|3:0,0:0:0:0:
213,68,203567,1,8,3:2:0:0:
347,208,203873,6,0,P|387:189|405:154,1,60,4|0,1:2|3:0,0:0:0:0:
425,271,204180,2,0,L|414:344,1,60,4|0,1:2|3:0,0:0:0:0:
327,294,204486,2,0,P|287:313|269:348,1,60,4|0,1:2|3:0,0:0:0:0:
249,231,204793,2,0,L|260:158,1,60,4|0,1:2|3:0,0:0:0:0:
209,95,205098,1,4,1:2:0:0:
119,78,205251,1,0,3:0:0:0:
60,145,205404,2,0,L|51:204,1,60,4|0,1:2|3:0,0:0:0:0:
100,281,205710,1,4,1:2:0:0:
190,298,205863,1,0,3:0:0:0:
249,231,206016,2,0,L|257:171,1,60,4|0,1:2|3:0,0:0:0:0:
278,316,206322,6,0,L|324:353,1,60,4|0,1:2|3:0,0:0:0:0:
190,298,206629,2,0,L|134:319,1,60,4|0,1:2|3:0,0:0:0:0:
50,309,206935,1,4,1:2:0:0:
11,235,207088,1,0,3:0:0:0:
50,158,207241,1,4,1:2:0:0:
124,112,207394,2,2,P|130:78|129:44,1,60,4|0,1:2|0:0,0:1:0:0:
216,28,207700,1,0,0:0:0:0:
216,28,207853,2,0,P|210:62|211:96,1,60,0|0,3:0|3:0,0:0:0:0:
261,156,208159,1,0,3:0:0:0:
440,105,208465,6,2,L|426:237,1,120,4|0,1:2|0:0,0:1:0:0:
382,289,208924,1,2,3:0:0:0:
382,289,209078,2,0,P|338:293|308:287,1,60,0|0,3:0|3:0,0:0:0:0:
282,362,209384,1,2,3:0:0:0:
282,362,209538,2,0,P|248:333|231:308,1,60,0|0,3:0|3:0,0:0:0:0:
257,241,209843,1,4,1:2:0:0:
100,318,210149,1,0,3:0:0:0:
100,318,210302,1,8,3:2:0:0:
61,104,221017,6,0,P|96:98|180:94,1,107.999996704102,2|0,1:2|0:0,0:0:0:0:
223,141,221476,2,0,P|258:135|342:131,1,107.999996704102,2|0,1:2|0:0,0:0:0:0:
389,178,221935,2,0,P|406:175|448:173,1,53.9999983520508,2|0,1:2|0:0,0:0:0:0:
473,247,222241,2,0,P|419:249|365:257,1,107.999996704102,2|2,1:2|1:2,0:0:0:0:
301,287,222700,1,0,0:0:0:0:
301,287,222853,2,0,P|300:321|305:348,1,53.9999983520508,2|0,1:2|0:0,0:0:0:0:
230,346,223159,2,0,P|202:340|169:337,1,53.9999983520508,2|0,1:2|0:0,0:0:0:0:
105,329,223466,5,2,1:2:0:0:
49,197,223772,1,0,1:0:0:0:
49,197,223925,2,0,L|116:189,1,53.9999983520508,8|0,3:2|1:0,0:0:0:0:
170,228,224231,2,0,B|179:190|179:190|163:120,1,107.999996704102,8|0,3:2|0:0,0:0:0:0:
103,77,224690,2,0,L|91:12,2,53.9999983520508,0|2|0,1:0|3:0|1:0,0:0:0:0:
29,88,225149,2,0,L|17:23,2,53.9999983520508,2|0|2,3:0|1:0|3:0,0:0:0:0:
47,161,225608,1,0,1:0:0:0:
47,161,225761,1,2,3:0:0:0:
256,192,225915,12,0,230506,0:0:0:0:
315,267,230813,6,0,P|303:230|297:162,1,107.999996704102,2|2,1:2|1:2,0:0:0:0:
223,173,231272,2,0,P|186:172|157:168,1,53.9999983520508,0|0,0:0|1:0,0:0:0:0:
115,222,231578,2,0,B|77:217|60:234|49:254|9:251,1,107.999996704102,2|0,3:0|0:0,0:0:0:0:
13,177,232037,2,0,P|20:135|16:62,1,107.999996704102,2|0,1:2|1:0,0:0:0:0:
177,37,232649,2,0,P|210:32|237:37,1,53.9999983520508,2|0,1:2|0:0,0:0:0:0:
280,87,232955,2,0,P|306:89|333:84,1,53.9999983520508,0|2,1:0|3:0,0:0:0:0:
385,31,233261,6,2,L|373:159,1,120,4|0,1:2|0:0,0:1:0:0:
333,215,233721,1,0,3:0:0:0:
252,225,233874,2,0,P|219:222|181:208,1,60,0|0,1:0|3:0,0:0:0:0:
115,183,234180,1,0,1:0:0:0:
36,191,234333,1,0,3:0:0:0:
105,278,235710,6,0,L|97:350,2,71.9999978027344,0|0|6,1:0|1:0|1:2,0:0:0:0:
151,206,236170,1,0,3:0:0:0:
151,206,236323,2,2,B|181:202|202:214|196:219|213:236|252:236,2,107.999996704102,0|8|8,1:0|1:0|1:0,0:1:0:0:
59,203,236935,6,2,P|54:167|59:131,1,71.9999978027344,0|0,1:0|0:0,0:1:0:0:
138,111,237241,2,2,P|159:82|188:60,1,71.9999978027344,8|0,3:2|0:0,0:1:0:0:
263,102,237547,2,2,P|299:97|335:102,1,71.9999978027344,0|0,1:0|0:0,0:1:0:0:
349,185,237853,2,2,P|377:206|399:235,1,71.9999978027344,8|0,3:2|0:0,0:1:0:0:
459,301,238159,2,0,P|411:289|310:284,1,143.999995605469,2|8,1:0|3:2,0:0:0:0:
119,294,238772,2,0,P|136:263|188:245,1,71.9999978027344,2|2,1:0|3:2,0:0:0:0:
222,186,239078,2,0,P|205:155|153:137,1,71.9999978027344,8|2,3:2|3:0,0:0:0:0:
94,112,239384,6,0,L|269:94,1,143.999995605469,2|8,1:0|3:2,0:0:0:0:
311,151,239843,1,0,0:0:0:0:
398,168,239996,1,0,1:0:0:0:
482,136,240149,2,0,L|476:179,2,35.9999989013672,0|0|8,3:0|3:0|3:2,0:0:0:0:
460,54,240455,6,2,P|391:47|296:22,1,143.999995605469,0|0,1:0|3:0,0:1:0:0:
239,70,240915,1,8,3:2:0:0:
150,49,241068,2,2,P|142:98|149:204,1,143.999995605469,0|0,1:0|3:0,0:1:0:0:
64,239,241527,2,0,P|63:185|48:147,1,71.9999978027344,10|0,3:1|3:0,0:0:0:0:
128,120,241833,5,2,1:1:0:0:
215,140,241986,1,2,3:0:0:0:
265,210,242139,1,10,3:1:0:0:
338,264,242292,1,2,1:3:0:0:
493,160,242598,2,0,P|490:119|491:85,1,71.9999978027344,2|8,3:0|3:2,0:0:0:0:
419,54,242904,1,2,3:0:0:0:
331,71,243057,6,0,P|271:69|174:46,1,143.999995605469,4|4,1:2|1:2,0:0:0:0:
102,69,243517,1,0,3:0:0:0:
42,132,243670,2,0,P|39:177|51:226,1,71.9999978027344,4|0,1:2|3:0,0:0:0:0:
128,199,243976,2,0,P|157:232|200:259,1,71.9999978027344,4|0,1:2|3:0,0:0:0:0:
277,248,244282,5,4,1:2:0:0:
359,221,244435,2,0,L|364:185,2,35.9999989013672,0|0|4,3:0|3:0|1:2,0:0:0:0:
433,274,244741,1,0,1:0:0:0:
417,362,244894,2,0,P|363:348|274:345,1,143.999995605469,4|4,1:2|1:2,0:0:0:0:
183,351,245353,1,0,1:0:0:0:
90,374,245506,5,0,1:0:0:0:
211,248,245813,2,2,P|237:171|245:101,1,143.999995605469,12|0,1:0|1:0,0:1:0:0:
320,55,246272,1,0,3:0:0:0:
402,86,246425,2,0,P|413:49|415:6,1,71.9999978027344,8|0,3:2|3:0,0:0:0:0:
472,146,246731,6,0,P|420:133|323:132,1,143.999995605469,2|8,1:0|3:2,0:0:0:0:
244,109,247190,1,2,3:0:0:0:
169,53,247343,2,0,P|129:44|95:44,1,71.9999978027344,2|2,1:0|3:0,0:0:0:0:
16,117,247649,2,0,P|56:126|90:126,1,71.9999978027344,10|2,3:1|3:0,0:0:0:0:
173,176,247955,6,2,P|171:221|141:334,2,143.999995605469,0|8|0,1:0|3:2|1:0,0:1:0:0:
253,250,248721,1,0,3:0:0:0:
253,250,248874,2,0,P|299:252|333:265,1,71.9999978027344,8|0,3:2|3:0,0:0:0:0:
359,177,249180,6,2,P|332:142|327:98,1,71.9999978027344,0|0,1:0|0:0,0:1:0:0:
410,109,249486,1,8,3:2:0:0:
453,186,249639,2,0,P|455:236|447:334,1,143.999995605469,2|0,1:0|3:0,0:0:0:0:
371,366,250098,1,0,1:0:0:0:
284,360,250251,1,2,3:0:0:0:
213,305,250404,6,2,P|160:294|38:300,1,143.999995605469,4|8,1:2|0:0,0:1:0:0:
148,211,250864,2,2,P|156:158|152:48,1,143.999995605469,4|0,1:2|0:0,0:1:0:0:
78,108,251323,1,8,3:2:0:0:
186,138,251476,2,2,P|234:135|346:165,2,143.999995605469,4|0|2,1:2|3:0|3:1,0:1:0:0:
148,211,252241,2,0,L|143:253,2,35.9999989013672,0|0|0,1:0|3:0|3:0,0:0:0:0:
72,167,252547,1,8,3:2:0:0:
47,88,252700,1,0,3:0:0:0:
94,19,252853,5,2,1:2:0:0:
230,80,253159,1,2,1:2:0:0:
230,80,253313,1,2,1:2:0:0:
284,227,253619,1,2,1:2:0:0:
453,258,253925,2,0,P|455:209|450:122,1,120,2|2,3:2|1:3,0:0:0:0:
420,73,254384,1,2,1:2:0:0:
420,73,254537,1,2,1:3:0:0:
212,139,254996,2,0,P|172:130|137:123,1,60,2|0,1:2|0:0,0:0:0:0:
82,117,255302,5,2,1:2:0:0:
178,257,255608,1,2,1:2:0:0:
178,257,255761,1,2,1:2:0:0:
284,63,256068,1,2,1:2:0:0:
373,210,256374,2,0,P|412:210|455:217,1,60,2|0,3:2|1:0,0:0:0:0:
510,210,256680,1,2,1:3:0:0:
510,210,256833,1,2,1:2:0:0:
467,146,256986,1,2,1:3:0:0:
467,146,257139,2,0,P|395:138|323:137,1,120,0|0,3:0|3:0,0:0:0:0:
185,292,257751,6,2,P|174:256|163:154,1,120,12|8,1:2|0:0,0:1:0:0:
77,175,258210,2,0,P|88:139|94:96,1,60,0|0,3:0|1:0,0:0:0:0:
168,86,258517,2,0,P|157:50|151:7,1,60,0|0,3:0|1:0,0:0:0:0:
246,43,258823,6,0,P|290:44|390:66,1,120,0|0,3:0|3:0,0:0:0:0:
404,127,259282,1,0,1:0:0:0:
380,199,259435,1,0,3:0:0:0:
250,290,259741,1,0,3:0:0:0:
179,333,259894,2,0,L|165:253,1,60,0|0,1:0|3:0,0:0:0:0:
121,214,260200,6,0,L|86:208,2,30,2|0|0,1:1|3:0|3:0,0:0:0:0:
164,149,260506,2,0,L|158:113,2,30,2|0|0,1:0|3:0|3:0,0:0:0:0:
239,169,260813,2,0,L|270:153,2,30,2|0|0,1:0|3:0|3:0,0:0:0:0:
242,246,261119,2,0,L|266:271,2,30,2|0|0,1:0|3:0|3:0,0:0:0:0:
169,274,261425,2,0,L|152:305,2,30,4|0|0,1:2|3:0|3:0,0:0:0:0:
121,214,261731,2,0,L|54:202,1,60,4|0,1:2|3:0,0:0:0:0:
17,133,262037,2,0,L|11:93,2,30,4|0|0,1:2|3:0|3:0,0:0:0:0:
101,98,262343,2,0,L|113:18,1,60,4|0,1:2|3:0,0:0:0:0:
174,146,262649,6,2,P|224:160|287:183,1,120,4|0,1:2|1:0,0:1:0:0:
367,200,263108,1,0,1:0:0:0:
408,136,263261,1,0,1:2:0:0:
357,76,263414,1,0,1:0:0:0:
283,106,263567,1,0,1:2:0:0:
287,183,263720,1,8,3:2:0:0:
105,279,266323,6,0,P|124:231|129:148,1,120,2|0,1:2|0:0,0:0:0:0:
207,180,266782,2,0,P|206:128|231:49,1,120,2|0,1:2|0:0,0:0:0:0:
294,30,267241,1,2,1:2:0:0:
294,30,267394,2,0,P|340:25|370:16,1,60,2|0,1:2|0:0,0:0:0:0:
335,100,267700,2,0,P|409:91|458:77,1,120,0|0,3:0|0:0,0:0:0:0:
507,138,268159,1,0,1:2:0:0:
403,252,268466,1,2,1:2:0:0:
221,243,268772,6,0,P|230:210|231:178,2,60,2|2|2,1:2|3:0|1:2,0:0:0:0:
166,295,269231,2,0,P|125:288|28:301,1,120,2|0,3:0|0:0,0:0:0:0:
5,232,269690,1,2,1:2:0:0:
5,232,269843,2,0,P|14:199|15:167,1,60,2|0,1:2|0:0,0:0:0:0:
19,98,270149,1,2,1:2:0:0:
19,98,270302,1,0,0:0:0:0:
206,34,270608,2,2,P|248:28|280:26,1,60,0|0,1:0|0:0,0:1:0:0:
274,104,270915,2,2,P|232:110|200:112,1,60,0|0,1:0|0:0,0:1:0:0:
153,168,271221,6,0,P|150:201|135:246,2,60,2|2|2,1:2|3:0|1:2,0:0:0:0:
228,201,271680,2,0,P|281:206|354:247,1,120,2|0,3:0|0:0,0:0:0:0:
396,290,272139,1,2,1:2:0:0:
396,290,272292,2,0,P|428:310|457:313,1,60,2|0,1:2|0:0,0:0:0:0:
451,232,272598,2,0,P|447:193|462:89,1,120,2|2,1:2|1:2,0:0:0:0:
479,41,273057,1,2,1:2:0:0:
302,148,273364,1,2,1:2:0:0:
159,84,273670,6,0,P|128:79|98:68,1,60,2|2,1:2|0:3,0:0:0:0:
26,51,273976,1,2,0:3:0:0:
26,51,274129,2,0,P|22:100|8:186,1,120,2|0,1:2|0:0,0:0:0:0:
50,239,274588,1,2,1:2:0:0:
132,258,274741,6,0,L|267:243,1,120,10|0,1:2|3:0,0:0:0:0:
323,219,275200,2,0,P|306:186|276:174,1,60,0|0,1:0|3:0,0:0:0:0:
210,168,275506,1,0,1:0:0:0:
210,168,275659,1,0,3:0:0:0:
210,168,275813,1,8,1:2:0:0:
385,148,276119,5,2,1:0:0:0:
385,148,276272,2,0,P|395:100|391:71,1,60,0|8,3:0|3:2,0:0:0:0:
454,36,276578,2,2,P|421:16|342:29,1,120,0|0,1:0|3:0,0:1:0:0:
282,74,277037,1,8,3:2:0:0:
208,97,277190,2,0,P|161:97|129:85,1,60,2|0,1:0|3:0,0:0:0:0:
87,138,277496,1,0,3:0:0:0:
26,86,277649,2,0,P|2:45|-3:11,1,60,8|0,3:2|3:0,0:0:0:0:
87,138,277955,2,2,P|90:180|77:275,1,120,0|8,1:0|0:0,0:1:0:0:
248,332,278568,5,2,1:0:0:0:
321,301,278721,1,0,3:0:0:0:
397,298,278874,1,8,3:2:0:0:
471,283,279027,2,0,P|481:243|478:143,1,120,2|0,3:1|3:0,0:0:0:0:
436,103,279486,1,8,3:2:0:0:
436,103,279639,2,0,P|394:88|364:83,1,60,2|0,1:0|3:0,0:0:0:0:
311,125,279945,1,0,3:0:0:0:
311,125,280098,2,0,P|301:91|300:59,1,60,8|0,3:2|3:0,0:0:0:0:
225,98,280404,2,2,P|183:83|153:78,1,60,0|0,1:1|0:1,0:1:0:0:
87,65,280710,2,2,P|89:94|98:123,1,60,8|0,0:0|0:0,0:1:0:0:
137,197,281017,5,4,1:2:0:0:
224,215,281170,1,0,3:0:0:0:
283,281,281323,2,0,P|316:289|361:294,1,60,4|0,1:2|3:0,0:0:0:0:
380,365,281629,2,0,P|408:347|444:319,1,60,4|0,1:2|3:0,0:0:0:0:
478,265,281935,1,4,1:2:0:0:
441,182,282088,6,2,P|429:145|428:40,1,120,4|0,1:2|0:0,0:1:0:0:
340,131,282547,2,0,P|306:132|262:123,1,60,8|0,3:2|0:0,0:0:0:0:
200,127,282853,1,4,1:2:0:0:
137,177,283006,1,0,3:0:0:0:
124,258,283159,2,0,P|116:295|101:318,1,60,4|0,1:2|3:0,0:0:0:0:
26,344,283466,6,0,P|20:303|2:266,1,60,4|0,1:2|3:0,0:0:0:0:
41,210,283772,2,0,P|47:169|65:132,1,60,4|0,1:2|3:0,0:0:0:0:
24,77,284078,2,0,P|18:36|0:-1,1,60,4|0,1:2|3:0,0:0:0:0:
105,45,284384,1,4,1:2:0:0:
147,121,284537,1,0,3:0:0:0:
218,181,284690,1,8,1:2:0:0:
300,207,284843,2,0,P|351:213|445:211,1,120,0|0,3:0|0:0,0:0:0:0:
496,197,285302,1,8,1:0:0:0:
355,323,285608,1,8,1:0:0:0:
212,298,285915,6,0,L|207:348,3,45.0000017166138,2|2|2|2,0:0|0:0|0:0|0:0,0:0:0:0:
230,143,286833,2,0,L|234:98,3,45.0000017166138,2|2|2|2,0:0|0:0|0:0|0:0,0:0:0:0:
168,216,287598,1,2,0:0:0:0:
168,216,287751,1,2,0:0:0:0:
276,226,288057,1,6,3:2:0:0:
256,192,288134,12,0,292649,0:0:0:0:
