osu file format v14

[General]
AudioFilename: audio.mp3
AudioLeadIn: 0
PreviewTime: 210532
Countdown: 0
SampleSet: Soft
StackLeniency: 0.3
Mode: 0
LetterboxInBreaks: 0
EpilepsyWarning: 1
WidescreenStoryboard: 1

[Editor]
Bookmarks: 15322,20201,30016,39812,49608,59404,69181,91222,101037,110833,120302,120629,130424,140200,162241,164710,170966,172057,184302,194098,203874,211241,219792,221037,225915,234486,236935,266323,285915,288057,293261
DistanceSpacing: 1.5
BeatDivisor: 4
GridSize: 16
TimelineZoom: 1.9

[Metadata]
Title:I
TitleUnicode:I
Artist:ShinRa-Bansho
ArtistUnicode:森羅万象
Creator:-Unlimit-
Version:Len's Not Classic Extra
Source:東方地霊殿 ~ Subterranean Animism.
Tags:touhou zun 東方project 11 th11 chireiden extra stage theme Team Shanghai Alice 2hu シンラミュージアム shinra museum kaztora あよ ayo cheluce ラストリモート last remote 古明地こいし Komeiji Koishi eye rock jrock j-rock japanese 例大祭 reitaisai 16 video game videogame len eringira new-username fast -azrael-
BeatmapID:4205849
BeatmapSetID:1927992

[Difficulty]
HPDrainRate:5
CircleSize:4
OverallDifficulty:8.8
ApproachRate:9.3
SliderMultiplier:1.76
SliderTickRate:1

[Events]
//Background and Video events
0,0,"75175363_p0.png",0,0
//Break Periods
2,30197,34341
2,120808,127401
2,164690,170412
2,266523,275565
//Storyboard Layer 0 (Background)
//Storyboard Layer 1 (Fail)
//Storyboard Layer 2 (Pass)
//Storyboard Layer 3 (Foreground)
Sprite,Foreground,Centre,"sb\hl.png",0,0 M,0,20201,,415,245 C,0,20201,,255,183,183 F,15,20201,20813,1,0 S,15,20201,20813,0.75,0.2 P,0,20201,20813,A M,0,21120,,64,340 C,0,21120,,255,157,206 F,15,21120,21732,1,0 S,15,21120,21732,0.75,0.2 P,0,21120,21732,A M,0,21885,,70,244 C,0,21885,,255,157,206 F,15,21885,22497,1,0 S,15,21885,22497,0.75,0.2 P,0,21885,22497,A M,0,22650,,247,345 C,0,22650,,255,183,183 F,15,22650,23262,1,0 S,15,22650,23262,0.75,0.2 P,0,22650,23262,A M,0,23569,,108,132 C,0,23569,,255,157,206 F,15,23569,24181,1,0 S,15,23569,24181,0.75,0.2 P,0,23569,24181,A M,0,24334,,335,130 C,0,24334,,255,157,206 F,15,24334,24946,1,0 S,15,24334,24946,0.75,0.2 P,0,24334,24946,A M,0,25099,,555,344 C,0,25099,,255,183,183 F,15,25099,25711,1,0 S,15,25099,25711,0.75,0.2 P,0,25099,25711,A M,0,26018,,160,214 C,0,26018,,255,157,206 F,15,26018,26630,1,0 S,15,26018,26630,0.75,0.2 P,0,26018,26630,A M,0,26783,,69,260 C,0,26783,,255,157,206 F,15,26783,27395,1,0 S,15,26783,27395,0.75,0.2 P,0,26783,27395,A M,0,27548,,491,159 C,0,27548,,255,183,183 F,15,27548,28160,1,0 S,15,27548,28160,0.75,0.2 P,0,27548,28160,A M,0,28161,,447,436 C,0,28161,,255,183,183 F,15,28161,28773,1,0 S,15,28161,28773,0.75,0.2 P,0,28161,28773,A M,0,29079,,246,145 C,0,29079,,255,183,183 F,15,29079,29691,1,0 S,15,29079,29691,0.75,0.2 P,0,29079,29691,A
Sprite,Foreground,Centre,"sb\hl.png",0,0 M,0,20355,,303,382 C,0,20355,,255,183,183 F,15,20355,20967,1,0 S,15,20355,20967,0.75,0.2 P,0,20355,20967,A M,0,21273,,137,415 F,0,21273,,1 S,0,21273,,0.75 C,0,21273,,255,183,183 M,0,21273,21311,137,415,144.7676,394.4181 P,0,21273,22038,A M,0,21311,21349,144.7676,394.4181,152.9943,374.0151 M,0,21349,21387,152.9943,374.0151,161.7979,353.8545 M,0,21387,21426,161.7979,353.8545,171,334 F,15,21426,22038,1,0 S,15,21426,22038,0.75,0.2 M,0,22344,,226,142 F,0,22344,,1 S,0,22344,,0.75 C,0,22344,,255,157,206 M,0,22344,22382,226,142,236.0378,122.491 P,0,22344,23109,A M,0,22382,22420,236.0378,122.491,250.5942,108.9485 M,0,22420,22458,250.5942,108.9485,243.8804,129.8691 M,0,22458,22497,243.8804,129.8691,240.5501,151.5969 F,15,22497,23109,1,0 S,15,22497,23109,0.75,0.2 M,0,23110,,320,266 C,0,23110,,255,157,206 F,15,23110,23722,1,0 S,15,23110,23722,0.75,0.2 P,0,23110,23722,A M,0,24028,,126,315 F,0,24028,,1 S,0,24028,,0.75 C,0,24028,,255,183,183 M,0,24028,24066,126,315,121.4574,293.4777 P,0,24028,24793,A M,0,24066,24104,121.4574,293.4777,115.9971,272.1709 M,0,24104,24142,115.9971,272.1709,109.5635,251.1365 M,0,24142,24181,109.5635,251.1365,102.159,230.4225 F,15,24181,24793,1,0 S,15,24181,24793,0.75,0.2 M,0,25252,,386,435 C,0,25252,,255,183,183 F,15,25252,25864,1,0 S,15,25252,25864,0.75,0.2 P,0,25252,25864,A M,0,26171,,196,379 F,0,26171,,1 S,0,26171,,0.75 C,0,26171,,255,183,183 M,0,26171,26209,196,379,202.9894,358.1421 P,0,26171,26936,A M,0,26209,26247,202.9894,358.1421,210.669,337.529 M,0,26247,26285,210.669,337.529,219.0814,317.2029 M,0,26285,26324,219.0814,317.2029,228.2842,297.2228 F,15,26324,26936,1,0 S,15,26324,26936,0.75,0.2 M,0,27242,,235,148 F,0,27242,,1 S,0,27242,,0.75 C,0,27242,,255,157,206 M,0,27242,27280,235,148,230.2328,126.5261 P,0,27242,28007,A M,0,27280,27318,230.2328,126.5261,226.3105,104.8819 M,0,27318,27356,226.3105,104.8819,223.4258,83.07548 M,0,27356,27395,223.4258,83.07548,221.3976,61.17247 F,15,27395,28007,1,0 S,15,27395,28007,0.75,0.2 M,0,28008,,369,234 C,0,28008,,255,157,206 F,15,28008,28620,1,0 S,15,28008,28620,0.75,0.2 P,0,28008,28620,A M,0,29232,,113,283 F,0,29232,,1 S,0,29232,,0.75 C,0,29232,,255,183,183 M,0,29232,29270,113,283,107.1516,257.2665 P,0,29232,29920,A M,0,29270,29308,107.1516,257.2665,99.12057,232.1313 F,15,29308,29920,1,0 S,15,29308,29920,0.75,0.2
Sprite,Foreground,Centre,"sb\hl.png",0,0 M,0,20508,,479,440 C,0,20508,,255,183,183 F,15,20508,21120,1,0 S,15,20508,21120,0.75,0.2 P,0,20508,21120,A M,0,21579,,145,126 C,0,21579,,255,183,183 F,15,21579,22191,1,0 S,15,21579,22191,0.75,0.2 P,0,21579,22191,A M,0,22804,,450,297 C,0,22804,,255,183,183 F,15,22804,23416,1,0 S,15,22804,23416,0.75,0.2 P,0,22804,23416,A M,0,23722,,260,60 F,0,23722,,1 S,0,23722,,0.75 C,0,23722,,255,183,183 M,0,23722,23760,260,60,252.2434,80.58102 P,0,23722,24487,A M,0,23760,23798,252.2434,80.58102,245.5758,101.5401 M,0,23798,23836,245.5758,101.5401,240.2581,122.8811 M,0,23836,23875,240.2581,122.8811,236.0932,144.4759 F,15,23875,24487,1,0 S,15,23875,24487,0.75,0.2 M,0,24793,,502,233 F,0,24793,,1 S,0,24793,,0.75 C,0,24793,,255,157,206 M,0,24793,24831,502,233,520.4133,220.9605 P,0,24793,25558,A M,0,24831,24869,520.4133,220.9605,526.2444,203.1841 M,0,24869,24907,526.2444,203.1841,523.2585,181.3877 M,0,24907,24946,523.2585,181.3877,520.2728,159.5912 F,15,24946,25558,1,0 S,15,24946,25558,0.75,0.2 M,0,25559,,450,360 C,0,25559,,255,157,206 F,15,25559,26171,1,0 S,15,25559,26171,0.75,0.2 P,0,25559,26171,A M,0,26477,,135,106 C,0,26477,,255,183,183 F,15,26477,27089,1,0 S,15,26477,27089,0.75,0.2 P,0,26477,27089,A M,0,27701,,311,298 C,0,27701,,255,183,183 F,15,27701,28313,1,0 S,15,27701,28313,0.75,0.2 P,0,27701,28313,A M,0,28314,,501,292 F,0,28314,,1 S,0,28314,,0.75 C,0,28314,,255,183,183 M,0,28314,28352,501,292,505.9749,270.5699 P,0,28314,29079,A M,0,28352,28390,505.9749,270.5699,510.9497,249.1397 M,0,28390,28428,510.9497,249.1397,505.9749,270.5699 M,0,28428,28467,505.9749,270.5699,501,292 F,15,28467,29079,1,0 S,15,28467,29079,0.75,0.2 M,0,29385,,201,231 F,0,29385,,1 S,0,29385,,0.75 C,0,29385,,255,157,206 M,0,29385,29423,201,231,221.1913,239.7345 P,0,29385,30150,A M,0,29423,29461,221.1913,239.7345,241.4967,248.2008 M,0,29461,29499,241.4967,248.2008,261.9406,256.3268 M,0,29499,29538,261.9406,256.3268,282,264 F,15,29538,30150,1,0 S,15,29538,30150,0.75,0.2
Sprite,Foreground,Centre,"sb\hl.png",0,0 M,0,20661,,404,367 F,0,20661,,1 S,0,20661,,0.75 C,0,20661,,255,157,206 M,0,20661,20699,404,367,382.5937,372.0743 P,0,20661,21579,A M,0,20699,20737,382.5937,372.0743,361.271,377.4885 M,0,20737,20775,361.271,377.4885,340.0518,383.2957 M,0,20775,20814,340.0518,383.2957,318.9327,389.4558 M,0,20814,20852,318.9327,389.4558,297.9221,395.9772 M,0,20852,20890,297.9221,395.9772,277.0362,402.8875 M,0,20890,20928,277.0362,402.8875,256.2679,410.1432 M,0,20928,20967,256.2679,410.1432,235.6269,417.754 F,15,20967,21579,1,0 S,15,20967,21579,0.75,0.2 M,0,21732,,266,290 C,0,21732,,255,183,183 F,15,21732,22344,1,0 S,15,21732,22344,0.75,0.2 P,0,21732,22344,A M,0,22957,,327,148 C,0,22957,,255,183,183 F,15,22957,23569,1,0 S,15,22957,23569,0.75,0.2 P,0,22957,23569,A M,0,24411,,335,130 C,0,24411,,255,157,206 F,15,24411,25023,1,0 S,15,24411,25023,0.75,0.2 P,0,24411,25023,A M,0,25406,,360,235 C,0,25406,,255,183,183 F,15,25406,26018,1,0 S,15,25406,26018,0.75,0.2 P,0,25406,26018,A M,0,26630,,286,218 C,0,26630,,255,183,183 F,15,26630,27242,1,0 S,15,26630,27242,0.75,0.2 P,0,26630,27242,A M,0,27855,,556,374 C,0,27855,,255,157,206 F,15,27855,28467,1,0 S,15,27855,28467,0.75,0.2 P,0,27855,28467,A M,0,28620,,317,405 F,0,28620,,1 S,0,28620,,0.75 C,0,28620,,255,157,206 M,0,28620,28658,317,405,296.6775,413.1647 P,0,28620,29538,A M,0,28658,28696,296.6775,413.1647,275.0774,416.6384 M,0,28696,28734,275.0774,416.6384,253.2222,414.8829 M,0,28734,28773,253.2222,414.8829,232.6257,407.4413 M,0,28773,28811,232.6257,407.4413,214.2114,395.6338 M,0,28811,28849,214.2114,395.6338,199.0933,379.7604 M,0,28849,28887,199.0933,379.7604,188.6843,360.4945 M,0,28887,28926,188.6843,360.4945,182.8292,339.4207 F,15,28926,29538,1,0 S,15,28926,29538,0.75,0.2
Sprite,Foreground,Centre,"sb\hl.png",0,0 M,0,21962,,70,244 C,0,21962,,255,157,206 F,15,21962,22574,1,0 S,15,21962,22574,0.75,0.2 P,0,21962,22574,A M,0,23186,,320,266 F,0,23186,,1 S,0,23186,,0.75 C,0,23186,,255,157,206 M,0,23186,23224,320,266,299.2368,258.729 P,0,23186,24027,A M,0,23224,23262,299.2368,258.729,278.3618,251.7857 M,0,23262,23300,278.3618,251.7857,257.3636,245.2245 M,0,23300,23339,257.3636,245.2245,236.2602,239.0107 M,0,23339,23377,236.2602,239.0107,215.0542,233.1556 M,0,23377,23415,215.0542,233.1556,193.7445,227.6903 F,15,23415,24027,1,0 S,15,23415,24027,0.75,0.2 M,0,24487,,335,130 F,0,24487,,1 S,0,24487,,0.75 C,0,24487,,255,157,206 M,0,24487,24525,335,130,356.1627,124.5809 P,0,24487,25328,A M,0,24525,24563,356.1627,124.5809,377.9565,125.229 M,0,24563,24601,377.9565,125.229,398.6353,132.339 M,0,24601,24640,398.6353,132.339,415.8557,145.7669 M,0,24640,24678,415.8557,145.7669,428.5926,163.4474 M,0,24678,24716,428.5926,163.4474,435.5242,184.163 F,15,24716,25328,1,0 S,15,24716,25328,0.75,0.2 M,0,25635,,450,360 F,0,25635,,1 S,0,25635,,0.75 C,0,25635,,255,157,206 M,0,25635,25673,450,360,429.5513,351.8877 P,0,25635,26476,A M,0,25673,25711,429.5513,351.8877,408.9324,344.219 M,0,25711,25749,408.9324,344.219,388.1411,337.0299 M,0,25749,25788,388.1411,337.0299,367.1775,330.3605 M,0,25788,25826,367.1775,330.3605,346.0709,324.1594 M,0,25826,25864,346.0709,324.1594,324.8261,318.4488 F,15,25864,26476,1,0 S,15,25864,26476,0.75,0.2 M,0,26860,,69,260 C,0,26860,,255,157,206 F,15,26860,27472,1,0 S,15,26860,27472,0.75,0.2 P,0,26860,27472,A
Sprite,Foreground,Centre,"sb\hl.png",0,0 M,0,22038,,70,244 F,0,22038,,1 S,0,22038,,0.75 C,0,22038,,255,157,206 M,0,22038,22076,70,244,89.67749,253.5078 P,0,22038,22879,A M,0,22076,22114,89.67749,253.5078,111.1472,257.3894 M,0,22114,22152,111.1472,257.3894,132.8932,254.9206 M,0,22152,22191,132.8932,254.9206,152.693,245.6799 M,0,22191,22229,152.693,245.6799,169.2387,231.4682 M,0,22229,22267,169.2387,231.4682,181.0292,213.0432 F,15,22267,22879,1,0 S,15,22267,22879,0.75,0.2 M,0,26936,,69,260 F,0,26936,,1 S,0,26936,,0.75 C,0,26936,,255,157,206 M,0,26936,26974,69,260,90.40698,264.4547 P,0,26936,27777,A M,0,26974,27012,90.40698,264.4547,112.2049,263.2458 M,0,27012,27050,112.2049,263.2458,132.875,256.0326 M,0,27050,27089,132.875,256.0326,150.331,242.8723 M,0,27089,27127,150.331,242.8723,163.7489,225.6602 M,0,27127,27165,163.7489,225.6602,171.9019,205.3558 F,15,27165,27777,1,0 S,15,27165,27777,0.75,0.2
Sprite,Foreground,Centre,"sb\hl.png",0,0 M,0,69181,,300,344 F,0,69181,,1 S,0,69181,,0.75 C,0,69181,,255,157,206 M,0,69181,69219,300,344,326.9429,329.1637 P,0,69181,70022,A M,0,69219,69257,326.9429,329.1637,349.0256,307.9297 M,0,69257,69295,349.0256,307.9297,362.0963,280.1591 M,0,69295,69334,362.0963,280.1591,375.7353,252.7019 M,0,69334,69372,375.7353,252.7019,398.8849,232.6524 M,0,69372,69410,398.8849,232.6524,426.5614,219.2275 F,15,69410,70022,1,0 S,15,69410,70022,0.75,0.2 M,0,70023,,340,56 C,0,70023,,255,183,183 F,15,70023,70635,1,0 S,15,70023,70635,0.75,0.2 P,0,70023,70635,A M,0,70712,,254,129 F,0,70712,,1 S,0,70712,,0.75 C,0,70712,,255,157,206 M,0,70712,70750,254,129,242.4677,105.4633 P,0,70712,71477,A M,0,70750,70788,242.4677,105.4633,223.3521,87.60503 M,0,70788,70826,223.3521,87.60503,199.1659,77.73291 M,0,70826,70865,199.1659,77.73291,173.0717,77.11684 F,15,70865,71477,1,0 S,15,70865,71477,0.75,0.2 M,0,71630,,229,243 F,0,71630,,1 S,0,71630,,0.75 C,0,71630,,255,157,206 M,0,71630,71668,229,243,255.1309,246.6064 P,0,71630,72471,A M,0,71668,71706,255.1309,246.6064,279.9098,255.4402 M,0,71706,71744,279.9098,255.4402,300.1812,272.1528 M,0,71744,71783,300.1812,272.1528,319.2699,290.3031 M,0,71783,71821,319.2699,290.3031,342.9989,301.616 M,0,71821,71859,342.9989,301.616,368.7912,307.1053 F,15,71859,72471,1,0 S,15,71859,72471,0.75,0.2 M,0,72472,,541,277 C,0,72472,,255,183,183 F,15,72472,73084,1,0 S,15,72472,73084,0.75,0.2 P,0,72472,73084,A M,0,73161,,300,243 C,0,73161,,255,157,206 F,15,73161,73773,1,0 S,15,73161,73773,0.75,0.2 P,0,73161,73773,A M,0,73926,,64,390 F,0,73926,,1 S,0,73926,,0.75 C,0,73926,,255,157,206 M,0,73926,73964,64,390,70.1842,364.3349 P,0,73926,74844,A M,0,73964,74002,70.1842,364.3349,75.99422,338.5825 M,0,74002,74040,75.99422,338.5825,81.42847,312.7483 M,0,74040,74079,81.42847,312.7483,86.48603,286.8378 M,0,74079,74117,86.48603,286.8378,91.17613,260.8582 M,0,74117,74155,91.17613,260.8582,95.46827,234.8098 M,0,74155,74193,95.46827,234.8098,99.38062,208.7018 M,0,74193,74232,99.38062,208.7018,102.9125,182.5396 F,15,74232,74844,1,0 S,15,74232,74844,0.75,0.2 M,0,74997,,368,136 C,0,74997,,255,183,183 F,15,74997,75609,1,0 S,15,74997,75609,0.75,0.2 P,0,74997,75609,A M,0,75610,,531,249 C,0,75610,,255,157,206 F,15,75610,76222,1,0 S,15,75610,76222,0.75,0.2 P,0,75610,76222,A M,0,76528,,346,139 F,0,76528,,1 S,0,76528,,0.75 C,0,76528,,255,157,206 M,0,76528,76566,346,139,323.4881,125.2192 P,0,76528,77293,A M,0,76566,76604,323.4881,125.2192,301.8403,110.1194 M,0,76604,76642,301.8403,110.1194,281.1335,93.75449 M,0,76642,76681,281.1335,93.75449,261.4415,76.1827 F,15,76681,77293,1,0 S,15,76681,77293,0.75,0.2 M,0,77446,,449,342 F,0,77446,,1 S,0,77446,,0.75 C,0,77446,,255,183,183 M,0,77446,77484,449,342,424.5016,332.1651 P,0,77446,78211,A M,0,77484,77522,424.5016,332.1651,399.7286,323.0449 M,0,77522,77560,399.7286,323.0449,374.7017,314.647 M,0,77560,77599,374.7017,314.647,349.442,306.9785 F,15,77599,78211,1,0 S,15,77599,78211,0.75,0.2 M,0,78365,,250,437 C,0,78365,,255,183,183 F,15,78365,78977,1,0 S,15,78365,78977,0.75,0.2 P,0,78365,78977,A M,0,79283,,489,241 F,0,79283,,1 S,0,79283,,0.75 C,0,79283,,255,183,183 M,0,79283,79321,489,241,459.6827,231.5588 P,0,79283,80048,A M,0,79321,79359,459.6827,231.5588,430.3654,222.1177 M,0,79359,79397,430.3654,222.1177,413.6703,247.6609 M,0,79397,79436,413.6703,247.6609,397.1346,273.6457 F,15,79436,80048,1,0 S,15,79436,80048,0.75,0.2 M,0,80201,,420,198 F,0,80201,,1 S,0,80201,,0.75 C,0,80201,,255,183,183 M,0,80201,80239,420,198,441.1862,182.4947 P,0,80201,80966,A M,0,80239,80277,441.1862,182.4947,456.4283,161.1664 M,0,80277,80315,456.4283,161.1664,464.2151,136.1638 M,0,80315,80354,464.2151,136.1638,463.7784,109.9968 F,15,80354,80966,1,0 S,15,80354,80966,0.75,0.2 M,0,80967,,346,258 C,0,80967,,255,157,206 F,15,80967,81579,1,0 S,15,80967,81579,0.75,0.2 P,0,80967,81579,A M,0,81732,,354,158 F,0,81732,,1 S,0,81732,,0.75 C,0,81732,,255,183,183 M,0,81732,81770,354,158,380.0878,160.468 P,0,81732,82497,A M,0,81770,81808,380.0878,160.468,405.1801,153.0709 M,0,81808,81846,405.1801,153.0709,425.6929,136.8953 M,0,81846,81885,425.6929,136.8953,438.7033,114.2757 F,15,81885,82497,1,0 S,15,81885,82497,0.75,0.2 M,0,82650,,149,68 C,0,82650,,255,183,183 F,15,82650,83262,1,0 S,15,82650,83262,0.75,0.2 P,0,82650,83262,A M,0,83492,,269,59 C,0,83492,,255,157,206 F,15,83492,84104,1,0 S,15,83492,84104,0.75,0.2 P,0,83492,84104,A M,0,84181,,85,266 C,0,84181,,255,157,206 F,15,84181,84793,1,0 S,15,84181,84793,0.75,0.2 P,0,84181,84793,A M,0,84946,,64,60 F,0,84946,,1 S,0,84946,,0.75 C,0,84946,,255,157,206 M,0,84946,84984,64,60,88.49868,50.39984 P,0,84946,85864,A M,0,84984,85022,88.49868,50.39984,114.5678,47.01107 M,0,85022,85060,114.5678,47.01107,140.6668,50.02488 M,0,85060,85099,140.6668,50.02488,165.3968,58.98614 M,0,85099,85137,165.3968,58.98614,186.9755,74.04282 M,0,85137,85175,186.9755,74.04282,204.2577,93.85211 M,0,85175,85213,204.2577,93.85211,216.2295,117.2383 M,0,85213,85252,216.2295,117.2383,222.4934,142.785 F,15,85252,85864,1,0 S,15,85252,85864,0.75,0.2 M,0,86018,,447,238 F,0,86018,,1 S,0,86018,,0.75 C,0,86018,,255,183,183 M,0,86018,86056,447,238,471.7517,228.8211 P,0,86018,86783,A M,0,86056,86094,471.7517,228.8211,496.7511,220.3406 M,0,86094,86132,496.7511,220.3406,521.9784,212.5652 M,0,86132,86171,521.9784,212.5652,547.4139,205.501 F,15,86171,86783,1,0 S,15,86171,86783,0.75,0.2
Sprite,Foreground,Centre,"sb\hl.png",0,0 M,0,69487,,489,270 F,0,69487,,1 S,0,69487,,0.75 C,0,69487,,255,157,206 M,0,69487,69525,489,270,515.8039,254.828 P,0,69487,70252,A M,0,69525,69563,515.8039,254.828,541.7607,239.3438 M,0,69563,69601,541.7607,239.3438,531.2076,210.4082 M,0,69601,69640,531.2076,210.4082,520.6547,181.4725 F,15,69640,70252,1,0 S,15,69640,70252,0.75,0.2 M,0,70406,,426,219 F,0,70406,,1 S,0,70406,,0.75 C,0,70406,,255,157,206 M,0,70406,70444,426,219,450.6137,210.1926 P,0,70406,71171,A M,0,70444,70482,450.6137,210.1926,468.956,191.6333 M,0,70482,70520,468.956,191.6333,477.4424,167.0032 M,0,70520,70559,477.4424,167.0032,474.4333,141.1636 F,15,70559,71171,1,0 S,15,70559,71171,0.75,0.2 M,0,71324,,98,389 F,0,71324,,1 S,0,71324,,0.75 C,0,71324,,255,183,183 M,0,71324,71362,98,389,76.43205,373.7756 P,0,71324,72089,A M,0,71362,71400,76.43205,373.7756,68.10591,354.5984 M,0,71400,71438,68.10591,354.5984,77.7991,330.0423 M,0,71438,71477,77.7991,330.0423,87.4923,305.4862 F,15,71477,72089,1,0 S,15,71477,72089,0.75,0.2 M,0,72242,,377,425 C,0,72242,,255,183,183 F,15,72242,72854,1,0 S,15,72242,72854,0.75,0.2 P,0,72242,72854,A M,0,72855,,342,56 C,0,72855,,255,157,206 F,15,72855,73467,1,0 S,15,72855,73467,0.75,0.2 P,0,72855,73467,A M,0,73773,,239,295 C,0,73773,,255,183,183 F,15,73773,74385,1,0 S,15,73773,74385,0.75,0.2 P,0,73773,74385,A M,0,74538,,190,231 F,0,74538,,1 S,0,74538,,0.75 C,0,74538,,255,183,183 M,0,74538,74576,190,231,216.3526,232.1329 P,0,74538,75379,A M,0,74576,74614,216.3526,232.1329,241.8215,238.7183 M,0,74614,74652,241.8215,238.7183,264.0798,252.7795 M,0,74652,74691,264.0798,252.7795,286.7014,266.2069 M,0,74691,74729,286.7014,266.2069,312.3541,272.0972 M,0,74729,74767,312.3541,272.0972,338.7206,272.9479 F,15,74767,75379,1,0 S,15,74767,75379,0.75,0.2 M,0,75763,,574,439 F,0,75763,,1 S,0,75763,,0.75 C,0,75763,,255,183,183 M,0,75763,75801,574,439,547.7445,438.4375 P,0,75763,76528,A M,0,75801,75839,547.7445,438.4375,523.0045,429.7282 M,0,75839,75877,523.0045,429.7282,502.2349,413.755 M,0,75877,75916,502.2349,413.755,487.4931,392.1179 F,15,75916,76528,1,0 S,15,75916,76528,0.75,0.2 M,0,76834,,511,194 F,0,76834,,1 S,0,76834,,0.75 C,0,76834,,255,157,206 M,0,76834,76872,511,194,531.2942,177.1385 P,0,76834,77599,A M,0,76872,76910,531.2942,177.1385,549.6187,158.1582 M,0,76910,76948,549.6187,158.1582,565.7538,137.2876 M,0,76948,76987,565.7538,137.2876,579.506,114.7776 F,15,76987,77599,1,0 S,15,76987,77599,0.75,0.2 M,0,77752,,104,241 C,0,77752,,255,157,206 F,15,77752,78364,1,0 S,15,77752,78364,0.75,0.2 P,0,77752,78364,A M,0,78518,,332,228 C,0,78518,,255,157,206 F,15,78518,79130,1,0 S,15,78518,79130,0.75,0.2 P,0,78518,79130,A M,0,79589,,327,324 C,0,79589,,255,157,206 F,15,79589,80201,1,0 S,15,79589,80201,0.75,0.2 P,0,79589,80201,A M,0,80508,,250,285 F,0,80508,,1 S,0,80508,,0.75 C,0,80508,,255,183,183 M,0,80508,80546,250,285,224.0533,289.0106 P,0,80508,81273,A M,0,80546,80584,224.0533,289.0106,200.9514,301.4356 M,0,80584,80622,200.9514,301.4356,183.332,320.8398 M,0,80622,80661,183.332,320.8398,173.2029,344.9928 F,15,80661,81273,1,0 S,15,80661,81273,0.75,0.2 M,0,81426,,336,238 F,0,81426,,1 S,0,81426,,0.75 C,0,81426,,255,183,183 M,0,81426,81464,336,238,326.3062,213.4537 P,0,81426,82267,A M,0,81464,81502,326.3062,213.4537,319.5047,187.9664 M,0,81502,81540,319.5047,187.9664,315.1011,161.9375 M,0,81540,81579,315.1011,161.9375,308.9299,136.2847 M,0,81579,81617,308.9299,136.2847,300.1277,111.4039 M,0,81617,81655,300.1277,111.4039,289.6862,87.15982 F,15,81655,82267,1,0 S,15,81655,82267,0.75,0.2 M,0,82268,,222,251 C,0,82268,,255,157,206 F,15,82268,82880,1,0 S,15,82268,82880,0.75,0.2 P,0,82268,82880,A M,0,82957,,85,266 C,0,82957,,255,183,183 F,15,82957,83569,1,0 S,15,82957,83569,0.75,0.2 P,0,82957,83569,A M,0,83722,,392,202 F,0,83722,,1 S,0,83722,,0.75 C,0,83722,,255,183,183 M,0,83722,83760,392,202,378.9388,224.9041 P,0,83722,84410,A M,0,83760,83798,378.9388,224.9041,369.5473,249.5407 F,15,83798,84410,1,0 S,15,83798,84410,0.75,0.2 M,0,84640,,273,234 F,0,84640,,1 S,0,84640,,0.75 C,0,84640,,255,183,183 M,0,84640,84678,273,234,288.7219,213.0005 P,0,84640,85405,A M,0,84678,84716,288.7219,213.0005,295.5729,187.6431 M,0,84716,84754,295.5729,187.6431,284.5407,197.0143 M,0,84754,84793,284.5407,197.0143,265.3202,215.0736 F,15,84793,85405,1,0 S,15,84793,85405,0.75,0.2 M,0,85406,,136,164 C,0,85406,,255,157,206 F,15,85406,86018,1,0 S,15,85406,86018,0.75,0.2 P,0,85406,86018,A
Sprite,Foreground,Centre,"sb\hl.png",0,0 M,0,69793,,566,114 C,0,69793,,255,183,183 F,15,69793,70405,1,0 S,15,69793,70405,0.75,0.2 P,0,69793,70405,A M,0,70941,,95,116 C,0,70941,,255,157,206 F,15,70941,71553,1,0 S,15,70941,71553,0.75,0.2 P,0,70941,71553,A M,0,71936,,447,282 F,0,71936,,1 S,0,71936,,0.75 C,0,71936,,255,157,206 M,0,71936,71974,447,282,462.2052,303.5815 P,0,71936,72701,A M,0,71974,72012,462.2052,303.5815,477.4103,325.1631 M,0,72012,72050,477.4103,325.1631,462.9796,346.4533 M,0,72050,72089,462.9796,346.4533,447.3532,367.7318 F,15,72089,72701,1,0 S,15,72089,72701,0.75,0.2 M,0,73008,,479,173 C,0,73008,,255,157,206 F,15,73008,73620,1,0 S,15,73008,73620,0.75,0.2 P,0,73008,73620,A M,0,74385,,75,98 C,0,74385,,255,157,206 F,15,74385,74997,1,0 S,15,74385,74997,0.75,0.2 P,0,74385,74997,A M,0,75150,,287,173 C,0,75150,,255,183,183 F,15,75150,75762,1,0 S,15,75150,75762,0.75,0.2 P,0,75150,75762,A M,0,76069,,415,209 C,0,76069,,255,183,183 F,15,76069,76681,1,0 S,15,76069,76681,0.75,0.2 P,0,76069,76681,A M,0,77140,,362,411 C,0,77140,,255,183,183 F,15,77140,77752,1,0 S,15,77140,77752,0.75,0.2 P,0,77140,77752,A M,0,77906,,350,136 C,0,77906,,255,157,206 F,15,77906,78518,1,0 S,15,77906,78518,0.75,0.2 P,0,77906,78518,A M,0,78595,,332,228 C,0,78595,,255,157,206 F,15,78595,79207,1,0 S,15,78595,79207,0.75,0.2 P,0,78595,79207,A M,0,79742,,249,119 C,0,79742,,255,157,206 F,15,79742,80354,1,0 S,15,79742,80354,0.75,0.2 P,0,79742,80354,A M,0,80737,,218,417 C,0,80737,,255,183,183 F,15,80737,81349,1,0 S,15,80737,81349,0.75,0.2 P,0,80737,81349,A M,0,82038,,374,59 C,0,82038,,255,157,206 F,15,82038,82650,1,0 S,15,82038,82650,0.75,0.2 P,0,82038,82650,A M,0,82804,,296,203 C,0,82804,,255,183,183 F,15,82804,83416,1,0 S,15,82804,83416,0.75,0.2 P,0,82804,83416,A M,0,83569,,262,67 F,0,83569,,1 S,0,83569,,0.75 C,0,83569,,255,183,183 M,0,83569,83607,262,67,268.1623,92.66988 P,0,83569,84257,A M,0,83607,83645,268.1623,92.66988,273.6925,118.4832 F,15,83645,84257,1,0 S,15,83645,84257,0.75,0.2 M,0,84334,,125,411 F,0,84334,,1 S,0,84334,,0.75 C,0,84334,,255,183,183 M,0,84334,84372,125,411,135.6975,384.4763 P,0,84334,85175,A M,0,84372,84410,135.6975,384.4763,146.7265,358.0888 M,0,84410,84448,146.7265,358.0888,158.0794,331.8389 M,0,84448,84487,158.0794,331.8389,169.7781,305.7414 M,0,84487,84525,169.7781,305.7414,181.7933,279.788 M,0,84525,84563,181.7933,279.788,194.1541,253.9975 F,15,84563,85175,1,0 S,15,84563,85175,0.75,0.2 M,0,85559,,319,59 C,0,85559,,255,157,206 F,15,85559,86171,1,0 S,15,85559,86171,0.75,0.2 P,0,85559,86171,A
Sprite,Foreground,Centre,"sb\hl.png",0,0 M,0,69946,,340,56 C,0,69946,,255,183,183 F,15,69946,70558,1,0 S,15,69946,70558,0.75,0.2 P,0,69946,70558,A M,0,71018,,90,124 F,0,71018,,1 S,0,71018,,0.75 C,0,71018,,255,183,183 M,0,71018,71056,90,124,97.23192,149.3797 P,0,71018,71706,A M,0,71056,71094,97.23192,149.3797,102.3595,175.2639 F,15,71094,71706,1,0 S,15,71094,71706,0.75,0.2 M,0,72395,,541,277 C,0,72395,,255,183,183 F,15,72395,73007,1,0 S,15,72395,73007,0.75,0.2 P,0,72395,73007,A M,0,73314,,349,158 F,0,73314,,1 S,0,73314,,0.75 C,0,73314,,255,183,183 M,0,73314,73352,349,158,325.7842,145.6161 P,0,73314,74232,A M,0,73352,73390,325.7842,145.6161,300.3029,139.1562 M,0,73390,73428,300.3029,139.1562,274.0306,138.985 M,0,73428,73467,274.0306,138.985,248.4204,144.9155 M,0,73467,73505,248.4204,144.9155,225.137,157.14 M,0,73505,73543,225.137,157.14,205.4717,174.5706 M,0,73543,73581,205.4717,174.5706,190.308,196.0633 M,0,73581,73620,190.308,196.0633,181.1492,220.7272 F,15,73620,74232,1,0 S,15,73620,74232,0.75,0.2 M,0,74844,,406,218 C,0,74844,,255,183,183 F,15,74844,75456,1,0 S,15,74844,75456,0.75,0.2 P,0,74844,75456,A M,0,76222,,415,209 F,0,76222,,1 S,0,76222,,0.75 C,0,76222,,255,183,183 M,0,76222,76260,415,209,424.059,184.2027 P,0,76222,76987,A M,0,76260,76298,424.059,184.2027,433.1597,159.4213 M,0,76298,76336,433.1597,159.4213,424.059,184.2027 M,0,76336,76375,424.059,184.2027,415,209 F,15,76375,76987,1,0 S,15,76375,76987,0.75,0.2 M,0,77293,,302,218 C,0,77293,,255,183,183 F,15,77293,77905,1,0 S,15,77293,77905,0.75,0.2 P,0,77293,77905,A M,0,78059,,133,58 F,0,78059,,1 S,0,78059,,0.75 C,0,78059,,255,183,183 M,0,78059,78097,133,58,140.0948,83.42789 P,0,78059,78824,A M,0,78097,78135,140.0948,83.42789,146.5349,109.0292 M,0,78135,78173,146.5349,109.0292,152.316,134.7872 M,0,78173,78212,152.316,134.7872,157.4344,160.6849 F,15,78212,78824,1,0 S,15,78212,78824,0.75,0.2 M,0,78977,,344,437 F,0,78977,,1 S,0,78977,,0.75 C,0,78977,,255,183,183 M,0,78977,79015,344,437,357.0379,409.2939 P,0,78977,79818,A M,0,79015,79053,357.0379,409.2939,380.7773,390.1317 M,0,79053,79091,380.7773,390.1317,409.526,379.1459 M,0,79091,79130,409.526,379.1459,437.5733,366.5783 M,0,79130,79168,437.5733,366.5783,460.1416,345.8889 M,0,79168,79206,460.1416,345.8889,474.7403,318.8802 F,15,79206,79818,1,0 S,15,79206,79818,0.75,0.2 M,0,79819,,249,119 C,0,79819,,255,157,206 F,15,79819,80431,1,0 S,15,79819,80431,0.75,0.2 P,0,79819,80431,A M,0,80814,,225,424 F,0,80814,,1 S,0,80814,,0.75 C,0,80814,,255,157,206 M,0,80814,80852,225,424,250.953,419.164 P,0,80814,81502,A M,0,80852,80890,250.953,419.164,276.8386,413.9793 F,15,80890,81502,1,0 S,15,80890,81502,0.75,0.2 M,0,82191,,222,251 C,0,82191,,255,157,206 F,15,82191,82803,1,0 S,15,82191,82803,0.75,0.2 P,0,82191,82803,A M,0,83110,,182,163 F,0,83110,,1 S,0,83110,,0.75 C,0,83110,,255,157,206 M,0,83110,83148,182,163,206.3662,172.9412 P,0,83110,84028,A M,0,83148,83186,206.3662,172.9412,232.3733,176.8099 M,0,83186,83224,232.3733,176.8099,258.5397,174.3943 M,0,83224,83263,258.5397,174.3943,283.3763,165.8373 M,0,83263,83301,283.3763,165.8373,305.5752,151.7664 M,0,83301,83339,305.5752,151.7664,323.5771,132.599 M,0,83339,83377,323.5771,132.599,336.5051,109.7197 M,0,83377,83416,336.5051,109.7197,343.9095,84.47646 F,15,83416,84028,1,0 S,15,83416,84028,0.75,0.2 M,0,85712,,359,255 C,0,85712,,255,183,183 F,15,85712,86324,1,0 S,15,85712,86324,0.75,0.2 P,0,85712,86324,A
Sprite,Foreground,Centre,"sb\hl.png",0,0 M,0,70099,,340,56 F,0,70099,,1 S,0,70099,,0.75 C,0,70099,,255,183,183 M,0,70099,70137,340,56,347.2216,81.39072 P,0,70099,70864,A M,0,70137,70175,347.2216,81.39072,353.4343,107.0464 M,0,70175,70213,353.4343,107.0464,358.6284,132.927 M,0,70213,70252,358.6284,132.927,362.7959,158.9924 F,15,70252,70864,1,0 S,15,70252,70864,0.75,0.2 M,0,71171,,214,251 C,0,71171,,255,183,183 F,15,71171,71783,1,0 S,15,71171,71783,0.75,0.2 P,0,71171,71783,A M,0,72548,,541,277 F,0,72548,,1 S,0,72548,,0.75 C,0,72548,,255,183,183 M,0,72548,72586,541,277,545.8916,251.0582 P,0,72548,73313,A M,0,72586,72624,545.8916,251.0582,551.5277,225.2681 M,0,72624,72662,551.5277,225.2681,557.9034,199.651 M,0,72662,72701,557.9034,199.651,565.0137,174.2281 F,15,72701,73313,1,0 S,15,72701,73313,0.75,0.2 M,0,75304,,364,347 F,0,75304,,1 S,0,75304,,0.75 C,0,75304,,255,157,206 M,0,75304,75342,364,347,388.8668,338.1403 P,0,75304,76069,A M,0,75342,75380,388.8668,338.1403,414.0409,330.1973 M,0,75380,75418,414.0409,330.1973,439.4886,323.1816 M,0,75418,75457,439.4886,323.1816,465.1686,317.0688 F,15,75457,76069,1,0 S,15,75457,76069,0.75,0.2 M,0,78671,,332,228 F,0,78671,,1 S,0,78671,,0.75 C,0,78671,,255,157,206 M,0,78671,78709,332,228,306.8992,236.1538 P,0,78671,79359,A M,0,78709,78747,306.8992,236.1538,282.4738,246.1446 F,15,78747,79359,1,0 S,15,78747,79359,0.75,0.2 M,0,79895,,249,119 F,0,79895,,1 S,0,79895,,0.75 C,0,79895,,255,157,206 M,0,79895,79933,249,119,274.1947,126.8842 P,0,79895,80660,A M,0,79933,79971,274.1947,126.8842,299.5338,134.2909 M,0,79971,80009,299.5338,134.2909,325.0081,141.2176 M,0,80009,80048,325.0081,141.2176,350.6088,147.6615 F,15,80048,80660,1,0 S,15,80048,80660,0.75,0.2 M,0,81120,,503,361 F,0,81120,,1 S,0,81120,,0.75 C,0,81120,,255,157,206 M,0,81120,81158,503,361,482.8698,378.0802 P,0,81120,81885,A M,0,81158,81196,482.8698,378.0802,461.3477,385.0246 M,0,81196,81234,461.3477,385.0246,437.3587,374.0026 M,0,81234,81273,437.3587,374.0026,413.3696,362.9806 F,15,81273,81885,1,0 S,15,81273,81885,0.75,0.2 M,0,82345,,222,251 F,0,82345,,1 S,0,82345,,0.75 C,0,82345,,255,157,206 M,0,82345,82383,222,251,200.4608,236.0661 P,0,82345,83110,A M,0,82383,82421,200.4608,236.0661,185.609,214.5332 M,0,82421,82459,185.609,214.5332,179.3248,189.1776 M,0,82459,82498,179.3248,189.1776,181.9696,163.122 F,15,82498,83110,1,0 S,15,82498,83110,0.75,0.2 M,0,83875,,264,416 F,0,83875,,1 S,0,83875,,0.75 C,0,83875,,255,157,206 M,0,83875,83913,264,416,239.2267,406.9781 P,0,83875,84716,A M,0,83913,83951,239.2267,406.9781,217.7247,391.9106 M,0,83951,83989,217.7247,391.9106,202.6647,370.3112 M,0,83989,84028,202.6647,370.3112,186.8353,349.292 M,0,84028,84066,186.8353,349.292,165.3904,334.0455 M,0,84066,84104,165.3904,334.0455,141.1723,323.6016 F,15,84104,84716,1,0 S,15,84104,84716,0.75,0.2 M,0,85788,,363,265 F,0,85788,,1 S,0,85788,,0.75 C,0,85788,,255,183,183 M,0,85788,85826,363,265,355.022,290.1645 P,0,85788,86553,A M,0,85826,85864,355.022,290.1645,347.7765,315.5493 M,0,85864,85902,347.7765,315.5493,355.022,290.1645 M,0,85902,85941,355.022,290.1645,363,265 F,15,85941,86553,1,0 S,15,85941,86553,0.75,0.2
Sprite,Foreground,Centre,"sb\hl.png",0,0 M,0,78824,,132,323 F,0,78824,,1 S,0,78824,,0.75 C,0,78824,,255,157,206 M,0,78824,78862,132,323,156.9581,331.6049 P,0,78824,79512,A M,0,78862,78900,156.9581,331.6049,181.9802,340.0226 F,15,78900,79512,1,0 S,15,78900,79512,0.75,0.2
Sprite,Foreground,Centre,"sb\hl.png",0,0 M,0,91222,,320,248 C,0,91222,,255,157,206 F,15,91222,91834,1,0 S,15,91222,91834,0.75,0.2 P,0,91222,91834,A M,0,93671,,77,318 C,0,93671,,255,183,183 F,15,93671,94283,1,0 S,15,93671,94283,0.75,0.2 P,0,93671,94283,A M,0,94589,,402,77 C,0,94589,,255,157,206 F,15,94589,95201,1,0 S,15,94589,95201,0.75,0.2 P,0,94589,95201,A M,0,95202,,226,149 C,0,95202,,255,183,183 F,15,95202,95814,1,0 S,15,95202,95814,0.75,0.2 P,0,95202,95814,A M,0,96120,,502,428 C,0,96120,,255,183,183 F,15,96120,96732,1,0 S,15,96120,96732,0.75,0.2 P,0,96120,96732,A M,0,97038,,378,71 C,0,97038,,255,157,206 F,15,97038,97650,1,0 S,15,97038,97650,0.75,0.2 P,0,97038,97650,A M,0,97957,,257,330 F,0,97957,,1 S,0,97957,,0.75 C,0,97957,,255,183,183 M,0,97957,97995,257,330,278.416,325.3639 P,0,97957,98875,A M,0,97995,98033,278.416,325.3639,300.3064,325.3006 M,0,98033,98071,300.3064,325.3006,321.6932,330.1605 M,0,98071,98110,321.6932,330.1605,341.1801,340.176 M,0,98110,98148,341.1801,340.176,358.113,354.0439 M,0,98148,98186,358.113,354.0439,371.5262,371.3888 M,0,98186,98224,371.5262,371.3888,380.2209,391.4976 M,0,98224,98263,380.2209,391.4976,384.4714,412.9647 F,15,98263,98875,1,0 S,15,98263,98875,0.75,0.2 M,0,99028,,227,124 C,0,99028,,255,183,183 F,15,99028,99640,1,0 S,15,99028,99640,0.75,0.2 P,0,99028,99640,A M,0,100099,,454,251 C,0,100099,,255,157,206 F,15,100099,100711,1,0 S,15,100099,100711,0.75,0.2 P,0,100099,100711,A M,0,100712,,486,337 F,0,100712,,1 S,0,100712,,0.75 C,0,100712,,255,183,183 M,0,100712,100750,486,337,502.2372,330.2149 P,0,100712,101477,A M,0,100750,100788,502.2372,330.2149,518.7478,324.1279 M,0,100788,100826,518.7478,324.1279,535.5021,318.75 M,0,100826,100865,535.5021,318.75,552.4698,314.0908 F,15,100865,101477,1,0 S,15,100865,101477,0.75,0.2
Sprite,Foreground,Centre,"sb\hl.png",0,0 M,0,91298,,320,248 F,0,91298,,1 S,0,91298,,0.75 C,0,91298,,255,157,206 P,0,91298,93977,A F,15,93365,93977,1,0 S,15,93365,93977,0.75,0.2 M,0,94130,,172,298 F,0,94130,,1 S,0,94130,,0.75 C,0,94130,,255,157,206 M,0,94130,94168,172,298,191.5184,307.9303 P,0,94130,95048,A M,0,94168,94206,191.5184,307.9303,212.7455,313.1888 M,0,94206,94244,212.7455,313.1888,234.6487,313.1523 M,0,94244,94283,234.6487,313.1523,255.7645,307.3806 M,0,94283,94321,255.7645,307.3806,274.9459,296.9024 M,0,94321,94359,274.9459,296.9024,291.039,282.0765 M,0,94359,94397,291.039,282.0765,303.0868,263.7604 M,0,94397,94436,303.0868,263.7604,309.8231,242.9255 F,15,94436,95048,1,0 S,15,94436,95048,0.75,0.2 M,0,95355,,195,63 C,0,95355,,255,183,183 F,15,95355,95967,1,0 S,15,95355,95967,0.75,0.2 P,0,95355,95967,A M,0,96273,,554,226 C,0,96273,,255,183,183 F,15,96273,96885,1,0 S,15,96273,96885,0.75,0.2 P,0,96273,96885,A M,0,97191,,329,153 C,0,97191,,255,157,206 F,15,97191,97803,1,0 S,15,97191,97803,0.75,0.2 P,0,97191,97803,A M,0,98569,,94,59 C,0,98569,,255,157,206 F,15,98569,99181,1,0 S,15,98569,99181,0.75,0.2 P,0,98569,99181,A M,0,99334,,146,212 F,0,99334,,1 S,0,99334,,0.75 C,0,99334,,255,157,206 M,0,99334,99372,146,212,140.8703,190.6065 P,0,99334,100099,A M,0,99372,99410,140.8703,190.6065,135.5829,169.2515 M,0,99410,99448,135.5829,169.2515,140.8703,190.6065 M,0,99448,99487,140.8703,190.6065,146,212 F,15,99487,100099,1,0 S,15,99487,100099,0.75,0.2 M,0,100252,,372,376 F,0,100252,,1 S,0,100252,,0.75 C,0,100252,,255,157,206 M,0,100252,100290,372,376,381.2308,351.2669 P,0,100252,100940,A M,0,100290,100328,381.2308,351.2669,390.8609,326.6869 F,15,100328,100940,1,0 S,15,100328,100940,0.75,0.2
Sprite,Foreground,Centre,"sb\hl.png",0,0 M,0,93824,,237,194 C,0,93824,,255,183,183 F,15,93824,94436,1,0 S,15,93824,94436,0.75,0.2 P,0,93824,94436,A M,0,94742,,415,195 F,0,94742,,1 S,0,94742,,0.75 C,0,94742,,255,157,206 M,0,94742,94780,415,195,396.1571,183.6459 P,0,94742,95507,A M,0,94780,94818,396.1571,183.6459,377.1161,172.6272 M,0,94818,94856,377.1161,172.6272,357.8411,162.0234 M,0,94856,94895,357.8411,162.0234,338.3774,151.7701 F,15,94895,95507,1,0 S,15,94895,95507,0.75,0.2 M,0,95508,,189,72 F,0,95508,,1 S,0,95508,,0.75 C,0,95508,,255,157,206 M,0,95508,95546,189,72,194.9381,93.1826 P,0,95508,96426,A M,0,95546,95584,194.9381,93.1826,200.4494,114.4801 M,0,95584,95622,200.4494,114.4801,205.4618,135.9005 M,0,95622,95661,205.4618,135.9005,210.0221,157.4214 M,0,95661,95699,210.0221,157.4214,214.1153,179.0363 M,0,95699,95737,214.1153,179.0363,217.6998,200.7414 M,0,95737,95775,217.6998,200.7414,220.8294,222.5165 M,0,95775,95814,220.8294,222.5165,223.4866,244.3545 F,15,95814,96426,1,0 S,15,95814,96426,0.75,0.2 M,0,96579,,504,311 F,0,96579,,1 S,0,96579,,0.75 C,0,96579,,255,157,206 M,0,96579,96617,504,311,515.1271,292.1316 P,0,96579,97497,A M,0,96617,96655,515.1271,292.1316,521.9059,271.3246 M,0,96655,96693,521.9059,271.3246,523.6644,249.4625 M,0,96693,96732,523.6644,249.4625,519.6957,227.9201 M,0,96732,96770,519.6957,227.9201,511.1727,207.7646 M,0,96770,96808,511.1727,207.7646,498.1671,190.104 M,0,96808,96846,498.1671,190.104,481.0466,176.4395 M,0,96846,96885,481.0466,176.4395,461.3965,166.8084 F,15,96885,97497,1,0 S,15,96885,97497,0.75,0.2 M,0,97650,,360,307 F,0,97650,,1 S,0,97650,,0.75 C,0,97650,,255,183,183 M,0,97650,97688,360,307,364.0996,285.3885 P,0,97650,98415,A M,0,97688,97726,364.0996,285.3885,369.0564,263.9583 M,0,97726,97764,369.0564,263.9583,374.9249,242.7586 M,0,97764,97803,374.9249,242.7586,381.7144,221.8346 F,15,97803,98415,1,0 S,15,97803,98415,0.75,0.2 M,0,98722,,304,162 C,0,98722,,255,157,206 F,15,98722,99334,1,0 S,15,98722,99334,0.75,0.2 P,0,98722,99334,A M,0,99640,,142,422 F,0,99640,,1 S,0,99640,,0.75 C,0,99640,,255,183,183 M,0,99640,99678,142,422,163.317,416.5891 P,0,99640,100558,A M,0,99678,99716,163.317,416.5891,183.8846,408.8351 M,0,99716,99754,183.8846,408.8351,202.6606,397.4615 M,0,99754,99793,202.6606,397.4615,218.4449,382.1827 M,0,99793,99831,218.4449,382.1827,233.6496,366.3036 M,0,99831,99869,233.6496,366.3036,251.7526,353.9002 M,0,99869,99907,251.7526,353.9002,272.0526,345.4868 M,0,99907,99946,272.0526,345.4868,293.2794,339.7404 F,15,99946,100558,1,0 S,15,99946,100558,0.75,0.2
Sprite,Foreground,Centre,"sb\hl.png",0,0 M,0,93977,,253,422 C,0,93977,,255,183,183 F,15,93977,94589,1,0 S,15,93977,94589,0.75,0.2 P,0,93977,94589,A M,0,95048,,145,192 C,0,95048,,255,183,183 F,15,95048,95660,1,0 S,15,95048,95660,0.75,0.2 P,0,95048,95660,A M,0,96426,,379,331 C,0,96426,,255,183,183 F,15,96426,97038,1,0 S,15,96426,97038,0.75,0.2 P,0,96426,97038,A M,0,97344,,228,109 F,0,97344,,1 S,0,97344,,0.75 C,0,97344,,255,183,183 M,0,97344,97382,228,109,234.6983,129.9529 P,0,97344,98109,A M,0,97382,97420,234.6983,129.9529,240.6425,151.1313 M,0,97420,97458,240.6425,151.1313,245.7682,172.5236 M,0,97458,97497,245.7682,172.5236,249.9866,194.1126 F,15,97497,98109,1,0 S,15,97497,98109,0.75,0.2 M,0,98875,,64,272 C,0,98875,,255,183,183 F,15,98875,99487,1,0 S,15,98875,99487,0.75,0.2 P,0,98875,99487,A M,0,100406,,327,175 F,0,100406,,1 S,0,100406,,0.75 C,0,100406,,255,183,183 M,0,100406,100444,327,175,314.3839,193.0231 P,0,100406,101171,A M,0,100444,100482,314.3839,193.0231,319.0427,213.6315 M,0,100482,100520,319.0427,213.6315,325.8297,234.5584 M,0,100520,100559,325.8297,234.5584,332.6169,255.4853 F,15,100559,101171,1,0 S,15,100559,101171,0.75,0.2
Sprite,Foreground,Centre,"sb\hl.png",0,0 M,0,99181,,204,345 C,0,99181,,255,157,206 F,15,99181,99793,1,0 S,15,99181,99793,0.75,0.2 P,0,99181,99793,A
Sprite,Foreground,Centre,"sb\hl.png",0,0 M,0,140200,,134,171 F,0,140200,,1 S,0,140200,,0.75 C,0,140200,,255,157,206 M,0,140200,140238,134,171,164.2651,176.339 P,0,140200,141041,A M,0,140238,140276,164.2651,176.339,191.3541,190.5992 M,0,140276,140314,191.3541,190.5992,213.2333,212.2371 M,0,140314,140353,213.2333,212.2371,236.8666,231.8404 M,0,140353,140391,236.8666,231.8404,265.1664,243.745 M,0,140391,140429,265.1664,243.745,295.4191,249.3407 F,15,140429,141041,1,0 S,15,140429,141041,0.75,0.2 M,0,141042,,499,91 C,0,141042,,255,183,183 F,15,141042,141654,1,0 S,15,141042,141654,0.75,0.2 P,0,141042,141654,A M,0,141731,,307,405 F,0,141731,,1 S,0,141731,,0.75 C,0,141731,,255,157,206 M,0,141731,141769,307,405,282.0994,396.2302 P,0,141731,142496,A M,0,141769,141807,282.0994,396.2302,257.1101,387.7162 M,0,141807,141845,257.1101,387.7162,232.0349,379.4591 M,0,141845,141884,232.0349,379.4591,206.8763,371.4596 F,15,141884,142496,1,0 S,15,141884,142496,0.75,0.2 M,0,142649,,231,220 F,0,142649,,1 S,0,142649,,0.75 C,0,142649,,255,157,206 M,0,142649,142687,231,220,256.5828,226.1357 P,0,142649,143490,A M,0,142687,142725,256.5828,226.1357,278.1838,240.9867 M,0,142725,142763,278.1838,240.9867,295.2148,261.1455 M,0,142763,142802,295.2148,261.1455,314.1133,279.4919 M,0,142802,142840,314.1133,279.4919,337.0303,292.4597 M,0,142840,142878,337.0303,292.4597,362.147,300.4919 F,15,142878,143490,1,0 S,15,142878,143490,0.75,0.2 M,0,143491,,467,337 C,0,143491,,255,183,183 F,15,143491,144103,1,0 S,15,143491,144103,0.75,0.2 P,0,143491,144103,A M,0,144180,,569,229 F,0,144180,,1 S,0,144180,,0.75 C,0,144180,,255,157,206 M,0,144180,144218,569,229,580.3502,205.1645 P,0,144180,144945,A M,0,144218,144256,580.3502,205.1645,585.7812,181.6063 M,0,144256,144294,585.7812,181.6063,572.2523,158.9362 M,0,144294,144333,572.2523,158.9362,558.7234,136.2663 F,15,144333,144945,1,0 S,15,144333,144945,0.75,0.2 M,0,145404,,337,279 C,0,145404,,255,157,206 F,15,145404,146016,1,0 S,15,145404,146016,0.75,0.2 P,0,145404,146016,A M,0,146017,,160,75 C,0,146017,,255,183,183 F,15,146017,146629,1,0 S,15,146017,146629,0.75,0.2 P,0,146017,146629,A M,0,146782,,515,232 F,0,146782,,1 S,0,146782,,0.75 C,0,146782,,255,183,183 M,0,146782,146820,515,232,488.8044,232.771 P,0,146782,147547,A M,0,146820,146858,488.8044,232.771,464.1075,224.1616 M,0,146858,146896,464.1075,224.1616,444.1371,207.3284 M,0,146896,146935,444.1371,207.3284,431.5004,184.4933 F,15,146935,147547,1,0 S,15,146935,147547,0.75,0.2 M,0,147853,,437,179 F,0,147853,,1 S,0,147853,,0.75 C,0,147853,,255,157,206 M,0,147853,147891,437,179,424.9779,155.4961 P,0,147853,148618,A M,0,147891,147929,424.9779,155.4961,412.9738,131.9833 M,0,147929,147967,412.9738,131.9833,400.9865,108.4617 M,0,147967,148006,400.9865,108.4617,389.0149,84.93164 F,15,148006,148618,1,0 S,15,148006,148618,0.75,0.2 M,0,148772,,255,172 C,0,148772,,255,157,206 F,15,148772,149384,1,0 S,15,148772,149384,0.75,0.2 P,0,148772,149384,A M,0,149537,,127,226 C,0,149537,,255,157,206 F,15,149537,150149,1,0 S,15,149537,150149,0.75,0.2 P,0,149537,150149,A M,0,150302,,192,157 F,0,150302,,1 S,0,150302,,0.75 C,0,150302,,255,183,183 M,0,150302,150340,192,157,177.0422,130.076 P,0,150302,151067,A M,0,150340,150378,177.0422,130.076,162.0844,103.1519 M,0,150378,150416,162.0844,103.1519,184.8452,82.60246 M,0,150416,150455,184.8452,82.60246,207.8201,62.08917 F,15,150455,151067,1,0 S,15,150455,151067,0.75,0.2 M,0,151221,,204,252 F,0,151221,,1 S,0,151221,,0.75 C,0,151221,,255,183,183 M,0,151221,151259,204,252,229.4287,245.4815 P,0,151221,151986,A M,0,151259,151297,229.4287,245.4815,251.402,231.1884 M,0,151297,151335,251.402,231.1884,267.6264,210.6367 M,0,151335,151374,267.6264,210.6367,276.4115,185.9913 F,15,151374,151986,1,0 S,15,151374,151986,0.75,0.2 M,0,152139,,542,180 F,0,152139,,1 S,0,152139,,0.75 C,0,152139,,255,157,206 M,0,152139,152177,542,180,560.2483,160.9223 P,0,152139,152904,A M,0,152177,152215,560.2483,160.9223,559.1721,136.5909 M,0,152215,152253,559.1721,136.5909,553.0946,110.9 M,0,152253,152292,553.0946,110.9,547.0172,85.20905 F,15,152292,152904,1,0 S,15,152292,152904,0.75,0.2 M,0,153057,,244,86 C,0,153057,,255,157,206 F,15,153057,153669,1,0 S,15,153057,153669,0.75,0.2 P,0,153057,153669,A M,0,153670,,415,215 C,0,153670,,255,183,183 F,15,153670,154282,1,0 S,15,153670,154282,0.75,0.2 P,0,153670,154282,A M,0,154511,,286,440 C,0,154511,,255,157,206 F,15,154511,155123,1,0 S,15,154511,155123,0.75,0.2 P,0,154511,155123,A M,0,155200,,538,214 C,0,155200,,255,157,206 F,15,155200,155812,1,0 S,15,155200,155812,0.75,0.2 P,0,155200,155812,A M,0,155966,,544,332 F,0,155966,,1 S,0,155966,,0.75 C,0,155966,,255,157,206 M,0,155966,156004,544,332,519.4098,322.6242 P,0,155966,156884,A M,0,156004,156042,519.4098,322.6242,493.3129,319.3998 M,0,156042,156080,493.3129,319.3998,467.2177,322.5049 M,0,156080,156119,467.2177,322.5049,442.6307,331.7541 M,0,156119,156157,442.6307,331.7541,420.7867,346.3973 M,0,156157,156195,420.7867,346.3973,403.3707,366.12 M,0,156195,156233,403.3707,366.12,391.1828,389.4156 M,0,156233,156272,391.1828,389.4156,384.92,414.9349 F,15,156272,156884,1,0 S,15,156272,156884,0.75,0.2 M,0,157037,,456,165 F,0,157037,,1 S,0,157037,,0.75 C,0,157037,,255,183,183 M,0,157037,157075,456,165,431.4848,155.2054 P,0,157037,157802,A M,0,157075,157113,431.4848,155.2054,406.7781,145.9049 M,0,157113,157151,406.7781,145.9049,381.8898,137.1025 M,0,157151,157190,381.8898,137.1025,356.835,128.7852 F,15,157190,157802,1,0 S,15,157190,157802,0.75,0.2
Sprite,Foreground,Centre,"sb\hl.png",0,0 M,0,140506,,364,300 F,0,140506,,1 S,0,140506,,0.75 C,0,140506,,255,157,206 M,0,140506,140544,364,300,386.9926,279.5066 P,0,140506,141271,A M,0,140544,140582,386.9926,279.5066,409.9852,259.0132 M,0,140582,140620,409.9852,259.0132,394.7731,232.25 M,0,140620,140659,394.7731,232.25,379.5364,205.4828 F,15,140659,141271,1,0 S,15,140659,141271,0.75,0.2 M,0,141425,,553,267 F,0,141425,,1 S,0,141425,,0.75 C,0,141425,,255,157,206 M,0,141425,141463,553,267,526.7583,266.8564 P,0,141425,142190,A M,0,141463,141501,526.7583,266.8564,502.015,275.4879 M,0,141501,141539,502.015,275.4879,481.6088,291.8817 M,0,141539,141578,481.6088,291.8817,467.8765,314.1388 F,15,141578,142190,1,0 S,15,141578,142190,0.75,0.2 M,0,142343,,94,150 F,0,142343,,1 S,0,142343,,0.75 C,0,142343,,255,183,183 M,0,142343,142381,94,150,77.18633,129.6466 P,0,142343,143108,A M,0,142381,142419,77.18633,129.6466,82.34756,105.2399 M,0,142419,142457,82.34756,105.2399,90.79337,80.22733 M,0,142457,142496,90.79337,80.22733,99.23917,55.21476 F,15,142496,143108,1,0 S,15,142496,143108,0.75,0.2 M,0,143261,,341,185 C,0,143261,,255,183,183 F,15,143261,143873,1,0 S,15,143261,143873,0.75,0.2 P,0,143261,143873,A M,0,143874,,544,411 C,0,143874,,255,157,206 F,15,143874,144486,1,0 S,15,143874,144486,0.75,0.2 P,0,143874,144486,A M,0,144639,,494,187 F,0,144639,,1 S,0,144639,,0.75 C,0,144639,,255,183,183 M,0,144639,144677,494,187,469.1768,195.9869 P,0,144639,145404,A M,0,144677,144715,469.1768,195.9869,444.4035,205.1105 M,0,144715,144753,444.4035,205.1105,419.6805,214.3699 M,0,144753,144792,419.6805,214.3699,395.0088,223.7645 F,15,144792,145404,1,0 S,15,144792,145404,0.75,0.2 M,0,145557,,165,356 F,0,145557,,1 S,0,145557,,0.75 C,0,145557,,255,183,183 M,0,145557,145595,165,356,158.762,330.3479 P,0,145557,146398,A M,0,145595,145633,158.762,330.3479,152.1621,304.7865 M,0,145633,145671,152.1621,304.7865,145.2018,279.3211 M,0,145671,145710,145.2018,279.3211,137.8971,253.9521 M,0,145710,145748,137.8971,253.9521,130.2109,228.6961 M,0,145748,145786,130.2109,228.6961,122.1684,203.5514 F,15,145786,146398,1,0 S,15,145786,146398,0.75,0.2 M,0,146629,,475,108 C,0,146629,,255,157,206 F,15,146629,147241,1,0 S,15,146629,147241,0.75,0.2 P,0,146629,147241,A M,0,147547,,495,338 F,0,147547,,1 S,0,147547,,0.75 C,0,147547,,255,157,206 M,0,147547,147585,495,338,518.2484,325.4944 P,0,147547,148312,A M,0,147585,147623,518.2484,325.4944,541.9116,313.7931 M,0,147623,147661,541.9116,313.7931,565.9618,302.91 M,0,147661,147700,565.9618,302.91,590.3707,292.8578 F,15,147700,148312,1,0 S,15,147700,148312,0.75,0.2 M,0,148466,,533,208 F,0,148466,,1 S,0,148466,,0.75 C,0,148466,,255,183,183 M,0,148466,148504,533,208,540.2693,182.6216 P,0,148466,149231,A M,0,148504,148542,540.2693,182.6216,548.2157,157.4474 M,0,148542,148580,548.2157,157.4474,556.8335,132.4952 M,0,148580,148619,556.8335,132.4952,566.0875,107.7715 F,15,148619,149231,1,0 S,15,148619,149231,0.75,0.2 M,0,149384,,285,95 C,0,149384,,255,183,183 F,15,149384,149996,1,0 S,15,149384,149996,0.75,0.2 P,0,149384,149996,A M,0,150608,,285,95 C,0,150608,,255,157,206 F,15,150608,151220,1,0 S,15,150608,151220,0.75,0.2 P,0,150608,151220,A M,0,151527,,360,352 F,0,151527,,1 S,0,151527,,0.75 C,0,151527,,255,183,183 M,0,151527,151565,360,352,382.8848,364.7862 P,0,151527,152292,A M,0,151565,151603,382.8848,364.7862,399.9159,384.6461 M,0,151603,151641,399.9159,384.6461,409.0322,409.1351 M,0,151641,151680,409.0322,409.1351,409.4523,435.3 F,15,151680,152292,1,0 S,15,151680,152292,0.75,0.2 M,0,152445,,397,235 F,0,152445,,1 S,0,152445,,0.75 C,0,152445,,255,183,183 M,0,152445,152483,397,235,371.1211,229.9689 P,0,152445,153286,A M,0,152483,152521,371.1211,229.9689,347.1646,219.0948 M,0,152521,152559,347.1646,219.0948,326.9013,202.2431 M,0,152559,152598,326.9013,202.2431,307.0036,184.9396 M,0,152598,152636,307.0036,184.9396,283.454,173.2236 M,0,152636,152674,283.454,173.2236,257.6928,167.6488 F,15,152674,153286,1,0 S,15,152674,153286,0.75,0.2 M,0,153287,,64,243 C,0,153287,,255,157,206 F,15,153287,153899,1,0 S,15,153287,153899,0.75,0.2 P,0,153287,153899,A M,0,153976,,443,440 C,0,153976,,255,183,183 F,15,153976,154588,1,0 S,15,153976,154588,0.75,0.2 P,0,153976,154588,A M,0,154741,,172,254 F,0,154741,,1 S,0,154741,,0.75 C,0,154741,,255,183,183 M,0,154741,154779,172,254,181.2419,229.271 P,0,154741,155429,A M,0,154779,154817,181.2419,229.271,190.1515,204.4203 F,15,154817,155429,1,0 S,15,154817,155429,0.75,0.2 M,0,155659,,384,328 F,0,155659,,1 S,0,155659,,0.75 C,0,155659,,255,183,183 M,0,155659,155697,384,328,366.5742,308.3601 P,0,155659,156424,A M,0,155697,155735,366.5742,308.3601,359.0476,283.3222 M,0,155735,155773,359.0476,283.3222,370.4968,295.614 M,0,155773,155812,370.4968,295.614,389.0945,314.2953 F,15,155812,156424,1,0 S,15,155812,156424,0.75,0.2 M,0,156425,,464,440 C,0,156425,,255,157,206 F,15,156425,157037,1,0 S,15,156425,157037,0.75,0.2 P,0,156425,157037,A
Sprite,Foreground,Centre,"sb\hl.png",0,0 M,0,140813,,315,133 C,0,140813,,255,183,183 F,15,140813,141425,1,0 S,15,140813,141425,0.75,0.2 P,0,140813,141425,A M,0,141960,,117,321 C,0,141960,,255,157,206 F,15,141960,142572,1,0 S,15,141960,142572,0.75,0.2 P,0,141960,142572,A M,0,142955,,429,251 F,0,142955,,1 S,0,142955,,0.75 C,0,142955,,255,157,206 M,0,142955,142993,429,251,440.408,227.1921 P,0,142955,143720,A M,0,142993,143031,440.408,227.1921,451.8159,203.3841 M,0,143031,143069,451.8159,203.3841,435.9704,182.5622 M,0,143069,143108,435.9704,182.5622,419.6779,161.7893 F,15,143108,143720,1,0 S,15,143108,143720,0.75,0.2 M,0,144027,,362,300 C,0,144027,,255,157,206 F,15,144027,144639,1,0 S,15,144027,144639,0.75,0.2 P,0,144027,144639,A M,0,144945,,163,277 F,0,144945,,1 S,0,144945,,0.75 C,0,144945,,255,157,206 M,0,144945,144983,163,277,189.225,279.8753 P,0,144945,145863,A M,0,144983,145021,189.225,279.8753,214.484,287.3289 M,0,145021,145059,214.484,287.3289,236.2339,302.0419 M,0,145059,145098,236.2339,302.0419,253.4124,322.063 M,0,145098,145136,253.4124,322.063,271.6097,341.1281 M,0,145136,145174,271.6097,341.1281,293.7586,355.3738 M,0,145174,145212,293.7586,355.3738,318.3738,364.8319 M,0,145212,145251,318.3738,364.8319,344.0386,370.9662 F,15,145251,145863,1,0 S,15,145251,145863,0.75,0.2 M,0,145864,,64,143 C,0,145864,,255,183,183 F,15,145864,146476,1,0 S,15,145864,146476,0.75,0.2 P,0,145864,146476,A M,0,147088,,572,105 C,0,147088,,255,183,183 F,15,147088,147700,1,0 S,15,147088,147700,0.75,0.2 P,0,147088,147700,A M,0,148159,,393,338 F,0,148159,,1 S,0,148159,,0.75 C,0,148159,,255,183,183 M,0,148159,148197,393,338,403.751,362.111 P,0,148159,148924,A M,0,148197,148235,403.751,362.111,413.9618,386.4555 M,0,148235,148273,413.9618,386.4555,423.6271,411.0214 M,0,148273,148312,423.6271,411.0214,432.7424,435.7966 F,15,148312,148924,1,0 S,15,148312,148924,0.75,0.2 M,0,148925,,451,263 C,0,148925,,255,157,206 F,15,148925,149537,1,0 S,15,148925,149537,0.75,0.2 P,0,148925,149537,A M,0,149614,,127,226 C,0,149614,,255,157,206 F,15,149614,150226,1,0 S,15,149614,150226,0.75,0.2 P,0,149614,150226,A M,0,150761,,102,200 C,0,150761,,255,157,206 F,15,150761,151373,1,0 S,15,150761,151373,0.75,0.2 P,0,150761,151373,A M,0,151756,,491,401 C,0,151756,,255,183,183 F,15,151756,152368,1,0 S,15,151756,152368,0.75,0.2 P,0,151756,152368,A M,0,152751,,178,200 F,0,152751,,1 S,0,152751,,0.75 C,0,152751,,255,183,183 M,0,152751,152789,178,200,158.5816,182.1146 P,0,152751,153516,A M,0,152789,152827,158.5816,182.1146,140.4282,163.946 M,0,152827,152865,140.4282,163.946,150.3645,139.4873 M,0,152865,152904,150.3645,139.4873,160.3009,115.0286 F,15,152904,153516,1,0 S,15,152904,153516,0.75,0.2 M,0,153823,,235,317 C,0,153823,,255,183,183 F,15,153823,154435,1,0 S,15,153823,154435,0.75,0.2 P,0,153823,154435,A M,0,154588,,291,432 F,0,154588,,1 S,0,154588,,0.75 C,0,154588,,255,183,183 M,0,154588,154626,291,432,284.808,406.3379 P,0,154588,155276,A M,0,154626,154664,284.808,406.3379,279.5256,380.4732 F,15,154664,155276,1,0 S,15,154664,155276,0.75,0.2 M,0,155353,,477,80 F,0,155353,,1 S,0,155353,,0.75 C,0,155353,,255,183,183 M,0,155353,155391,477,80,467.9636,107.1335 P,0,155353,156194,A M,0,155391,155429,467.9636,107.1335,459.6883,134.5083 M,0,155429,155467,459.6883,134.5083,452.168,162.1001 M,0,155467,155506,452.168,162.1001,445.4626,189.9012 M,0,155506,155544,445.4626,189.9012,439.5149,217.8743 M,0,155544,155582,439.5149,217.8743,434.4012,246.0118 F,15,155582,156194,1,0 S,15,155582,156194,0.75,0.2 M,0,156578,,315,255 C,0,156578,,255,157,206 F,15,156578,157190,1,0 S,15,156578,157190,0.75,0.2 P,0,156578,157190,A
Sprite,Foreground,Centre,"sb\hl.png",0,0 M,0,140966,,499,91 C,0,140966,,255,183,183 F,15,140966,141578,1,0 S,15,140966,141578,0.75,0.2 P,0,140966,141578,A M,0,142037,,110,314 F,0,142037,,1 S,0,142037,,0.75 C,0,142037,,255,183,183 M,0,142037,142075,110,314,116.3151,339.6318 P,0,142037,142725,A M,0,142075,142113,116.3151,339.6318,121.9004,365.4317 F,15,142113,142725,1,0 S,15,142113,142725,0.75,0.2 M,0,143415,,467,337 C,0,143415,,255,183,183 F,15,143415,144027,1,0 S,15,143415,144027,0.75,0.2 P,0,143415,144027,A M,0,144486,,364,68 C,0,144486,,255,183,183 F,15,144486,145098,1,0 S,15,144486,145098,0.75,0.2 P,0,144486,145098,A M,0,146170,,207,185 C,0,146170,,255,183,183 F,15,146170,146782,1,0 S,15,146170,146782,0.75,0.2 P,0,146170,146782,A M,0,147241,,572,105 F,0,147241,,1 S,0,147241,,0.75 C,0,147241,,255,183,183 M,0,147241,147279,572,105,564.2949,130.2498 P,0,147241,148006,A M,0,147279,147317,564.2949,130.2498,557.2064,155.6796 M,0,147317,147355,557.2064,155.6796,564.2949,130.2498 M,0,147355,147394,564.2949,130.2498,572,105 F,15,147394,148006,1,0 S,15,147394,148006,0.75,0.2 M,0,149078,,244,414 F,0,149078,,1 S,0,149078,,0.75 C,0,149078,,255,183,183 M,0,149078,149116,244,414,236.0296,388.8331 P,0,149078,149843,A M,0,149116,149154,236.0296,388.8331,227.3715,363.8947 M,0,149154,149192,227.3715,363.8947,218.0323,339.2035 M,0,149192,149231,218.0323,339.2035,208.0188,314.7781 F,15,149231,149843,1,0 S,15,149231,149843,0.75,0.2 M,0,149996,,436,109 F,0,149996,,1 S,0,149996,,0.75 C,0,149996,,255,183,183 M,0,149996,150034,436,109,405.6698,113.9457 P,0,149996,150837,A M,0,150034,150072,405.6698,113.9457,378.7495,128.4086 M,0,150072,150110,378.7495,128.4086,358.827,151.8129 M,0,150110,150149,358.827,151.8129,337.0153,173.3141 M,0,150149,150187,337.0153,173.3141,308.4266,184.2689 M,0,150187,150225,308.4266,184.2689,277.8048,187.1309 F,15,150225,150837,1,0 S,15,150225,150837,0.75,0.2 M,0,150838,,102,200 C,0,150838,,255,157,206 F,15,150838,151450,1,0 S,15,150838,151450,0.75,0.2 P,0,150838,151450,A M,0,151832,,497,392 F,0,151832,,1 S,0,151832,,0.75 C,0,151832,,255,157,206 M,0,151832,151870,497,392,490.452,366.4261 P,0,151832,152520,A M,0,151870,151908,490.452,366.4261,484.6549,340.6717 F,15,151908,152520,1,0 S,15,151908,152520,0.75,0.2 M,0,153210,,64,243 C,0,153210,,255,157,206 F,15,153210,153822,1,0 S,15,153210,153822,0.75,0.2 P,0,153210,153822,A M,0,154129,,376,345 F,0,154129,,1 S,0,154129,,0.75 C,0,154129,,255,157,206 M,0,154129,154167,376,345,353.029,332.1727 P,0,154129,155047,A M,0,154167,154205,353.029,332.1727,327.6495,325.3347 M,0,154205,154243,327.6495,325.3347,301.3845,324.8867 M,0,154243,154282,301.3845,324.8867,275.7269,330.6189 M,0,154282,154320,275.7269,330.6189,252.4172,342.7982 M,0,154320,154358,252.4172,342.7982,232.7935,360.275 M,0,154358,154396,232.7935,360.275,218.0264,381.9963 M,0,154396,154435,218.0264,381.9963,208.8185,406.6097 F,15,154435,155047,1,0 S,15,154435,155047,0.75,0.2 M,0,156731,,533,210 C,0,156731,,255,183,183 F,15,156731,157343,1,0 S,15,156731,157343,0.75,0.2 P,0,156731,157343,A
Sprite,Foreground,Centre,"sb\hl.png",0,0 M,0,141118,,499,91 F,0,141118,,1 S,0,141118,,0.75 C,0,141118,,255,183,183 M,0,141118,141156,499,91,492.8702,116.6783 P,0,141118,141883,A M,0,141156,141194,492.8702,116.6783,486.4824,142.2937 M,0,141194,141232,486.4824,142.2937,479.8374,167.8435 M,0,141232,141271,479.8374,167.8435,472.9356,193.3252 F,15,141271,141883,1,0 S,15,141271,141883,0.75,0.2 M,0,142190,,244,235 C,0,142190,,255,183,183 F,15,142190,142802,1,0 S,15,142190,142802,0.75,0.2 P,0,142190,142802,A M,0,143568,,467,337 F,0,143568,,1 S,0,143568,,0.75 C,0,143568,,255,183,183 M,0,143568,143606,467,337,461.9558,362.9136 P,0,143568,144333,A M,0,143606,143644,461.9558,362.9136,456.8333,388.8119 M,0,143644,143682,456.8333,388.8119,451.6333,414.6947 M,0,143682,143721,451.6333,414.6947,446.3559,440.5617 F,15,143721,144333,1,0 S,15,143721,144333,0.75,0.2 M,0,146323,,296,118 F,0,146323,,1 S,0,146323,,0.75 C,0,146323,,255,157,206 M,0,146323,146361,296,118,321.0253,109.6041 P,0,146323,147088,A M,0,146361,146399,321.0253,109.6041,345.5863,99.93694 M,0,146399,146437,345.5863,99.93694,369.619,89.02385 M,0,146437,146476,369.619,89.02385,393,77 F,15,146476,147088,1,0 S,15,146476,147088,0.75,0.2 M,0,149690,,127,226 F,0,149690,,1 S,0,149690,,0.75 C,0,149690,,255,157,206 M,0,149690,149728,127,226,152.5766,232.5382 P,0,149690,150378,A M,0,149728,149766,152.5766,232.5382,177.9625,239.7809 F,15,149766,150378,1,0 S,15,149766,150378,0.75,0.2 M,0,150915,,102,200 F,0,150915,,1 S,0,150915,,0.75 C,0,150915,,255,157,206 M,0,150915,150953,102,200,109.448,225.3258 P,0,150915,151680,A M,0,150953,150991,109.448,225.3258,115.9608,250.9078 M,0,150991,151029,115.9608,250.9078,121.5295,276.7114 M,0,151029,151068,121.5295,276.7114,126.1655,302.6992 F,15,151068,151680,1,0 S,15,151068,151680,0.75,0.2 M,0,151986,,383,246 C,0,151986,,255,157,206 F,15,151986,152598,1,0 S,15,151986,152598,0.75,0.2 P,0,151986,152598,A M,0,153364,,64,243 F,0,153364,,1 S,0,153364,,0.75 C,0,153364,,255,157,206 M,0,153364,153402,64,243,88.85863,251.8793 P,0,153364,154129,A M,0,153402,153440,88.85863,251.8793,113.2652,261.9327 M,0,153440,153478,113.2652,261.9327,137.1645,273.1375 M,0,153478,153517,137.1645,273.1375,160.5023,285.4681 F,15,153517,154129,1,0 S,15,153517,154129,0.75,0.2 M,0,154894,,344,80 F,0,154894,,1 S,0,154894,,0.75 C,0,154894,,255,157,206 M,0,154894,154932,344,80,369.184,87.56635 P,0,154894,155735,A M,0,154932,154970,369.184,87.56635,389.6064,103.9812 M,0,154970,155008,389.6064,103.9812,405.0481,125.3834 M,0,155008,155047,405.0481,125.3834,422.932,144.691 M,0,155047,155085,422.932,144.691,445.6537,157.9575 M,0,155085,155123,445.6537,157.9575,470.8425,165.7449 F,15,155123,155735,1,0 S,15,155123,155735,0.75,0.2 M,0,156807,,540,204 F,0,156807,,1 S,0,156807,,0.75 C,0,156807,,255,183,183 M,0,156807,156845,540,204,548.3933,178.9699 P,0,156807,157572,A M,0,156845,156883,548.3933,178.9699,556.5961,153.8768 M,0,156883,156921,556.5961,153.8768,548.3933,178.9699 M,0,156921,156960,548.3933,178.9699,540,204 F,15,156960,157572,1,0 S,15,156960,157572,0.75,0.2
Sprite,Foreground,Centre,"sb\hl.png",0,0 M,0,149843,,318,312 F,0,149843,,1 S,0,149843,,0.75 C,0,149843,,255,157,206 M,0,149843,149881,318,312,325.0801,286.5802 P,0,149843,150531,A M,0,149881,149919,325.0801,286.5802,334.7123,262.0139 F,15,149919,150531,1,0 S,15,149919,150531,0.75,0.2
Sprite,Foreground,Centre,"sb\hl.png",0,0 M,0,203874,,93,122 F,0,203874,,1 S,0,203874,,0.75 C,0,203874,,255,157,206 M,0,203874,203912,93,122,115.8945,129.8288 P,0,203874,204639,A M,0,203912,203950,115.8945,129.8288,138.412,138.6796 M,0,203950,203988,138.412,138.6796,160.4803,148.5974 M,0,203988,204027,160.4803,148.5974,182.0491,159.5597 F,15,204027,204639,1,0 S,15,204027,204639,0.75,0.2 M,0,204792,,289,184 C,0,204792,,255,183,183 F,15,204792,205404,1,0 S,15,204792,205404,0.75,0.2 P,0,204792,205404,A M,0,205557,,460,222 C,0,205557,,255,183,183 F,15,205557,206169,1,0 S,15,205557,206169,0.75,0.2 P,0,205557,206169,A M,0,206323,,110,400 F,0,206323,,1 S,0,206323,,0.75 C,0,206323,,255,183,183 M,0,206323,206361,110,400,103.5161,376.6861 P,0,206323,207088,A M,0,206361,206399,103.5161,376.6861,96.20242,353.6191 M,0,206399,206437,96.20242,353.6191,88.06836,330.8285 M,0,206437,206476,88.06836,330.8285,79.12465,308.3432 F,15,206476,207088,1,0 S,15,206476,207088,0.75,0.2 M,0,207241,,362,358 C,0,207241,,255,183,183 F,15,207241,207853,1,0 S,15,207241,207853,0.75,0.2 P,0,207241,207853,A M,0,208006,,220,357 F,0,208006,,1 S,0,208006,,0.75 C,0,208006,,255,183,183 M,0,208006,208044,220,357,197.9716,346.9919 P,0,208006,208771,A M,0,208044,208082,197.9716,346.9919,175.4794,338.0804 M,0,208082,208120,175.4794,338.0804,197.9716,346.9919 M,0,208120,208159,197.9716,346.9919,220,357 F,15,208159,208771,1,0 S,15,208159,208771,0.75,0.2 M,0,208925,,344,219 C,0,208925,,255,157,206 F,15,208925,209537,1,0 S,15,208925,209537,0.75,0.2 P,0,208925,209537,A M,0,209843,,371,70 C,0,209843,,255,157,206 F,15,209843,210455,1,0 S,15,209843,210455,0.75,0.2 P,0,209843,210455,A
Sprite,Foreground,Centre,"sb\hl.png",0,0 M,0,204180,,323,62 C,0,204180,,255,183,183 F,15,204180,204792,1,0 S,15,204180,204792,0.75,0.2 P,0,204180,204792,A M,0,204945,,496,107 C,0,204945,,255,183,183 F,15,204945,205557,1,0 S,15,204945,205557,0.75,0.2 P,0,204945,205557,A M,0,205710,,212,135 C,0,205710,,255,157,206 F,15,205710,206322,1,0 S,15,205710,206322,0.75,0.2 P,0,205710,206322,A M,0,206629,,272,66 C,0,206629,,255,157,206 F,15,206629,207241,1,0 S,15,206629,207241,0.75,0.2 P,0,206629,207241,A M,0,207394,,199,114 F,0,207394,,1 S,0,207394,,0.75 C,0,207394,,255,157,206 M,0,207394,207432,199,114,204.835,137.4848 P,0,207394,208159,A M,0,207432,207470,204.835,137.4848,210.07,161.11 M,0,207470,207508,210.07,161.11,214.6659,184.8678 M,0,207508,207547,214.6659,184.8678,218.6194,208.741 F,15,207547,208159,1,0 S,15,207547,208159,0.75,0.2 M,0,208313,,441,290 C,0,208313,,255,157,206 F,15,208313,208925,1,0 S,15,208313,208925,0.75,0.2 P,0,208313,208925,A M,0,209078,,466,396 F,0,209078,,1 S,0,209078,,0.75 C,0,209078,,255,183,183 M,0,209078,209116,466,396,485.2205,381.2975 P,0,209078,209843,A M,0,209116,209154,485.2205,381.2975,504.8961,367.21 M,0,209154,209192,504.8961,367.21,525.0071,353.7513 M,0,209192,209231,525.0071,353.7513,545.5333,340.935 F,15,209231,209843,1,0 S,15,209231,209843,0.75,0.2 M,0,210149,,371,70 C,0,210149,,255,183,183 F,15,210149,210761,1,0 S,15,210149,210761,0.75,0.2 P,0,210149,210761,A
Sprite,Foreground,Centre,"sb\hl.png",0,0 M,0,204333,,222,242 C,0,204333,,255,183,183 F,15,204333,204945,1,0 S,15,204333,204945,0.75,0.2 P,0,204333,204945,A M,0,205098,,513,356 C,0,205098,,255,157,206 F,15,205098,205710,1,0 S,15,205098,205710,0.75,0.2 P,0,205098,205710,A M,0,205864,,367,349 C,0,205864,,255,157,206 F,15,205864,206476,1,0 S,15,205864,206476,0.75,0.2 P,0,205864,206476,A M,0,206782,,162,279 C,0,206782,,255,157,206 F,15,206782,207394,1,0 S,15,206782,207394,0.75,0.2 P,0,206782,207394,A M,0,207700,,307,423 C,0,207700,,255,157,206 F,15,207700,208312,1,0 S,15,207700,208312,0.75,0.2 P,0,207700,208312,A M,0,208389,,441,290 C,0,208389,,255,157,206 F,15,208389,209001,1,0 S,15,208389,209001,0.75,0.2 P,0,208389,209001,A M,0,209384,,410,151 C,0,209384,,255,183,183 F,15,209384,209996,1,0 S,15,209384,209996,0.75,0.2 P,0,209384,209996,A M,0,210302,,251,395 C,0,210302,,255,183,183 F,15,210302,210914,1,0 S,15,210302,210914,0.75,0.2 P,0,210302,210914,A
Sprite,Foreground,Centre,"sb\hl.png",0,0 M,0,204486,,387,128 C,0,204486,,255,157,206 F,15,204486,205098,1,0 S,15,204486,205098,0.75,0.2 P,0,204486,205098,A M,0,205251,,377,150 C,0,205251,,255,157,206 F,15,205251,205863,1,0 S,15,205251,205863,0.75,0.2 P,0,205251,205863,A M,0,206017,,423,68 C,0,206017,,255,157,206 F,15,206017,206629,1,0 S,15,206017,206629,0.75,0.2 P,0,206017,206629,A M,0,206935,,352,114 C,0,206935,,255,183,183 F,15,206935,207547,1,0 S,15,206935,207547,0.75,0.2 P,0,206935,207547,A M,0,207853,,424,195 C,0,207853,,255,183,183 F,15,207853,208465,1,0 S,15,207853,208465,0.75,0.2 P,0,207853,208465,A M,0,208466,,441,290 F,0,208466,,1 S,0,208466,,0.75 C,0,208466,,255,157,206 M,0,208466,208504,441,290,448.94,267.1398 P,0,208466,209384,A M,0,208504,208542,448.94,267.1398,457.0422,244.3365 M,0,208542,208580,457.0422,244.3365,465.3156,221.5949 M,0,208580,208619,465.3156,221.5949,473.7601,198.9162 M,0,208619,208657,473.7601,198.9162,482.3752,176.3017 M,0,208657,208695,482.3752,176.3017,491.1604,153.7527 M,0,208695,208733,491.1604,153.7527,500.1148,131.2705 M,0,208733,208772,500.1148,131.2705,509.2385,108.8563 F,15,208772,209384,1,0 S,15,208772,209384,0.75,0.2 M,0,209537,,245,299 F,0,209537,,1 S,0,209537,,0.75 C,0,209537,,255,157,206 M,0,209537,209575,245,299,226.5698,283.3218 P,0,209537,210302,A M,0,209575,209613,226.5698,283.3218,207.4914,268.4415 M,0,209613,209651,207.4914,268.4415,187.7626,254.435 M,0,209651,209690,187.7626,254.435,167.4532,241.2819 F,15,209690,210302,1,0 S,15,209690,210302,0.75,0.2
Sprite,Foreground,Centre,"sb\hl.png",0,0 M,0,204639,,411,332 C,0,204639,,255,157,206 F,15,204639,205251,1,0 S,15,204639,205251,0.75,0.2 P,0,204639,205251,A M,0,205404,,317,418 C,0,205404,,255,183,183 F,15,205404,206016,1,0 S,15,205404,206016,0.75,0.2 P,0,205404,206016,A M,0,207088,,112,204 C,0,207088,,255,183,183 F,15,207088,207700,1,0 S,15,207088,207700,0.75,0.2 P,0,207088,207700,A
Sprite,Foreground,Centre,"sb\hl.png",0,0 M,0,235710,,565,216 F,0,235710,,1 S,0,235710,,0.75 C,0,235710,,255,157,206 M,0,235710,235748,565,216,539.8127,223.9088 P,0,235710,236398,A M,0,235748,235786,539.8127,223.9088,514.7078,232.0751 F,15,235786,236398,1,0 S,15,235786,236398,0.75,0.2 M,0,236552,,99,323 F,0,236552,,1 S,0,236552,,0.75 C,0,236552,,255,183,183 M,0,236552,236590,99,323,132.8253,313.3526 P,0,236552,237317,A M,0,236590,236628,132.8253,313.3526,164.2648,297.6577 M,0,236628,236666,164.2648,297.6577,195.7371,281.9989 M,0,236666,236705,195.7371,281.9989,229.2567,271.3118 F,15,236705,237317,1,0 S,15,236705,237317,0.75,0.2 M,0,237547,,485,422 C,0,237547,,255,183,183 F,15,237547,238159,1,0 S,15,237547,238159,0.75,0.2 P,0,237547,238159,A M,0,238466,,156,167 F,0,238466,,1 S,0,238466,,0.75 C,0,238466,,255,157,206 M,0,238466,238504,156,167,143.6239,141.2164 P,0,238466,239231,A M,0,238504,238542,143.6239,141.2164,133.1949,115.7375 M,0,238542,238580,133.1949,115.7375,152.8541,94.96549 M,0,238580,238619,152.8541,94.96549,172.5133,74.1935 F,15,238619,239231,1,0 S,15,238619,239231,0.75,0.2 M,0,239384,,244,229 C,0,239384,,255,157,206 F,15,239384,239996,1,0 S,15,239384,239996,0.75,0.2 P,0,239384,239996,A M,0,240073,,189,375 C,0,240073,,255,183,183 F,15,240073,240685,1,0 S,15,240073,240685,0.75,0.2 P,0,240073,240685,A M,0,240915,,485,302 C,0,240915,,255,157,206 F,15,240915,241527,1,0 S,15,240915,241527,0.75,0.2 P,0,240915,241527,A M,0,241680,,327,349 C,0,241680,,255,183,183 F,15,241680,242292,1,0 S,15,241680,242292,0.75,0.2 P,0,241680,242292,A M,0,242598,,296,360 C,0,242598,,255,183,183 F,15,242598,243210,1,0 S,15,242598,243210,0.75,0.2 P,0,242598,243210,A M,0,243364,,269,143 C,0,243364,,255,157,206 F,15,243364,243976,1,0 S,15,243364,243976,0.75,0.2 P,0,243364,243976,A M,0,244282,,327,63 C,0,244282,,255,157,206 F,15,244282,244894,1,0 S,15,244282,244894,0.75,0.2 P,0,244282,244894,A M,0,244970,,190,413 C,0,244970,,255,183,183 F,15,244970,245582,1,0 S,15,244970,245582,0.75,0.2 P,0,244970,245582,A M,0,245813,,338,435 F,0,245813,,1 S,0,245813,,0.75 C,0,245813,,255,183,183 M,0,245813,245851,338,435,360.5979,417.4755 P,0,245813,246654,A M,0,245851,245889,360.5979,417.4755,383.935,400.9498 M,0,245889,245927,383.935,400.9498,407.9654,385.45 M,0,245927,245966,407.9654,385.45,432.6744,371.0561 M,0,245966,246004,432.6744,371.0561,457.9818,357.7428 M,0,246004,246042,457.9818,357.7428,483.8686,345.5938 F,15,246042,246654,1,0 S,15,246042,246654,0.75,0.2 M,0,246731,,519,129 F,0,246731,,1 S,0,246731,,0.75 C,0,246731,,255,183,183 M,0,246731,246769,519,129,490.9856,123.2519 P,0,246731,247496,A M,0,246769,246807,490.9856,123.2519,463.1784,116.5748 M,0,246807,246845,463.1784,116.5748,435.6039,108.994 M,0,246845,246884,435.6039,108.994,408.3128,100.4486 F,15,246884,247496,1,0 S,15,246884,247496,0.75,0.2 M,0,247649,,102,345 F,0,247649,,1 S,0,247649,,0.75 C,0,247649,,255,157,206 M,0,247649,247687,102,345,95.68298,317.1086 P,0,247649,248414,A M,0,247687,247725,95.68298,317.1086,88.37219,289.4616 M,0,247725,247763,88.37219,289.4616,80.11837,262.0809 M,0,247763,247802,80.11837,262.0809,70.83521,235.0313 F,15,247802,248414,1,0 S,15,247802,248414,0.75,0.2 M,0,248568,,331,56 C,0,248568,,255,157,206 F,15,248568,249180,1,0 S,15,248568,249180,0.75,0.2 P,0,248568,249180,A M,0,249333,,408,215 C,0,249333,,255,183,183 F,15,249333,249945,1,0 S,15,249333,249945,0.75,0.2 P,0,249333,249945,A M,0,250098,,343,165 C,0,250098,,255,183,183 F,15,250098,250710,1,0 S,15,250098,250710,0.75,0.2 P,0,250098,250710,A M,0,250864,,546,148 F,0,250864,,1 S,0,250864,,0.75 C,0,250864,,255,183,183 M,0,250864,250902,546,148,521.3697,162.5283 P,0,250864,251629,A M,0,250902,250940,521.3697,162.5283,497.4743,178.234 M,0,250940,250978,497.4743,178.234,474.364,195.0732 M,0,250978,251017,474.364,195.0732,452.1384,213.0646 F,15,251017,251629,1,0 S,15,251017,251629,0.75,0.2 M,0,251935,,103,71 C,0,251935,,255,157,206 F,15,251935,252547,1,0 S,15,251935,252547,0.75,0.2 P,0,251935,252547,A M,0,252700,,383,427 C,0,252700,,255,157,206 F,15,252700,253312,1,0 S,15,252700,253312,0.75,0.2 P,0,252700,253312,A M,0,253466,,499,101 C,0,253466,,255,183,183 F,15,253466,254078,1,0 S,15,253466,254078,0.75,0.2 P,0,253466,254078,A M,0,254384,,499,101 C,0,254384,,255,157,206 F,15,254384,254996,1,0 S,15,254384,254996,0.75,0.2 P,0,254384,254996,A M,0,254997,,499,101 C,0,254997,,255,157,206 F,15,254997,255609,1,0 S,15,254997,255609,0.75,0.2 P,0,254997,255609,A M,0,255915,,389,335 C,0,255915,,255,157,206 F,15,255915,256527,1,0 S,15,255915,256527,0.75,0.2 P,0,255915,256527,A M,0,256680,,383,240 C,0,256680,,255,157,206 F,15,256680,257292,1,0 S,15,256680,257292,0.75,0.2 P,0,256680,257292,A M,0,257445,,300,297 C,0,257445,,255,183,183 F,15,257445,258057,1,0 S,15,257445,258057,0.75,0.2 P,0,257445,258057,A M,0,258210,,218,382 F,0,258210,,1 S,0,258210,,0.75 C,0,258210,,255,183,183 M,0,258210,258248,218,382,206.9827,408.3656 P,0,258210,259051,A M,0,258248,258286,206.9827,408.3656,199.0434,435.8179 M,0,258286,258324,199.0434,435.8179,206.9827,408.3656 M,0,258324,258363,206.9827,408.3656,218,382 M,0,258363,258401,218,382,206.9827,408.3656 M,0,258401,258439,206.9827,408.3656,199.0434,435.8179 F,15,258439,259051,1,0 S,15,258439,259051,0.75,0.2 M,0,259129,,101,65 C,0,259129,,255,183,183 F,15,259129,259741,1,0 S,15,259129,259741,0.75,0.2 P,0,259129,259741,A M,0,259894,,400,141 F,0,259894,,1 S,0,259894,,0.75 C,0,259894,,255,157,206 M,0,259894,259932,400,141,372.5022,133.1374 P,0,259894,260735,A M,0,259932,259970,372.5022,133.1374,345.0775,125.0233 M,0,259970,260008,345.0775,125.0233,372.5022,133.1374 M,0,260008,260047,372.5022,133.1374,400,141 M,0,260047,260085,400,141,372.5022,133.1374 M,0,260085,260123,372.5022,133.1374,345.0775,125.0233 F,15,260123,260735,1,0 S,15,260123,260735,0.75,0.2 M,0,260736,,528,221 C,0,260736,,255,183,183 F,15,260736,261348,1,0 S,15,260736,261348,0.75,0.2 P,0,260736,261348,A M,0,261425,,336,243 C,0,261425,,255,183,183 F,15,261425,262037,1,0 S,15,261425,262037,0.75,0.2 P,0,261425,262037,A M,0,262343,,428,269 F,0,262343,,1 S,0,262343,,0.75 C,0,262343,,255,157,206 M,0,262343,262381,428,269,396.524,278.7511 P,0,262343,263184,A M,0,262381,262419,396.524,278.7511,368.7518,296.2749 M,0,262419,262457,368.7518,296.2749,347.9915,321.828 M,0,262457,262496,347.9915,321.828,326.7021,346.9135 M,0,262496,262534,326.7021,346.9135,298.5084,363.7835 M,0,262534,262572,298.5084,363.7835,266.9677,373.3423 F,15,262572,263184,1,0 S,15,262572,263184,0.75,0.2 M,0,263261,,79,58 C,0,263261,,255,183,183 F,15,263261,263873,1,0 S,15,263261,263873,0.75,0.2 P,0,263261,263873,A
Sprite,Foreground,Centre,"sb\hl.png",0,0 M,0,235864,,408,331 F,0,235864,,1 S,0,235864,,0.75 C,0,235864,,255,157,206 M,0,235864,235902,408,331,383.5904,320.9462 P,0,235864,236552,A M,0,235902,235940,383.5904,320.9462,358.9325,311.5182 F,15,235940,236552,1,0 S,15,235940,236552,0.75,0.2 M,0,236782,,357,175 F,0,236782,,1 S,0,236782,,0.75 C,0,236782,,255,183,183 M,0,236782,236820,357,175,342.2773,206.9587 P,0,236782,237470,A M,0,236820,236858,342.2773,206.9587,330.0196,239.9415 F,15,236858,237470,1,0 S,15,236858,237470,0.75,0.2 M,0,237700,,330,332 C,0,237700,,255,183,183 F,15,237700,238312,1,0 S,15,237700,238312,0.75,0.2 P,0,237700,238312,A M,0,238772,,256,109 C,0,238772,,255,183,183 F,15,238772,239384,1,0 S,15,238772,239384,0.75,0.2 P,0,238772,239384,A M,0,239537,,348,411 C,0,239537,,255,157,206 F,15,239537,240149,1,0 S,15,239537,240149,0.75,0.2 P,0,239537,240149,A M,0,240302,,295,195 C,0,240302,,255,183,183 F,15,240302,240914,1,0 S,15,240302,240914,0.75,0.2 P,0,240302,240914,A M,0,241068,,576,56 F,0,241068,,1 S,0,241068,,0.75 C,0,241068,,255,183,183 M,0,241068,241106,576,56,566.4727,82.96565 P,0,241068,241909,A M,0,241106,241144,566.4727,82.96565,557.4857,110.1162 M,0,241144,241182,557.4857,110.1162,549.1125,137.4622 M,0,241182,241221,549.1125,137.4622,541.2877,164.9703 M,0,241221,241259,541.2877,164.9703,534.0838,192.6473 M,0,241259,241297,534.0838,192.6473,527.4355,220.4631 F,15,241297,241909,1,0 S,15,241297,241909,0.75,0.2 M,0,242139,,240,257 C,0,242139,,255,157,206 F,15,242139,242751,1,0 S,15,242139,242751,0.75,0.2 P,0,242139,242751,A M,0,243057,,110,437 F,0,243057,,1 S,0,243057,,0.75 C,0,243057,,255,157,206 M,0,243057,243095,110,437,104.072,409.0226 P,0,243057,243822,A M,0,243095,243133,104.072,409.0226,97.32863,381.2309 M,0,243133,243171,97.32863,381.2309,89.79749,353.6421 M,0,243171,243210,89.79749,353.6421,81.41306,326.3005 F,15,243210,243822,1,0 S,15,243210,243822,0.75,0.2 M,0,243823,,325,228 C,0,243823,,255,183,183 F,15,243823,244435,1,0 S,15,243823,244435,0.75,0.2 P,0,243823,244435,A M,0,244511,,194,255 C,0,244511,,255,157,206 F,15,244511,245123,1,0 S,15,244511,245123,0.75,0.2 P,0,244511,245123,A M,0,245200,,277,340 C,0,245200,,255,183,183 F,15,245200,245812,1,0 S,15,245200,245812,0.75,0.2 P,0,245200,245812,A M,0,246119,,545,277 C,0,246119,,255,157,206 F,15,246119,246731,1,0 S,15,246119,246731,0.75,0.2 P,0,246119,246731,A M,0,247037,,193,310 F,0,247037,,1 S,0,247037,,0.75 C,0,247037,,255,183,183 M,0,247037,247075,193,310,221.0991,315.3291 P,0,247037,247802,A M,0,247075,247113,221.0991,315.3291,249.1982,320.6583 M,0,247113,247151,249.1982,320.6583,267.3855,299.8354 M,0,247151,247190,267.3855,299.8354,284.8936,277.2207 F,15,247190,247802,1,0 S,15,247190,247802,0.75,0.2 M,0,247955,,189,68 F,0,247955,,1 S,0,247955,,0.75 C,0,247955,,255,183,183 M,0,247955,247993,189,68,216.7015,74.91827 P,0,247955,248796,A M,0,247993,248031,216.7015,74.91827,241.013,89.60362 M,0,248031,248069,241.013,89.60362,258.5916,112.0895 M,0,248069,248108,258.5916,112.0895,277.7101,133.2134 M,0,248108,248146,277.7101,133.2134,302.4661,147.3425 M,0,248146,248184,302.4661,147.3425,329.7094,155.9532 F,15,248184,248796,1,0 S,15,248184,248796,0.75,0.2 M,0,248797,,233,250 C,0,248797,,255,157,206 F,15,248797,249409,1,0 S,15,248797,249409,0.75,0.2 P,0,248797,249409,A M,0,249486,,548,382 C,0,249486,,255,157,206 F,15,249486,250098,1,0 S,15,249486,250098,0.75,0.2 P,0,249486,250098,A M,0,250404,,343,165 F,0,250404,,1 S,0,250404,,0.75 C,0,250404,,255,157,206 M,0,250404,250442,343,165,332.5164,138.3925 P,0,250404,251169,A M,0,250442,250480,332.5164,138.3925,322.8593,111.4744 M,0,250480,250518,322.8593,111.4744,314.0118,84.27934 M,0,250518,250557,314.0118,84.27934,306.0431,56.81339 F,15,250557,251169,1,0 S,15,250557,251169,0.75,0.2 M,0,251170,,336,298 C,0,251170,,255,183,183 F,15,251170,251782,1,0 S,15,251170,251782,0.75,0.2 P,0,251170,251782,A M,0,252088,,167,273 F,0,252088,,1 S,0,252088,,0.75 C,0,252088,,255,183,183 M,0,252088,252126,167,273,192.7795,260.6306 P,0,252088,252853,A M,0,252126,252164,192.7795,260.6306,219.2381,249.7888 M,0,252164,252202,219.2381,249.7888,246.3501,240.7052 M,0,252202,252241,246.3501,240.7052,273.9485,233.2283 F,15,252241,252853,1,0 S,15,252241,252853,0.75,0.2 M,0,253159,,499,101 C,0,253159,,255,157,206 F,15,253159,253771,1,0 S,15,253159,253771,0.75,0.2 P,0,253159,253771,A M,0,253772,,499,101 C,0,253772,,255,157,206 F,15,253772,254384,1,0 S,15,253772,254384,0.75,0.2 P,0,253772,254384,A M,0,254691,,499,101 C,0,254691,,255,183,183 F,15,254691,255303,1,0 S,15,254691,255303,0.75,0.2 P,0,254691,255303,A M,0,255608,,389,335 C,0,255608,,255,183,183 F,15,255608,256220,1,0 S,15,255608,256220,0.75,0.2 P,0,255608,256220,A M,0,256221,,389,335 C,0,256221,,255,183,183 F,15,256221,256833,1,0 S,15,256221,256833,0.75,0.2 P,0,256221,256833,A M,0,257139,,314,100 C,0,257139,,255,183,183 F,15,257139,257751,1,0 S,15,257139,257751,0.75,0.2 P,0,257139,257751,A M,0,258517,,97,327 C,0,258517,,255,183,183 F,15,258517,259129,1,0 S,15,258517,259129,0.75,0.2 P,0,258517,259129,A M,0,259205,,101,65 C,0,259205,,255,183,183 F,15,259205,259817,1,0 S,15,259205,259817,0.75,0.2 P,0,259205,259817,A M,0,260200,,316,347 C,0,260200,,255,183,183 F,15,260200,260812,1,0 S,15,260200,260812,0.75,0.2 P,0,260200,260812,A M,0,260813,,566,241 F,0,260813,,1 S,0,260813,,0.75 C,0,260813,,255,157,206 M,0,260813,260851,566,241,571.7516,269.0145 P,0,260813,261654,A M,0,260851,260889,571.7516,269.0145,576.757,297.1716 M,0,260889,260927,576.757,297.1716,571.7516,269.0145 M,0,260927,260966,571.7516,269.0145,566,241 M,0,260966,261004,566,241,571.7516,269.0145 M,0,261004,261042,571.7516,269.0145,576.757,297.1716 F,15,261042,261654,1,0 S,15,261042,261654,0.75,0.2 M,0,261731,,357,326 C,0,261731,,255,183,183 F,15,261731,262343,1,0 S,15,261731,262343,0.75,0.2 P,0,261731,262343,A M,0,262649,,201,420 C,0,262649,,255,183,183 F,15,262649,263261,1,0 S,15,262649,263261,0.75,0.2 P,0,262649,263261,A M,0,263415,,343,192 C,0,263415,,255,183,183 F,15,263415,264027,1,0 S,15,263415,264027,0.75,0.2 P,0,263415,264027,A
Sprite,Foreground,Centre,"sb\hl.png",0,0 M,0,236017,,262,186 C,0,236017,,255,157,206 F,15,236017,236629,1,0 S,15,236017,236629,0.75,0.2 P,0,236017,236629,A M,0,236935,,322,425 F,0,236935,,1 S,0,236935,,0.75 C,0,236935,,255,157,206 M,0,236935,236973,322,425,298.6946,408.4385 P,0,236935,237700,A M,0,236973,237011,298.6946,408.4385,274.2408,393.63 M,0,237011,237049,274.2408,393.63,248.7822,380.6251 M,0,237049,237088,248.7822,380.6251,222.396,369.6216 F,15,237088,237700,1,0 S,15,237088,237700,0.75,0.2 M,0,237853,,542,241 F,0,237853,,1 S,0,237853,,0.75 C,0,237853,,255,183,183 M,0,237853,237891,542,241,549.7294,268.5358 P,0,237853,238618,A M,0,237891,237929,549.7294,268.5358,557.4587,296.0715 M,0,237929,237967,557.4587,296.0715,537.1716,314.5402 M,0,237967,238006,537.1716,314.5402,514.7747,332.326 F,15,238006,238618,1,0 S,15,238006,238618,0.75,0.2 M,0,238925,,168,296 C,0,238925,,255,183,183 F,15,238925,239537,1,0 S,15,238925,239537,0.75,0.2 P,0,238925,239537,A M,0,239690,,423,202 F,0,239690,,1 S,0,239690,,0.75 C,0,239690,,255,157,206 M,0,239690,239728,423,202,411.1,228.0029 P,0,239690,240455,A M,0,239728,239766,411.1,228.0029,400.3697,254.5089 M,0,239766,239804,400.3697,254.5089,390.8185,281.4621 M,0,239804,239843,390.8185,281.4621,382.536,308.832 F,15,239843,240455,1,0 S,15,239843,240455,0.75,0.2 M,0,241374,,485,302 C,0,241374,,255,183,183 F,15,241374,241986,1,0 S,15,241374,241986,0.75,0.2 P,0,241374,241986,A M,0,242292,,126,107 F,0,242292,,1 S,0,242292,,0.75 C,0,242292,,255,183,183 M,0,242292,242330,126,107,135.1585,134.0902 P,0,242292,243057,A M,0,242330,242368,135.1585,134.0902,143.0781,161.5671 M,0,242368,242406,143.0781,161.5671,149.7754,189.3675 M,0,242406,242445,149.7754,189.3675,155.1268,217.4582 F,15,242445,243057,1,0 S,15,242445,243057,0.75,0.2 M,0,243517,,184,358 C,0,243517,,255,157,206 F,15,243517,244129,1,0 S,15,243517,244129,0.75,0.2 P,0,243517,244129,A M,0,244435,,194,255 C,0,244435,,255,157,206 F,15,244435,245047,1,0 S,15,244435,245047,0.75,0.2 P,0,244435,245047,A M,0,245123,,264,380 C,0,245123,,255,183,183 F,15,245123,245735,1,0 S,15,245123,245735,0.75,0.2 P,0,245123,245735,A M,0,246272,,339,179 C,0,246272,,255,157,206 F,15,246272,246884,1,0 S,15,246272,246884,0.75,0.2 P,0,246272,246884,A M,0,247343,,124,122 C,0,247343,,255,157,206 F,15,247343,247955,1,0 S,15,247343,247955,0.75,0.2 P,0,247343,247955,A M,0,248261,,404,195 F,0,248261,,1 S,0,248261,,0.75 C,0,248261,,255,183,183 M,0,248261,248299,404,195,422.0544,172.8189 P,0,248261,249026,A M,0,248299,248337,422.0544,172.8189,438.0964,150.494 M,0,248337,248375,438.0964,150.494,423.3818,125.9697 M,0,248375,248414,423.3818,125.9697,408.6672,101.4454 F,15,248414,249026,1,0 S,15,248414,249026,0.75,0.2 M,0,249180,,476,440 C,0,249180,,255,183,183 F,15,249180,249792,1,0 S,15,249180,249792,0.75,0.2 P,0,249180,249792,A M,0,249945,,432,376 F,0,249945,,1 S,0,249945,,0.75 C,0,249945,,255,183,183 M,0,249945,249983,432,376,440.7005,348.7631 P,0,249945,250633,A M,0,249983,250021,440.7005,348.7631,451.0965,322.1268 F,15,250021,250633,1,0 S,15,250021,250633,0.75,0.2 M,0,250710,,527,269 C,0,250710,,255,157,206 F,15,250710,251322,1,0 S,15,250710,251322,0.75,0.2 P,0,250710,251322,A M,0,251323,,417,88 C,0,251323,,255,183,183 F,15,251323,251935,1,0 S,15,251323,251935,0.75,0.2 P,0,251323,251935,A M,0,252318,,336,298 C,0,252318,,255,183,183 F,15,252318,252930,1,0 S,15,252318,252930,0.75,0.2 P,0,252318,252930,A M,0,254078,,499,101 C,0,254078,,255,183,183 F,15,254078,254690,1,0 S,15,254078,254690,0.75,0.2 P,0,254078,254690,A M,0,255302,,499,101 F,0,255302,,1 S,0,255302,,0.75 C,0,255302,,255,183,183 M,0,255302,255340,499,101,491.5757,128.6192 P,0,255302,256143,A M,0,255340,255378,491.5757,128.6192,484.5103,156.3324 M,0,255378,255416,484.5103,156.3324,477.8016,184.134 M,0,255416,255455,477.8016,184.134,471.4721,212.0245 M,0,255455,255493,471.4721,212.0245,465.4989,239.9934 M,0,255493,255531,465.4989,239.9934,459.9097,268.0415 F,15,255531,256143,1,0 S,15,255531,256143,0.75,0.2 M,0,256374,,313,379 F,0,256374,,1 S,0,256374,,0.75 C,0,256374,,255,157,206 M,0,256374,256412,313,379,295.888,361.888 P,0,256374,257139,A M,0,256412,256450,295.888,361.888,284.9081,343.3394 M,0,256450,256488,284.9081,343.3394,292.6381,320.4071 M,0,256488,256527,292.6381,320.4071,300.368,297.4749 F,15,256527,257139,1,0 S,15,256527,257139,0.75,0.2 M,0,257292,,498,198 C,0,257292,,255,183,183 F,15,257292,257904,1,0 S,15,257292,257904,0.75,0.2 P,0,257292,257904,A M,0,258593,,97,327 C,0,258593,,255,183,183 F,15,258593,259205,1,0 S,15,258593,259205,0.75,0.2 P,0,258593,259205,A M,0,259282,,101,65 F,0,259282,,1 S,0,259282,,0.75 C,0,259282,,255,157,206 M,0,259282,259320,101,65,109.3403,92.3522 P,0,259282,260123,A M,0,259320,259358,109.3403,92.3522,116.3479,120.0758 M,0,259358,259396,116.3479,120.0758,109.3403,92.3522 M,0,259396,259435,109.3403,92.3522,101,65.00001 M,0,259435,259473,101,65.00001,109.3403,92.3522 M,0,259473,259511,109.3403,92.3522,116.3479,120.0758 F,15,259511,260123,1,0 S,15,259511,260123,0.75,0.2 M,0,260276,,353,365 C,0,260276,,255,183,183 F,15,260276,260888,1,0 S,15,260276,260888,0.75,0.2 P,0,260276,260888,A M,0,261119,,475,112 F,0,261119,,1 S,0,261119,,0.75 C,0,261119,,255,157,206 M,0,261119,261157,475,112,480.7723,83.99425 P,0,261119,261960,A M,0,261157,261195,480.7723,83.99425,485,56 M,0,261195,261233,485,56,480.7723,83.99426 M,0,261233,261272,480.7723,83.99426,475,112 M,0,261272,261310,475,112,480.7723,83.99425 M,0,261310,261348,480.7723,83.99425,485,56 F,15,261348,261960,1,0 S,15,261348,261960,0.75,0.2 M,0,262037,,372,410 F,0,262037,,1 S,0,262037,,0.75 C,0,262037,,255,157,206 M,0,262037,262075,372,410,399.1514,418.9859 P,0,262037,262878,A M,0,262075,262113,399.1514,418.9859,426.2011,428.2735 M,0,262113,262151,426.2011,428.2735,399.1514,418.9859 M,0,262151,262190,399.1514,418.9859,372,410 M,0,262190,262228,372,410,399.1514,418.9859 M,0,262228,262266,399.1514,418.9859,426.2011,428.2735 F,15,262266,262878,1,0 S,15,262266,262878,0.75,0.2 M,0,262955,,320,105 C,0,262955,,255,157,206 F,15,262955,263567,1,0 S,15,262955,263567,0.75,0.2 P,0,262955,263567,A M,0,263568,,64,296 C,0,263568,,255,157,206 F,15,263568,264180,1,0 S,15,263568,264180,0.75,0.2 P,0,263568,264180,A
Sprite,Foreground,Centre,"sb\hl.png",0,0 M,0,236093,,262,186 C,0,236093,,255,157,206 F,15,236093,236705,1,0 S,15,236093,236705,0.75,0.2 P,0,236093,236705,A M,0,237241,,411,284 F,0,237241,,1 S,0,237241,,0.75 C,0,237241,,255,157,206 M,0,237241,237279,411,284,419.2524,256.6194 P,0,237241,238006,A M,0,237279,237317,419.2524,256.6194,428.5543,229.5775 M,0,237317,237355,428.5543,229.5775,439.003,202.9577 M,0,237355,237394,439.003,202.9577,450.4811,176.7657 F,15,237394,238006,1,0 S,15,237394,238006,0.75,0.2 M,0,238159,,380,127 F,0,238159,,1 S,0,238159,,0.75 C,0,238159,,255,157,206 M,0,238159,238197,380,127,352.1559,133.3439 P,0,238159,239000,A M,0,238197,238235,352.1559,133.3439,326.9795,146.6234 M,0,238235,238273,326.9795,146.6234,306.6539,166.6901 M,0,238273,238312,306.6539,166.6901,285.1882,185.4727 M,0,238312,238350,285.1882,185.4727,259.4388,197.7418 M,0,238350,238388,259.4388,197.7418,231.7458,204.7837 F,15,238388,239000,1,0 S,15,238388,239000,0.75,0.2 M,0,239001,,168,296 C,0,239001,,255,183,183 F,15,239001,239613,1,0 S,15,239001,239613,0.75,0.2 P,0,239001,239613,A M,0,239996,,189,375 C,0,239996,,255,183,183 F,15,239996,240608,1,0 S,15,239996,240608,0.75,0.2 P,0,239996,240608,A M,0,241527,,399,225 C,0,241527,,255,183,183 F,15,241527,242139,1,0 S,15,241527,242139,0.75,0.2 P,0,241527,242139,A M,0,242675,,296,360 C,0,242675,,255,183,183 F,15,242675,243287,1,0 S,15,242675,243287,0.75,0.2 P,0,242675,243287,A M,0,243670,,115,114 C,0,243670,,255,183,183 F,15,243670,244282,1,0 S,15,243670,244282,0.75,0.2 P,0,243670,244282,A M,0,244588,,194,255 F,0,244588,,1 S,0,244588,,0.75 C,0,244588,,255,157,206 M,0,244588,244626,194,255,186.5537,227.3925 P,0,244588,245429,A M,0,244626,244664,186.5537,227.3925,177.4451,200.2897 M,0,244664,244702,177.4451,200.2897,186.5537,227.3925 M,0,244702,244741,186.5537,227.3925,194,255 M,0,244741,244779,194,255,186.5537,227.3925 M,0,244779,244817,186.5537,227.3925,177.4451,200.2897 F,15,244817,245429,1,0 S,15,244817,245429,0.75,0.2 M,0,245430,,363,268 C,0,245430,,255,183,183 F,15,245430,246042,1,0 S,15,245430,246042,0.75,0.2 P,0,245430,246042,A M,0,246348,,339,179 C,0,246348,,255,157,206 F,15,246348,246960,1,0 S,15,246348,246960,0.75,0.2 P,0,246348,246960,A M,0,247496,,339,179 C,0,247496,,255,157,206 F,15,247496,248108,1,0 S,15,247496,248108,0.75,0.2 P,0,247496,248108,A M,0,248721,,233,250 C,0,248721,,255,157,206 F,15,248721,249333,1,0 S,15,248721,249333,0.75,0.2 P,0,248721,249333,A M,0,249639,,307,366 F,0,249639,,1 S,0,249639,,0.75 C,0,249639,,255,157,206 M,0,249639,249677,307,366,280.3275,376.3192 P,0,249639,250404,A M,0,249677,249715,280.3275,376.3192,253.889,387.2238 M,0,249715,249753,253.889,387.2238,227.6945,398.7016 M,0,249753,249792,227.6945,398.7016,201.7725,410.7826 F,15,249792,250404,1,0 S,15,249792,250404,0.75,0.2 M,0,251476,,264,225 F,0,251476,,1 S,0,251476,,0.75 C,0,251476,,255,157,206 M,0,251476,251514,264,225,252.0877,199.1103 P,0,251476,252394,A M,0,251514,251552,252.0877,199.1103,234.5854,176.6163 M,0,251552,251590,234.5854,176.6163,211.9485,159.3115 M,0,251590,251629,211.9485,159.3115,185.9464,147.6621 M,0,251629,251667,185.9464,147.6621,157.8481,142.96 M,0,251667,251705,157.8481,142.96,129.4276,144.8714 M,0,251705,251743,129.4276,144.8714,102.3982,153.8608 M,0,251743,251782,102.3982,153.8608,78.20235,168.8795 F,15,251782,252394,1,0 S,15,251782,252394,0.75,0.2 M,0,252547,,548,326 C,0,252547,,255,157,206 F,15,252547,253159,1,0 S,15,252547,253159,0.75,0.2 P,0,252547,253159,A M,0,256833,,383,240 F,0,256833,,1 S,0,256833,,0.75 C,0,256833,,255,157,206 M,0,256833,256871,383,240,394.8053,218.8748 P,0,256833,257598,A M,0,256871,256909,394.8053,218.8748,399.229,196.964 M,0,256909,256947,399.229,196.964,392.1338,173.8275 M,0,256947,256986,392.1338,173.8275,385.0386,150.691 F,15,256986,257598,1,0 S,15,256986,257598,0.75,0.2 M,0,257751,,560,71 F,0,257751,,1 S,0,257751,,0.75 C,0,257751,,255,157,206 M,0,257751,257789,560,71,531.9192,76.2953 P,0,257751,258669,A M,0,257789,257827,531.9192,76.2953,505.6927,87.41396 M,0,257827,257865,505.6927,87.41396,485.7425,107.6161 M,0,257865,257904,485.7425,107.6161,470.395,131.7432 M,0,257904,257942,470.395,131.7432,451.0991,152.7353 M,0,257942,257980,451.0991,152.7353,427.2124,168.3665 M,0,257980,258018,427.2124,168.3665,401.0215,179.8052 M,0,258018,258057,401.0215,179.8052,373.7734,188.467 F,15,258057,258669,1,0 S,15,258057,258669,0.75,0.2 M,0,258670,,97,327 F,0,258670,,1 S,0,258670,,0.75 C,0,258670,,255,157,206 M,0,258670,258708,97,327,90.0571,299.2557 P,0,258670,259358,A M,0,258708,258746,90.0571,299.2557,83,272 F,15,258746,259358,1,0 S,15,258746,259358,0.75,0.2 M,0,259588,,188,261 F,0,259588,,1 S,0,259588,,0.75 C,0,259588,,255,183,183 M,0,259588,259626,188,261,215.3423,252.6174 P,0,259588,260429,A M,0,259626,259664,215.3423,252.6174,242.9202,245.0468 M,0,259664,259702,242.9202,245.0468,215.3423,252.6174 M,0,259702,259741,215.3423,252.6174,188,261 M,0,259741,259779,188,261,215.3423,252.6174 M,0,259779,259817,215.3423,252.6174,242.9202,245.0468 F,15,259817,260429,1,0 S,15,259817,260429,0.75,0.2 M,0,260506,,441,293 C,0,260506,,255,183,183 F,15,260506,261118,1,0 S,15,260506,261118,0.75,0.2 P,0,260506,261118,A M,0,261501,,341,263 C,0,261501,,255,183,183 F,15,261501,262113,1,0 S,15,261501,262113,0.75,0.2 P,0,261501,262113,A M,0,262802,,79,195 C,0,262802,,255,183,183 F,15,262802,263414,1,0 S,15,262802,263414,0.75,0.2 P,0,262802,263414,A
Sprite,Foreground,Centre,"sb\hl.png",0,0 M,0,236170,,262,186 F,0,236170,,1 S,0,236170,,0.75 C,0,236170,,255,157,206 M,0,236170,236208,262,186,271.6151,161.4199 P,0,236170,236858,A M,0,236208,236246,271.6151,161.4199,279.8694,136.3529 F,15,236246,236858,1,0 S,15,236246,236858,0.75,0.2 M,0,239078,,168,296 F,0,239078,,1 S,0,239078,,0.75 C,0,239078,,255,183,183 M,0,239078,239116,168,296,141.0888,305.6699 P,0,239078,239843,A M,0,239116,239154,141.0888,305.6699,114.6851,316.6473 M,0,239154,239192,114.6851,316.6473,88.8383,328.8788 M,0,239192,239231,88.8383,328.8788,63.66055,342.4345 F,15,239231,239843,1,0 S,15,239231,239843,0.75,0.2 M,0,240149,,189,375 F,0,240149,,1 S,0,240149,,0.75 C,0,240149,,255,183,183 M,0,240149,240187,189,375,181.4156,347.4386 P,0,240149,240837,A M,0,240187,240225,181.4156,347.4386,171.2798,320.7142 F,15,240225,240837,1,0 S,15,240225,240837,0.75,0.2 M,0,241833,,235,144 F,0,241833,,1 S,0,241833,,0.75 C,0,241833,,255,157,206 M,0,241833,241871,235,144,263.1387,138.8839 P,0,241833,242598,A M,0,241871,241909,263.1387,138.8839,290.5887,135.1572 M,0,241909,241947,290.5887,135.1572,303.5576,160.6477 M,0,241947,241986,303.5576,160.6477,316.5265,186.1382 F,15,241986,242598,1,0 S,15,241986,242598,0.75,0.2 M,0,242751,,296,360 F,0,242751,,1 S,0,242751,,0.75 C,0,242751,,255,183,183 M,0,242751,242789,296,360,305.7394,333.1116 P,0,242751,243516,A M,0,242789,242827,305.7394,333.1116,316.3526,306.5559 M,0,242827,242865,316.3526,306.5559,305.7394,333.1116 M,0,242865,242904,305.7394,333.1116,296,360 F,15,242904,243516,1,0 S,15,242904,243516,0.75,0.2 M,0,243976,,74,336 F,0,243976,,1 S,0,243976,,0.75 C,0,243976,,255,183,183 M,0,243976,244014,74,336,62.8563,309.6603 P,0,243976,244741,A M,0,244014,244052,62.8563,309.6603,52.57309,283.5356 M,0,244052,244090,52.57309,283.5356,74.79337,265.5295 M,0,244090,244129,74.79337,265.5295,97.01364,247.5234 F,15,244129,244741,1,0 S,15,244129,244741,0.75,0.2 M,0,244894,,152,395 C,0,244894,,255,183,183 F,15,244894,245506,1,0 S,15,244894,245506,0.75,0.2 P,0,244894,245506,A M,0,246425,,339,179 F,0,246425,,1 S,0,246425,,0.75 C,0,246425,,255,157,206 M,0,246425,246463,339,179,350.587,205.1439 P,0,246425,247190,A M,0,246463,246501,350.587,205.1439,360.999,231.7767 M,0,246501,246539,360.999,231.7767,370.2409,258.8377 M,0,246539,246578,370.2409,258.8377,378.1997,286.3038 F,15,246578,247190,1,0 S,15,246578,247190,0.75,0.2 M,0,248874,,233,250 F,0,248874,,1 S,0,248874,,0.75 C,0,248874,,255,157,206 M,0,248874,248912,233,250,260.371,258.2768 P,0,248874,249639,A M,0,248912,248950,260.371,258.2768,287.2858,267.9351 M,0,248950,248988,287.2858,267.9351,313.605,279.1138 M,0,248988,249027,313.605,279.1138,339.3193,291.6218 F,15,249027,249639,1,0 S,15,249027,249639,0.75,0.2 M,0,252394,,343,307 F,0,252394,,1 S,0,252394,,0.75 C,0,252394,,255,183,183 M,0,252394,252432,343,307,369.7986,316.9856 P,0,252394,253082,A M,0,252432,252470,369.7986,316.9856,396.2973,327.741 F,15,252470,253082,1,0 S,15,252470,253082,0.75,0.2 M,0,258823,,244,187 C,0,258823,,255,157,206 F,15,258823,259435,1,0 S,15,258823,259435,0.75,0.2 P,0,258823,259435,A M,0,260353,,395,361 C,0,260353,,255,183,183 F,15,260353,260965,1,0 S,15,260353,260965,0.75,0.2 P,0,260353,260965,A M,0,261578,,347,284 C,0,261578,,255,183,183 F,15,261578,262190,1,0 S,15,261578,262190,0.75,0.2 P,0,261578,262190,A M,0,263108,,153,337 C,0,263108,,255,157,206 F,15,263108,263720,1,0 S,15,263108,263720,0.75,0.2 P,0,263108,263720,A
Sprite,Foreground,Centre,"sb\hl.png",0,0 M,0,236323,,120,74 F,0,236323,,1 S,0,236323,,0.75 C,0,236323,,255,183,183 M,0,236323,236361,120,74,130.6805,105.2208 P,0,236323,237088,A M,0,236361,236399,130.6805,105.2208,139.9609,136.8858 M,0,236399,236437,139.9609,136.8858,147.823,168.9323 M,0,236437,236476,147.823,168.9323,154.2513,201.2968 F,15,236476,237088,1,0 S,15,236476,237088,0.75,0.2 M,0,240455,,398,411 F,0,240455,,1 S,0,240455,,0.75 C,0,240455,,255,157,206 M,0,240455,240493,398,411,423.1805,424.31 P,0,240455,241373,A M,0,240493,240531,423.1805,424.31,450.8671,431.0337 M,0,240531,240569,450.8671,431.0337,479.3233,429.8602 M,0,240569,240608,479.3233,429.8602,506.6259,421.7253 M,0,240608,240646,506.6259,421.7253,530.6226,406.3886 M,0,240646,240684,530.6226,406.3886,550.1105,385.6116 M,0,240684,240722,550.1105,385.6116,563.1254,360.282 M,0,240722,240761,563.1254,360.282,569.4962,332.5198 F,15,240761,241373,1,0 S,15,240761,241373,0.75,0.2 M,0,245047,,232,408 C,0,245047,,255,183,183 F,15,245047,245659,1,0 S,15,245047,245659,0.75,0.2 P,0,245047,245659,A M,0,252853,,499,250 F,0,252853,,1 S,0,252853,,0.75 C,0,252853,,255,183,183 M,0,252853,252891,499,250,503.7089,221.8035 P,0,252853,253694,A M,0,252891,252929,503.7089,221.8035,503.9455,193.2678 M,0,252929,252967,503.9455,193.2678,495.4505,166.1117 M,0,252967,253006,495.4505,166.1117,485.0117,139.5698 M,0,253006,253044,485.0117,139.5698,482.9088,111.1306 M,0,253044,253082,482.9088,111.1306,486.0526,82.72217 F,15,253082,253694,1,0 S,15,253082,253694,0.75,0.2 M,0,258899,,244,187 C,0,258899,,255,157,206 F,15,258899,259511,1,0 S,15,258899,259511,0.75,0.2 P,0,258899,259511,A M,0,260429,,428,333 C,0,260429,,255,183,183 F,15,260429,261041,1,0 S,15,260429,261041,0.75,0.2 P,0,260429,261041,A M,0,261654,,352,305 C,0,261654,,255,183,183 F,15,261654,262266,1,0 S,15,261654,262266,0.75,0.2 P,0,261654,262266,A
Sprite,Foreground,Centre,"sb\hl.png",0,0 M,0,245277,,289,300 C,0,245277,,255,183,183 F,15,245277,245889,1,0 S,15,245277,245889,0.75,0.2 P,0,245277,245889,A M,0,258976,,244,187 F,0,258976,,1 S,0,258976,,0.75 C,0,258976,,255,183,183 M,0,258976,259014,244,187,254.4661,160.3839 P,0,258976,259664,A M,0,259014,259052,254.4661,160.3839,265.0989,133.834 F,15,259052,259664,1,0 S,15,259052,259664,0.75,0.2 M,0,260583,,453,254 C,0,260583,,255,183,183 F,15,260583,261195,1,0 S,15,260583,261195,0.75,0.2 P,0,260583,261195,A M,0,261807,,361,347 C,0,261807,,255,183,183 F,15,261807,262419,1,0 S,15,261807,262419,0.75,0.2 P,0,261807,262419,A
Sprite,Foreground,Centre,"sb\hl.png",0,0 M,0,245353,,321,274 C,0,245353,,255,183,183 F,15,245353,245965,1,0 S,15,245353,245965,0.75,0.2 P,0,245353,245965,A M,0,260659,,486,226 C,0,260659,,255,183,183 F,15,260659,261271,1,0 S,15,260659,261271,0.75,0.2 P,0,260659,261271,A M,0,261884,,365,368 C,0,261884,,255,183,183 F,15,261884,262496,1,0 S,15,261884,262496,0.75,0.2 P,0,261884,262496,A
Sprite,Foreground,Centre,"sb\hl.png",0,0 M,0,245506,,401,287 F,0,245506,,1 S,0,245506,,0.75 C,0,245506,,255,157,206 M,0,245506,245544,401,287,393.0965,314.4848 P,0,245506,246347,A M,0,245544,245582,393.0965,314.4848,385.9649,342.1796 M,0,245582,245620,385.9649,342.1796,393.0965,314.4848 M,0,245620,245659,393.0965,314.4848,401,287 M,0,245659,245697,401,287,393.0965,314.4848 M,0,245697,245735,393.0965,314.4848,385.9649,342.1796 F,15,245735,246347,1,0 S,15,245735,246347,0.75,0.2 M,0,261960,,369,389 C,0,261960,,255,183,183 F,15,261960,262572,1,0 S,15,261960,262572,0.75,0.2 P,0,261960,262572,A
Sprite,Foreground,Centre,"sb\p.png",0,0 V,0,245506,0,40,1000 M,0,245506,,401,287 F,0,245506,,1 C,0,245506,,255,157,206 M,0,245506,245544,401,287,393.0965,314.4848 P,0,245506,246041,A M,0,245544,245582,393.0965,314.4848,385.9649,342.1796 M,0,245582,245620,385.9649,342.1796,393.0965,314.4848 M,0,245620,245659,393.0965,314.4848,401,287 M,0,245659,245697,401,287,393.0965,314.4848 M,0,245697,245735,393.0965,314.4848,385.9649,342.1796 F,18,245735,246041,1,0 V,15,245735,246041,40,1000,0,1000
Sprite,Foreground,Centre,"sb\c.png",0,0 M,0,1853,,79,252 F,0,1853,2465,1,0 S,1,1853,2465,0,0.35 P,0,1853,2465,A
Sprite,Foreground,Centre,"sb\c.png",0,0 M,0,3077,,226,252 F,0,3077,3689,1,0 S,1,3077,3689,0,0.35 P,0,3077,3689,A
Sprite,Foreground,Centre,"sb\c.png",0,0 M,0,4302,,539,212 F,0,4302,4914,1,0 S,1,4302,4914,0,0.35 P,0,4302,4914,A
Sprite,Foreground,Centre,"sb\c.png",0,0 M,0,5526,,325,352 F,0,5526,6138,1,0 S,1,5526,6138,0,0.35 P,0,5526,6138,A
Sprite,Foreground,Centre,"sb\c.png",0,0 M,0,6751,,230,265 F,0,6751,7363,1,0 S,1,6751,7363,0,0.35 P,0,6751,7363,A
Sprite,Foreground,Centre,"sb\c.png",0,0 M,0,9200,,271,417 F,0,9200,9812,1,0 S,1,9200,9812,0,0.35 P,0,9200,9812,A
Sprite,Foreground,Centre,"sb\c.png",0,0 M,0,11649,,520,191 F,0,11649,12261,1,0 S,1,11649,12261,0,0.35 P,0,11649,12261,A
Sprite,Foreground,Centre,"sb\c.png",0,0 M,0,49589,,467,373 F,0,49589,50201,1,0 S,1,49589,50201,0,0.35 P,0,49589,50201,A
Sprite,Foreground,Centre,"sb\c.png",0,0 M,0,50814,,418,440 F,0,50814,51426,1,0 S,1,50814,51426,0,0.35 P,0,50814,51426,A
Sprite,Foreground,Centre,"sb\c.png",0,0 M,0,52038,,467,373 F,0,52038,52650,1,0 S,1,52038,52650,0,0.35 P,0,52038,52650,A
Sprite,Foreground,Centre,"sb\c.png",0,0 M,0,53263,,206,194 F,0,53263,53875,1,0 S,1,53263,53875,0,0.35 P,0,53263,53875,A
Sprite,Foreground,Centre,"sb\c.png",0,0 M,0,54487,,271,440 F,0,54487,55099,1,0 S,1,54487,55099,0,0.35 P,0,54487,55099,A
Sprite,Foreground,Centre,"sb\c.png",0,0 M,0,55712,,243,268 F,0,55712,56324,1,0 S,1,55712,56324,0,0.35 P,0,55712,56324,A
Sprite,Foreground,Centre,"sb\c.png",0,0 M,0,56936,,186,167 F,0,56936,57548,1,0 S,1,56936,57548,0,0.35 P,0,56936,57548,A
Sprite,Foreground,Centre,"sb\c.png",0,0 M,0,120608,,472,424 F,0,120608,121220,1,0 S,1,120608,121220,0,0.35 P,0,120608,121220,A
Sprite,Foreground,Centre,"sb\c.png",0,0 M,0,127955,,320,248 F,0,127955,128567,1,0 S,1,127955,128567,0,0.35 P,0,127955,128567,A
//Storyboard Layer 4 (Overlay)
//Storyboard Sound Samples

[TimingPoints]
629,306.122448979592,4,2,1,50,1,0
1853,-142.857142857143,4,2,1,50,0,0
6292,-142.857142857143,4,2,1,5,0,0
6368,-142.857142857143,4,2,1,50,0,0
6751,-111.111111111111,4,2,1,50,0,0
11572,-111.111111111111,4,2,1,5,0,0
11649,-111.111111111111,4,2,1,50,0,0
12796,-111.111111111111,4,2,1,5,0,0
13180,-200,4,2,1,80,0,0
15304,306.122448979592,4,2,2,80,1,0
15304,-90.9090909090909,4,2,2,80,0,0
16681,-90.9090909090909,4,2,1,80,0,0
16834,-90.9090909090909,4,2,2,80,0,0
18135,-90.9090909090909,4,2,1,80,0,0
18365,-90.9090909090909,4,2,5,80,0,0
18518,-90.9090909090909,4,2,6,80,0,0
18671,-90.9090909090909,4,2,2,80,0,0
18824,-71.4285714285714,4,2,1,80,0,0
19054,-71.4285714285714,4,2,1,5,0,0
19130,-71.4285714285714,4,2,1,80,0,0
19360,-71.4285714285714,4,2,1,5,0,0
19436,-71.4285714285714,4,2,1,80,0,0
19513,-71.4285714285714,4,2,1,5,0,0
19589,-71.4285714285714,4,2,2,80,0,0
19895,-125,4,2,2,80,0,0
20125,-125,4,2,2,5,0,0
20201,-100,4,2,62,80,0,0
20278,-100,4,2,2,80,0,0
20661,-100,4,2,69,80,0,0
20737,-100,4,2,2,80,0,0
21120,-100,4,2,61,80,0,0
21196,-100,4,2,2,80,0,0
21579,-100,4,2,61,80,0,0
21656,-100,4,2,2,80,0,0
22038,-100,4,2,62,80,0,0
22115,-100,4,2,2,80,0,0
22344,-100,4,2,69,80,0,0
22421,-100,4,2,2,80,0,0
22650,-100,4,2,62,80,0,0
22727,-100,4,2,2,80,0,0
22957,-100,4,2,2,80,0,0
23110,-100,4,2,69,80,0,0
23186,-100,4,2,2,80,0,0
23569,-100,4,2,61,80,0,0
23645,-100,4,2,2,80,0,0
24028,-100,4,2,69,80,0,0
24105,-100,4,2,2,80,0,0
24487,-100,4,2,65,80,0,0
24564,-100,4,2,2,80,0,0
24793,-100,4,2,69,80,0,0
24870,-100,4,2,2,80,0,0
25099,-100,4,2,62,80,0,0
25176,-100,4,2,2,80,0,0
25559,-100,4,2,69,80,0,0
25635,-100,4,2,2,80,0,0
26018,-100,4,2,61,80,0,0
26094,-100,4,2,2,80,0,0
26477,-100,4,2,61,80,0,0
26554,-100,4,2,2,80,0,0
26936,-100,4,2,62,80,0,0
27013,-100,4,2,2,80,0,0
27242,-100,4,2,69,80,0,0
27319,-100,4,2,2,80,0,0
27548,-100,4,2,61,80,0,0
27625,-100,4,2,2,80,0,0
28161,-100,4,2,62,80,0,0
28237,-100,4,2,2,80,0,0
28467,-100,4,2,61,80,0,0
28849,-100,4,2,61,5,0,0
28926,-100,4,2,61,80,0,0
29232,-83.3333333333333,4,2,1,80,0,0
29385,-100,4,2,5,80,0,0
29691,-100,4,2,6,80,0,0
29997,-333.333333333333,4,2,1,50,0,0
35967,-200,4,2,2,50,0,0
38416,-111.111111111111,4,2,2,80,0,0
38645,-111.111111111111,4,2,2,5,0,0
38722,-111.111111111111,4,2,2,80,0,0
44615,-111.111111111111,4,2,2,5,0,0
44691,-111.111111111111,4,2,2,80,0,0
47064,-111.111111111111,4,2,2,5,0,0
47140,-111.111111111111,4,2,2,80,0,0
48518,-111.111111111111,4,2,5,80,0,0
48824,-111.111111111111,4,2,6,80,0,0
48977,-111.111111111111,4,2,2,80,0,0
49589,-142.857142857143,4,2,31,80,0,0
49666,-142.857142857143,4,2,1,80,0,0
49895,-142.857142857143,4,2,25,80,0,0
49972,-142.857142857143,4,2,1,80,0,0
50201,-142.857142857143,4,2,32,80,0,0
50278,-142.857142857143,4,2,1,80,0,0
50508,-142.857142857143,4,2,31,80,0,0
50584,-142.857142857143,4,2,1,80,0,0
50814,-142.857142857143,4,2,35,80,0,0
50890,-142.857142857143,4,2,1,80,0,0
50967,-142.857142857143,4,2,1,5,0,0
51120,-142.857142857143,4,2,1,80,0,0
51426,-142.857142857143,4,2,34,80,0,0
51502,-142.857142857143,4,2,1,80,0,0
52038,-142.857142857143,4,2,31,80,0,0
52115,-142.857142857143,4,2,1,80,0,0
52344,-142.857142857143,4,2,25,80,0,0
52421,-142.857142857143,4,2,1,80,0,0
52650,-142.857142857143,4,2,32,80,0,0
52727,-142.857142857143,4,2,1,80,0,0
52957,-142.857142857143,4,2,31,80,0,0
53033,-142.857142857143,4,2,1,80,0,0
53263,-142.857142857143,4,2,35,80,0,0
53339,-142.857142857143,4,2,1,80,0,0
53416,-142.857142857143,4,2,5,80,0,0
53492,-142.857142857143,4,2,1,80,0,0
53722,-142.857142857143,4,2,6,80,0,0
53798,-142.857142857143,4,2,1,80,0,0
53875,-142.857142857143,4,2,31,80,0,0
53951,-142.857142857143,4,2,1,80,0,0
54487,-142.857142857143,4,2,31,80,0,0
54564,-142.857142857143,4,2,1,80,0,0
54640,-142.857142857143,4,2,1,5,0,0
54793,-142.857142857143,4,2,25,80,0,0
54870,-142.857142857143,4,2,1,80,0,0
55099,-142.857142857143,4,2,32,80,0,0
55176,-142.857142857143,4,2,1,80,0,0
55406,-142.857142857143,4,2,31,80,0,0
55482,-142.857142857143,4,2,1,80,0,0
55712,-142.857142857143,4,2,35,80,0,0
55788,-142.857142857143,4,2,1,80,0,0
56324,-142.857142857143,4,2,31,80,0,0
56400,-142.857142857143,4,2,1,80,0,0
59385,-111.111111111111,4,2,1,70,0,0
64283,-90.9090909090909,4,2,2,70,0,0
64512,-90.9090909090909,4,2,2,5,0,0
64589,-90.9090909090909,4,2,2,70,0,0
66885,-90.9090909090909,4,2,1,70,0,0
68033,-90.9090909090909,4,2,1,5,0,0
68110,-90.9090909090909,4,2,1,70,0,0
68569,-90.9090909090909,4,2,1,60,0,0
68798,-90.9090909090909,4,2,1,5,0,0
68875,-90.9090909090909,4,2,1,70,0,0
69104,-90.9090909090909,4,2,1,80,0,0
69181,-71.4285714285714,4,2,2,80,0,1
70099,-83.3333333333333,4,2,2,80,0,1
73543,-83.3333333333333,4,2,2,5,0,1
73620,-83.3333333333333,4,2,2,80,0,1
73696,-83.3333333333333,4,2,2,5,0,1
73773,-83.3333333333333,4,2,2,80,0,1
76451,-83.3333333333333,4,2,2,5,0,1
76528,-83.3333333333333,4,2,2,80,0,1
78518,-83.3333333333333,4,2,1,80,0,1
78671,-83.3333333333333,4,2,2,80,0,1
78824,-83.3333333333333,4,2,1,80,0,1
78900,-83.3333333333333,4,2,1,80,0,0
78977,-71.4285714285714,4,2,2,80,0,1
79589,-83.3333333333333,4,2,2,80,0,1
82420,-83.3333333333333,4,2,2,5,0,1
82497,-83.3333333333333,4,2,2,80,0,1
83416,-83.3333333333333,4,2,1,80,0,1
83569,-83.3333333333333,4,2,2,80,0,1
83645,-83.3333333333333,4,2,1,80,0,1
83875,-83.3333333333333,4,2,2,80,0,1
83951,-83.3333333333333,4,2,2,5,0,1
84028,-83.3333333333333,4,2,2,80,0,1
84104,-83.3333333333333,4,2,2,5,0,1
84181,-83.3333333333333,4,2,2,80,0,1
84334,-76.9230769230769,4,2,2,80,0,1
84640,-83.3333333333333,4,2,2,80,0,1
85712,-83.3333333333333,4,2,1,80,0,1
86018,-83.3333333333333,4,2,2,80,0,1
86247,-83.3333333333333,4,2,2,5,0,1
86324,-83.3333333333333,4,2,2,60,0,1
88696,-83.3333333333333,4,2,2,5,0,1
88773,-83.3333333333333,4,2,2,70,0,1
89002,-83.3333333333333,4,2,2,5,0,1
89079,-83.3333333333333,4,2,2,80,0,1
89691,-83.3333333333333,4,2,2,80,0,0
89844,-83.3333333333333,4,2,2,80,0,1
89921,-83.3333333333333,4,2,2,80,0,0
89997,-83.3333333333333,4,2,2,5,0,0
91222,-100,4,2,62,80,0,1
91298,-100,4,2,1,80,0,0
91681,-100,4,2,69,80,0,0
91758,-100,4,2,1,80,0,0
92140,-100,4,2,97,80,0,0
92217,-100,4,2,1,80,0,0
92599,-100,4,2,69,80,0,0
92676,-100,4,2,1,80,0,0
93059,-100,4,2,62,80,0,0
93135,-100,4,2,1,80,0,0
93365,-100,4,2,69,80,0,0
93441,-100,4,2,1,80,0,0
93671,-100,4,2,62,80,0,0
93747,-100,4,2,1,80,0,0
94130,-100,4,2,69,80,0,0
94207,-100,4,2,2,80,0,0
94589,-100,4,2,61,80,0,0
94666,-100,4,2,2,80,0,0
94818,-100,4,2,2,5,0,0
94895,-100,4,2,2,80,0,0
95048,-100,4,2,61,80,0,0
95125,-100,4,2,2,80,0,0
95508,-100,4,2,65,80,0,0
95584,-100,4,2,2,80,0,0
95814,-100,4,2,61,80,0,0
95890,-100,4,2,2,80,0,0
96043,-100,4,2,2,5,0,0
96120,-100,4,2,62,80,0,0
96196,-100,4,2,2,80,0,0
96579,-100,4,2,69,80,0,0
96656,-100,4,2,2,80,0,0
97038,-100,4,2,61,80,0,0
97115,-100,4,2,2,80,0,0
97420,-100,4,2,2,5,0,0
97497,-100,4,2,69,80,0,0
97574,-100,4,2,2,80,0,0
97957,-100,4,2,62,80,0,0
98033,-100,4,2,2,80,0,0
98263,-100,4,2,69,80,0,0
98339,-100,4,2,2,80,0,0
98569,-100,4,2,62,80,0,0
98645,-100,4,2,2,80,0,0
99181,-100,4,2,69,80,0,0
99258,-100,4,2,2,80,0,0
99640,-100,4,2,61,80,0,0
99717,-100,4,2,2,80,0,0
99869,-100,4,2,2,5,0,0
99946,-100,4,2,65,80,0,0
100023,-100,4,2,1,80,0,0
100099,-100,4,2,62,80,0,0
100176,-100,4,2,1,80,0,0
100252,-83.3333333333333,4,2,99,80,0,0
100329,-83.3333333333333,4,2,1,80,0,0
100406,-100,4,2,5,80,0,0
100712,-125,4,2,6,80,0,0
101018,-166.666666666667,4,2,1,80,0,0
101783,-166.666666666667,4,2,2,80,0,0
102395,-166.666666666667,4,2,5,80,0,0
102701,-166.666666666667,4,2,6,80,0,0
103008,-166.666666666667,4,2,1,80,0,0
104232,-166.666666666667,4,2,2,80,0,0
104844,-166.666666666667,4,2,5,80,0,0
105150,-166.666666666667,4,2,6,80,0,0
105457,-166.666666666667,4,2,1,80,0,0
106681,-166.666666666667,4,2,2,80,0,0
107446,315.789473684211,4,2,2,80,1,0
107446,-100,4,2,2,80,0,0
107551,-100,4,2,1,80,0,0
108288,-100,4,2,2,80,0,0
108393,306.122448979592,4,2,2,80,1,0
108393,-666.666666666667,4,2,2,80,0,0
110765,-666.666666666667,4,2,2,5,0,0
110813,306.122448979592,4,2,2,80,1,0
110813,-111.111111111111,4,2,2,80,0,0
112114,-111.111111111111,4,2,2,5,0,0
112190,-111.111111111111,4,2,2,80,0,0
113185,-111.111111111111,4,2,2,5,0,0
113261,-111.111111111111,4,2,2,80,0,0
114563,-111.111111111111,4,2,2,5,0,0
114639,-111.111111111111,4,2,2,80,0,0
115634,-111.111111111111,4,2,2,5,0,0
115710,-111.111111111111,4,2,2,80,0,0
117011,-111.111111111111,4,2,2,5,0,0
117088,-111.111111111111,4,2,2,80,0,0
119690,-111.111111111111,4,2,1,80,0,0
119996,-111.111111111111,4,2,5,80,0,0
120302,-111.111111111111,4,2,6,80,0,0
120608,-142.857142857143,4,2,31,80,0,0
120685,-142.857142857143,4,2,1,80,0,0
120915,-142.857142857143,4,2,25,80,0,0
120991,-142.857142857143,4,2,1,80,0,0
121221,-142.857142857143,4,2,32,80,0,0
121297,-142.857142857143,4,2,1,80,0,0
121527,-142.857142857143,4,2,31,80,0,0
121603,-142.857142857143,4,2,1,80,0,0
121833,-142.857142857143,4,2,35,80,0,0
121909,-142.857142857143,4,2,1,80,0,0
122445,-142.857142857143,4,2,34,80,0,0
122522,-142.857142857143,4,2,1,80,0,0
123057,-142.857142857143,4,2,31,80,0,0
123134,-142.857142857143,4,2,1,80,0,0
123364,-142.857142857143,4,2,25,80,0,0
123440,-142.857142857143,4,2,1,80,0,0
123670,-142.857142857143,4,2,32,80,0,0
123746,-142.857142857143,4,2,1,80,0,0
123976,-142.857142857143,4,2,31,80,0,0
124052,-142.857142857143,4,2,1,80,0,0
124282,-142.857142857143,4,2,35,80,0,0
124358,-142.857142857143,4,2,1,80,0,0
124435,-142.857142857143,4,2,5,80,0,0
124511,-142.857142857143,4,2,1,80,0,0
124741,-142.857142857143,4,2,6,80,0,0
124818,-142.857142857143,4,2,1,80,0,0
124894,-142.857142857143,4,2,31,80,0,0
124971,-142.857142857143,4,2,1,80,0,0
125506,-142.857142857143,4,2,31,80,0,0
125583,-142.857142857143,4,2,1,80,0,0
125813,-142.857142857143,4,2,25,80,0,0
125889,-142.857142857143,4,2,1,80,0,0
126119,-142.857142857143,4,2,32,80,0,0
126195,-142.857142857143,4,2,1,80,0,0
126425,-142.857142857143,4,2,31,80,0,0
126501,-142.857142857143,4,2,1,80,0,0
126731,-142.857142857143,4,2,35,80,0,0
126807,-142.857142857143,4,2,1,80,0,0
127343,-142.857142857143,4,2,31,80,0,0
127420,-142.857142857143,4,2,1,80,0,0
130404,-111.111111111111,4,2,1,70,0,0
132165,-111.111111111111,4,2,1,5,0,0
132241,-111.111111111111,4,2,1,70,0,0
135302,-90.9090909090909,4,2,2,70,0,0
138134,-90.9090909090909,4,2,1,70,0,0
138364,-100,4,2,5,70,0,0
138517,-100,4,2,6,70,0,0
138823,-90.9090909090909,4,2,2,70,0,0
139052,-90.9090909090909,4,2,2,5,0,0
139129,-90.9090909090909,4,2,1,70,0,0
139282,-90.9090909090909,4,2,2,70,0,0
139741,-90.9090909090909,4,2,2,80,0,0
139971,-90.9090909090909,4,2,1,80,0,0
140200,-71.4285714285714,4,2,2,80,0,1
140813,-83.3333333333333,4,2,2,80,0,1
144563,-83.3333333333333,4,2,2,5,0,1
144639,-83.3333333333333,4,2,2,80,0,1
144716,-83.3333333333333,4,2,2,5,0,1
144792,-83.3333333333333,4,2,2,80,0,1
147471,-83.3333333333333,4,2,2,5,0,1
147547,-83.3333333333333,4,2,2,80,0,1
149231,-83.3333333333333,4,2,1,80,0,1
149384,-83.3333333333333,4,2,2,80,0,1
149537,-83.3333333333333,4,2,1,80,0,1
149690,-83.3333333333333,4,2,2,80,0,1
149767,-83.3333333333333,4,2,1,80,0,1
149920,-83.3333333333333,4,2,1,80,0,0
149996,-71.4285714285714,4,2,2,80,0,1
150608,-83.3333333333333,4,2,2,80,0,1
154435,-83.3333333333333,4,2,1,80,0,1
154588,-83.3333333333333,4,2,2,80,0,1
154741,-83.3333333333333,4,2,1,80,0,1
154894,-83.3333333333333,4,2,2,80,0,1
154971,-83.3333333333333,4,2,2,5,0,1
155047,-83.3333333333333,4,2,2,80,0,1
155124,-83.3333333333333,4,2,2,5,0,1
155200,-83.3333333333333,4,2,2,80,0,1
155353,-76.9230769230769,4,2,2,80,0,1
155659,-83.3333333333333,4,2,2,80,0,1
156731,-83.3333333333333,4,2,1,80,0,1
157037,-83.3333333333333,4,2,2,80,0,1
157267,-83.3333333333333,4,2,2,5,0,1
157343,-83.3333333333333,4,2,2,60,0,1
159409,-83.3333333333333,4,2,1,70,0,1
159486,-83.3333333333333,4,2,2,70,0,1
159716,-83.3333333333333,4,2,2,5,0,1
159792,-83.3333333333333,4,2,2,80,0,1
160710,-83.3333333333333,4,2,2,80,0,0
160864,-83.3333333333333,4,2,2,80,0,1
160940,-83.3333333333333,4,2,2,80,0,0
161017,-83.3333333333333,4,2,2,5,0,0
162241,-83.3333333333333,4,2,1,80,0,0
170966,-83.3333333333333,4,2,5,80,0,0
171272,-285.714285714286,4,2,6,80,0,0
171731,-71.4285714285714,4,2,2,70,0,0
171960,-71.4285714285714,4,2,2,5,0,0
172037,-90.9090909090909,4,2,69,70,0,1
172114,-90.9090909090909,4,2,2,70,0,0
172190,-90.9090909090909,4,2,61,70,0,0
172267,-90.9090909090909,4,2,2,70,0,0
172496,-90.9090909090909,4,2,62,70,0,0
172573,-90.9090909090909,4,2,2,70,0,0
172802,-90.9090909090909,4,2,65,70,0,0
172879,-90.9090909090909,4,2,2,70,0,0
173108,-90.9090909090909,4,2,10,70,0,0
173185,-90.9090909090909,4,2,2,70,0,0
173415,-90.9090909090909,4,2,71,70,0,0
173491,-90.9090909090909,4,2,2,70,0,0
173568,-90.9090909090909,4,2,65,70,0,0
173644,-90.9090909090909,4,2,2,70,0,0
173721,-90.9090909090909,4,2,64,70,0,0
173797,-90.9090909090909,4,2,2,70,0,0
173874,-90.9090909090909,4,2,64,70,0,0
173950,-90.9090909090909,4,2,2,70,0,0
174027,-90.9090909090909,4,2,11,70,0,0
174103,-90.9090909090909,4,2,2,70,0,0
174180,-90.9090909090909,4,2,64,70,0,0
174256,-90.9090909090909,4,2,2,70,0,0
174333,-90.9090909090909,4,2,12,70,0,0
174409,-90.9090909090909,4,2,2,70,0,0
174486,-90.9090909090909,4,2,65,70,0,0
174563,-90.9090909090909,4,2,2,70,0,0
174639,-90.9090909090909,4,2,54,70,0,0
174716,-90.9090909090909,4,2,2,70,0,0
174792,-90.9090909090909,4,2,57,70,0,0
174869,-90.9090909090909,4,2,2,70,0,0
174945,-90.9090909090909,4,2,11,70,0,0
175022,-90.9090909090909,4,2,2,70,0,0
175251,-90.9090909090909,4,2,64,70,0,0
175328,-90.9090909090909,4,2,2,70,0,0
175557,-90.9090909090909,4,2,16,70,0,0
175634,-90.9090909090909,4,2,2,70,0,0
175864,-90.9090909090909,4,2,2,70,0,0
175940,-90.9090909090909,4,2,2,70,0,0
176017,-90.9090909090909,4,2,56,70,0,0
176093,-90.9090909090909,4,2,2,70,0,0
176170,-90.9090909090909,4,2,61,70,0,0
176246,-90.9090909090909,4,2,2,70,0,0
176323,-90.9090909090909,4,2,16,70,0,0
176399,-90.9090909090909,4,2,2,5,0,0
176476,-90.9090909090909,4,2,62,70,0,0
176552,-90.9090909090909,4,2,2,70,0,0
176629,-90.9090909090909,4,2,64,70,0,0
176705,-90.9090909090909,4,2,2,70,0,0
176782,-90.9090909090909,4,2,65,70,0,0
176858,-90.9090909090909,4,2,2,70,0,0
176935,-90.9090909090909,4,2,66,70,0,0
177011,-90.9090909090909,4,2,2,70,0,0
177088,-90.9090909090909,4,2,14,70,0,0
177165,-90.9090909090909,4,2,2,70,0,0
177394,-90.9090909090909,4,2,66,70,0,0
177471,-90.9090909090909,4,2,2,70,0,0
177547,-90.9090909090909,4,2,14,70,0,0
177624,-90.9090909090909,4,2,2,70,0,0
177853,-90.9090909090909,4,2,66,70,0,0
177930,-90.9090909090909,4,2,2,70,0,0
178006,-90.9090909090909,4,2,14,70,0,0
178083,-90.9090909090909,4,2,2,70,0,0
178159,-90.9090909090909,4,2,71,70,0,0
178236,-90.9090909090909,4,2,2,70,0,0
178313,-90.9090909090909,4,2,65,70,0,0
178389,-90.9090909090909,4,2,2,70,0,0
178619,-90.9090909090909,4,2,71,70,0,0
178695,-90.9090909090909,4,2,2,70,0,0
178772,-90.9090909090909,4,2,65,70,0,0
178848,-90.9090909090909,4,2,2,70,0,0
179078,-90.9090909090909,4,2,71,70,0,0
179154,-90.9090909090909,4,2,2,70,0,0
179231,-90.9090909090909,4,2,65,70,0,0
179307,-90.9090909090909,4,2,2,70,0,0
179384,-90.9090909090909,4,2,79,70,0,0
179460,-90.9090909090909,4,2,2,70,0,0
179996,-90.9090909090909,4,2,37,70,0,0
180073,-90.9090909090909,4,2,65,70,0,0
180149,-90.9090909090909,4,2,79,70,0,0
180226,-90.9090909090909,4,2,16,70,0,0
180302,-90.9090909090909,4,2,12,70,0,0
180379,-90.9090909090909,4,2,79,70,0,0
180455,-90.9090909090909,4,2,74,70,0,0
180532,-90.9090909090909,4,2,75,70,0,0
180608,-90.9090909090909,4,2,81,70,0,0
180685,-90.9090909090909,4,2,75,70,0,0
180761,-90.9090909090909,4,2,24,70,0,0
180838,-90.9090909090909,4,2,79,70,0,0
180915,-90.9090909090909,4,2,75,70,0,0
180991,-90.9090909090909,4,2,74,70,0,0
181068,-90.9090909090909,4,2,79,70,0,0
181144,-90.9090909090909,4,2,65,70,0,0
181221,-90.9090909090909,4,2,74,70,0,0
181297,-90.9090909090909,4,2,79,70,0,0
181374,-90.9090909090909,4,2,65,70,0,0
181450,-90.9090909090909,4,2,12,70,0,0
181527,-90.9090909090909,4,2,79,70,0,0
181603,-90.9090909090909,4,2,65,70,0,0
181680,-90.9090909090909,4,2,12,70,0,0
181756,-90.9090909090909,4,2,61,70,0,0
181833,-90.9090909090909,4,2,72,70,0,0
181909,-90.9090909090909,4,2,2,70,0,0
182445,-90.9090909090909,4,2,21,70,0,0
182522,-90.9090909090909,4,2,2,70,0,0
182904,-90.9090909090909,4,2,71,70,0,0
182981,-90.9090909090909,4,2,1,70,0,0
183134,-90.9090909090909,4,2,1,5,0,0
183210,-90.9090909090909,4,2,1,70,0,0
183670,-100,4,2,1,70,0,0
183976,-100,4,2,5,70,0,0
184129,-100,4,2,6,70,0,0
184282,-333.333333333333,4,2,98,70,0,0
184358,-333.333333333333,4,2,1,80,0,0
189103,-333.333333333333,4,2,1,5,0,0
189180,-333.333333333333,4,2,1,80,0,0
191552,-333.333333333333,4,2,1,5,0,0
191629,-333.333333333333,4,2,1,80,0,0
193466,-90.9090909090909,4,2,1,80,0,0
193695,-90.9090909090909,4,2,1,5,0,0
193772,-71.4285714285714,4,2,2,80,0,0
194001,-71.4285714285714,4,2,2,5,0,0
194078,-100,4,2,2,70,0,0
198823,-90.9090909090909,4,2,2,70,0,0
203491,-90.9090909090909,4,2,1,70,0,0
203568,-90.9090909090909,4,2,2,70,0,0
203797,-90.9090909090909,4,2,2,5,0,0
203874,-90.9090909090909,4,2,2,70,0,0
207624,-90.9090909090909,4,2,2,5,0,0
207700,-90.9090909090909,4,2,2,70,0,0
208083,-90.9090909090909,4,2,1,70,0,0
208159,-90.9090909090909,4,2,2,70,0,0
208389,-90.9090909090909,4,2,1,70,0,0
208466,-90.9090909090909,4,2,2,70,0,0
208695,-90.9090909090909,4,2,2,5,0,0
208772,-90.9090909090909,4,2,2,70,0,0
210073,-90.9090909090909,4,2,2,5,0,0
210149,-90.9090909090909,4,2,2,70,0,0
210608,-90.9090909090909,4,2,2,50,0,0
219792,-166.666666666667,4,2,5,80,0,0
220404,-166.666666666667,4,2,6,80,0,0
221017,-166.666666666667,4,2,1,80,0,0
221323,-142.857142857143,4,2,1,80,0,0
222700,-142.857142857143,4,2,5,80,0,0
222853,-142.857142857143,4,2,1,80,0,0
223159,-142.857142857143,4,2,6,80,0,0
223466,-142.857142857143,4,2,1,80,0,0
223695,-142.857142857143,4,2,1,5,0,0
223772,-142.857142857143,4,2,1,80,0,0
223925,-142.857142857143,4,2,2,80,0,0
224001,-142.857142857143,4,2,2,5,0,0
224078,-142.857142857143,4,2,1,80,0,0
224231,-142.857142857143,4,2,2,80,0,0
224307,-142.857142857143,4,2,2,5,0,0
224384,-142.857142857143,4,2,1,80,0,0
224843,-142.857142857143,4,2,5,80,0,0
224996,-142.857142857143,4,2,1,80,0,0
225149,-142.857142857143,4,2,6,80,0,0
225302,-142.857142857143,4,2,1,80,0,0
226833,-250,4,2,1,80,0,0
227598,-250,4,2,5,80,0,0
227751,-250,4,2,1,80,0,0
229741,-250,4,2,5,80,0,0
229894,-250,4,2,1,80,0,0
230047,-250,4,2,6,80,0,0
230200,-250,4,2,1,80,0,0
230736,-250,4,2,1,5,0,0
230813,-250,4,2,1,70,0,0
233185,-250,4,2,1,5,0,0
233261,-250,4,2,1,70,0,0
233568,-250,4,2,2,70,0,0
234027,-90.9090909090909,4,2,1,70,0,0
234180,-90.9090909090909,4,2,2,70,0,0
234256,-90.9090909090909,4,2,1,70,0,0
234486,-250,4,2,1,60,0,0
234792,-250,4,2,1,5,0,0
234869,-250,4,2,1,80,0,0
235710,-83.3333333333333,4,2,2,80,0,1
236246,-83.3333333333333,4,2,2,5,0,0
236323,-66.6666666666667,4,2,2,80,0,1
236476,-66.6666666666667,4,2,2,5,0,0
236552,-62.5,4,2,2,80,0,1
236705,-62.5,4,2,2,5,0,0
236782,-62.5,4,2,2,80,0,1
236858,-62.5,4,2,2,5,0,0
236935,-76.9230769230769,4,2,2,80,0,1
239996,-76.9230769230769,4,2,1,80,0,1
240302,-76.9230769230769,4,2,2,80,0,1
243287,-76.9230769230769,4,2,2,5,0,1
243364,-76.9230769230769,4,2,2,80,0,1
244435,-76.9230769230769,4,2,1,80,0,1
244588,-76.9230769230769,4,2,2,80,0,1
244741,-76.9230769230769,4,2,1,80,0,1
244894,-76.9230769230769,4,2,5,80,0,1
245047,-76.9230769230769,4,2,6,80,0,1
245200,-76.9230769230769,4,2,2,80,0,1
245506,-76.9230769230769,4,2,2,80,0,0
245813,-76.9230769230769,4,2,2,80,0,1
246042,-76.9230769230769,4,2,2,5,0,1
246119,-76.9230769230769,4,2,2,80,0,1
249945,-76.9230769230769,4,2,1,80,0,1
250098,-76.9230769230769,4,2,2,80,0,1
250481,-76.9230769230769,4,2,2,5,0,1
250557,-76.9230769230769,4,2,2,80,0,1
250634,-76.9230769230769,4,2,2,5,0,1
250710,-76.9230769230769,4,2,2,80,0,1
252394,-76.9230769230769,4,2,1,80,0,1
252547,-76.9230769230769,4,2,2,80,0,1
252700,-76.9230769230769,4,2,2,80,0,0
252777,-76.9230769230769,4,2,2,5,0,0
252853,-76.9230769230769,4,2,2,60,0,1
253159,-76.9230769230769,4,2,2,60,0,0
255302,-76.9230769230769,4,2,2,60,0,1
255608,-76.9230769230769,4,2,2,60,0,0
256374,-90.9090909090909,4,2,2,60,0,0
256680,-90.9090909090909,4,2,5,60,0,0
256833,-90.9090909090909,4,2,6,60,0,0
256986,-90.9090909090909,4,2,2,60,0,0
257292,-90.9090909090909,4,2,1,80,0,0
257445,-90.9090909090909,4,2,2,70,0,0
257751,-76.9230769230769,4,2,1,80,0,1
258976,-76.9230769230769,4,2,2,80,0,1
260277,-76.9230769230769,4,2,1,80,0,1
260506,-76.9230769230769,4,2,2,80,0,1
260583,-76.9230769230769,4,2,1,80,0,1
260813,-76.9230769230769,4,2,2,80,0,1
260889,-76.9230769230769,4,2,1,80,0,1
261119,-76.9230769230769,4,2,2,80,0,1
261195,-76.9230769230769,4,2,1,80,0,1
261425,-76.9230769230769,4,2,2,80,0,1
261501,-76.9230769230769,4,2,1,80,0,1
261731,-76.9230769230769,4,2,2,80,0,1
261807,-76.9230769230769,4,2,1,80,0,1
262037,-76.9230769230769,4,2,2,80,0,1
262114,-76.9230769230769,4,2,1,80,0,1
262343,-66.6666666666667,4,2,5,80,0,0
262496,-66.6666666666667,4,2,6,80,0,0
262649,-66.6666666666667,4,2,2,80,0,1
262879,-66.6666666666667,4,2,2,5,0,1
262955,-66.6666666666667,4,2,2,80,0,1
263721,-66.6666666666667,4,2,2,80,0,0
263874,-66.6666666666667,4,2,2,5,0,0
264792,-400,4,2,2,80,0,0
266169,-400,4,2,2,5,0,0
266323,-285.714285714286,4,2,62,80,0,1
266399,-285.714285714286,4,2,1,80,0,0
266782,-285.714285714286,4,2,69,80,0,0
266858,-285.714285714286,4,2,1,80,0,0
267241,-285.714285714286,4,2,97,80,0,0
267318,-285.714285714286,4,2,1,80,0,0
267700,-285.714285714286,4,2,69,80,0,0
267777,-285.714285714286,4,2,1,80,0,0
268159,-285.714285714286,4,2,62,80,0,0
268236,-285.714285714286,4,2,1,80,0,0
268466,-285.714285714286,4,2,99,80,0,0
268542,-285.714285714286,4,2,1,80,0,0
268772,-285.714285714286,4,2,62,80,0,0
268848,-285.714285714286,4,2,1,80,0,0
269231,-285.714285714286,4,2,69,80,0,0
269307,-285.714285714286,4,2,1,80,0,0
269690,-285.714285714286,4,2,97,80,0,0
269767,-285.714285714286,4,2,1,80,0,0
270149,-285.714285714286,4,2,69,80,0,0
270226,-285.714285714286,4,2,1,80,0,0
270608,-285.714285714286,4,2,65,80,0,0
270685,-285.714285714286,4,2,1,80,0,0
270915,-285.714285714286,4,2,99,80,0,0
270991,-285.714285714286,4,2,1,80,0,0
271221,-285.714285714286,4,2,62,80,0,0
271297,-285.714285714286,4,2,1,80,0,0
271680,-285.714285714286,4,2,69,80,0,0
271756,-285.714285714286,4,2,1,80,0,0
272139,-285.714285714286,4,2,97,80,0,0
272216,-285.714285714286,4,2,1,80,0,0
272598,-285.714285714286,4,2,69,80,0,0
272675,-285.714285714286,4,2,1,80,0,0
273057,-285.714285714286,4,2,62,80,0,0
273134,-285.714285714286,4,2,1,80,0,0
273364,-285.714285714286,4,2,99,80,0,0
273440,-285.714285714286,4,2,1,80,0,0
273670,-285.714285714286,4,2,62,80,0,0
273746,-285.714285714286,4,2,1,80,0,0
274129,-285.714285714286,4,2,69,80,0,0
274205,-285.714285714286,4,2,1,80,0,0
274588,-285.714285714286,4,2,61,80,0,0
274665,-285.714285714286,4,2,2,80,0,0
275047,-285.714285714286,4,2,61,80,0,0
275124,-285.714285714286,4,2,2,80,0,0
275200,-285.714285714286,4,2,6,80,0,0
275353,-285.714285714286,4,2,1,80,0,0
275506,-285.714285714286,4,2,62,80,0,0
275583,-285.714285714286,4,2,2,80,0,0
275813,-285.714285714286,4,2,64,80,0,0
275889,-285.714285714286,4,2,2,80,0,0
276042,-285.714285714286,4,2,2,5,0,0
276119,-100,4,2,62,80,0,1
276195,-100,4,2,2,80,0,0
276578,-100,4,2,69,80,0,0
276654,-100,4,2,2,80,0,0
277037,-100,4,2,61,80,0,0
277114,-100,4,2,2,80,0,0
277496,-100,4,2,69,80,0,0
277573,-100,4,2,2,80,0,0
277955,-100,4,2,62,80,0,0
278032,-100,4,2,2,80,0,0
278261,-100,4,2,69,80,0,0
278338,-100,4,2,2,80,0,0
278568,-100,4,2,62,80,0,0
278644,-100,4,2,2,80,0,0
279027,-100,4,2,69,80,0,0
279103,-100,4,2,2,80,0,0
279486,-100,4,2,61,80,0,0
279563,-100,4,2,2,80,0,0
279945,-100,4,2,69,80,0,0
280022,-100,4,2,2,80,0,0
280404,-100,4,2,65,80,0,0
280481,-100,4,2,2,80,0,0
280710,-100,4,2,69,80,0,0
280787,-100,4,2,2,80,0,0
281017,-100,4,2,62,80,0,0
281093,-100,4,2,2,80,0,0
281476,-100,4,2,69,80,0,0
281552,-100,4,2,2,80,0,0
281935,-100,4,2,61,80,0,0
282011,-100,4,2,2,80,0,0
282318,-100,4,2,2,5,0,0
282394,-100,4,2,69,80,0,0
282471,-100,4,2,2,80,0,0
282853,-100,4,2,62,80,0,0
282930,-100,4,2,2,80,0,0
283159,-100,4,2,69,80,0,0
283236,-100,4,2,2,80,0,0
283466,-100,4,2,62,80,0,0
283542,-100,4,2,2,80,0,0
283925,-100,4,2,69,80,0,0
284001,-100,4,2,2,80,0,0
284384,-100,4,2,61,80,0,0
284460,-100,4,2,2,80,0,0
284843,-100,4,2,69,80,0,0
284920,-100,4,2,2,80,0,0
284996,-100,4,2,5,80,0,0
285149,-100,4,2,6,80,0,0
285302,-100,4,2,62,80,0,0
285379,-100,4,2,2,80,0,0
285608,-100,4,2,64,80,0,0
285685,-100,4,2,1,80,0,0
285915,-200,4,2,1,80,0,0
285991,-200,4,2,1,5,0,0
285998,-200,4,2,1,5,0,0
286068,-200,4,2,1,80,0,0
286144,-200,4,2,1,5,0,0
286221,-200,4,2,1,80,0,0
286297,-200,4,2,1,5,0,0
286374,-200,4,2,1,80,0,0
286450,-200,4,2,1,5,0,0
286833,-200,4,2,1,80,0,0
286909,-200,4,2,1,5,0,0
286986,-200,4,2,1,80,0,0
287063,-200,4,2,1,5,0,0
287139,-200,4,2,1,80,0,0
287216,-200,4,2,1,5,0,0
287292,-200,4,2,1,80,0,0
287369,-200,4,2,1,5,0,0
287598,-200,4,2,1,80,0,0
287675,-200,4,2,1,5,0,0
287751,-200,4,2,1,80,0,0
287981,-200,4,2,1,5,0,0
288057,-400,4,2,98,80,0,0
288134,-400,4,2,1,80,0,0
288210,-400,4,2,1,80,0,0
288670,-400,4,2,1,70,0,0
289282,-400,4,2,1,60,0,0
289894,-400,4,2,1,50,0,0
290506,-400,4,2,1,40,0,0
291119,-400,4,2,1,30,0,0
291731,-400,4,2,1,20,0,0
292343,-400,4,2,1,10,0,0
292649,-400,4,2,1,5,0,0

[Colours]
Combo1 : 255,157,206
Combo2 : 255,183,183

[HitObjects]
49,76,1241,5,0,0:0:0:0:
86,145,1547,1,0,0:0:0:0:
15,196,1853,6,0,P|73:182|207:157,1,184.799994360352,2|0,0:0|0:0,0:0:0:0:
250,220,2465,6,0,P|293:206|312:143,2,92.3999971801759
162,196,3077,6,0,P|179:256|195:340,1,123.199996240234,2|0,0:0|0:0,0:0:0:0:
269,384,3690,2,0,P|319:348|371:316,1,123.199996240234
475,156,4302,6,0,B|370:159|435:242|308:250,1,184.799994360352,2|0,0:0|0:0,0:0:0:0:
371,316,4914,2,0,P|406:331|458:366,2,92.3999971801759
261,296,5526,5,2,0:0:0:0:
314,235,5680,1,0,0:0:0:0:
236,174,5833,1,0,0:0:0:0:
285,82,5986,1,0,0:0:0:0:
262,47,6445,5,0,0:0:0:0:
166,209,6751,6,0,P|119:192|-1:159,1,158.399995166016,2|0,0:0|0:0,0:0:0:0:
1,180,7210,2,0,P|57:153|157:116,1,158.399995166016,2|0,0:0|0:0,0:0:0:0:
63,60,7669,1,0,0:0:0:0:
120,1,7822,6,0,P|109:48|75:251,1,237.599992749024,2|0,0:0|0:0,0:0:0:0:
37,309,8435,2,0,P|104:332|174:256,1,158.399995166016
65,166,8894,6,0,P|80:214|90:256,1,79.1999975830079
207,361,9200,2,0,P|268:331|359:299,1,158.399995166016,2|0,0:0|0:0,0:0:0:0:
434,290,9659,2,0,P|357:262|278:225,1,158.399995166016
378,11,10271,6,0,P|357:87|338:180,1,158.399995166016
261,84,10731,1,0,0:0:0:0:
216,153,10884,2,0,P|237:229|253:306,1,158.399995166016
225,383,11343,1,0,0:0:0:0:
456,135,11649,6,0,B|411:94|326:90|276:131|260:188|259:196|260:202|223:274|172:290|95:297|53:231,1,475.199985498047,2|0,0:0|0:0,0:0:0:0:
103,97,12720,1,2,0:0:0:0:
103,97,13180,6,0,P|120:162|128:197,2,88
148,2,14098,5,0,0:0:0:0:
256,192,14174,12,0,15169,0:0:0:0:
470,55,15304,6,0,P|447:133|418:259,1,193.600005908203,6|0,3:1|1:0,0:0:0:0:
439,334,15763,2,0,P|362:348|298:259,1,193.600005908203,2|0,0:0|3:0,0:0:0:0:
221,208,16222,1,0,1:0:0:0:
289,134,16375,1,0,0:0:0:0:
223,7,16528,5,6,3:2:0:0:
150,63,16681,1,0,1:0:0:0:
153,72,16758,1,0,1:0:0:0:
156,82,16834,1,0,1:0:0:0:
159,91,16911,1,0,0:0:0:0:
161,99,16987,6,0,P|235:60|375:14,1,193.600005908203,2|0,0:0|3:0,0:0:0:0:
410,141,17446,1,0,1:0:0:0:
506,38,17599,1,0,0:0:0:0:
503,276,17752,5,6,3:2:0:0:
336,204,17906,1,0,1:0:0:0:
333,194,17982,1,0,1:0:0:0:
331,185,18059,1,0,1:0:0:0:
377,351,18212,6,0,P|384:328|393:306,1,48.4000014770508,0|0,1:0|1:0,0:0:0:0:
271,328,18365,5,10,3:0:0:0:
240,332,18441,1,8,3:0:0:0:
211,341,18518,1,10,3:0:0:0:
180,352,18594,1,8,3:0:0:0:
154,367,18671,1,2,3:2:0:0:
24,159,18824,6,0,P|114:163|157:244,1,184.799994360352,6|0,3:2|0:0,0:0:0:0:
86,268,19130,6,0,P|120:186|172:68,1,184.799994360352,6|0,3:2|0:0,0:0:0:0:
71,10,19436,6,0,P|82:60|87:87,1,61.5999981201172,6|0,3:2|0:0,0:0:0:0:
225,169,19589,1,2,1:2:0:0:
225,169,19895,6,0,P|269:180|347:203,1,105.6,2|0,1:2|0:0,0:0:0:0:
351,189,20201,5,6,3:0:0:0:
239,326,20355,1,0,0:0:0:0:
415,384,20508,1,0,1:0:0:0:
340,311,20661,6,0,P|277:327|158:367,1,176,2|0,0:0|3:0,0:0:0:0:
0,284,21120,1,2,1:2:0:0:
73,359,21273,6,0,P|89:318|107:278,1,88,4|0,3:2|0:0,0:0:0:0:
81,70,21579,1,2,3:0:0:0:
202,234,21732,1,0,1:0:0:0:
6,188,21885,5,0,0:0:0:0:
6,188,21962,1,0,1:0:0:0:
6,188,22038,2,0,P|59:201|123:134,1,132,2|0,3:0|0:0,0:0:0:0:
162,86,22344,2,0,B|171:62|187:52|187:52|177:75|176:105,1,88,2|0,1:2|0:0,0:0:0:0:
183,289,22650,5,6,3:0:0:0:
386,241,22804,1,0,0:0:0:0:
263,92,22957,1,0,1:0:0:0:
256,210,23110,5,2,0:0:0:0:
256,210,23186,2,0,P|196:190|97:164,1,132,0|0,1:0|3:0,0:0:0:0:
44,76,23569,1,2,1:2:0:0:
196,4,23722,6,0,P|178:59|170:103,1,88,4|0,3:2|0:0,0:0:0:0:
62,259,24028,2,0,P|52:216|38:174,1,88,2|0,3:2|1:0,0:0:0:0:
271,74,24334,5,0,0:0:0:0:
271,74,24411,1,0,1:0:0:0:
271,74,24487,2,0,P|336:77|370:159,1,132,2|0,3:0|0:0,0:0:0:0:
438,177,24793,2,0,B|464:160|464:160|454:87,1,88,2|0,1:2|0:0,0:0:0:0:
491,288,25099,5,6,3:0:0:0:
322,379,25252,1,0,3:0:0:0:
296,179,25406,1,0,1:0:0:0:
386,304,25559,5,2,0:2:0:0:
386,304,25635,2,0,P|318:279|225:254,1,132,0|0,1:0|3:0,0:0:0:0:
96,158,26018,1,2,1:2:0:0:
132,323,26171,6,0,P|153:266|176:218,1,88,4|0,3:2|0:0,0:0:0:0:
71,50,26477,1,2,3:0:0:0:
222,162,26630,1,0,1:0:0:0:
5,204,26783,5,0,0:0:0:0:
5,204,26860,1,0,1:0:0:0:
5,204,26936,2,0,P|65:202|110:134,1,132,2|0,3:0|0:0,0:0:0:0:
171,92,27242,2,0,P|162:47|157:-1,1,88,2|0,1:2|3:0,0:0:0:0:
427,103,27548,5,6,1:2:0:0:
247,242,27701,1,0,3:0:0:0:
492,318,27855,5,0,1:0:0:0:
305,178,28008,1,0,3:0:0:0:
383,380,28161,5,2,1:2:0:0:
437,236,28314,2,0,L|450:180,2,44,0|0|2,3:0|0:0|1:2,0:0:0:0:
253,349,28620,6,0,P|169:352|121:246,1,176,6|0,3:2|1:0,0:0:0:0:
182,89,29079,5,0,1:0:0:0:
49,227,29232,2,0,P|42:197|27:156,1,52.7999983886719,0|0,1:0|1:0,0:0:0:0:
137,175,29385,6,0,P|177:192|218:208,1,88,10|8,3:0|3:0,0:0:0:0:
60,35,29691,1,10,3:0:0:0:
438,309,29997,5,6,1:2:0:0:
237,337,34895,6,0,P|315:354|391:375,1,158.399995166016,6|0,1:2|1:0,0:0:0:0:
481,355,35967,5,2,1:2:0:0:
472,345,36120,6,0,L|484:299,2,44,0|0|0,3:0|3:0|3:0,0:0:0:0:
392,376,36579,5,2,3:2:0:0:
355,294,36732,5,2,3:2:0:0:
250,328,36885,5,0,0:0:0:0:
193,157,37038,5,2,1:2:0:0:
24,247,37191,5,0,3:0:0:0:
24,247,38416,6,0,P|14:190|-10:83,1,158.399995166016,6|0,3:1|0:0,0:0:0:0:
48,19,38875,5,0,1:0:0:0:
129,64,39028,1,0,0:0:0:0:
205,219,39181,5,14,0:3:0:0:
324,175,39334,1,12,0:3:0:0:
329,165,39411,1,12,0:3:0:0:
332,155,39487,1,14,0:3:0:0:
355,269,39640,6,0,P|366:299|372:326,1,39.5999987915039,8|8,0:3|0:3,0:0:0:0:
463,252,39793,6,0,P|475:201|503:97,1,158.399995166016,6|2,3:1|1:2,0:0:0:0:
389,14,40252,2,0,P|404:56|416:101,1,79.1999975830079,2|0,0:0|3:0,0:0:0:0:
247,50,40559,2,0,P|297:71|341:94,1,79.1999975830079,2|0,3:2|1:0,0:0:0:0:
103,219,40865,6,0,P|141:198|263:151,1,158.399995166016,2|0,3:2|3:0,0:0:0:0:
157,88,41324,1,0,1:0:0:0:
157,88,41477,1,0,0:0:0:0:
63,135,41630,2,0,P|49:85|36:44,1,79.1999975830079,2|0,3:2|3:0,0:0:0:0:
122,228,41936,2,0,P|110:265|99:304,1,79.1999975830079,2|0,1:2|0:0,0:0:0:0:
42,365,42242,6,0,P|86:324|191:343,1,158.399995166016,6|2,3:2|1:2,0:0:0:0:
350,315,42701,2,0,P|370:308|395:303,2,39.5999987915039,2|0|0,0:0|0:0|3:0,0:0:0:0:
276,383,43008,2,0,P|266:337|251:273,1,79.1999975830079,2|2,3:2|1:2,0:0:0:0:
355,153,43314,6,0,B|261:132|306:96|206:73,1,158.399995166016,2|0,3:2|3:0,0:0:0:0:
148,119,43773,2,0,P|106:94|96:40,1,79.1999975830079,2|0,1:2|0:0,0:0:0:0:
203,190,44079,2,0,P|176:231|128:256,1,79.1999975830079,2|0,3:2|3:0,0:0:0:0:
63,184,44385,1,2,1:2:0:0:
63,184,44691,6,0,P|54:118|30:14,1,158.399995166016,6|2,3:2|1:2,0:0:0:0:
159,111,45150,2,0,B|259:131|201:161|300:178,1,158.399995166016,2|2,0:0|3:2,0:0:0:0:
342,99,45610,1,0,1:0:0:0:
447,209,45763,6,0,P|429:251|394:367,1,158.399995166016,2|0,3:2|3:0,0:0:0:0:
322,304,46222,1,0,1:0:0:0:
260,364,46375,1,2,0:0:0:0:
206,214,46528,5,2,3:2:0:0:
95,313,46681,1,2,3:2:0:0:
17,267,46834,1,2,1:2:0:0:
17,267,47140,6,0,P|-3:217|85:147,1,158.399995166016,4|0,3:2|1:0,0:0:0:0:
176,67,47599,2,0,P|152:124|120:218,1,158.399995166016,4|0,3:2|3:0,0:0:0:0:
83,63,48059,5,0,1:0:0:0:
229,178,48212,2,0,P|302:163|410:139,1,158.399995166016,4|8,3:2|3:0,0:0:0:0:
450,83,48671,2,0,P|465:31|477:-3,1,79.1999975830079,0|8,0:0|3:0,0:0:0:0:
352,234,48977,5,0,3:0:0:0:
480,303,49130,5,0,3:0:0:0:
354,384,49283,5,0,3:0:0:0:
398,311,49436,5,0,3:0:0:0:
403,317,49589,5,6,3:2:0:0:
403,317,50508,5,2,1:2:0:0:
354,384,50814,6,0,P|367:329|393:198,2,184.799994360352,2|2|0,3:2|3:2|1:0,0:0:0:0:
403,317,52038,5,0,3:0:0:0:
255,175,52650,5,0,0:0:0:0:
179,212,52957,1,0,1:2:0:0:
142,138,53263,1,0,0:0:0:0:
13,284,53875,5,0,0:0:0:0:
8,277,54181,1,0,1:0:0:0:
207,384,54487,5,2,3:2:0:0:
122,111,55099,5,2,0:0:0:0:
255,161,55406,1,2,1:2:0:0:
179,212,55712,6,0,P|154:94|138:19,2,184.799994360352,2|2|0,3:2|3:2|1:0,0:0:0:0:
122,111,56936,5,4,3:2:0:0:
255,161,57242,1,10,1:2:0:0:
349,44,57548,1,8,1:2:0:0:
325,374,57855,6,0,P|277:351|190:322,1,123.199996240234,8|0,1:2|3:0,0:0:0:0:
147,269,58314,5,0,1:0:0:0:
98,362,58467,1,2,3:2:0:0:
11,334,58620,1,0,3:0:0:0:
43,245,58773,5,2,3:2:0:0:
46,250,58849,1,0,3:0:0:0:
50,254,58926,1,0,1:0:0:0:
52,259,59002,1,2,1:2:0:0:
54,265,59079,1,0,1:0:0:0:
479,34,59385,6,0,B|398:39|445:104|335:127,1,158.399995166016,6|0,3:2|1:0,0:0:0:0:
280,79,59844,1,2,0:0:0:0:
284,73,59997,5,2,3:2:0:0:
352,8,60150,1,0,3:0:0:0:
435,106,60304,1,2,1:2:0:0:
297,187,60457,6,0,P|254:168|149:133,1,158.399995166016,2|0,0:0|0:0,0:0:0:0:
104,58,60916,1,0,1:0:0:0:
4,120,61069,1,2,0:0:0:0:
1,129,61222,6,0,P|18:177|39:268,1,118.799996374512,2|0,3:2|0:0,0:0:0:0:
50,254,61528,2,0,P|33:297|15:349,1,79.1999975830079,0|2,1:0|0:0,0:0:0:0:
181,368,61834,6,0,P|249:366|288:260,1,158.399995166016,2|0,3:2|1:0,0:0:0:0:
228,236,62293,1,2,0:0:0:0:
356,152,62446,5,2,3:2:0:0:
236,228,62599,1,0,3:0:0:0:
177,60,62752,1,2,1:2:0:0:
58,183,62906,6,0,P|114:166|239:134,1,158.399995166016,2|0,0:0|3:0,0:0:0:0:
273,10,63365,5,0,1:0:0:0:
421,137,63518,1,0,0:0:0:0:
242,221,63671,1,0,3:0:0:0:
303,145,63824,6,0,P|310:118|320:89,2,39.5999987915039,0|0|2,3:0|1:0|1:2,0:0:0:0:
61,380,64283,5,6,1:0:0:0:
0,191,64436,1,0,0:0:0:0:
192,334,64589,5,2,1:2:0:0:
7,283,64742,1,0,3:0:0:0:
187,106,64895,5,2,1:2:0:0:
100,276,65048,1,0,3:0:0:0:
13,52,65201,5,2,1:2:0:0:
166,193,65355,1,0,3:0:0:0:
236,3,65508,6,0,P|182:17|121:28,1,96.8000029541017,2|0,1:2|3:0,0:0:0:0:
253,168,65814,2,0,P|300:177|347:189,1,96.8000029541017,2|0,1:2|3:0,0:0:0:0:
485,10,66120,5,2,1:2:0:0:
316,98,66273,1,0,3:0:0:0:
472,239,66426,2,0,P|449:185|432:137,1,96.8000029541017,2|0,1:2|3:0,0:0:0:0:
279,382,66732,6,0,P|294:326|303:271,1,96.8000029541017,4|0,1:2|3:0,0:0:0:0:
196,93,67038,1,0,1:0:0:0:
360,201,67191,1,0,3:0:0:0:
130,305,67344,6,0,P|111:243|86:192,1,96.8000029541017,2|2,1:2|3:2,0:0:0:0:
234,7,67650,1,2,1:2:0:0:
0,121,67804,6,0,B|121:113|48:188|205:178,1,193.600005908203,6|2,3:2|1:2,0:0:0:0:
94,37,68263,1,2,1:2:0:0:
236,288,69181,6,0,B|336:243|257:197|380:157,1,184.799994360352,6|0,3:1|0:0,0:0:0:0:
425,214,69487,2,0,B|478:184|478:184|447:99,1,123.199996240234,8|0,1:2|0:0,0:0:0:0:
502,58,69793,5,10,3:2:0:0:
276,0,69946,1,0,3:0:0:0:
276,0,70023,1,2,0:0:0:0:
276,0,70099,2,0,P|293:68|301:120,1,105.599996777344,0|2,0:0|1:0,0:0:0:0:
362,163,70406,6,0,P|405:136|405:73,1,105.599996777344,10|0,3:2|0:0,0:0:0:0:
190,73,70712,2,0,P|159:31|85:29,1,105.599996777344,10|0,1:2|0:0,0:0:0:0:
31,60,70941,1,0,0:0:0:0:
26,68,71018,6,0,P|41:140|42:155,1,52.7999983886719,10|0,3:2|0:0,0:0:0:0:
150,195,71171,1,0,3:0:0:0:
34,333,71324,2,0,B|0:309|0:309|30:233,1,105.599996777344,10|0,1:2|0:0,0:0:0:0:
165,187,71630,6,0,B|271:195|204:253|351:254,1,158.399995166016,10|0,3:2|0:0,0:0:0:0:
383,226,71936,2,0,B|414:270|414:270|367:334,1,105.599996777344,8|0,1:2|0:0,0:0:0:0:
313,369,72242,5,10,3:2:0:0:
477,221,72395,1,0,0:0:0:0:
477,221,72472,1,2,0:0:0:0:
477,221,72548,2,0,P|489:163|505:105,1,105.599996777344,8|2,1:2|0:0,0:0:0:0:
278,0,72855,5,10,0:0:0:0:
415,117,73008,1,0,3:0:0:0:
236,187,73161,1,8,1:2:0:0:
285,102,73314,6,0,P|223:82|114:186,1,211.199993554688,0|0,0:0|3:0,0:0:0:0:
175,239,73773,1,2,1:2:0:0:
0,334,73926,6,0,P|19:249|40:118,1,211.199993554688,6|0,3:2|3:0,0:0:0:0:
11,42,74385,1,8,1:2:0:0:
126,175,74538,6,0,B|220:173|179:225|292:216,1,158.399995166016,2|0,0:0|0:0,0:0:0:0:
342,162,74844,1,2,3:2:0:0:
304,80,74997,1,10,1:2:0:0:
223,117,75150,1,6,3:2:0:0:
300,291,75304,6,0,P|354:273|416:258,1,105.599996777344,10|2,0:0|3:2,0:0:0:0:
467,193,75610,1,10,1:2:0:0:
510,383,75763,6,0,P|463:376|417:318,1,105.599996777344,2|8,0:0|3:2,0:0:0:0:
351,153,76069,1,2,3:2:0:0:
351,153,76222,2,0,P|366:112|373:93,2,52.7999983886719,8|0|0,1:2|0:0|0:0,0:0:0:0:
282,83,76528,6,0,P|231:49|184:7,1,105.599996777344,14|0,3:2|0:0,0:0:0:0:
447,138,76834,2,0,P|494:92|522:46,1,105.599996777344,10|0,1:2|0:0,0:0:0:0:
298,355,77140,5,10,3:2:0:0:
238,162,77293,1,0,3:0:0:0:
385,286,77446,2,0,P|315:260|252:242,1,105.599996777344,10|0,1:2|0:0,0:0:0:0:
40,185,77752,5,6,1:2:0:0:
286,80,77906,1,0,0:0:0:0:
69,2,78059,6,0,P|86:68|97:125,1,105.599996777344,0|0,1:0|0:0,0:0:0:0:
186,381,78365,1,2,3:2:0:0:
268,172,78518,5,0,1:0:0:0:
268,172,78595,1,0,1:0:0:0:
268,172,78671,2,0,P|206:196|179:211,1,52.7999983886719,2|0,1:2|0:0,0:0:0:0:
68,267,78824,2,0,P|100:278|130:288,1,52.7999983886719,0|0,1:0|1:0,0:0:0:0:
280,381,78977,6,0,B|305:292|396:363|421:225,1,184.799994360352,6|0,3:1|0:0,0:0:0:0:
425,185,79283,2,0,B|366:166|366:166|324:232,1,123.199996240234,8|0,1:2|0:0,0:0:0:0:
263,268,79589,5,10,3:2:0:0:
185,63,79742,1,0,3:0:0:0:
185,63,79819,1,2,0:0:0:0:
185,63,79895,2,0,P|238:79|305:96,1,105.599996777344,0|2,0:0|1:0,0:0:0:0:
356,142,80201,6,0,P|397:95|392:30,1,105.599996777344,10|0,3:2|0:0,0:0:0:0:
186,229,80508,2,0,P|136:246|107:303,1,105.599996777344,10|0,1:2|0:0,0:0:0:0:
154,361,80737,1,0,0:0:0:0:
161,368,80814,6,0,P|203:360|227:355,1,52.7999983886719,10|0,3:2|0:0,0:0:0:0:
282,202,80967,1,0,3:0:0:0:
439,305,81120,2,0,B|406:333|406:333|332:299,1,105.599996777344,10|0,1:2|0:0,0:0:0:0:
272,182,81426,6,0,B|241:112|267:116|219:17,1,158.399995166016,10|0,3:2|0:0,0:0:0:0:
290,102,81732,2,0,P|350:92|378:47,1,105.599996777344,8|0,1:2|0:0,0:0:0:0:
310,3,82038,5,10,3:2:0:0:
158,195,82191,1,0,0:0:0:0:
158,195,82268,1,2,0:0:0:0:
158,195,82345,2,0,P|121:158|118:107,1,105.599996777344,8|2,1:2|3:2,0:0:0:0:
85,12,82650,5,10,0:0:0:0:
232,147,82804,1,0,3:0:0:0:
21,210,82957,1,8,1:2:0:0:
118,107,83110,6,0,P|176:121|280:28,1,211.199993554688,0|0,0:0|1:0,0:0:0:0:
205,3,83492,1,0,1:0:0:0:
198,11,83569,6,0,P|209:59|214:85,1,52.7999983886719,0|0,1:0|1:0,0:0:0:0:
328,146,83722,2,0,P|313:173|304:199,1,52.7999983886719,0|0,1:0|1:0,0:0:0:0:
200,360,83875,6,0,B|110:335|173:290|48:259,1,158.399995166016,6|0,3:2|0:0,0:0:0:0:
21,210,84181,1,0,1:0:0:0:
61,355,84334,6,0,P|94:276|139:180,1,171.599992144776,6|0,3:2|0:0,0:0:0:0:
209,178,84640,2,0,B|231:158|232:125|232:125|220:148|177:177,1,105.599996777344,2|2,3:2|1:2,0:0:0:0:
0,4,84946,6,0,P|110:8|159:103,1,211.199993554688,6|0,3:2|3:0,0:0:0:0:
72,108,85406,1,0,1:0:0:0:
255,3,85559,1,2,0:0:0:0:
295,199,85712,5,0,1:0:0:0:
299,209,85788,2,0,P|285:255|278:282,2,52.7999983886719,0|0|0,1:0|1:0|1:0,0:0:0:0:
383,182,86018,2,0,P|440:162|493:147,1,105.599996777344,2|0,1:2|0:0,0:0:0:0:
425,62,86324,5,6,3:2:0:0:
425,62,86630,5,2,3:2:0:0:
425,62,86936,5,0,3:0:0:0:
425,62,87242,5,0,3:0:0:0:
425,62,87548,5,0,3:0:0:0:
425,62,87855,5,2,3:1:0:0:
425,62,88161,5,0,3:0:0:0:
425,62,88467,5,2,3:2:0:0:
425,62,88773,5,6,3:2:0:0:
480,314,88926,1,0,0:0:0:0:
234,190,89079,5,0,1:0:0:0:
503,114,89232,1,0,1:0:0:0:
311,329,89385,5,0,1:0:0:0:
230,16,89538,1,0,1:0:0:0:
466,222,89691,5,2,1:2:0:0:
116,330,89844,1,2,1:2:0:0:
256,192,91222,5,6,3:2:0:0:
256,192,91298,12,2,93365,1:2:0:0:
13,262,93671,5,6,3:0:0:0:
173,138,93824,1,0,0:0:0:0:
189,366,93977,1,0,1:0:0:0:
108,242,94130,6,0,P|182:255|248:169,1,176,2|0,1:2|0:0,0:0:0:0:
338,21,94589,1,6,1:2:0:0:
351,139,94742,2,0,P|292:105|261:89,1,88,0|0,0:0|3:0,0:0:0:0:
81,136,95048,5,10,0:3:0:0:
162,93,95202,1,0,3:0:0:0:
131,7,95355,1,0,3:0:0:0:
125,16,95508,6,0,P|139:69|161:203,1,176,10|6,0:3|1:3,0:0:0:0:
438,372,96120,5,6,3:2:0:0:
490,170,96273,1,0,0:0:0:0:
315,275,96426,1,0,1:0:0:0:
440,255,96579,6,0,P|459:186|376:106,1,176,2|0,0:2|3:0,0:0:0:0:
314,15,97038,1,2,1:2:0:0:
265,97,97191,1,0,3:0:0:0:
164,53,97344,6,0,P|181:113|191:172,1,88,0|2,0:0|3:2,0:0:0:0:
296,251,97650,2,0,P|305:208|318:165,1,88,0|0,1:0|0:0,0:0:0:0:
193,274,97957,2,0,P|260:275|320:378,1,176,2|2,0:2|1:2,0:0:0:0:
30,3,98569,5,6,1:3:0:0:
240,106,98722,1,0,3:0:0:0:
0,216,98875,5,0,1:0:0:0:
163,68,99028,1,0,3:0:0:0:
140,289,99181,5,2,1:2:0:0:
82,156,99334,2,0,P|76:131|69:103,2,44,0|0|0,3:0|0:0|1:0,0:0:0:0:
78,366,99640,6,0,B|182:344|131:301|243:281,1,176,6|2,3:2|1:2,0:0:0:0:
390,195,100099,5,2,1:2:0:0:
308,320,100252,2,0,P|320:288|337:246,1,52.7999983886719,2|0,1:2|1:2,0:0:0:0:
263,119,100406,6,0,B|249:139|249:139|273:213,1,88,10|8,3:0|3:0,0:0:0:0:
422,281,100712,2,0,P|464:265|506:254,1,70.4,10|8,3:0|3:0,0:0:0:0:
369,384,101018,5,6,3:2:0:0:
369,384,101324,2,0,P|363:354|357:326,1,52.7999983886719,2|2,1:2|1:2,0:0:0:0:
353,270,101783,6,0,P|359:296|364:322,1,52.7999983886719,6|0,1:2|3:0,0:0:0:0:
360,259,102089,2,0,P|354:229|348:201,1,52.7999983886719,6|0,1:2|3:0,0:0:0:0:
356,197,102395,2,0,P|350:167|344:139,1,52.7999983886719,8|8,3:0|3:0,0:0:0:0:
317,77,102701,1,8,3:0:0:0:
317,77,102855,6,0,P|323:103|328:129,1,52.7999983886719,10|0,3:0|3:0,0:0:0:0:
325,65,103161,2,0,P|319:35|313:7,1,52.7999983886719,2|0,1:2|1:0,0:0:0:0:
281,297,103467,6,0,P|276:271|270:245,1,52.7999983886719,6|0,3:2|0:0,0:0:0:0:
265,171,103773,1,2,1:2:0:0:
265,171,103926,6,0,P|270:196|275:222,1,52.7999983886719,2|0,1:2|3:0,0:0:0:0:
249,162,104232,2,0,P|244:136|238:110,1,52.7999983886719,6|0,1:2|3:0,0:0:0:0:
247,95,104538,2,0,P|242:69|236:43,1,52.7999983886719,6|0,1:2|3:0,0:0:0:0:
208,344,104997,6,0,P|203:318|197:292,1,52.7999983886719,10|8,3:0|3:0,0:0:0:0:
186,284,105304,2,0,P|181:258|175:232,1,52.7999983886719,10|0,3:0|3:0,0:0:0:0:
183,206,105610,2,0,P|178:180|172:154,1,52.7999983886719,2|0,1:2|1:0,0:0:0:0:
67,53,105916,6,0,P|62:27|56:1,1,52.7999983886719,6|0,3:2|0:0,0:0:0:0:
93,119,106222,1,2,1:2:0:0:
93,119,106375,6,0,P|88:93|82:67,1,52.7999983886719,2|0,1:2|3:0,0:0:0:0:
70,132,106681,2,0,P|75:157|80:183,1,52.7999983886719,6|0,1:2|3:0,0:0:0:0:
100,213,106987,2,0,P|105:238|110:264,1,52.7999983886719,6|0,1:2|3:0,0:0:0:0:
56,384,107293,1,0,0:0:0:0:
56,384,107446,6,0,L|44:322,2,58.6666666666667,0|0|0,1:0|1:0|1:0,0:0:0:0:
25,316,107761,2,0,L|12:259,2,58.6666666666667,0|0|0,3:0|1:0|3:0,0:0:0:0:
18,242,108077,6,0,L|8:185,1,58.6666666666667,0|0,1:0|3:0,0:0:0:0:
59,124,108288,1,0,1:0:0:0:
68,132,108393,6,0,B|173:142|101:211|226:215,1,184.799994360352,2|0,0:0|0:0,0:0:0:0:
494,37,110813,6,0,P|421:31|362:108,1,158.399995166016,6|2,3:1|1:2,0:0:0:0:
240,124,111272,2,0,P|290:145|330:173,1,79.1999975830079,2|0,0:0|0:0,0:0:0:0:
426,255,111578,2,0,P|402:206|389:159,1,79.1999975830079,2|0,3:2|0:0,0:0:0:0:
447,110,111884,1,2,1:2:0:0:
246,373,112190,5,0,3:0:0:0:
208,298,112343,1,0,1:0:0:0:
279,248,112496,1,0,0:0:0:0:
196,294,112649,6,0,P|147:304|112:314,1,79.1999975830079,2|0,3:2|3:0,0:0:0:0:
131,230,112955,2,0,P|82:240|47:250,1,79.1999975830079,2|0,1:2|0:0,0:0:0:0:
27,58,113261,6,0,B|107:76|76:122|167:145,1,158.399995166016,6|2,3:2|1:2,0:0:0:0:
212,81,113721,2,0,P|245:65|300:46,1,79.1999975830079,2|0,0:0|0:0,0:0:0:0:
362,86,114027,1,2,3:2:0:0:
362,86,114180,1,2,0:0:0:0:
435,19,114333,6,0,P|413:72|382:193,1,158.399995166016,2|0,1:2|3:0,0:0:0:0:
328,256,114792,2,0,P|311:216|288:175,1,79.1999975830079,2|0,1:2|0:0,0:0:0:0:
200,86,115098,2,0,P|258:102|298:111,1,79.1999975830079,2|0,3:2|3:0,0:0:0:0:
362,86,115404,1,2,1:2:0:0:
200,362,115710,6,0,P|154:377|79:297,1,158.399995166016,6|2,3:2|1:2,0:0:0:0:
31,167,116170,2,0,B|113:194|64:234|173:269,1,158.399995166016,2|2,0:0|3:2,0:0:0:0:
211,193,116629,1,0,0:0:0:0:
304,364,116782,6,0,P|317:316|358:196,1,158.399995166016,2|0,1:2|3:0,0:0:0:0:
240,266,117241,2,0,P|221:213|197:170,1,79.1999975830079,0|2,1:0|0:0,0:0:0:0:
358,75,117547,5,2,3:2:0:0:
281,133,117700,1,0,3:0:0:0:
346,202,117853,2,0,P|403:221|449:240,1,79.1999975830079,2|0,1:2|1:0,0:0:0:0:
219,65,118159,6,0,B|129:84|186:126|60:144,1,158.399995166016,6|2,3:2|1:2,0:0:0:0:
23,3,118619,2,0,P|89:9|136:87,1,158.399995166016,6|2,3:2|3:2,0:0:0:0:
122,244,119078,1,0,1:0:0:0:
5,200,119231,6,0,P|26:245|61:374,1,158.399995166016,6|0,3:2|0:0,0:0:0:0:
122,244,119690,2,0,P|137:189|151:152,2,52.7999983886719,0|0|0,1:0|1:0|1:0,0:0:0:0:
227,329,119996,6,0,P|203:320|177:312,2,52.7999983886719,8|8|8,3:0|3:0|3:0,0:0:0:0:
267,262,120302,2,0,P|292:252|317:244,2,52.7999983886719,8|8|8,3:0|3:0|3:0,0:0:0:0:
408,368,120608,5,6,3:2:0:0:
256,192,127955,12,0,128721,0:0:0:0:
490,345,128874,6,0,P|435:329|347:295,1,123.199996240234,8|4,1:2|1:2,0:0:0:0:
321,237,129333,5,0,0:0:0:0:
261,299,129486,1,2,3:2:0:0:
182,265,129639,1,0,3:0:0:0:
179,257,129716,1,0,1:0:0:0:
175,249,129792,1,2,1:2:0:0:
103,359,130022,5,2,1:2:0:0:
100,365,130098,2,0,B|90:373|90:373|30:387,1,61.5999981201172,0|2,1:0|3:2,0:0:0:0:
43,293,130404,6,0,B|129:292|89:348|192:355,1,158.399995166016,6|0,3:2|1:0,0:0:0:0:
261,299,130864,1,2,0:0:0:0:
265,290,131017,5,2,3:2:0:0:
359,232,131170,1,0,3:0:0:0:
434,330,131323,1,2,1:2:0:0:
309,384,131476,6,0,P|234:359|158:337,1,158.399995166016,2|0,0:0|3:0,0:0:0:0:
82,200,131935,1,2,1:2:0:0:
304,51,132241,6,0,P|283:98|261:169,1,118.799996374512,2|2,3:2|0:0,0:0:0:0:
255,172,132547,2,0,P|236:125|216:90,1,79.1999975830079,0|2,1:0|0:0,0:0:0:0:
131,13,132853,6,0,P|74:17|27:117,1,158.399995166016,2|0,3:2|1:0,0:0:0:0:
131,202,133313,1,2,0:0:0:0:
3,284,133466,5,2,3:2:0:0:
141,209,133619,1,0,3:0:0:0:
190,368,133772,1,2,1:2:0:0:
332,284,133925,6,0,P|345:227|377:111,1,158.399995166016,2|0,0:0|3:0,0:0:0:0:
442,14,134384,5,0,1:0:0:0:
252,124,134537,1,0,0:0:0:0:
484,228,134690,1,0,3:0:0:0:
376,111,134843,6,0,L|389:177,2,39.5999987915039,0|0|2,3:0|1:0|1:2,0:0:0:0:
47,362,135302,5,6,3:1:0:0:
263,206,135455,1,0,0:0:0:0:
30,71,135608,5,2,1:2:0:0:
195,269,135761,1,0,3:0:0:0:
301,5,135915,6,0,P|289:39|282:66,3,48.4000014770508,2|0|0|0,1:2|3:0|3:0|3:0,0:0:0:0:
199,117,136221,2,0,P|189:95|177:74,3,48.4000014770508,2|0|0|0,1:2|3:0|3:0|3:0,0:0:0:0:
270,232,136527,5,2,1:2:0:0:
301,247,136603,1,0,3:0:0:0:
335,247,136680,1,0,3:0:0:0:
365,231,136756,1,0,3:0:0:0:
385,204,136833,1,2,1:2:0:0:
405,177,136909,1,0,3:0:0:0:
435,161,136985,1,0,3:0:0:0:
469,161,137062,1,0,3:0:0:0:
500,176,137139,6,0,P|510:214|516:238,3,48.4000014770508,2|0|0|0,1:2|3:0|3:0|3:0,0:0:0:0:
432,341,137445,2,0,P|426:317|420:294,3,48.4000014770508,2|0|0|0,1:2|3:0|3:0|3:0,0:0:0:0:
342,193,137751,5,4,3:2:0:0:
345,181,137827,1,0,3:0:0:0:
348,169,137904,1,0,1:0:0:0:
350,157,137980,1,0,1:0:0:0:
352,145,138057,1,0,1:0:0:0:
354,133,138133,1,0,1:0:0:0:
356,121,138210,1,0,1:0:0:0:
358,109,138286,1,0,1:0:0:0:
359,97,138364,6,0,P|402:69|442:40,1,88,8|8,3:0|3:0,0:0:0:0:
315,0,138670,1,0,3:0:0:0:
245,196,138823,6,0,P|191:167|66:114,1,193.600005908203,4|0,1:2|1:0,0:0:0:0:
45,3,139282,1,4,1:2:0:0:
210,99,139435,6,0,P|185:112|162:123,2,48.4000014770508,0|0|2,1:0|1:0|1:2,0:0:0:0:
109,259,139741,1,0,1:0:0:0:
109,259,139818,1,0,1:0:0:0:
109,259,139894,2,0,P|96:222|78:178,3,48.4000014770508,2|0|0|0,1:2|1:0|1:0|1:0,0:0:0:0:
70,115,140200,6,0,B|166:122|123:191|256:195,1,184.799994360352,6|0,3:1|0:0,0:0:0:0:
300,244,140506,2,0,B|346:203|346:203|309:138,1,123.199996240234,8|0,1:2|0:0,0:0:0:0:
251,77,140813,5,10,3:2:0:0:
435,35,140966,1,0,3:0:0:0:
435,35,141042,1,2,0:0:0:0:
435,35,141119,2,0,P|420:96|404:155,1,105.599996777344,0|2,0:0|1:0,0:0:0:0:
489,211,141425,6,0,P|429:225|400:269,1,105.599996777344,10|0,3:2|0:0,0:0:0:0:
243,349,141731,2,0,P|191:331|135:313,1,105.599996777344,10|0,1:2|0:0,0:0:0:0:
53,265,141960,1,0,0:0:0:0:
46,258,142037,6,0,P|56:300|60:320,1,52.7999983886719,10|0,3:2|0:0,0:0:0:0:
180,179,142190,1,0,3:0:0:0:
30,94,142343,2,0,B|11:71|11:71|37:-6,1,105.599996777344,10|0,1:2|0:0,0:0:0:0:
167,164,142649,6,0,B|241:172|209:231|316:248,1,158.399995166016,10|0,3:2|0:0,0:0:0:0:
365,195,142955,2,0,B|388:147|388:147|348:96,1,105.599996777344,8|0,1:2|0:0,0:0:0:0:
277,129,143261,5,10,3:2:0:0:
403,281,143415,1,0,0:0:0:0:
403,281,143491,1,2,0:0:0:0:
403,281,143568,2,0,P|392:337|380:396,1,105.599996777344,8|2,1:2|0:0,0:0:0:0:
480,355,143874,5,10,0:0:0:0:
298,244,144027,1,0,3:0:0:0:
505,173,144180,2,0,B|525:131|525:131|488:69,1,105.599996777344,8|0,1:2|3:0,0:0:0:0:
300,12,144486,5,8,1:2:0:0:
430,131,144639,2,0,P|378:150|320:172,1,105.599996777344,0|10,3:0|1:2,0:0:0:0:
99,221,144945,6,0,B|215:227|154:296|292:317,1,211.199993554688,6|0,3:2|3:0,0:0:0:0:
273,223,145404,1,8,1:2:0:0:
101,300,145557,6,0,P|80:219|52:129,1,158.399995166016,2|0,0:0|0:0,0:0:0:0:
0,87,145864,1,2,3:2:0:0:
96,19,146017,1,10,1:2:0:0:
143,129,146170,1,6,3:2:0:0:
232,62,146323,6,0,P|293:39|329:21,1,105.599996777344,10|2,0:0|3:2,0:0:0:0:
411,52,146629,1,10,1:2:0:0:
451,176,146782,6,0,P|381:153|364:96,1,105.599996777344,2|8,0:0|3:2,0:0:0:0:
508,49,147088,1,2,3:2:0:0:
508,49,147241,2,0,P|495:93|489:116,2,52.7999983886719,8|0|0,1:2|0:0|0:0,0:0:0:0:
431,282,147547,6,0,P|486:254|539:232,1,105.599996777344,10|0,1:2|3:0,0:0:0:0:
373,123,147853,2,0,P|350:78|322:23,1,105.599996777344,10|0,1:2|3:0,0:0:0:0:
329,282,148159,6,0,P|355:343|372:389,1,105.599996777344,10|0,1:2|3:0,0:0:0:0:
469,152,148466,2,0,P|485:99|508:37,1,105.599996777344,10|0,1:2|3:0,0:0:0:0:
191,116,148772,5,6,1:2:0:0:
387,207,148925,1,0,0:0:0:0:
180,358,149078,6,0,P|159:296|134:236,1,105.599996777344,0|0,3:0|1:0,0:0:0:0:
221,39,149384,1,2,1:2:0:0:
63,170,149537,5,0,1:0:0:0:
63,170,149614,1,0,1:0:0:0:
63,170,149690,2,0,P|108:182|137:191,1,52.7999983886719,2|0,1:2|1:0,0:0:0:0:
254,256,149843,2,0,P|263:225|274:199,1,52.7999983886719,0|0,1:0|1:0,0:0:0:0:
372,53,149996,6,0,B|271:59|324:135|202:131,1,184.799994360352,6|0,3:1|0:0,0:0:0:0:
128,101,150302,2,0,B|98:47|98:47|154:-3,1,123.199996240234,8|0,1:2|0:0,0:0:0:0:
221,39,150608,5,10,3:2:0:0:
38,144,150761,1,0,3:0:0:0:
38,144,150838,1,2,0:0:0:0:
38,144,150915,2,0,P|52:195|63:252,1,105.599996777344,0|2,0:0|1:0,0:0:0:0:
140,196,151221,6,0,P|188:175|214:120,1,105.599996777344,10|0,3:2|0:0,0:0:0:0:
296,296,151527,2,0,P|341:338|334:408,1,105.599996777344,10|0,1:2|0:0,0:0:0:0:
427,345,151756,1,0,0:0:0:0:
433,336,151832,6,0,P|424:300|416:261,1,52.7999983886719,10|0,3:2|0:0,0:0:0:0:
319,190,151986,1,0,3:0:0:0:
478,124,152139,2,0,B|500:101|500:101|478:8,1,105.599996777344,10|0,1:2|0:0,0:0:0:0:
333,179,152445,6,0,B|242:169|278:108|158:110,1,158.399995166016,10|0,3:2|0:0,0:0:0:0:
114,144,152751,2,0,B|76:109|76:109|102:45,1,105.599996777344,8|0,1:2|0:0,0:0:0:0:
180,30,153057,5,10,3:2:0:0:
0,187,153210,1,0,0:0:0:0:
0,187,153287,1,2,0:0:0:0:
0,187,153364,2,0,P|54:208|113:239,1,105.599996777344,8|2,1:2|3:2,0:0:0:0:
351,159,153670,5,10,0:0:0:0:
171,261,153823,1,0,3:0:0:0:
379,384,153976,1,8,1:2:0:0:
312,289,154129,6,0,P|228:270|142:373,1,211.199993554688,0|0,0:0|1:0,0:0:0:0:
222,384,154511,1,0,1:0:0:0:
227,376,154588,6,0,P|219:342|214:316,1,52.7999983886719,0|0,1:0|0:0,0:0:0:0:
108,198,154741,2,0,P|117:174|127:146,1,52.7999983886719,0|0,1:0|0:0,0:0:0:0:
280,24,154894,6,0,B|350:35|320:91|408:110,1,158.399995166016,6|0,3:2|0:0,0:0:0:0:
474,158,155200,1,0,1:0:0:0:
413,24,155353,6,0,P|390:99|365:226,1,171.599992144776,6|0,3:2|0:0,0:0:0:0:
320,272,155659,2,0,B|294:251|295:222|295:222|308:248|342:271,1,105.599996777344,2|2,3:2|1:2,0:0:0:0:
480,276,155966,6,0,P|409:265|320:378,1,211.199993554688,6|0,3:2|3:0,0:0:0:0:
400,384,156425,1,0,1:0:0:0:
251,199,156578,1,2,0:0:0:0:
469,154,156731,5,0,1:0:0:0:
476,148,156807,2,0,P|489:109|498:81,2,52.7999983886719,0|0|0,1:0|1:0|1:0,0:0:0:0:
392,109,157037,2,0,P|332:86|271:66,1,105.599996777344,2|0,1:2|0:0,0:0:0:0:
422,8,157343,5,6,3:2:0:0:
422,8,157649,5,2,3:2:0:0:
422,8,157955,5,0,3:0:0:0:
422,8,158261,5,0,3:0:0:0:
422,8,158568,5,0,3:0:0:0:
422,8,158874,5,2,3:1:0:0:
422,8,159180,5,0,3:0:0:0:
294,80,159333,6,0,P|311:128|316:146,1,52.7999983886719,10|0,3:2|1:0,0:0:0:0:
375,235,159486,2,0,P|325:219|273:207,1,105.599996777344,2|0,1:2|0:0,0:0:0:0:
53,46,159792,5,6,3:2:0:0:
196,271,159945,1,0,0:0:0:0:
246,5,160098,5,0,1:0:0:0:
23,182,160251,2,0,P|49:188|81:199,1,52.7999983886719,0|0,3:0|3:0,0:0:0:0:
282,311,160404,1,0,1:0:0:0:
282,311,160481,1,0,0:0:0:0:
282,311,160557,1,0,3:0:0:0:
136,97,160710,5,2,1:2:0:0:
38,381,160864,1,2,1:2:0:0:
99,301,162241,5,6,0:0:0:0:
414,29,170966,5,8,3:0:0:0:
502,83,171272,6,0,B|517:57|517:57|506:19,1,61.5999981201172,8|0,3:0|0:0,0:0:0:0:
428,47,171731,6,0,B|336:47|370:128|263:136,1,184.799994360352,4|0,1:2|0:0,0:0:0:0:
211,79,172037,5,6,3:2:0:0:
251,227,172190,2,0,P|275:204|276:128,1,96.8000029541017,2|0,0:0|1:0,0:0:0:0:
89,103,172496,2,0,P|103:164|122:306,1,193.600005908203,2|2,0:2|3:2,0:0:0:0:
189,169,172955,5,0,1:0:0:0:
266,345,173108,2,0,P|329:358|410:252,2,193.600005908203,2|2|2,3:2|0:0|0:2,0:0:0:0:
197,256,173874,5,2,3:2:0:0:
296,153,174027,2,0,P|282:108|269:52,1,96.8000029541017,2|2,3:2|1:2,0:0:0:0:
207,7,174333,1,2,3:2:0:0:
369,85,174486,6,0,P|402:48|405:-3,2,96.8000029541017,2|2|2,3:2|0:2|1:2,0:0:0:0:
371,213,174945,2,0,P|312:180|188:122,1,193.600005908203,2|2,2:2|3:2,0:0:0:0:
144,59,175404,5,0,1:0:0:0:
66,116,175557,1,2,0:2:0:0:
28,4,175710,1,0,0:0:0:0:
417,106,176017,6,0,P|366:127|321:150,1,96.8000029541017,2|2,1:2|0:0,0:0:0:0:
254,200,176323,5,10,3:2:0:0:
198,126,176476,5,2,3:2:0:0:
125,281,176629,5,2,1:2:0:0:
0,170,176782,5,2,0:2:0:0:
124,377,176935,6,0,P|171:353|240:329,1,96.8000029541017,2|2,3:2|0:2,0:0:0:0:
254,200,177241,5,0,1:0:0:0:
346,272,177394,5,2,0:2:0:0:
359,276,177470,1,0,0:0:0:0:
372,280,177547,1,10,3:2:0:0:
385,285,177623,1,8,0:3:0:0:
398,290,177700,1,0,3:0:0:0:
473,246,177853,5,2,1:2:0:0:
503,357,178006,5,2,0:2:0:0:
512,136,178159,6,0,P|469:157|423:175,1,96.8000029541017,2|2,3:2|0:2,0:0:0:0:
346,272,178466,5,0,1:0:0:0:
267,112,178619,5,2,0:0:0:0:
248,106,178695,1,0,0:0:0:0:
230,99,178772,1,10,3:2:0:0:
211,93,178848,1,8,0:3:0:0:
193,87,178925,1,0,3:0:0:0:
105,148,179078,5,2,1:2:0:0:
56,16,179231,5,2,0:2:0:0:
0,283,179384,6,0,P|61:256|168:215,1,145.200004431152,6|0,3:2|0:0,0:0:0:0:
199,176,179690,6,0,P|251:198|291:220,1,96.8000029541017,0|0,1:0|3:0,0:0:0:0:
451,48,179996,6,0,P|461:19|475:-18,2,48.4000014770508,10|10|2,3:2|3:2|3:2,0:0:0:0:
402,186,180302,5,2,1:2:0:0:
396,167,180378,1,2,3:2:0:0:
390,148,180455,1,2,3:2:0:0:
384,130,180531,1,2,3:2:0:0:
386,111,180608,5,2,3:2:0:0:
349,99,180684,1,2,3:2:0:0:
311,106,180761,1,2,3:2:0:0:
282,130,180837,1,2,3:2:0:0:
267,166,180914,1,2,1:2:0:0:
252,202,180991,1,2,3:2:0:0:
223,226,181067,1,2,3:2:0:0:
185,233,181144,1,2,3:2:0:0:
148,221,181221,6,0,P|143:191|137:160,3,48.4000014770508,10|10|2|2,3:2|3:2|3:2|3:2,0:0:0:0:
77,308,181527,2,0,P|81:331|85:355,3,48.4000014770508,2|0|2|0,1:2|3:2|3:2|3:2,0:0:0:0:
10,154,181833,5,6,1:2:0:0:
229,320,181986,1,0,3:0:0:0:
205,34,182139,5,0,1:0:0:0:
0,263,182292,1,0,0:0:0:0:
260,138,182445,5,2,1:2:0:0:
0,8,182598,1,0,3:0:0:0:
92,295,182751,1,0,1:0:0:0:
303,3,182904,6,0,B|196:14|251:82|131:103,1,193.600005908203,6|0,3:2|3:0,0:0:0:0:
0,171,183364,5,0,3:0:0:0:
41,154,183440,1,0,3:0:0:0:
86,159,183517,1,0,3:0:0:0:
123,185,183593,1,0,1:0:0:0:
143,226,183670,6,0,P|127:280|115:330,1,88,0|0,1:0|3:0,0:0:0:0:
271,131,183976,2,0,P|260:88|247:46,1,88,8|8,3:0|3:0,0:0:0:0:
375,348,184282,6,0,P|400:354|425:362,15,52.7999983886719,6|0|2|0|2|0|0|2|10|0|0|2|2|0|10|10,3:2|3:0|3:2|3:0|3:2|3:0|3:0|3:2|3:2|3:0|3:0|3:2|3:2|3:0|3:2|3:2,0:0:0:0:
447,291,189180,6,0,P|421:283|396:276,7,52.7999983886719,6|0|0|2|10|2|0|10,3:2|3:0|3:0|3:2|3:2|3:2|3:0|3:2,0:0:0:0:
360,341,191629,6,0,L|413:357,1,52.7999983886719,6|8,3:2|3:2,0:0:0:0:
458,287,192241,6,0,L|405:271,1,52.7999983886719,8|10,3:2|3:2,0:0:0:0:
344,215,192700,5,0,1:0:0:0:
263,350,192853,5,2,3:2:0:0:
207,265,193006,5,0,1:0:0:0:
106,307,193159,5,0,3:0:0:0:
53,127,193313,5,0,1:0:0:0:
53,127,193389,1,0,1:0:0:0:
53,127,193466,2,0,B|147:134|89:190|221:188,1,145.200004431152,2|0,3:2|0:0,0:0:0:0:
207,265,193772,6,0,P|228:188|274:78,1,184.799994360352,4|0,1:2|0:0,0:0:0:0:
231,16,194078,5,6,3:2:0:0:
231,16,194384,2,0,P|252:78|261:113,1,88,0|0,1:0|0:0,0:0:0:0:
333,152,194690,5,2,3:2:0:0:
378,59,194843,1,0,3:0:0:0:
452,196,194996,2,0,P|402:216|348:247,1,88,0|0,1:0|0:0,0:0:0:0:
266,350,195302,6,0,P|229:295|111:295,1,176,2|0,3:2|1:0,0:0:0:0:
69,352,195761,2,0,P|91:288|117:167,1,176,0|0,0:0|3:0,0:0:0:0:
53,115,196221,1,2,1:2:0:0:
172,23,196374,6,0,P|187:92|196:133,1,88,2|0,0:0|3:0,0:0:0:0:
268,188,196680,1,0,0:0:0:0:
350,28,196833,1,2,1:2:0:0:
394,141,196986,6,0,P|350:127|310:113,1,88,2|0,0:0|3:0,0:0:0:0:
300,107,197216,1,0,0:0:0:0:
293,100,197292,1,2,3:2:0:0:
434,14,197445,1,2,1:2:0:0:
458,206,197598,6,0,P|439:245|423:286,1,88,2|0,0:0|3:0,0:0:0:0:
350,219,197904,1,0,3:0:0:0:
308,377,198057,2,0,P|298:336|281:286,1,88,0|0,1:0|3:0,0:0:0:0:
160,96,198364,5,0,1:0:0:0:
350,219,198517,1,0,3:0:0:0:
141,306,198670,1,2,1:2:0:0:
230,198,198823,6,0,P|250:127|286:-3,1,193.600005908203,6|2,3:2|3:2,0:0:0:0:
57,47,199282,2,0,P|53:100|87:143,1,96.8000029541017,2|2,1:2|0:0,0:0:0:0:
172,82,199588,6,0,B|271:94|225:160|341:173,1,193.600005908203,2|2,3:2|1:2,0:0:0:0:
435,78,200047,2,0,P|339:56|272:127,2,193.600005908203,2|2|2,3:2|3:2|3:2,0:0:0:0:
504,268,200813,1,0,1:0:0:0:
386,157,200966,6,0,P|404:215|416:270,1,96.8000029541017,0|2,3:0|1:2,0:0:0:0:
255,288,201272,2,0,B|373:268|316:363|468:338,1,193.600005908203,6|2,3:2|3:2,0:0:0:0:
512,140,201731,5,2,1:2:0:0:
412,250,201884,1,2,0:0:0:0:
350,81,202037,2,0,P|286:102|193:12,1,193.600005908203,2|2,3:2|1:2,0:0:0:0:
274,0,202496,6,0,P|261:51|235:196,1,193.600005908203,2|0,3:2|3:0,0:0:0:0:
111,355,202955,2,0,P|98:302|81:251,1,96.8000029541017,4|0,1:2|0:0,0:0:0:0:
272,288,203261,5,0,1:0:0:0:
309,280,203337,1,0,3:0:0:0:
348,288,203414,1,0,3:0:0:0:
377,315,203491,1,0,1:0:0:0:
392,351,203567,1,2,1:2:0:0:
29,66,203874,6,0,P|80:85|128:109,1,96.8000029541017,6|0,3:1|0:0,0:0:0:0:
259,6,204180,5,2,1:2:0:0:
158,186,204333,1,0,3:0:0:0:
323,72,204486,5,2,1:2:0:0:
347,276,204639,1,0,3:0:0:0:
225,128,204792,5,2,1:2:0:0:
432,51,204945,1,0,3:0:0:0:
449,300,205098,5,2,1:2:0:0:
313,94,205251,1,0,0:0:0:0:
253,362,205404,5,2,1:2:0:0:
396,166,205557,1,0,3:0:0:0:
148,79,205710,5,2,1:2:0:0:
303,293,205864,1,0,3:0:0:0:
359,12,206017,1,2,1:2:0:0:
46,344,206323,6,0,P|33:300|12:245,1,96.8000029541017,4|0,1:2|3:0,0:0:0:0:
208,10,206629,5,2,1:2:0:0:
98,223,206782,1,0,3:0:0:0:
288,58,206935,5,0,1:0:0:0:
48,148,207088,1,0,3:0:0:0:
298,302,207241,1,0,1:0:0:0:
135,58,207394,6,0,P|150:125|158:177,1,96.8000029541017,4|0,3:2|0:0,0:0:0:0:
243,367,207700,1,0,3:0:0:0:
360,139,207853,5,0,3:0:0:0:
156,301,208006,2,0,P|122:286|94:276,2,48.4000014770508,0|0|2,3:0|1:0|1:2,0:0:0:0:
377,234,208313,5,0,3:0:0:0:
377,234,208389,1,0,1:0:0:0:
377,234,208466,2,0,P|403:161|456:27,1,193.600005908203,6|0,1:2|3:0,0:0:0:0:
280,163,208925,1,8,3:2:0:0:
402,340,209078,6,0,P|450:305|495:277,1,96.8000029541017,0|8,3:0|3:2,0:0:0:0:
346,95,209384,1,0,3:0:0:0:
181,243,209537,6,0,P|143:212|103:185,1,96.8000029541017,8|8,3:2|3:2,0:0:0:0:
307,14,209843,1,0,1:0:0:0:
307,14,210149,5,0,1:0:0:0:
187,339,210302,1,0,1:0:0:0:
187,339,211221,5,0,0:0:0:0:
245,307,212445,5,0,0:0:0:0:
322,271,213670,5,0,0:0:0:0:
291,191,214894,5,0,0:0:0:0:
291,191,215506,5,0,0:0:0:0:
231,346,216119,5,0,0:0:0:0:
208,214,217343,5,0,0:0:0:0:
330,268,218568,5,0,0:0:0:0:
44,351,219792,6,0,P|32:308|9:261,2,79.1999975830079,8|8|8,3:0|3:0|3:0,0:0:0:0:
148,217,220404,6,0,P|130:253|116:290,2,79.1999975830079,10|8|8,3:0|3:0|3:0,0:0:0:0:
61,75,221017,5,6,1:2:0:0:
61,75,221323,6,0,P|53:41|45:11,1,61.5999981201172,2|2,1:2|0:0,0:0:0:0:
144,60,221629,2,0,P|161:21|174:-5,1,61.5999981201172,0|2,1:0|0:0,0:0:0:0:
196,130,221935,2,0,P|234:105|257:88,1,61.5999981201172,2|2,1:2|0:0,0:0:0:0:
454,59,222241,5,2,1:2:0:0:
454,59,222547,6,0,P|413:44|386:22,1,61.5999981201172,2|8,1:2|3:0,0:0:0:0:
400,132,222853,2,0,P|356:139|322:133,1,61.5999981201172,2|0,1:2|0:0,0:0:0:0:
459,207,223159,2,0,P|425:235|392:247,1,61.5999981201172,10|0,3:0|0:0,0:0:0:0:
285,370,223466,5,4,1:2:0:0:
285,370,223772,6,0,P|277:323|271:287,1,61.5999981201172,0|8,1:0|1:2,0:0:0:0:
204,210,224078,2,0,P|196:249|184:297,1,61.5999981201172,2|8,1:2|1:2,0:0:0:0:
106,334,224384,2,0,P|98:287|89:249,1,61.5999981201172,2|2,1:2|0:0,0:0:0:0:
117,92,224690,6,0,P|90:76|60:73,1,61.5999981201172,0|8,1:0|3:0,0:0:0:0:
13,174,224996,2,0,P|43:171|69:155,1,61.5999981201172,0|8,1:0|3:0,0:0:0:0:
184,28,225302,5,0,1:0:0:0:
280,62,225455,5,0,3:0:0:0:
295,141,225608,5,2,1:2:0:0:
270,181,225761,5,0,3:0:0:0:
259,187,225915,5,6,3:2:0:0:
259,187,226833,6,0,P|228:176|189:165,1,70.4,2|0,3:2|1:0,0:0:0:0:
444,64,228057,6,0,P|412:81|373:107,1,70.4,2|2,3:2|3:2,0:0:0:0:
80,248,229282,6,0,P|114:256|148:269,1,70.4,2|0,3:2|1:0,0:0:0:0:
307,172,230506,5,6,1:2:0:0:
374,369,230813,5,6,3:2:0:0:
276,328,231119,5,2,3:2:0:0:
170,288,231425,5,0,3:0:0:0:
43,254,231731,5,0,3:0:0:0:
420,141,232037,5,8,3:2:0:0:
293,174,232343,5,10,3:2:0:0:
157,246,232649,5,10,3:2:0:0:
36,373,232955,5,10,3:2:0:0:
187,53,233261,5,6,3:2:0:0:
276,287,233415,1,0,0:0:0:0:
350,21,233568,5,0,1:0:0:0:
189,236,233721,1,0,3:0:0:0:
446,315,233874,5,0,1:0:0:0:
254,165,234027,2,0,P|247:137|242:113,1,48.4000014770508,0|0,1:0|1:0,0:0:0:0:
457,7,234180,2,0,P|445:45|434:83,3,48.4000014770508,2|0|0|0,1:2|1:0|3:0|3:0,0:0:0:0:
476,198,234486,6,0,P|426:171|338:135,1,140.8,2|0,0:0|0:0,0:0:0:0:
501,160,235710,6,0,P|460:173|433:182,1,52.7999983886719,6|0,3:1|3:0,0:0:0:0:
344,275,235864,2,0,P|299:257|268:246,1,52.7999983886719,0|0,1:0|1:0,0:0:0:0:
198,130,236017,1,0,1:0:0:0:
198,130,236093,1,0,0:0:0:0:
198,130,236170,2,0,P|211:96|221:62,1,52.7999983886719
56,18,236323,6,0,P|76:81|95:176,1,132.000005035401,6|0,3:2|0:0,0:0:0:0:
35,267,236552,2,0,B|115:249|84:232|196:208,1,140.8,2|0,1:2|0:0,0:0:0:0:
293,119,236782,2,0,P|279:149|266:184,1,70.4,2|0,1:2|0:0,0:0:0:0:
258,369,236935,6,0,P|198:331|133:305,1,114.399994763184,6|0,3:1|0:0,0:0:0:0:
347,228,237241,2,0,P|367:167|396:101,1,114.399994763184,10|0,1:2|0:0,0:0:0:0:
421,366,237547,5,10,3:2:0:0:
266,276,237700,1,0,3:0:0:0:
478,185,237853,2,0,B|494:242|494:242|426:296,1,114.399994763184,10|0,1:2|0:0,0:0:0:0:
316,71,238159,6,0,B|224:84|268:138|146:152,1,171.599992144776,10|0,3:2|0:0,0:0:0:0:
92,111,238466,2,0,B|68:61|68:61|121:5,1,114.399994763184,8|0,1:2|0:0,0:0:0:0:
192,53,238772,5,10,3:2:0:0:
104,240,238925,1,0,0:0:0:0:
104,240,239001,1,2,0:0:0:0:
104,240,239078,2,0,P|52:260|-10:292,1,114.399994763184,8|2,1:2|0:0,0:0:0:0:
180,173,239384,5,10,0:0:0:0:
284,355,239537,1,0,3:0:0:0:
359,146,239690,2,0,P|335:202|316:262,1,114.399994763184,8|0,1:2|0:0,0:0:0:0:
125,319,239996,5,0,1:0:0:0:
125,319,240073,1,0,1:0:0:0:
125,319,240149,2,0,P|112:276|98:245,1,57.1999973815919,0|0,1:0|1:0,0:0:0:0:
231,139,240302,1,2,1:2:0:0:
334,355,240455,6,0,P|421:373|499:229,1,228.799989526368,6|0,3:2|3:0,0:0:0:0:
421,246,240915,1,8,1:2:0:0:
512,0,241068,6,0,P|491:62|460:180,1,171.599992144776,2|0,0:0|0:0,0:0:0:0:
421,246,241374,1,2,3:2:0:0:
335,169,241527,1,10,1:2:0:0:
263,293,241680,1,2,3:2:0:0:
171,88,241833,6,0,B|226:78|226:78|255:135,1,114.399994763184,10|2,0:0|3:2,0:0:0:0:
176,201,242139,1,10,1:2:0:0:
62,51,242292,6,0,P|83:121|93:173,1,114.399994763184,2|8,0:0|3:2,0:0:0:0:
232,304,242598,1,2,3:2:0:0:
232,304,242675,1,0,0:0:0:0:
232,304,242751,2,0,P|253:249|265:222,2,57.1999973815919,10|0|2,1:2|0:0|3:2,0:0:0:0:
46,381,243057,6,0,P|32:320|11:251,1,114.399994763184,6|0,1:2|0:0,0:0:0:0:
205,87,243364,1,2,1:2:0:0:
120,302,243517,1,0,3:0:0:0:
51,58,243670,5,2,1:2:0:0:
261,172,243823,1,0,3:0:0:0:
10,280,243976,2,0,B|-12:228|-12:228|46:181,1,114.399994763184,2|0,1:2|3:0,0:0:0:0:
263,7,244282,5,6,3:2:0:0:
130,199,244435,1,0,1:0:0:0:
130,199,244511,1,0,1:0:0:0:
130,199,244588,2,0,P|119:160|102:116,3,57.1999973815919,2|0|0|0,1:2|0:0|1:0|1:0,0:0:0:0:
88,339,244894,5,10,3:0:0:0:
126,357,244970,1,8,3:0:0:0:
168,352,245047,1,8,3:0:0:0:
200,324,245123,1,8,3:0:0:0:
213,284,245200,1,0,3:0:0:0:
225,244,245277,1,0,3:0:0:0:
257,218,245353,1,0,3:0:0:0:
299,212,245430,1,0,3:0:0:0:
337,231,245506,6,0,P|326:270|318:303,3,57.1999973815919,2|0|0|0,3:2|0:0|3:0|3:0,0:0:0:0:
274,379,245813,6,0,P|343:330|428:286,1,171.599992144776,6|0,1:0|0:0,0:0:0:0:
481,221,246119,5,8,3:2:0:0:
275,123,246272,1,0,3:0:0:0:
275,123,246348,1,2,0:0:0:0:
275,123,246425,2,0,P|300:184|317:241,1,114.399994763184,0|2,0:0|1:0,0:0:0:0:
455,73,246731,6,0,P|393:59|334:41,1,114.399994763184,10|0,3:2|0:0,0:0:0:0:
129,254,247037,2,0,B|187:265|187:265|235:203,1,114.399994763184,10|0,1:2|0:0,0:0:0:0:
60,66,247343,5,10,3:2:0:0:
275,123,247496,1,0,3:0:0:0:
38,289,247649,2,0,P|24:232|5:174,1,114.399994763184,10|0,1:2|0:0,0:0:0:0:
125,12,247955,6,0,B|226:28|153:91|315:108,1,171.599992144776,6|0,3:2|0:0,0:0:0:0:
340,139,248261,2,0,B|375:96|375:96|342:41,1,114.399994763184,8|0,1:2|0:0,0:0:0:0:
267,0,248568,5,10,3:2:0:0:
169,194,248721,1,0,0:0:0:0:
169,194,248797,1,2,0:0:0:0:
169,194,248874,2,0,P|226:213|296:247,1,114.399994763184,8|2,1:2|3:2,0:0:0:0:
412,384,249180,5,2,0:0:0:0:
344,159,249333,1,0,0:0:0:0:
484,326,249486,5,2,1:2:0:0:
243,310,249639,2,0,P|188:332|129:359,1,114.399994763184,2|0,0:0|3:0,0:0:0:0:
368,320,249945,6,0,P|378:289|388:264,1,57.1999973815919,2|0,1:2|1:0,0:0:0:0:
279,109,250098,1,2,1:2:0:0:
279,109,250404,6,0,P|259:56|241:-3,1,114.399994763184,6|0,3:2|3:0,0:0:0:0:
463,213,250710,1,0,1:0:0:0:
482,92,250864,6,0,P|428:126|369:174,1,114.399994763184,6|0,3:2|0:0,0:0:0:0:
272,242,251170,1,2,3:2:0:0:
353,32,251323,1,2,1:2:0:0:
200,169,251476,6,0,P|157:109|4:122,1,228.799989526368,6|0,3:2|3:0,0:0:0:0:
39,15,251935,1,0,1:0:0:0:
103,217,252088,6,0,P|152:195|241:171,1,114.399994763184,0|0,0:0|3:0,0:0:0:0:
272,242,252318,1,0,3:0:0:0:
279,251,252394,2,0,P|311:263|358:283,1,57.1999973815919,0|0,1:0|1:0,0:0:0:0:
484,270,252547,5,2,1:2:0:0:
319,371,252700,1,0,0:0:0:0:
435,194,252853,6,0,B|458:87|402:128|424:16,1,171.599992144776,6|0,3:2|0:0,0:0:0:0:
435,45,253159,5,2,3:2:0:0:
435,45,253466,5,0,3:0:0:0:
435,45,253772,5,0,3:0:0:0:
435,45,254078,5,0,3:0:0:0:
435,45,254384,5,2,3:2:0:0:
435,45,254691,5,0,3:0:0:0:
435,45,254997,5,2,3:2:0:0:
435,45,255302,6,0,P|415:123|394:222,1,171.599992144776,6|0,3:2|0:0,0:0:0:0:
325,279,255608,1,2,3:2:0:0:
325,279,255915,5,0,3:0:0:0:
325,279,256221,5,0,3:0:0:0:
249,323,256374,6,0,B|219:293|219:293|249:204,1,96.8000029541017,2|0,1:2|0:0,0:0:0:0:
319,184,256680,1,10,3:0:0:0:
319,184,256833,2,0,B|338:150|338:150|315:75,1,96.8000029541017,10|2,3:0|3:2,0:0:0:0:
250,44,257139,5,0,3:0:0:0:
434,142,257292,1,0,0:0:0:0:
236,241,257445,1,0,1:0:0:0:
496,15,257751,6,0,B|375:30|462:97|292:137,1,228.799989526368,6|2,3:1|1:2,0:0:0:0:
154,326,258210,6,0,P|143:352|135:380,3,57.1999973815919,2|0|0|0,3:2|3:0|1:0|0:0,0:0:0:0:
33,271,258517,1,2,3:2:0:0:
33,271,258593,1,0,3:0:0:0:
33,271,258670,6,0,P|26:243|19:216,1,57.1999973815919,0|0,1:0|0:0,0:0:0:0:
180,131,258823,1,2,3:2:0:0:
180,131,258899,1,0,3:0:0:0:
180,131,258976,6,0,P|197:88|210:56,1,57.1999973815919,0|0,1:0|0:0,0:0:0:0:
37,9,259129,1,2,3:2:0:0:
37,9,259205,1,0,3:0:0:0:
37,9,259282,6,0,P|50:54|57:87,3,57.1999973815919,2|0|2|0,1:2|3:0|3:2|3:0,0:0:0:0:
124,205,259588,6,0,P|164:193|195:185,3,57.1999973815919,0|0|2|0,1:0|3:0|3:2|3:0,0:0:0:0:
336,85,259894,6,0,P|308:77|281:69,3,57.1999973815919,2|0|0|0,1:2|3:0|3:0|3:0,0:0:0:0:
252,291,260200,5,2,1:2:0:0:
289,309,260276,1,0,1:0:0:0:
331,305,260353,1,0,1:0:0:0:
364,277,260429,1,0,1:0:0:0:
377,237,260506,1,0,1:0:0:0:
389,198,260583,1,0,1:0:0:0:
422,170,260659,1,0,1:0:0:0:
464,165,260736,1,0,1:0:0:0:
502,185,260813,6,0,P|510:225|516:262,3,57.1999973815919,0|0|0|0,1:0|1:0|1:0|1:0,0:0:0:0:
411,56,261119,2,0,P|417:27|421:0,3,57.1999973815919,0|0|0|0,1:0|1:0|1:0|1:0,0:0:0:0:
272,187,261425,5,0,1:0:0:0:
277,207,261501,1,0,1:0:0:0:
283,228,261578,1,0,1:0:0:0:
288,249,261654,1,0,1:0:0:0:
293,270,261731,1,0,1:0:0:0:
297,291,261807,1,0,1:0:0:0:
301,312,261884,1,0,1:0:0:0:
305,333,261960,1,0,1:0:0:0:
308,354,262037,6,0,P|347:367|370:375,3,57.1999973815919,0|0|2|0,1:0|1:0|1:2|1:0,0:0:0:0:
364,213,262343,2,0,B|255:237|315:301|183:321,1,198.000007553101,10|8,3:0|3:0,0:0:0:0:
137,364,262649,5,6,3:2:0:0:
15,139,262802,1,0,0:0:0:0:
256,49,262955,5,0,1:0:0:0:
89,281,263108,1,0,1:0:0:0:
15,2,263261,5,0,1:0:0:0:
279,136,263415,1,0,1:0:0:0:
0,240,263568,5,2,1:2:0:0:
181,0,263721,1,2,1:2:0:0:
473,238,264792,6,0,B|368:257|430:329|316:356,1,198
204,292,266323,5,6,3:0:0:0:
165,46,276119,6,0,P|150:97|139:144,1,88,6|0,3:2|0:0,0:0:0:0:
68,63,276425,1,0,1:0:0:0:
49,247,276578,6,0,P|101:227|221:193,1,176,2|0,0:2|3:0,0:0:0:0:
343,83,277037,1,2,1:2:0:0:
371,280,277190,6,0,P|316:260|252:248,1,88,0|0,3:0|0:0,0:0:0:0:
251,104,277496,1,2,3:2:0:0:
197,298,277649,1,0,1:0:0:0:
359,176,277802,5,0,0:0:0:0:
359,176,277879,1,0,0:0:0:0:
359,176,277955,2,0,P|374:117|401:27,1,132,2|0,3:2|0:0,0:0:0:0:
468,13,278261,2,0,B|498:47|498:47|470:108,1,88,2|0,1:2|3:0,0:0:0:0:
293,90,278568,6,0,P|241:70|192:55,1,88,2|0,3:2|3:0,0:0:0:0:
141,1,278874,1,0,1:0:0:0:
25,193,279027,6,0,P|50:148|186:153,1,176,2|0,0:2|3:0,0:0:0:0:
276,256,279486,1,2,1:2:0:0:
150,371,279639,6,0,P|164:317|173:272,1,88,0|0,3:0|0:0,0:0:0:0:
246,160,279945,1,2,3:2:0:0:
95,242,280098,1,0,1:0:0:0:
240,353,280251,5,0,0:0:0:0:
247,361,280328,1,0,0:0:0:0:
247,361,280404,2,0,P|299:343|387:320,1,132,2|0,3:2|0:0,0:0:0:0:
436,272,280710,2,0,B|472:300|472:300|453:371,1,88,2|0,1:2|3:0,0:0:0:0:
327,137,281017,5,6,1:2:0:0:
464,194,281170,1,0,3:0:0:0:
266,202,281323,5,0,1:0:0:0:
436,111,281476,1,2,3:2:0:0:
238,59,281629,5,0,1:0:0:0:
339,252,281782,1,0,3:0:0:0:
406,13,281935,1,2,1:2:0:0:
327,137,282088,6,0,P|280:123|137:88,1,176,4|2,3:2|3:2,0:0:0:0:
33,1,282547,2,0,B|-1:30|-1:30|17:86,1,88,0|0,1:0|3:0,0:0:0:0:
66,295,282853,5,2,1:2:0:0:
234,194,283006,1,0,3:0:0:0:
76,134,283159,2,0,P|97:204|104:234,1,88,2|0,1:2|3:0,0:0:0:0:
276,374,283466,5,6,1:3:0:0:
327,137,283619,1,0,3:0:0:0:
480,315,283772,5,0,1:0:0:0:
210,185,283925,1,2,3:2:0:0:
482,82,284078,5,0,1:0:0:0:
336,299,284231,1,0,3:0:0:0:
264,4,284384,1,2,1:2:0:0:
415,258,284537,6,0,P|432:213|454:162,1,88,0|0,3:0|1:0,0:0:0:0:
189,58,284843,1,2,3:2:0:0:
189,58,284920,1,0,0:0:0:0:
189,58,284996,2,0,P|197:87|202:115,3,44,8|0|8|8,3:0|0:0|3:0|3:0,0:0:0:0:
161,195,285302,6,0,P|113:212|62:234,1,88,2|0,3:2|0:0,0:0:0:0:
290,57,285608,2,0,P|338:40|389:18,1,88,2|0,1:2|0:0,0:0:0:0:
221,263,285915,6,0,L|212:306,3,44,2|0|0|2,0:0|0:0|0:0|0:0,0:0:0:0:
311,250,286833,6,0,L|320:207,3,44,2|0|0|2,0:0|0:0|0:0|0:0,0:0:0:0:
375,322,287598,6,0,L|365:365,1,44,0|2,0:0|0:0,0:0:0:0:
512,323,288057,6,0,P|257:253|0:195,1,528,2|0,0:0|0:0,0:0:0:0:
