osu file format v14

[General]
AudioFilename: audio.mp3
AudioLeadIn: 0
PreviewTime: 210532
Countdown: 0
SampleSet: Soft
StackLeniency: 0.7
Mode: 0
LetterboxInBreaks: 0
EpilepsyWarning: 1
WidescreenStoryboard: 1

[Editor]
Bookmarks: 15322,20201,30016,39812,49608,59404,91222,93365,101037,109617,110833,120629,130424,162241,164710,170966,172057,173874,174027,174180,174333,176323,180761,184302,194098,203874,211241,219792,221037,268466,270915,273364,281037,288057,293261
DistanceSpacing: 0.3
BeatDivisor: 4
GridSize: 16
TimelineZoom: 2.899999

[Metadata]
Title:I
TitleUnicode:I
Artist:ShinRa-Bansho
ArtistUnicode:森羅万象
Creator:-Unlimit-
Version:Colorless
Source:東方地霊殿 ~ Subterranean Animism.
Tags:touhou zun 東方project 11 th11 chireiden extra stage theme Team Shanghai Alice 2hu シンラミュージアム shinra museum kaztora あよ ayo cheluce ラストリモート last remote 古明地こいし Komeiji Koishi eye rock jrock j-rock japanese 例大祭 reitaisai 16 video game videogame len eringira new-username fast -azrael-
BeatmapID:3981579
BeatmapSetID:1927992

[Difficulty]
HPDrainRate:6
CircleSize:4.2
OverallDifficulty:9
ApproachRate:9.6
SliderMultiplier:1.9
SliderTickRate:1

[Events]
//Background and Video events
0,0,"75175363_p0.png",0,0
//Break Periods
2,164890,170457
2,211221,219207
2,264074,265814
//Storyboard Layer 0 (Background)
//Storyboard Layer 1 (Fail)
//Storyboard Layer 2 (Pass)
//Storyboard Layer 3 (Foreground)
Sprite,Foreground,Centre,"sb\hl.png",0,0 M,0,20201,,323,439 F,0,20201,,1 S,0,20201,,0.75 C,0,20201,,255,183,219 M,0,20201,20239,323,439,325.9098,415.4346 P,0,20201,20966,A M,0,20239,20277,325.9098,415.4346,330.0595,392.0578 M,0,20277,20315,330.0595,392.0578,335.5232,368.9516 M,0,20315,20354,335.5232,368.9516,342,347 F,15,20354,20966,1,0 S,15,20354,20966,0.75,0.2 M,0,21120,,144,121 C,0,21120,,255,183,219 F,15,21120,21732,1,0 S,15,21120,21732,0.75,0.2 P,0,21120,21732,A M,0,21962,,380,290 C,0,21962,,196,255,136 F,15,21962,22574,1,0 S,15,21962,22574,0.75,0.2 P,0,21962,22574,A M,0,22650,,556,351 F,0,22650,,1 S,0,22650,,0.75 C,0,22650,,128,255,255 M,0,22650,22688,556,351,573.2188,334.6422 P,0,22650,23415,A M,0,22688,22726,573.2188,334.6422,572.7699,312.3499 M,0,22726,22764,572.7699,312.3499,568.9175,288.9145 M,0,22764,22803,568.9175,288.9145,565.0651,265.479 F,15,22803,23415,1,0 S,15,22803,23415,0.75,0.2 M,0,23569,,511,198 C,0,23569,,128,255,255 F,15,23569,24181,1,0 S,15,23569,24181,0.75,0.2 P,0,23569,24181,A M,0,24411,,154,187 C,0,24411,,255,183,219 F,15,24411,25023,1,0 S,15,24411,25023,0.75,0.2 P,0,24411,25023,A M,0,25099,,571,72 F,0,25099,,1 S,0,25099,,0.75 C,0,25099,,196,255,136 M,0,25099,25137,571,72,565.7587,95.16206 P,0,25099,25864,A M,0,25137,25175,565.7587,95.16206,561.304,118.4873 M,0,25175,25213,561.304,118.4873,557.6957,141.9589 M,0,25213,25252,557.6957,141.9589,554.9386,165.5462 F,15,25252,25864,1,0 S,15,25252,25864,0.75,0.2 M,0,26018,,514,113 C,0,26018,,196,255,136 F,15,26018,26630,1,0 S,15,26018,26630,0.75,0.2 P,0,26018,26630,A M,0,26860,,233,342 C,0,26860,,255,228,147 F,15,26860,27472,1,0 S,15,26860,27472,0.75,0.2 P,0,26860,27472,A M,0,27548,,405,198 C,0,27548,,255,183,219 F,15,27548,28160,1,0 S,15,27548,28160,0.75,0.2 P,0,27548,28160,A M,0,28161,,463,281 C,0,28161,,196,255,136 F,15,28161,28773,1,0 S,15,28161,28773,0.75,0.2 P,0,28161,28773,A M,0,28926,,204,145 C,0,28926,,255,228,147 F,15,28926,29538,1,0 S,15,28926,29538,0.75,0.2 P,0,28926,29538,A
Sprite,Foreground,Centre,"sb\hl.png",0,0 M,0,20508,,439,419 C,0,20508,,255,183,219 F,15,20508,21120,1,0 S,15,20508,21120,0.75,0.2 P,0,20508,21120,A M,0,21273,,184,296 F,0,21273,,1 S,0,21273,,0.75 C,0,21273,,196,255,136 M,0,21273,21311,184,296,161.3523,288.8641 P,0,21273,22038,A M,0,21311,21349,161.3523,288.8641,138.3833,282.8496 M,0,21349,21387,138.3833,282.8496,115.1309,278.0446 M,0,21387,21426,115.1309,278.0446,91.65856,274.4621 F,15,21426,22038,1,0 S,15,21426,22038,0.75,0.2 M,0,22344,,551,71 F,0,22344,,1 S,0,22344,,0.75 C,0,22344,,255,228,147 M,0,22344,22382,551,71,527.3483,69.42987 P,0,22344,23109,A M,0,22382,22420,527.3483,69.42987,504.4711,63.17568 M,0,22420,22458,504.4711,63.17568,485.4658,76.90743 M,0,22458,22497,485.4658,76.90743,463.5212,85.85155 F,15,22497,23109,1,0 S,15,22497,23109,0.75,0.2 M,0,23110,,363,147 C,0,23110,,128,255,255 F,15,23110,23722,1,0 S,15,23110,23722,0.75,0.2 P,0,23110,23722,A M,0,24028,,304,92 C,0,24028,,255,183,219 F,15,24028,24640,1,0 S,15,24028,24640,0.75,0.2 P,0,24028,24640,A M,0,24793,,360,260 F,0,24793,,1 S,0,24793,,0.75 C,0,24793,,255,183,219 M,0,24793,24831,360,260,339.7118,248.4136 P,0,24793,25558,A M,0,24831,24869,339.7118,248.4136,326.568,229.2932 M,0,24869,24907,326.568,229.2932,323.6947,206.2485 M,0,24907,24946,323.6947,206.2485,331.76,184.4376 F,15,24946,25558,1,0 S,15,24946,25558,0.75,0.2 M,0,25635,,556,278 C,0,25635,,196,255,136 F,15,25635,26247,1,0 S,15,25635,26247,0.75,0.2 P,0,25635,26247,A M,0,26477,,135,273 C,0,26477,,255,228,147 F,15,26477,27089,1,0 S,15,26477,27089,0.75,0.2 P,0,26477,27089,A M,0,27242,,396,415 F,0,27242,,1 S,0,27242,,0.75 C,0,27242,,128,255,255 M,0,27242,27280,396,415,419.1977,420.0922 P,0,27242,28007,A M,0,27280,27318,419.1977,420.0922,440.5948,428.194 M,0,27318,27356,440.5948,428.194,462.5767,435.3504 M,0,27356,27395,462.5767,435.3504,485.7612,440.5025 F,15,27395,28007,1,0 S,15,27395,28007,0.75,0.2 M,0,28084,,463,281 C,0,28084,,255,183,219 F,15,28084,28696,1,0 S,15,28084,28696,0.75,0.2 P,0,28084,28696,A M,0,29079,,317,246 C,0,29079,,255,228,147 F,15,29079,29691,1,0 S,15,29079,29691,0.75,0.2 P,0,29079,29691,A
Sprite,Foreground,Centre,"sb\hl.png",0,0 M,0,20661,,235,363 F,0,20661,,1 S,0,20661,,0.75 C,0,20661,,255,183,219 M,0,20661,20699,235,363,220.3249,381.6167 P,0,20661,21579,A M,0,20699,20737,220.3249,381.6167,203.0159,397.7865 M,0,20737,20775,203.0159,397.7865,183.3265,410.9597 M,0,20775,20814,183.3265,410.9597,161.7686,420.7923 M,0,20814,20852,161.7686,420.7923,138.9027,427.0267 M,0,20852,20890,138.9027,427.0267,115.3237,429.4983 M,0,20890,20928,115.3237,429.4983,91.64526,428.1398 M,0,20928,20967,91.64526,428.1398,68.56835,422.7223 F,15,20967,21579,1,0 S,15,20967,21579,0.75,0.2 M,0,21732,,269,100 F,0,21732,,1 S,0,21732,,0.75 C,0,21732,,196,255,136 M,0,21732,21770,269,100,270.9288,123.6693 P,0,21732,22497,A M,0,21770,21808,270.9288,123.6693,273.6738,147.2569 M,0,21808,21846,273.6738,147.2569,277.2829,170.7278 M,0,21846,21885,277.2829,170.7278,281.7514,194.0506 F,15,21885,22497,1,0 S,15,21885,22497,0.75,0.2 M,0,22957,,423,360 C,0,22957,,128,255,255 F,15,22957,23569,1,0 S,15,22957,23569,0.75,0.2 P,0,22957,23569,A M,0,23722,,274,328 F,0,23722,,1 S,0,23722,,0.75 C,0,23722,,255,183,219 M,0,23722,23760,274,328,251.3687,320.8205 P,0,23722,24487,A M,0,23760,23798,251.3687,320.8205,228.34,315.0538 M,0,23798,23836,228.34,315.0538,204.9825,310.8102 M,0,23836,23875,204.9825,310.8102,181.3967,308.1081 F,15,23875,24487,1,0 S,15,23875,24487,0.75,0.2 M,0,24640,,436,120 C,0,24640,,255,183,219 F,15,24640,25252,1,0 S,15,24640,25252,0.75,0.2 P,0,24640,25252,A M,0,25406,,363,104 C,0,25406,,196,255,136 F,15,25406,26018,1,0 S,15,25406,26018,0.75,0.2 P,0,25406,26018,A M,0,26171,,292,282 F,0,26171,,1 S,0,26171,,0.75 C,0,26171,,255,228,147 M,0,26171,26209,292,282,289.9769,258.3392 P,0,26171,26936,A M,0,26209,26247,289.9769,258.3392,287.0591,234.7731 M,0,26247,26285,287.0591,234.7731,283.1908,211.3439 M,0,26285,26324,283.1908,211.3439,278.3783,188.0897 F,15,26324,26936,1,0 S,15,26324,26936,0.75,0.2 M,0,27701,,320,409 C,0,27701,,255,183,219 F,15,27701,28313,1,0 S,15,27701,28313,0.75,0.2 P,0,27701,28313,A M,0,28314,,292,87 C,0,28314,,196,255,136 F,15,28314,28926,1,0 S,15,28314,28926,0.75,0.2 P,0,28314,28926,A M,0,29232,,64,248 C,0,29232,,255,228,147 F,15,29232,29844,1,0 S,15,29232,29844,0.75,0.2 P,0,29232,29844,A
Sprite,Foreground,Centre,"sb\hl.png",0,0 M,0,21579,,235,363 C,0,21579,,196,255,136 F,15,21579,22191,1,0 S,15,21579,22191,0.75,0.2 P,0,21579,22191,A M,0,23187,,370,157 C,0,23187,,128,255,255 F,15,23187,23799,1,0 S,15,23187,23799,0.75,0.2 P,0,23187,23799,A M,0,24181,,136,75 F,0,24181,,1 S,0,24181,,0.75 C,0,24181,,255,183,219 M,0,24181,24219,136,75,140.9546,98.22658 P,0,24181,24946,A M,0,24219,24257,140.9546,98.22658,145.4369,121.5486 M,0,24257,24295,145.4369,121.5486,149.4113,144.9628 M,0,24295,24334,149.4113,144.9628,152.8759,168.4581 F,15,24334,24946,1,0 S,15,24334,24946,0.75,0.2 M,0,25558,,564,269 C,0,25558,,196,255,136 F,15,25558,26170,1,0 S,15,25558,26170,0.75,0.2 P,0,25558,26170,A M,0,26630,,320,409 F,0,26630,,1 S,0,26630,,0.75 C,0,26630,,255,228,147 M,0,26630,26668,320,409,342.6202,403.6689 P,0,26630,27395,A M,0,26668,26706,342.6202,403.6689,359.6758,388.1664 M,0,26706,26744,359.6758,388.1664,366.3455,366.0195 M,0,26744,26783,366.3455,366.0195,360.6295,343.4823 F,15,26783,27395,1,0 S,15,26783,27395,0.75,0.2 M,0,27855,,576,300 F,0,27855,,1 S,0,27855,,0.75 C,0,27855,,255,183,219 M,0,27855,27893,576,300,552.5852,296.0239 P,0,27855,28620,A M,0,27893,27931,552.5852,296.0239,529.1704,292.0478 M,0,27931,27969,529.1704,292.0478,505.7556,288.0717 M,0,27969,28008,505.7556,288.0717,482.3408,284.0956 F,15,28008,28620,1,0 S,15,28008,28620,0.75,0.2 M,0,29309,,66,236 C,0,29309,,255,228,147 F,15,29309,29921,1,0 S,15,29309,29921,0.75,0.2 P,0,29309,29921,A
Sprite,Foreground,Centre,"sb\hl.png",0,0 M,0,22038,,383,281 F,0,22038,,1 S,0,22038,,0.75 C,0,22038,,255,228,147 M,0,22038,22076,383,281,406.6517,282.5701 P,0,22038,22803,A M,0,22076,22114,406.6517,282.5701,429.5289,288.8243 M,0,22114,22152,429.5289,288.8243,448.3322,274.8029 M,0,22152,22191,448.3322,274.8029,469.9259,265.0249 F,15,22191,22803,1,0 S,15,22191,22803,0.75,0.2 M,0,23263,,377,167 F,0,23263,,1 S,0,23263,,0.75 C,0,23263,,128,255,255 M,0,23263,23301,377,167,372.9647,190.4047 P,0,23263,24028,A M,0,23301,23339,372.9647,190.4047,368.9294,213.8094 M,0,23339,23377,368.9294,213.8094,364.8941,237.214 M,0,23377,23416,364.8941,237.214,360.8589,260.6187 F,15,23416,24028,1,0 S,15,23416,24028,0.75,0.2 M,0,24487,,154,187 C,0,24487,,255,183,219 F,15,24487,25099,1,0 S,15,24487,25099,0.75,0.2 P,0,24487,25099,A M,0,25711,,549,288 F,0,25711,,1 S,0,25711,,0.75 C,0,25711,,196,255,136 M,0,25711,25749,549,288,525.908,282.4612 P,0,25711,26476,A M,0,25749,25787,525.908,282.4612,502.6233,277.8031 M,0,25787,25825,502.6233,277.8031,479.1679,274.0948 M,0,25825,25864,479.1679,274.0948,455.5803,271.3425 F,15,25864,26476,1,0 S,15,25864,26476,0.75,0.2 M,0,26936,,236,354 F,0,26936,,1 S,0,26936,,0.75 C,0,26936,,128,255,255 M,0,26936,26974,236,354,212.7772,358.9763 P,0,26936,27701,A M,0,26974,27012,212.7772,358.9763,191.3574,366.6997 M,0,27012,27050,191.3574,366.6997,169.7748,374.2723 M,0,27050,27089,169.7748,374.2723,146.5903,379.4244 F,15,27089,27701,1,0 S,15,27089,27701,0.75,0.2 M,0,28467,,525,167 C,0,28467,,196,255,136 F,15,28467,29079,1,0 S,15,28467,29079,0.75,0.2 P,0,28467,29079,A M,0,29385,,69,224 C,0,29385,,128,255,255 F,15,29385,29997,1,0 S,15,29385,29997,0.75,0.2 P,0,29385,29997,A
Sprite,Foreground,Centre,"sb\hl.png",0,0 M,0,28620,,226,306 F,0,28620,,1 S,0,28620,,0.75 C,0,28620,,255,228,147 M,0,28620,28658,226,306,223.6031,282.3715 P,0,28620,29461,A M,0,28658,28696,223.6031,282.3715,220.9455,258.771 M,0,28696,28734,220.9455,258.771,218.0112,235.2033 M,0,28734,28773,218.0112,235.2033,214.8005,211.6716 M,0,28773,28811,214.8005,211.6716,211.3138,188.1792 M,0,28811,28849,211.3138,188.1792,207.5518,164.7294 F,15,28849,29461,1,0 S,15,28849,29461,0.75,0.2 M,0,29538,,161,239 C,0,29538,,128,255,255 F,15,29538,30150,1,0 S,15,29538,30150,0.75,0.2 P,0,29538,30150,A
Sprite,Foreground,Centre,"sb\hl.png",0,0 M,0,69181,,64,91 F,0,69181,,1 S,0,69181,,0.75 C,0,69181,,128,255,255 M,0,69181,69219,64,91,97.06522,87.50277 P,0,69181,70022,A M,0,69219,69257,97.06522,87.50277,130.073,83.49972 M,0,69257,69295,130.073,83.49972,163.0156,78.99187 M,0,69295,69334,163.0156,78.99187,195.8853,73.98027 M,0,69334,69372,195.8853,73.98027,228.6744,68.46593 M,0,69372,69410,228.6744,68.46593,261.3752,62.45042 F,15,69410,70022,1,0 S,15,69410,70022,0.75,0.2 M,0,70023,,261,354 F,0,70023,,1 S,0,70023,,0.75 C,0,70023,,255,183,219 M,0,70023,70061,261,354,237.8956,370.6865 P,0,70023,70788,A M,0,70061,70099,237.8956,370.6865,212.7442,377.1063 M,0,70099,70137,212.7442,377.1063,185.0069,370.5572 M,0,70137,70176,185.0069,370.5572,157.2695,364.0081 F,15,70176,70788,1,0 S,15,70176,70788,0.75,0.2 M,0,70865,,355,303 C,0,70865,,196,255,136 F,15,70865,71477,1,0 S,15,70865,71477,0.75,0.2 P,0,70865,71477,A M,0,71630,,75,175 F,0,71630,,1 S,0,71630,,0.75 C,0,71630,,128,255,255 M,0,71630,71668,75,175,102.4855,182.5363 P,0,71630,72471,A M,0,71668,71706,102.4855,182.5363,129.971,190.0727 M,0,71706,71744,129.971,190.0727,148.608,209.7534 M,0,71744,71783,148.608,209.7534,171.9669,222.9908 M,0,71783,71821,171.9669,222.9908,199.4271,230.6186 M,0,71821,71859,199.4271,230.6186,226,238 F,15,71859,72471,1,0 S,15,71859,72471,0.75,0.2 M,0,72472,,138,98 C,0,72472,,255,183,219 F,15,72472,73084,1,0 S,15,72472,73084,0.75,0.2 P,0,72472,73084,A M,0,73161,,302,372 C,0,73161,,196,255,136 F,15,73161,73773,1,0 S,15,73161,73773,0.75,0.2 P,0,73161,73773,A M,0,73926,,118,109 F,0,73926,,1 S,0,73926,,0.75 C,0,73926,,128,255,255 M,0,73926,73964,118,109,129.727,134.9739 P,0,73926,74844,A M,0,73964,74002,129.727,134.9739,140.6886,161.2795 M,0,74002,74040,140.6886,161.2795,150.8792,187.8932 M,0,74040,74079,150.8792,187.8932,160.2512,214.8061 M,0,74079,74117,160.2512,214.8061,168.8373,241.9799 M,0,74117,74155,168.8373,241.9799,176.5864,269.4043 M,0,74155,74193,176.5864,269.4043,183.5375,297.0416 M,0,74193,74232,183.5375,297.0416,189.6359,324.8796 F,15,74232,74844,1,0 S,15,74232,74844,0.75,0.2 M,0,74997,,505,150 C,0,74997,,128,255,255 F,15,74997,75609,1,0 S,15,74997,75609,0.75,0.2 P,0,74997,75609,A M,0,75610,,481,275 C,0,75610,,255,183,219 F,15,75610,76222,1,0 S,15,75610,76222,0.75,0.2 P,0,75610,76222,A M,0,76528,,366,306 F,0,76528,,1 S,0,76528,,0.75 C,0,76528,,196,255,136 M,0,76528,76566,366,306,362.2057,334.2463 P,0,76528,77293,A M,0,76566,76604,362.2057,334.2463,358.4114,362.4926 M,0,76604,76642,358.4114,362.4926,354.6172,390.7389 M,0,76642,76681,354.6172,390.7389,350.8229,418.9852 F,15,76681,77293,1,0 S,15,76681,77293,0.75,0.2 M,0,77446,,560,407 F,0,77446,,1 S,0,77446,,0.75 C,0,77446,,255,183,219 M,0,77446,77484,560,407,555.4077,378.8724 P,0,77446,78211,A M,0,77484,77522,555.4077,378.8724,547.4583,352.2196 M,0,77522,77560,547.4583,352.2196,538.0331,326.1988 M,0,77560,77599,538.0331,326.1988,533.3478,298.0866 F,15,77599,78211,1,0 S,15,77599,78211,0.75,0.2 M,0,78212,,287,65 C,0,78212,,255,228,147 F,15,78212,78824,1,0 S,15,78212,78824,0.75,0.2 P,0,78212,78824,A M,0,78900,,64,348 C,0,78900,,196,255,136 F,15,78900,79512,1,0 S,15,78900,79512,0.75,0.2 P,0,78900,79512,A M,0,79589,,202,99 F,0,79589,,1 S,0,79589,,0.75 C,0,79589,,128,255,255 M,0,79589,79627,202,99,230.1676,96.93898 P,0,79589,80354,A M,0,79627,79665,230.1676,96.93898,257.0005,105.5381 M,0,79665,79703,257.0005,105.5381,278.6779,123.5053 M,0,79703,79742,278.6779,123.5053,291.6625,148.5142 F,15,79742,80354,1,0 S,15,79742,80354,0.75,0.2 M,0,80508,,451,258 C,0,80508,,255,183,219 F,15,80508,81120,1,0 S,15,80508,81120,0.75,0.2 P,0,80508,81120,A M,0,81426,,455,169 F,0,81426,,1 S,0,81426,,0.75 C,0,81426,,255,228,147 M,0,81426,81464,455,169,431.727,153.1972 P,0,81426,82267,A M,0,81464,81502,431.727,153.1972,403.9386,148.864 M,0,81502,81540,403.9386,148.864,377.3966,158.1002 M,0,81540,81579,377.3966,158.1002,357.4572,177.8707 M,0,81579,81617,357.4572,177.8707,349.0379,204.6591 M,0,81617,81655,349.0379,204.6591,353.1243,232.4036 F,15,81655,82267,1,0 S,15,81655,82267,0.75,0.2 M,0,82268,,264,218 C,0,82268,,128,255,255 F,15,82268,82880,1,0 S,15,82268,82880,0.75,0.2 P,0,82268,82880,A M,0,82957,,201,58 F,0,82957,,1 S,0,82957,,0.75 C,0,82957,,255,183,219 M,0,82957,82995,201,58,195.238,85.91103 P,0,82957,83798,A M,0,82995,83033,195.238,85.91103,189.9108,113.9082 M,0,83033,83071,189.9108,113.9082,185.0134,141.9837 M,0,83071,83110,185.0134,141.9837,180.5761,170.1356 M,0,83110,83148,180.5761,170.1356,176.5667,198.3517 M,0,83148,83186,176.5667,198.3517,173.0238,226.6301 F,15,83186,83798,1,0 S,15,83186,83798,0.75,0.2 M,0,83875,,502,64 F,0,83875,,1 S,0,83875,,0.75 C,0,83875,,255,228,147 M,0,83875,83913,502,64,469.0722,68.54002 P,0,83875,84563,A M,0,83913,83951,469.0722,68.54002,436.5525,75.40604 F,15,83951,84563,1,0 S,15,83951,84563,0.75,0.2 M,0,84793,,421,266 C,0,84793,,128,255,255 F,15,84793,85405,1,0 S,15,84793,85405,0.75,0.2 P,0,84793,85405,A M,0,85406,,64,158 F,0,85406,,1 S,0,85406,,0.75 C,0,85406,,255,183,219 M,0,85406,85444,64,158,93.45551,167.2236 P,0,85406,86171,A M,0,85444,85482,93.45551,167.2236,123.4626,174.4481 M,0,85482,85520,123.4626,174.4481,153.9143,179.4795 M,0,85520,85559,153.9143,179.4795,184.6386,182.4021 F,15,85559,86171,1,0 S,15,85559,86171,0.75,0.2
Sprite,Foreground,Centre,"sb\hl.png",0,0 M,0,69487,,303,131 F,0,69487,,1 S,0,69487,,0.75 C,0,69487,,128,255,255 M,0,69487,69525,303,131,297.5396,158.6007 P,0,69487,70252,A M,0,69525,69563,297.5396,158.6007,280.268,180.6806 M,0,69563,69601,280.268,180.6806,255.0487,193.1106 M,0,69601,69640,255.0487,193.1106,226.9516,191.8598 F,15,69640,70252,1,0 S,15,69640,70252,0.75,0.2 M,0,70406,,333,410 F,0,70406,,1 S,0,70406,,0.75 C,0,70406,,196,255,136 M,0,70406,70444,333,410,360.5737,402.7992 P,0,70406,71247,A M,0,70444,70482,360.5737,402.7992,388.3406,396.3829 M,0,70482,70520,388.3406,396.3829,416.2975,390.8536 M,0,70520,70559,416.2975,390.8536,444.4004,386.1222 M,0,70559,70597,444.4004,386.1222,472.6392,382.2844 M,0,70597,70635,472.6392,382.2844,500.976,379.2549 F,15,70635,71247,1,0 S,15,70635,71247,0.75,0.2 M,0,71324,,289,188 F,0,71324,,1 S,0,71324,,0.75 C,0,71324,,255,228,147 M,0,71324,71362,289,188,294.8377,160.1055 P,0,71324,72089,A M,0,71362,71400,294.8377,160.1055,299.957,132.0705 M,0,71400,71438,299.957,132.0705,304.3577,103.9139 M,0,71438,71477,304.3577,103.9139,308.0014,75.64922 F,15,71477,72089,1,0 S,15,71477,72089,0.75,0.2 M,0,72242,,213,57 F,0,72242,,1 S,0,72242,,0.75 C,0,72242,,255,183,219 M,0,72242,72280,213,57,226.7542,81.96139 P,0,72242,73007,A M,0,72280,72318,226.7542,81.96139,239.3418,106.8227 M,0,72318,72356,239.3418,106.8227,221.538,129.0775 M,0,72356,72395,221.538,129.0775,204,151 F,15,72395,73007,1,0 S,15,72395,73007,0.75,0.2 M,0,73314,,518,144 C,0,73314,,196,255,136 F,15,73314,73926,1,0 S,15,73314,73926,0.75,0.2 P,0,73314,73926,A M,0,74385,,302,267 C,0,74385,,128,255,255 F,15,74385,74997,1,0 S,15,74385,74997,0.75,0.2 P,0,74385,74997,A M,0,75150,,546,331 C,0,75150,,255,183,219 F,15,75150,75762,1,0 S,15,75150,75762,0.75,0.2 P,0,75150,75762,A M,0,75763,,307,168 F,0,75763,,1 S,0,75763,,0.75 C,0,75763,,255,183,219 M,0,75763,75801,307,168,278.9322,165.3127 P,0,75763,76528,A M,0,75801,75839,278.9322,165.3127,252.259,174.2081 M,0,75839,75877,252.259,174.2081,231.449,193.0849 M,0,75877,75916,231.449,193.0849,220.5567,219.0117 F,15,75916,76528,1,0 S,15,75916,76528,0.75,0.2 M,0,76834,,307,168 C,0,76834,,255,228,147 F,15,76834,77446,1,0 S,15,76834,77446,0.75,0.2 P,0,76834,77446,A M,0,77752,,474,97 C,0,77752,,196,255,136 F,15,77752,78364,1,0 S,15,77752,78364,0.75,0.2 P,0,77752,78364,A M,0,78365,,359,201 C,0,78365,,128,255,255 F,15,78365,78977,1,0 S,15,78365,78977,0.75,0.2 P,0,78365,78977,A M,0,79283,,302,355 F,0,79283,,1 S,0,79283,,0.75 C,0,79283,,255,228,147 M,0,79283,79321,302,355,294.7017,382.2741 P,0,79283,80048,A M,0,79321,79359,294.7017,382.2741,277.9379,405.012 M,0,79359,79397,277.9379,405.012,253.3838,418.935 M,0,79397,79436,253.3838,418.935,226,423 F,15,79436,80048,1,0 S,15,79436,80048,0.75,0.2 M,0,80201,,398,61 F,0,80201,,1 S,0,80201,,0.75 C,0,80201,,255,183,219 M,0,80201,80239,398,61,409.1531,87.22349 P,0,80201,81042,A M,0,80239,80277,409.1531,87.22349,419.1639,113.903 M,0,80277,80315,419.1639,113.903,428.0225,140.9868 M,0,80315,80354,428.0225,140.9868,435.6482,168.4435 M,0,80354,80392,435.6482,168.4435,442.0964,196.2001 M,0,80392,80430,442.0964,196.2001,447.2778,224.2211 F,15,80430,81042,1,0 S,15,80430,81042,0.75,0.2 M,0,81120,,486,430 F,0,81120,,1 S,0,81120,,0.75 C,0,81120,,196,255,136 M,0,81120,81158,486,430,514.3434,432.9835 P,0,81120,81885,A M,0,81158,81196,514.3434,432.9835,542.6868,435.967 M,0,81196,81234,542.6868,435.967,555.3142,410.6473 M,0,81234,81273,555.3142,410.6473,567.7659,385.0113 F,15,81273,81885,1,0 S,15,81273,81885,0.75,0.2 M,0,82038,,277,412 F,0,82038,,1 S,0,82038,,0.75 C,0,82038,,128,255,255 M,0,82038,82076,277,412,280.7667,383.75 P,0,82038,82803,A M,0,82076,82114,280.7667,383.75,284.5333,355.5 M,0,82114,82152,284.5333,355.5,288.3,327.25 M,0,82152,82191,288.3,327.25,292.0667,299 F,15,82191,82803,1,0 S,15,82191,82803,0.75,0.2 M,0,82804,,93,299 C,0,82804,,255,183,219 F,15,82804,83416,1,0 S,15,82804,83416,0.75,0.2 P,0,82804,83416,A M,0,83492,,481,259 C,0,83492,,196,255,136 F,15,83492,84104,1,0 S,15,83492,84104,0.75,0.2 P,0,83492,84104,A M,0,84181,,484,163 C,0,84181,,255,228,147 F,15,84181,84793,1,0 S,15,84181,84793,0.75,0.2 P,0,84181,84793,A M,0,84946,,119,422 F,0,84946,,1 S,0,84946,,0.75 C,0,84946,,255,183,219 M,0,84946,84984,119,422,90.93503,409.5367 P,0,84946,85864,A M,0,84984,85022,90.93503,409.5367,69.33542,387.715 M,0,85022,85060,69.33542,387.715,55.5561,360.1849 M,0,85060,85099,55.5561,360.1849,60.87646,333.7094 M,0,85099,85137,60.87646,333.7094,85.87764,315.7953 M,0,85137,85175,85.87764,315.7953,114.8302,305.2848 M,0,85175,85213,114.8302,305.2848,134.4328,314.3106 M,0,85213,85252,134.4328,314.3106,130.7811,344.8107 F,15,85252,85864,1,0 S,15,85252,85864,0.75,0.2 M,0,85865,,370,73 C,0,85865,,196,255,136 F,15,85865,86477,1,0 S,15,85865,86477,0.75,0.2 P,0,85865,86477,A
Sprite,Foreground,Centre,"sb\hl.png",0,0 M,0,69793,,104,418 F,0,69793,,1 S,0,69793,,0.75 C,0,69793,,255,183,219 M,0,69793,69831,104,418,87.31352,394.8956 P,0,69793,70558,A M,0,69831,69869,87.31352,394.8956,80.89373,369.7442 M,0,69869,69907,80.89373,369.7442,87.44283,342.0069 M,0,69907,69946,87.44283,342.0069,93.99191,314.2695 F,15,69946,70558,1,0 S,15,69946,70558,0.75,0.2 M,0,70712,,535,381 C,0,70712,,196,255,136 F,15,70712,71324,1,0 S,15,70712,71324,0.75,0.2 P,0,70712,71324,A M,0,71936,,289,188 F,0,71936,,1 S,0,71936,,0.75 C,0,71936,,128,255,255 M,0,71936,71974,289,188,316.9009,182.1873 P,0,71936,72701,A M,0,71974,72012,316.9009,182.1873,344.8019,176.3746 M,0,72012,72050,344.8019,176.3746,372.7028,170.5619 M,0,72050,72089,372.7028,170.5619,400.6038,164.7492 F,15,72089,72701,1,0 S,15,72089,72701,0.75,0.2 M,0,72855,,473,82 F,0,72855,,1 S,0,72855,,0.75 C,0,72855,,196,255,136 M,0,72855,72893,473,82,445.0183,76.59727 P,0,72855,73620,A M,0,72893,72931,445.0183,76.59727,416.8904,72.01945 M,0,72931,72969,416.8904,72.01945,388.6408,68.26451 M,0,72969,73008,388.6408,68.26451,360.2889,65.38083 F,15,73008,73620,1,0 S,15,73008,73620,0.75,0.2 M,0,73773,,396,180 C,0,73773,,255,228,147 F,15,73773,74385,1,0 S,15,73773,74385,0.75,0.2 P,0,73773,74385,A M,0,74538,,455,359 F,0,74538,,1 S,0,74538,,0.75 C,0,74538,,128,255,255 M,0,74538,74576,455,359,443.5717,384.818 P,0,74538,75303,A M,0,74576,74614,443.5717,384.818,423.2311,404.2998 M,0,74614,74652,423.2311,404.2998,397.0512,414.6375 M,0,74652,74691,397.0512,414.6375,368.797,414.1449 F,15,74691,75303,1,0 S,15,74691,75303,0.75,0.2 M,0,75304,,401,107 C,0,75304,,255,183,219 F,15,75304,75916,1,0 S,15,75304,75916,0.75,0.2 P,0,75304,75916,A M,0,76069,,233,423 C,0,76069,,255,183,219 F,15,76069,76681,1,0 S,15,76069,76681,0.75,0.2 P,0,76069,76681,A M,0,76987,,439,395 C,0,76987,,255,228,147 F,15,76987,77599,1,0 S,15,76987,77599,0.75,0.2 P,0,76987,77599,A M,0,77906,,278,332 C,0,77906,,196,255,136 F,15,77906,78518,1,0 S,15,77906,78518,0.75,0.2 P,0,77906,78518,A M,0,78594,,164,90 C,0,78594,,255,183,219 F,15,78594,79206,1,0 S,15,78594,79206,0.75,0.2 P,0,78594,79206,A M,0,79819,,199,236 F,0,79819,,1 S,0,79819,,0.75 C,0,79819,,128,255,255 M,0,79819,79857,199,236,174.3341,225.8813 P,0,79819,80584,A M,0,79857,79895,174.3341,225.8813,170.9869,199.9433 M,0,79895,79933,170.9869,199.9433,191.5688,183.6398 M,0,79933,79972,191.5688,183.6398,216.1028,194.5119 F,15,79972,80584,1,0 S,15,79972,80584,0.75,0.2 M,0,80661,,292,148 C,0,80661,,255,183,219 F,15,80661,81273,1,0 S,15,80661,81273,0.75,0.2 P,0,80661,81273,A M,0,81732,,418,279 F,0,81732,,1 S,0,81732,,0.75 C,0,81732,,255,228,147 M,0,81732,81770,418,279,444.076,267.5389 P,0,81732,82497,A M,0,81770,81808,444.076,267.5389,471.1001,258.5368 M,0,81808,81846,471.1001,258.5368,498.9074,252.3709 M,0,81846,81885,498.9074,252.3709,527.1676,248.8193 F,15,81885,82497,1,0 S,15,81885,82497,0.75,0.2 M,0,82650,,352,232 C,0,82650,,255,183,219 F,15,82650,83262,1,0 S,15,82650,83262,0.75,0.2 P,0,82650,83262,A M,0,83263,,172,255 C,0,83263,,255,183,219 F,15,83263,83875,1,0 S,15,83263,83875,0.75,0.2 P,0,83263,83875,A M,0,84028,,279,238 F,0,84028,,1 S,0,84028,,0.75 C,0,84028,,255,228,147 M,0,84028,84066,279,238,311.7701,232.3831 P,0,84028,84716,A M,0,84066,84104,311.7701,232.3831,344.3489,225.7493 F,15,84104,84716,1,0 S,15,84104,84716,0.75,0.2 M,0,85712,,468,100 C,0,85712,,196,255,136 F,15,85712,86324,1,0 S,15,85712,86324,0.75,0.2 P,0,85712,86324,A
Sprite,Foreground,Centre,"sb\hl.png",0,0 M,0,70252,,168,284 C,0,70252,,255,183,219 F,15,70252,70864,1,0 S,15,70252,70864,0.75,0.2 P,0,70252,70864,A M,0,71018,,540,144 C,0,71018,,255,228,147 F,15,71018,71630,1,0 S,15,71018,71630,0.75,0.2 P,0,71018,71630,A M,0,72548,,138,98 C,0,72548,,255,183,219 F,15,72548,73160,1,0 S,15,72548,73160,0.75,0.2 P,0,72548,73160,A M,0,73390,,518,144 C,0,73390,,196,255,136 F,15,73390,74002,1,0 S,15,73390,74002,0.75,0.2 P,0,73390,74002,A M,0,74844,,416,219 C,0,74844,,128,255,255 F,15,74844,75456,1,0 S,15,74844,75456,0.75,0.2 P,0,74844,75456,A M,0,75457,,575,214 C,0,75457,,255,183,219 F,15,75457,76069,1,0 S,15,75457,76069,0.75,0.2 P,0,75457,76069,A M,0,76222,,110,358 F,0,76222,,1 S,0,76222,,0.75 C,0,76222,,255,183,219 M,0,76222,76260,110,358,138.4764,356.9269 P,0,76222,77063,A M,0,76260,76298,138.4764,356.9269,166.8834,354.6656 M,0,76298,76336,166.8834,354.6656,195.153,351.0762 M,0,76336,76375,195.153,351.0762,223.2473,346.3046 M,0,76375,76413,223.2473,346.3046,251.0881,340.2272 M,0,76413,76451,251.0881,340.2272,278.6484,332.9829 F,15,76451,77063,1,0 S,15,76451,77063,0.75,0.2 M,0,77140,,514,206 C,0,77140,,128,255,255 F,15,77140,77752,1,0 S,15,77140,77752,0.75,0.2 P,0,77140,77752,A M,0,78059,,514,206 C,0,78059,,255,228,147 F,15,78059,78671,1,0 S,15,78059,78671,0.75,0.2 P,0,78059,78671,A M,0,78824,,111,398 C,0,78824,,196,255,136 F,15,78824,79436,1,0 S,15,78824,79436,0.75,0.2 P,0,78824,79436,A M,0,80048,,295,238 C,0,80048,,128,255,255 F,15,80048,80660,1,0 S,15,80048,80660,0.75,0.2 P,0,80048,80660,A M,0,80814,,285,403 C,0,80814,,196,255,136 F,15,80814,81426,1,0 S,15,80814,81426,0.75,0.2 P,0,80814,81426,A M,0,82344,,264,218 C,0,82344,,128,255,255 F,15,82344,82956,1,0 S,15,82344,82956,0.75,0.2 P,0,82344,82956,A M,0,83416,,427,245 C,0,83416,,196,255,136 F,15,83416,84028,1,0 S,15,83416,84028,0.75,0.2 P,0,83416,84028,A M,0,84334,,210,372 F,0,84334,,1 S,0,84334,,0.75 C,0,84334,,128,255,255 M,0,84334,84372,210,372,241.8034,381.6255 P,0,84334,85252,A M,0,84372,84410,241.8034,381.6255,274.6205,386.7731 M,0,84410,84448,274.6205,386.7731,307.8288,386.5591 M,0,84448,84487,307.8288,386.5591,328.0911,409.6427 M,0,84487,84525,328.0911,409.6427,348.4259,431.8829 M,0,84525,84563,348.4259,431.8829,381.52,429.3578 M,0,84563,84601,381.52,429.3578,414.5446,432.9066 M,0,84601,84640,414.5446,432.9066,446.7775,440.9868 F,15,84640,85252,1,0 S,15,84640,85252,0.75,0.2 M,0,85788,,425,64 C,0,85788,,196,255,136 F,15,85788,86400,1,0 S,15,85788,86400,0.75,0.2 P,0,85788,86400,A
Sprite,Foreground,Centre,"sb\hl.png",0,0 M,0,71171,,459,292 C,0,71171,,255,228,147 F,15,71171,71783,1,0 S,15,71171,71783,0.75,0.2 P,0,71171,71783,A M,0,72701,,302,267 C,0,72701,,255,183,219 F,15,72701,73313,1,0 S,15,72701,73313,0.75,0.2 P,0,72701,73313,A M,0,73467,,518,144 F,0,73467,,1 S,0,73467,,0.75 C,0,73467,,255,228,147 M,0,73467,73505,518,144,543.8615,120.5529 P,0,73467,74155,A M,0,73505,73543,543.8615,120.5529,550.4088,86.39391 F,15,73543,74155,1,0 S,15,73543,74155,0.75,0.2 M,0,77293,,217,267 C,0,77293,,128,255,255 F,15,77293,77905,1,0 S,15,77293,77905,0.75,0.2 P,0,77293,77905,A M,0,78518,,127,103 C,0,78518,,255,183,219 F,15,78518,79130,1,0 S,15,78518,79130,0.75,0.2 P,0,78518,79130,A M,0,80967,,353,233 C,0,80967,,196,255,136 F,15,80967,81579,1,0 S,15,80967,81579,0.75,0.2 P,0,80967,81579,A M,0,82497,,64,380 C,0,82497,,128,255,255 F,15,82497,83109,1,0 S,15,82497,83109,0.75,0.2 P,0,82497,83109,A M,0,83569,,534,242 C,0,83569,,196,255,136 F,15,83569,84181,1,0 S,15,83569,84181,0.75,0.2 P,0,83569,84181,A M,0,85941,,340,119 C,0,85941,,196,255,136 F,15,85941,86553,1,0 S,15,85941,86553,0.75,0.2 P,0,85941,86553,A
Sprite,Foreground,Centre,"sb\hl.png",0,0 M,0,73620,,302,267 F,0,73620,,1 S,0,73620,,0.75 C,0,73620,,255,228,147 M,0,73620,73658,302,267,325.0534,293.1459 P,0,73620,74308,A M,0,73658,73696,325.0534,293.1459,359.1811,299.5108 F,15,73696,74308,1,0 S,15,73696,74308,0.75,0.2 M,0,78671,,202,99 F,0,78671,,1 S,0,78671,,0.75 C,0,78671,,255,183,219 M,0,78671,78709,202,99,213.5267,124.9256 P,0,78671,79359,A M,0,78709,78747,213.5267,124.9256,217.2999,153.0111 F,15,78747,79359,1,0 S,15,78747,79359,0.75,0.2 M,0,83645,,570,199 C,0,83645,,196,255,136 F,15,83645,84257,1,0 S,15,83645,84257,0.75,0.2 P,0,83645,84257,A M,0,86018,,353,172 F,0,86018,,1 S,0,86018,,0.75 C,0,86018,,255,228,147 M,0,86018,86056,353,172,364.609,174.4875 P,0,86018,86859,A M,0,86056,86094,364.609,174.4875,376.2937,176.5856 M,0,86094,86132,376.2937,176.5856,388.0319,178.3624 M,0,86132,86171,388.0319,178.3624,399.8403,179.5887 M,0,86171,86209,399.8403,179.5887,411.6825,180.4197 M,0,86209,86247,411.6825,180.4197,423.5439,180.9256 F,15,86247,86859,1,0 S,15,86247,86859,0.75,0.2
Sprite,Foreground,Centre,"sb\hl.png",0,0 M,0,78977,,77,280 F,0,78977,,1 S,0,78977,,0.75 C,0,78977,,255,228,147 M,0,78977,79015,77,280,105.0958,275.833 P,0,78977,79818,A M,0,79015,79053,105.0958,275.833,132.7695,281.7015 M,0,79053,79091,132.7695,281.7015,155.5482,298.509 M,0,79091,79130,155.5482,298.509,171.531,321.9685 M,0,79130,79168,171.531,321.9685,194.8093,338.0225 M,0,79168,79206,194.8093,338.0225,222.6634,343.1773 F,15,79206,79818,1,0 S,15,79206,79818,0.75,0.2 M,0,83722,,576,143 C,0,83722,,196,255,136 F,15,83722,84334,1,0 S,15,83722,84334,0.75,0.2 P,0,83722,84334,A
Sprite,Foreground,Centre,"sb\hl.png",0,0 M,0,83798,,551,92 C,0,83798,,196,255,136 F,15,83798,84410,1,0 S,15,83798,84410,0.75,0.2 P,0,83798,84410,A
Sprite,Foreground,Centre,"sb\hl.png",0,0 M,0,91222,,195,111 F,0,91222,,1 S,0,91222,,0.75 C,0,91222,,255,228,147 M,0,91222,91260,195,111,218.4239,107.0779 P,0,91222,92140,A M,0,91260,91298,218.4239,107.0779,241.8478,103.1557 M,0,91298,91336,241.8478,103.1557,265.2717,99.23357 M,0,91336,91375,265.2717,99.23357,288.6956,95.31143 M,0,91375,91413,288.6956,95.31143,312.1195,91.38929 M,0,91413,91451,312.1195,91.38929,335.5434,87.46715 M,0,91451,91489,335.5434,87.46715,358.9673,83.54501 M,0,91489,91528,358.9673,83.54501,382.3912,79.62286 F,15,91528,92140,1,0 S,15,91528,92140,0.75,0.2 M,0,92599,,258,292 F,0,92599,,1 S,0,92599,,0.75 C,0,92599,,128,255,255 M,0,92599,92637,258,292,281.4483,293.9026 P,0,92599,93364,A M,0,92637,92675,281.4483,293.9026,304.0405,287.6996 M,0,92675,92713,304.0405,287.6996,322.8624,273.7458 M,0,92713,92752,322.8624,273.7458,335.3664,253.9278 F,15,92752,93364,1,0 S,15,92752,93364,0.75,0.2 M,0,93365,,316,175 F,0,93365,,1 S,0,93365,,0.75 C,0,93365,,255,183,219 M,0,93365,93403,316,175,312.0148,151.5867 P,0,93365,94130,A M,0,93403,93441,312.0148,151.5867,308.0295,128.1735 M,0,93441,93479,308.0295,128.1735,304.0443,104.7602 M,0,93479,93518,304.0443,104.7602,300.0591,81.34699 F,15,93518,94130,1,0 S,15,93518,94130,0.75,0.2 M,0,94283,,456,350 F,0,94283,,1 S,0,94283,,0.75 C,0,94283,,196,255,136 M,0,94283,94321,456,350,432.5262,353.6114 P,0,94283,95048,A M,0,94321,94359,432.5262,353.6114,410.7765,361.092 M,0,94359,94397,410.7765,361.092,388.6086,367.5576 M,0,94397,94436,388.6086,367.5576,365.1113,371.0131 F,15,94436,95048,1,0 S,15,94436,95048,0.75,0.2 M,0,95201,,568,141 C,0,95201,,128,255,255 F,15,95201,95813,1,0 S,15,95201,95813,0.75,0.2 P,0,95201,95813,A M,0,95814,,112,97 F,0,95814,,1 S,0,95814,,0.75 C,0,95814,,196,255,136 M,0,95814,95852,112,97,97.49986,78.58205 P,0,95814,96655,A M,0,95852,95890,97.49986,78.58205,107.2049,73.204 M,0,95890,95928,107.2049,73.204,130.7823,75.31668 M,0,95928,95967,130.7823,75.31668,152.3163,84.9926 M,0,95967,96005,152.3163,84.9926,168.7912,101.9263 M,0,96005,96043,168.7912,101.9263,179.5668,123.0248 F,15,96043,96655,1,0 S,15,96043,96655,0.75,0.2 M,0,96885,,119,327 C,0,96885,,255,228,147 F,15,96885,97497,1,0 S,15,96885,97497,0.75,0.2 P,0,96885,97497,A M,0,97650,,374,168 F,0,97650,,1 S,0,97650,,0.75 C,0,97650,,128,255,255 M,0,97650,97688,374,168,351.3642,163.4125 P,0,97650,98415,A M,0,97688,97726,351.3642,163.4125,329.9855,171.578 M,0,97726,97764,329.9855,171.578,316.947,190.6103 M,0,97764,97803,316.947,190.6103,318.0524,213.6075 F,15,97803,98415,1,0 S,15,97803,98415,0.75,0.2 M,0,98569,,162,281 C,0,98569,,196,255,136 F,15,98569,99181,1,0 S,15,98569,99181,0.75,0.2 P,0,98569,99181,A M,0,99334,,253,343 C,0,99334,,128,255,255 F,15,99334,99946,1,0 S,15,99334,99946,0.75,0.2 P,0,99334,99946,A M,0,100099,,233,273 C,0,100099,,196,255,136 F,15,100099,100711,1,0 S,15,100099,100711,0.75,0.2 P,0,100099,100711,A M,0,100712,,136,222 C,0,100712,,255,228,147 F,15,100712,101324,1,0 S,15,100712,101324,0.75,0.2 P,0,100712,101324,A
Sprite,Foreground,Centre,"sb\hl.png",0,0 M,0,91681,,548,99 F,0,91681,,1 S,0,91681,,0.75 C,0,91681,,255,228,147 M,0,91681,91719,548,99,525.0299,103.9731 P,0,91681,92446,A M,0,91719,91757,525.0299,103.9731,505.1942,116.4225 M,0,91757,91795,505.1942,116.4225,491.2019,135.2823 M,0,91795,91834,491.2019,135.2823,485,158 F,15,91834,92446,1,0 S,15,91834,92446,0.75,0.2 M,0,92906,,161,225 C,0,92906,,128,255,255 F,15,92906,93518,1,0 S,15,92906,93518,0.75,0.2 P,0,92906,93518,A M,0,93671,,161,225 F,0,93671,,1 S,0,93671,,0.75 C,0,93671,,196,255,136 M,0,93671,93709,161,225,184.6665,223.6451 P,0,93671,94589,A M,0,93709,93747,184.6665,223.6451,208.2456,225.8982 M,0,93747,93785,208.2456,225.8982,231.1534,231.9312 M,0,93785,93824,231.1534,231.9312,252.7892,241.5871 M,0,93824,93862,252.7892,241.5871,272.5851,254.6141 M,0,93862,93900,272.5851,254.6141,290.021,270.6721 M,0,93900,93938,290.021,270.6721,304.6383,289.3419 M,0,93938,93977,304.6383,289.3419,316,310 F,15,93977,94589,1,0 S,15,93977,94589,0.75,0.2 M,0,94895,,576,268 C,0,94895,,128,255,255 F,15,94895,95507,1,0 S,15,94895,95507,0.75,0.2 P,0,94895,95507,A M,0,95508,,344,127 C,0,95508,,255,183,219 F,15,95508,96120,1,0 S,15,95508,96120,0.75,0.2 P,0,95508,96120,A M,0,96426,,74,216 C,0,96426,,255,228,147 F,15,96426,97038,1,0 S,15,96426,97038,0.75,0.2 P,0,96426,97038,A M,0,97191,,320,313 F,0,97191,,1 S,0,97191,,0.75 C,0,97191,,128,255,255 M,0,97191,97229,320,313,343.6006,315.6592 P,0,97191,98032,A M,0,97229,97267,343.6006,315.6592,367.2013,318.3185 M,0,97267,97305,367.2013,318.3185,390.802,320.9777 M,0,97305,97344,390.802,320.9777,414.4026,323.6369 M,0,97344,97382,414.4026,323.6369,438.0033,326.2961 M,0,97382,97420,438.0033,326.2961,461.6039,328.9554 F,15,97420,98032,1,0 S,15,97420,98032,0.75,0.2 M,0,98263,,354,75 F,0,98263,,1 S,0,98263,,0.75 C,0,98263,,255,183,219 M,0,98263,98301,354,75,358.8035,98.25916 P,0,98263,99028,A M,0,98301,98339,358.8035,98.25916,363.6071,121.5183 M,0,98339,98377,363.6071,121.5183,368.4106,144.7775 M,0,98377,98416,368.4106,144.7775,373,167 F,15,98416,99028,1,0 S,15,98416,99028,0.75,0.2 M,0,99181,,374,167 C,0,99181,,128,255,255 F,15,99181,99793,1,0 S,15,99181,99793,0.75,0.2 P,0,99181,99793,A M,0,99946,,144,420 C,0,99946,,196,255,136 F,15,99946,100558,1,0 S,15,99946,100558,0.75,0.2 P,0,99946,100558,A M,0,100559,,253,343 C,0,100559,,255,228,147 F,15,100559,101171,1,0 S,15,100559,101171,0.75,0.2 P,0,100559,101171,A
Sprite,Foreground,Centre,"sb\hl.png",0,0 M,0,91987,,548,99 C,0,91987,,255,228,147 F,15,91987,92599,1,0 S,15,91987,92599,0.75,0.2 P,0,91987,92599,A M,0,93059,,161,225 F,0,93059,,1 S,0,93059,,0.75 C,0,93059,,255,183,219 M,0,93059,93097,161,225,157.0196,248.4141 P,0,93059,93824,A M,0,93097,93135,157.0196,248.4141,153.0392,271.8282 M,0,93135,93173,153.0392,271.8282,149.0588,295.2422 M,0,93173,93212,149.0588,295.2422,145.0784,318.6563 F,15,93212,93824,1,0 S,15,93212,93824,0.75,0.2 M,0,94130,,264,412 C,0,94130,,196,255,136 F,15,94130,94742,1,0 S,15,94130,94742,0.75,0.2 P,0,94130,94742,A M,0,95048,,465,239 C,0,95048,,128,255,255 F,15,95048,95660,1,0 S,15,95048,95660,0.75,0.2 P,0,95048,95660,A M,0,95661,,354,197 C,0,95661,,255,183,219 F,15,95661,96273,1,0 S,15,95661,96273,0.75,0.2 P,0,95661,96273,A M,0,96579,,155,415 F,0,96579,,1 S,0,96579,,0.75 C,0,96579,,255,228,147 M,0,96579,96617,155,415,175.5961,403.4094 P,0,96579,97344,A M,0,96617,96655,175.5961,403.4094,192.6567,387.1271 M,0,96655,96693,192.6567,387.1271,204.861,366.9447 M,0,96693,96732,204.861,366.9447,211.6169,344.2996 F,15,96732,97344,1,0 S,15,96732,97344,0.75,0.2 M,0,97497,,486,327 C,0,97497,,128,255,255 F,15,97497,98109,1,0 S,15,97497,98109,0.75,0.2 P,0,97497,98109,A M,0,98722,,279,56 C,0,98722,,196,255,136 F,15,98722,99334,1,0 S,15,98722,99334,0.75,0.2 P,0,98722,99334,A M,0,99487,,508,250 C,0,99487,,255,183,219 F,15,99487,100099,1,0 S,15,99487,100099,0.75,0.2 P,0,99487,100099,A M,0,100252,,109,305 C,0,100252,,196,255,136 F,15,100252,100864,1,0 S,15,100252,100864,0.75,0.2 P,0,100252,100864,A M,0,100865,,236,155 C,0,100865,,255,228,147 F,15,100865,101477,1,0 S,15,100865,101477,0.75,0.2 P,0,100865,101477,A
Sprite,Foreground,Centre,"sb\hl.png",0,0 M,0,92140,,476,251 F,0,92140,,1 S,0,92140,,0.75 C,0,92140,,128,255,255 M,0,92140,92178,476,251,452.6483,247.0811 P,0,92140,93058,A M,0,92178,92216,452.6483,247.0811,431.5264,236.4498 M,0,92216,92254,431.5264,236.4498,414.6934,219.8156 M,0,92254,92293,414.6934,219.8156,402.5563,199.454 M,0,92293,92331,402.5563,199.454,385.3108,183.7441 M,0,92331,92369,385.3108,183.7441,363.3177,175.0399 M,0,92369,92407,363.3177,175.0399,339.7262,172.9378 M,0,92407,92446,339.7262,172.9378,316.2063,175.9909 F,15,92446,93058,1,0 S,15,92446,93058,0.75,0.2 M,0,94589,,550,433 F,0,94589,,1 S,0,94589,,0.75 C,0,94589,,255,228,147 M,0,94589,94627,550,433,553.9761,409.5852 P,0,94589,95430,A M,0,94627,94665,553.9761,409.5852,557.9522,386.1704 M,0,94665,94703,557.9522,386.1704,561.9283,362.7556 M,0,94703,94742,561.9283,362.7556,565.9044,339.3408 M,0,94742,94780,565.9044,339.3408,569.8805,315.926 M,0,94780,94818,569.8805,315.926,573.8566,292.5112 F,15,94818,95430,1,0 S,15,94818,95430,0.75,0.2 M,0,96120,,240,235 F,0,96120,,1 S,0,96120,,0.75 C,0,96120,,255,228,147 M,0,96120,96158,240,235,216.3822,232.4975 P,0,96120,96961,A M,0,96158,96196,216.3822,232.4975,192.7644,229.9949 M,0,96196,96234,192.7644,229.9949,169.1467,227.4924 M,0,96234,96273,169.1467,227.4924,145.5289,224.9898 M,0,96273,96311,145.5289,224.9898,121.9111,222.4873 M,0,96311,96349,121.9111,222.4873,98.2933,219.9847 F,15,96349,96961,1,0 S,15,96349,96961,0.75,0.2 M,0,97038,,240,235 C,0,97038,,128,255,255 F,15,97038,97650,1,0 S,15,97038,97650,0.75,0.2 P,0,97038,97650,A M,0,97957,,513,236 F,0,97957,,1 S,0,97957,,0.75 C,0,97957,,255,183,219 M,0,97957,97995,513,236,517.8704,212.7548 P,0,97957,98722,A M,0,97995,98033,517.8704,212.7548,522.7408,189.5095 M,0,98033,98071,522.7408,189.5095,527.6113,166.2643 M,0,98071,98110,527.6113,166.2643,532.4817,143.019 F,15,98110,98722,1,0 S,15,98110,98722,0.75,0.2 M,0,98875,,358,308 C,0,98875,,255,228,147 F,15,98875,99487,1,0 S,15,98875,99487,0.75,0.2 P,0,98875,99487,A M,0,99640,,307,419 F,0,99640,,1 S,0,99640,,0.75 C,0,99640,,196,255,136 M,0,99640,99678,307,419,286.7731,431.4473 P,0,99640,100481,A M,0,99678,99716,286.7731,431.4473,264.1114,433.3264 M,0,99716,99754,264.1114,433.3264,240.4772,430.9842 M,0,99754,99793,240.4772,430.9842,216.8429,428.6421 M,0,99793,99831,216.8429,428.6421,193.2087,426.3 M,0,99831,99869,193.2087,426.3,170,424 F,15,99869,100481,1,0 S,15,99869,100481,0.75,0.2
Sprite,Foreground,Centre,"sb\hl.png",0,0 M,0,95355,,334,57 C,0,95355,,255,183,219 F,15,95355,95967,1,0 S,15,95355,95967,0.75,0.2 P,0,95355,95967,A M,0,99028,,197,108 C,0,99028,,255,228,147 F,15,99028,99640,1,0 S,15,99028,99640,0.75,0.2 P,0,99028,99640,A M,0,100329,,109,305 C,0,100329,,196,255,136 F,15,100329,100941,1,0 S,15,100329,100941,0.75,0.2 P,0,100329,100941,A
Sprite,Foreground,Centre,"sb\hl.png",0,0 M,0,100406,,109,305 C,0,100406,,255,228,147 F,15,100406,101018,1,0 S,15,100406,101018,0.75,0.2 P,0,100406,101018,A
Sprite,Foreground,Centre,"sb\hl.png",0,0 M,0,140200,,147,365 F,0,140200,,1 S,0,140200,,0.75 C,0,140200,,255,228,147 M,0,140200,140238,147,365,179.7112,359.0386 P,0,140200,141041,A M,0,140238,140276,179.7112,359.0386,212.4225,353.0772 M,0,140276,140314,212.4225,353.0772,245.1337,347.1158 M,0,140314,140353,245.1337,347.1158,277.8449,341.1544 M,0,140353,140391,277.8449,341.1544,310.5562,335.1931 M,0,140391,140429,310.5562,335.1931,343.2674,329.2317 F,15,140429,141041,1,0 S,15,140429,141041,0.75,0.2 M,0,141042,,307,168 F,0,141042,,1 S,0,141042,,0.75 C,0,141042,,128,255,255 M,0,141042,141080,307,168,302.0727,195.7255 P,0,141042,141807,A M,0,141080,141118,302.0727,195.7255,285.7957,218.5945 M,0,141118,141156,285.7957,218.5945,261.3665,232.3868 M,0,141156,141195,261.3665,232.3868,233.3214,233.7857 F,15,141195,141807,1,0 S,15,141195,141807,0.75,0.2 M,0,141884,,307,168 C,0,141884,,255,183,219 F,15,141884,142496,1,0 S,15,141884,142496,0.75,0.2 P,0,141884,142496,A M,0,142649,,346,435 F,0,142649,,1 S,0,142649,,0.75 C,0,142649,,255,228,147 M,0,142649,142687,346,435,318.9518,426.0489 P,0,142649,143490,A M,0,142687,142725,318.9518,426.0489,291.3487,418.9928 M,0,142725,142763,291.3487,418.9928,263.2856,414.0784 M,0,142763,142802,263.2856,414.0784,234.948,411.14 M,0,142802,142840,234.948,411.14,206.4688,410.3671 M,0,142840,142878,206.4688,410.3671,178.0044,411.5789 F,15,142878,143490,1,0 S,15,142878,143490,0.75,0.2 M,0,143491,,319,98 C,0,143491,,128,255,255 F,15,143491,144103,1,0 S,15,143491,144103,0.75,0.2 P,0,143491,144103,A M,0,144180,,261,329 C,0,144180,,255,183,219 F,15,144180,144792,1,0 S,15,144180,144792,0.75,0.2 P,0,144180,144792,A M,0,144945,,64,368 F,0,144945,,1 S,0,144945,,0.75 C,0,144945,,255,228,147 M,0,144945,144983,64,368,91.25018,359.6778 P,0,144945,145863,A M,0,144983,145021,91.25018,359.6778,119.0696,353.5203 M,0,145021,145059,119.0696,353.5203,147.2833,349.541 M,0,145059,145098,147.2833,349.541,164.5386,329.3844 M,0,145098,145136,164.5386,329.3844,184.7997,314.4947 M,0,145136,145174,184.7997,314.4947,213.069,311.0024 M,0,145174,145212,213.069,311.0024,240.7361,304.2323 M,0,145212,145251,240.7361,304.2323,267.4164,294.2582 F,15,145251,145863,1,0 S,15,145251,145863,0.75,0.2 M,0,145864,,368,158 C,0,145864,,255,228,147 F,15,145864,146476,1,0 S,15,145864,146476,0.75,0.2 P,0,145864,146476,A M,0,146629,,368,158 C,0,146629,,128,255,255 F,15,146629,147241,1,0 S,15,146629,147241,0.75,0.2 P,0,146629,147241,A M,0,147547,,174,440 F,0,147547,,1 S,0,147547,,0.75 C,0,147547,,255,183,219 M,0,147547,147585,174,440,170.7177,411.6896 P,0,147547,148312,A M,0,147585,147623,170.7177,411.6896,167.4353,383.3793 M,0,147623,147661,167.4353,383.3793,164.1529,355.0689 M,0,147661,147700,164.1529,355.0689,160.8706,326.7586 F,15,147700,148312,1,0 S,15,147700,148312,0.75,0.2 M,0,148313,,109,136 C,0,148313,,255,228,147 F,15,148313,148925,1,0 S,15,148313,148925,0.75,0.2 P,0,148313,148925,A M,0,149078,,386,176 F,0,149078,,1 S,0,149078,,0.75 C,0,149078,,196,255,136 M,0,149078,149116,386,176,357.7907,171.9396 P,0,149078,149843,A M,0,149116,149154,357.7907,171.9396,329.5815,167.8792 M,0,149154,149192,329.5815,167.8792,301.3722,163.8187 M,0,149192,149231,301.3722,163.8187,273.1629,159.7583 F,15,149231,149843,1,0 S,15,149231,149843,0.75,0.2 M,0,149920,,563,343 C,0,149920,,255,228,147 F,15,149920,150532,1,0 S,15,149920,150532,0.75,0.2 P,0,149920,150532,A M,0,150608,,408,280 F,0,150608,,1 S,0,150608,,0.75 C,0,150608,,255,183,219 M,0,150608,150646,408,280,430.0596,297.9635 P,0,150608,151373,A M,0,150646,150684,430.0596,297.9635,455.4452,310.7922 M,0,150684,150722,455.4452,310.7922,463.3879,284.146 M,0,150722,150761,463.3879,284.146,465.994,255.7892 F,15,150761,151373,1,0 S,15,150761,151373,0.75,0.2 M,0,151527,,85,111 C,0,151527,,196,255,136 F,15,151527,152139,1,0 S,15,151527,152139,0.75,0.2 P,0,151527,152139,A M,0,152445,,64,440 F,0,152445,,1 S,0,152445,,0.75 C,0,152445,,128,255,255 M,0,152445,152483,64,440,91.27551,431.7525 P,0,152445,153286,A M,0,152483,152521,91.27551,431.7525,118.931,424.8853 M,0,152521,152559,118.931,424.8853,146.929,419.5861 M,0,152559,152598,146.929,419.5861,175.1587,415.7063 M,0,152598,152636,175.1587,415.7063,203.5613,413.4157 M,0,152636,152674,203.5613,413.4157,232.0434,412.5674 F,15,152674,153286,1,0 S,15,152674,153286,0.75,0.2 M,0,153287,,378,178 C,0,153287,,255,183,219 F,15,153287,153899,1,0 S,15,153287,153899,0.75,0.2 P,0,153287,153899,A M,0,153976,,532,408 F,0,153976,,1 S,0,153976,,0.75 C,0,153976,,196,255,136 M,0,153976,154014,532,408,556.3088,393.6439 P,0,153976,154741,A M,0,154014,154052,556.3088,393.6439,573.2565,371.1513 M,0,154052,154090,573.2565,371.1513,580.365,343.9236 M,0,154090,154129,580.365,343.9236,576.0649,316.0891 F,15,154129,154741,1,0 S,15,154129,154741,0.75,0.2 M,0,154894,,161,277 F,0,154894,,1 S,0,154894,,0.75 C,0,154894,,128,255,255 M,0,154894,154932,161,277,128.956,268.1263 P,0,154894,155582,A M,0,154932,154970,128.956,268.1263,96.91195,259.2525 F,15,154970,155582,1,0 S,15,154970,155582,0.75,0.2 M,0,155813,,223,145 C,0,155813,,255,183,219 F,15,155813,156425,1,0 S,15,155813,156425,0.75,0.2 P,0,155813,156425,A M,0,156731,,101,200 C,0,156731,,255,228,147 F,15,156731,157343,1,0 S,15,156731,157343,0.75,0.2 P,0,156731,157343,A
Sprite,Foreground,Centre,"sb\hl.png",0,0 M,0,140506,,418,301 F,0,140506,,1 S,0,140506,,0.75 C,0,140506,,255,228,147 M,0,140506,140544,418,301,444.5349,291.5143 P,0,140506,141271,A M,0,140544,140582,444.5349,291.5143,472.518,293.9931 M,0,140582,140620,472.518,293.9931,497.003,307.7662 M,0,140620,140659,497.003,307.7662,512.953,330.9167 F,15,140659,141271,1,0 S,15,140659,141271,0.75,0.2 M,0,141272,,181,128 C,0,141272,,128,255,255 F,15,141272,141884,1,0 S,15,141272,141884,0.75,0.2 P,0,141272,141884,A M,0,142037,,517,228 C,0,142037,,196,255,136 F,15,142037,142649,1,0 S,15,142037,142649,0.75,0.2 P,0,142037,142649,A M,0,142955,,122,353 F,0,142955,,1 S,0,142955,,0.75 C,0,142955,,255,228,147 M,0,142955,142993,122,353,127.6318,325.3365 P,0,142955,143720,A M,0,142993,143031,127.6318,325.3365,143.4649,302.0526 M,0,143031,143069,143.4649,302.0526,166.9334,286.4798 M,0,143069,143108,166.9334,286.4798,194.723,281.8021 F,15,143108,143720,1,0 S,15,143108,143720,0.75,0.2 M,0,143721,,407,324 C,0,143721,,128,255,255 F,15,143721,144333,1,0 S,15,143721,144333,0.75,0.2 P,0,143721,144333,A M,0,144409,,385,155 C,0,144409,,255,183,219 F,15,144409,145021,1,0 S,15,144409,145021,0.75,0.2 P,0,144409,145021,A M,0,145404,,368,242 C,0,145404,,255,228,147 F,15,145404,146016,1,0 S,15,145404,146016,0.75,0.2 P,0,145404,146016,A M,0,146017,,472,204 C,0,146017,,255,228,147 F,15,146017,146629,1,0 S,15,146017,146629,0.75,0.2 P,0,146017,146629,A M,0,146782,,562,58 F,0,146782,,1 S,0,146782,,0.75 C,0,146782,,128,255,255 M,0,146782,146820,562,58,557.5222,86.14604 P,0,146782,147547,A M,0,146820,146858,557.5222,86.14604,549.1764,113.0002 M,0,146858,146896,549.1764,113.0002,542.4877,140.4253 M,0,146896,146935,542.4877,140.4253,537.8771,168.5499 F,15,146935,147547,1,0 S,15,146935,147547,0.75,0.2 M,0,147853,,309,127 C,0,147853,,196,255,136 F,15,147853,148465,1,0 S,15,147853,148465,0.75,0.2 P,0,147853,148465,A M,0,148466,,386,75 F,0,148466,,1 S,0,148466,,0.75 C,0,148466,,128,255,255 M,0,148466,148504,386,75,399.3584,100.1754 P,0,148466,149231,A M,0,148504,148542,399.3584,100.1754,411.3366,125.3779 M,0,148542,148580,411.3366,125.3779,398.9728,151.0564 M,0,148580,148619,398.9728,151.0564,386.6091,176.735 F,15,148619,149231,1,0 S,15,148619,149231,0.75,0.2 M,0,149307,,189,143 C,0,149307,,196,255,136 F,15,149307,149919,1,0 S,15,149307,149919,0.75,0.2 P,0,149307,149919,A M,0,149996,,576,276 F,0,149996,,1 S,0,149996,,0.75 C,0,149996,,128,255,255 M,0,149996,150034,576,276,572.2142,247.7526 P,0,149996,150837,A M,0,150034,150072,572.2142,247.7526,568.4285,219.5051 M,0,150072,150110,568.4285,219.5051,564.6428,191.2577 M,0,150110,150149,564.6428,191.2577,560.8571,163.0102 M,0,150149,150187,560.8571,163.0102,557.0713,134.7628 M,0,150187,150225,557.0713,134.7628,553.2855,106.5153 F,15,150225,150837,1,0 S,15,150225,150837,0.75,0.2 M,0,150838,,353,214 F,0,150838,,1 S,0,150838,,0.75 C,0,150838,,255,183,219 M,0,150838,150876,353,214,335.0979,235.9253 P,0,150838,151603,A M,0,150876,150914,335.0979,235.9253,325.4647,262.4844 M,0,150914,150952,325.4647,262.4844,324.9397,290.7381 M,0,150952,150991,324.9397,290.7381,334.3048,317.4112 F,15,150991,151603,1,0 S,15,150991,151603,0.75,0.2 M,0,151680,,291,176 C,0,151680,,196,255,136 F,15,151680,152292,1,0 S,15,151680,152292,0.75,0.2 P,0,151680,152292,A M,0,152751,,308,373 F,0,152751,,1 S,0,152751,,0.75 C,0,152751,,128,255,255 M,0,152751,152789,308,373,327.2932,393.8037 P,0,152751,153516,A M,0,152789,152827,327.2932,393.8037,351.2623,408.9893 M,0,152827,152865,351.2623,408.9893,378.5495,416.7368 M,0,152865,152904,378.5495,416.7368,406.9084,417.2035 F,15,152904,153516,1,0 S,15,152904,153516,0.75,0.2 M,0,153517,,504,337 C,0,153517,,255,183,219 F,15,153517,154129,1,0 S,15,153517,154129,0.75,0.2 P,0,153517,154129,A M,0,154282,,279,273 C,0,154282,,255,228,147 F,15,154282,154894,1,0 S,15,154282,154894,0.75,0.2 P,0,154282,154894,A M,0,155047,,329,112 F,0,155047,,1 S,0,155047,,0.75 C,0,155047,,128,255,255 M,0,155047,155085,329,112,319.9977,144.0081 P,0,155047,155735,A M,0,155085,155123,319.9977,144.0081,311,176 F,15,155123,155735,1,0 S,15,155123,155735,0.75,0.2 M,0,155966,,106,409 F,0,155966,,1 S,0,155966,,0.75 C,0,155966,,196,255,136 M,0,155966,156004,106,409,81.99765,391.0029 P,0,155966,156884,A M,0,156004,156042,81.99765,391.0029,76.69052,361.2426 M,0,156042,156080,76.69052,361.2426,92.31718,335.4078 M,0,156080,156119,92.31718,335.4078,121.1116,326.161 M,0,156119,156157,121.1116,326.161,151.3618,332.1741 M,0,156157,156195,151.3618,332.1741,181.5063,338.8504 M,0,156195,156233,181.5063,338.8504,211.6509,345.5267 M,0,156233,156272,211.6509,345.5267,241.7954,352.203 F,15,156272,156884,1,0 S,15,156272,156884,0.75,0.2 M,0,156960,,120,72 C,0,156960,,255,228,147 F,15,156960,157572,1,0 S,15,156960,157572,0.75,0.2 P,0,156960,157572,A
Sprite,Foreground,Centre,"sb\hl.png",0,0 M,0,140813,,199,295 F,0,140813,,1 S,0,140813,,0.75 C,0,140813,,128,255,255 M,0,140813,140851,199,295,176.944,277.4319 P,0,140813,141578,A M,0,140851,140889,176.944,277.4319,164.1202,252.4147 M,0,140889,140927,164.1202,252.4147,162.3122,224.3122 M,0,140927,140966,162.3122,224.3122,172.998,198.247 F,15,140966,141578,1,0 S,15,140966,141578,0.75,0.2 M,0,141731,,452,104 C,0,141731,,255,183,219 F,15,141731,142343,1,0 S,15,141731,142343,0.75,0.2 P,0,141731,142343,A M,0,143261,,493,180 F,0,143261,,1 S,0,143261,,0.75 C,0,143261,,128,255,255 M,0,143261,143299,493,180,464.5963,181.3881 P,0,143261,144026,A M,0,143299,143337,464.5963,181.3881,436.4031,177.6474 M,0,143337,143375,436.4031,177.6474,409.5438,168.3124 M,0,143375,143414,409.5438,168.3124,384.7961,154.299 F,15,143414,144026,1,0 S,15,143414,144026,0.75,0.2 M,0,144333,,385,155 C,0,144333,,255,183,219 F,15,144333,144945,1,0 S,15,144333,144945,0.75,0.2 P,0,144333,144945,A M,0,145557,,195,115 F,0,145557,,1 S,0,145557,,0.75 C,0,145557,,255,228,147 M,0,145557,145595,195,115,186.5838,142.229 P,0,145557,146322,A M,0,145595,145633,186.5838,142.229,178.1675,169.4579 M,0,145633,145671,178.1675,169.4579,202.0236,184.2513 M,0,145671,145710,202.0236,184.2513,226.5352,198.7921 F,15,145710,146322,1,0 S,15,145710,146322,0.75,0.2 M,0,146323,,445,123 C,0,146323,,128,255,255 F,15,146323,146935,1,0 S,15,146323,146935,0.75,0.2 P,0,146323,146935,A M,0,147088,,423,394 C,0,147088,,128,255,255 F,15,147088,147700,1,0 S,15,147088,147700,0.75,0.2 P,0,147088,147700,A M,0,148006,,100,240 C,0,148006,,196,255,136 F,15,148006,148618,1,0 S,15,148006,148618,0.75,0.2 P,0,148006,148618,A M,0,148772,,89,358 C,0,148772,,255,183,219 F,15,148772,149384,1,0 S,15,148772,149384,0.75,0.2 P,0,148772,149384,A M,0,149537,,331,414 C,0,149537,,255,228,147 F,15,149537,150149,1,0 S,15,149537,150149,0.75,0.2 P,0,149537,150149,A M,0,150302,,490,56 F,0,150302,,1 S,0,150302,,0.75 C,0,150302,,128,255,255 M,0,150302,150340,490,56,461.8175,53.303 P,0,150302,151067,A M,0,150340,150378,461.8175,53.303,434.3515,59.94984 M,0,150378,150416,434.3515,59.94984,410.4191,75.00173 M,0,150416,150455,410.4191,75.00173,393.166,97.41073 F,15,150455,151067,1,0 S,15,150455,151067,0.75,0.2 M,0,151068,,432,173 C,0,151068,,255,183,219 F,15,151068,151680,1,0 S,15,151068,151680,0.75,0.2 P,0,151068,151680,A M,0,151833,,66,305 C,0,151833,,255,228,147 F,15,151833,152445,1,0 S,15,151833,152445,0.75,0.2 P,0,151833,152445,A M,0,153057,,576,166 F,0,153057,,1 S,0,153057,,0.75 C,0,153057,,255,183,219 M,0,153057,153095,576,166,548.2938,172.6672 P,0,153057,153822,A M,0,153095,153133,548.2938,172.6672,520.3392,178.197 M,0,153133,153171,520.3392,178.197,492.1847,182.5972 M,0,153171,153210,492.1847,182.5972,463.8703,185.8213 F,15,153210,153822,1,0 S,15,153210,153822,0.75,0.2 M,0,153823,,299,199 C,0,153823,,196,255,136 F,15,153823,154435,1,0 S,15,153823,154435,0.75,0.2 P,0,153823,154435,A M,0,154511,,196,395 C,0,154511,,255,228,147 F,15,154511,155123,1,0 S,15,154511,155123,0.75,0.2 P,0,154511,155123,A M,0,155200,,279,273 C,0,155200,,128,255,255 F,15,155200,155812,1,0 S,15,155200,155812,0.75,0.2 P,0,155200,155812,A M,0,156425,,510,331 F,0,156425,,1 S,0,156425,,0.75 C,0,156425,,196,255,136 M,0,156425,156463,510,331,479.8602,324.3023 P,0,156425,157190,A M,0,156463,156501,479.8602,324.3023,449.7205,317.6046 M,0,156501,156539,449.7205,317.6046,419.5807,310.9068 M,0,156539,156578,419.5807,310.9068,389.4409,304.2091 F,15,156578,157190,1,0 S,15,156578,157190,0.75,0.2
Sprite,Foreground,Centre,"sb\hl.png",0,0 M,0,141425,,418,301 F,0,141425,,1 S,0,141425,,0.75 C,0,141425,,255,183,219 M,0,141425,141463,418,301,420.8918,272.6477 P,0,141425,142266,A M,0,141463,141501,420.8918,272.6477,424.2856,244.351 M,0,141501,141539,424.2856,244.351,428.2431,216.1278 M,0,141539,141578,428.2431,216.1278,432.7014,187.9792 M,0,141578,141616,432.7014,187.9792,437.719,159.925 M,0,141616,141654,437.719,159.925,443.2356,131.9647 F,15,141654,142266,1,0 S,15,141654,142266,0.75,0.2 M,0,142343,,538,431 F,0,142343,,1 S,0,142343,,0.75 C,0,142343,,196,255,136 M,0,142343,142381,538,431,555.8038,408.7452 P,0,142343,143108,A M,0,142381,142419,555.8038,408.7452,573.6076,386.4905 M,0,142419,142457,573.6076,386.4905,563.2212,360.2967 M,0,142457,142496,563.2212,360.2967,552.1995,334.0142 F,15,142496,143108,1,0 S,15,142496,143108,0.75,0.2 M,0,143568,,319,98 C,0,143568,,128,255,255 F,15,143568,144180,1,0 S,15,143568,144180,0.75,0.2 P,0,143568,144180,A M,0,144486,,385,155 F,0,144486,,1 S,0,144486,,0.75 C,0,144486,,196,255,136 M,0,144486,144524,385,155,395.3546,120.9289 P,0,144486,145174,A M,0,144524,144562,395.3546,120.9289,408.825,87.96841 F,15,144562,145174,1,0 S,15,144562,145174,0.75,0.2 M,0,146170,,362,354 C,0,146170,,128,255,255 F,15,146170,146782,1,0 S,15,146170,146782,0.75,0.2 P,0,146170,146782,A M,0,147241,,355,273 F,0,147241,,1 S,0,147241,,0.75 C,0,147241,,128,255,255 M,0,147241,147279,355,273,326.6793,271.5087 P,0,147241,148082,A M,0,147279,147317,326.6793,271.5087,298.9919,277.6583 M,0,147317,147355,298.9919,277.6583,274.4017,291.7713 M,0,147355,147394,274.4017,291.7713,254.5311,311.9911 M,0,147394,147432,254.5311,311.9911,241.5394,337.1839 M,0,147432,147470,241.5394,337.1839,235.8779,364.9506 F,15,147470,148082,1,0 S,15,147470,148082,0.75,0.2 M,0,148159,,355,273 C,0,148159,,255,228,147 F,15,148159,148771,1,0 S,15,148159,148771,0.75,0.2 P,0,148159,148771,A M,0,148925,,235,71 C,0,148925,,255,183,219 F,15,148925,149537,1,0 S,15,148925,149537,0.75,0.2 P,0,148925,149537,A M,0,149614,,372,433 C,0,149614,,255,228,147 F,15,149614,150226,1,0 S,15,149614,150226,0.75,0.2 P,0,149614,150226,A M,0,151221,,280,71 F,0,151221,,1 S,0,151221,,0.75 C,0,151221,,196,255,136 M,0,151221,151259,280,71,253.0793,80.34618 P,0,151221,152062,A M,0,151259,151297,253.0793,80.34618,225.8046,88.60254 M,0,151297,151335,225.8046,88.60254,198.1854,95.62039 M,0,151335,151374,198.1854,95.62039,170.3054,101.5175 M,0,151374,151412,170.3054,101.5175,142.1887,106.1559 M,0,151412,151450,142.1887,106.1559,113.9071,109.6506 F,15,151450,152062,1,0 S,15,151450,152062,0.75,0.2 M,0,152139,,344,296 F,0,152139,,1 S,0,152139,,0.75 C,0,152139,,255,228,147 M,0,152139,152177,344,296,316.0813,290.2731 P,0,152139,152904,A M,0,152177,152215,316.0813,290.2731,288.1627,284.5462 M,0,152215,152253,288.1627,284.5462,260.244,278.8193 M,0,152253,152292,260.244,278.8193,232.3253,273.0923 F,15,152292,152904,1,0 S,15,152292,152904,0.75,0.2 M,0,153364,,378,178 C,0,153364,,255,183,219 F,15,153364,153976,1,0 S,15,153364,153976,0.75,0.2 P,0,153364,153976,A M,0,154435,,234,430 C,0,154435,,255,228,147 F,15,154435,155047,1,0 S,15,154435,155047,0.75,0.2 P,0,154435,155047,A M,0,155353,,566,129 F,0,155353,,1 S,0,155353,,0.75 C,0,155353,,255,183,219 M,0,155353,155391,566,129,581.7239,99.89958 P,0,155353,156271,A M,0,155391,155429,581.7239,99.89958,577.4638,94.4898 M,0,155429,155467,577.4638,94.4898,546.783,107.3058 M,0,155467,155506,546.783,107.3058,516.1022,120.1219 M,0,155506,155544,516.1022,120.1219,502.1408,149.5014 M,0,155544,155582,502.1408,149.5014,480.501,174.5255 M,0,155582,155620,480.501,174.5255,451.9507,191.3342 M,0,155620,155659,451.9507,191.3342,420.0941,200.6562 F,15,155659,156271,1,0 S,15,155659,156271,0.75,0.2 M,0,156807,,65,157 C,0,156807,,255,228,147 F,15,156807,157419,1,0 S,15,156807,157419,0.75,0.2 P,0,156807,157419,A
Sprite,Foreground,Centre,"sb\hl.png",0,0 M,0,142190,,332,322 C,0,142190,,196,255,136 F,15,142190,142802,1,0 S,15,142190,142802,0.75,0.2 P,0,142190,142802,A M,0,143874,,206,86 F,0,143874,,1 S,0,143874,,0.75 C,0,143874,,255,183,219 M,0,143874,143912,206,86,177.727,82.40978 P,0,143874,144639,A M,0,143912,143950,177.727,82.40978,149.4541,78.81956 M,0,143950,143988,149.4541,78.81956,121.1811,75.22935 M,0,143988,144027,121.1811,75.22935,92.90816,71.63913 F,15,144027,144639,1,0 S,15,144027,144639,0.75,0.2 M,0,144792,,368,242 C,0,144792,,196,255,136 F,15,144792,145404,1,0 S,15,144792,145404,0.75,0.2 P,0,144792,145404,A M,0,146476,,576,250 C,0,146476,,128,255,255 F,15,146476,147088,1,0 S,15,146476,147088,0.75,0.2 P,0,146476,147088,A M,0,149384,,177,130 F,0,149384,,1 S,0,149384,,0.75 C,0,149384,,196,255,136 M,0,149384,149422,177,130,182.4398,157.976 P,0,149384,150072,A M,0,149422,149460,182.4398,157.976,187.8796,185.9521 F,15,149460,150072,1,0 S,15,149460,150072,0.75,0.2 M,0,151986,,197,136 C,0,151986,,255,228,147 F,15,151986,152598,1,0 S,15,151986,152598,0.75,0.2 P,0,151986,152598,A M,0,153670,,562,64 C,0,153670,,196,255,136 F,15,153670,154282,1,0 S,15,153670,154282,0.75,0.2 P,0,153670,154282,A M,0,154588,,209,345 F,0,154588,,1 S,0,154588,,0.75 C,0,154588,,255,228,147 M,0,154588,154626,209,345,237.3128,347.7945 P,0,154588,155276,A M,0,154626,154664,237.3128,347.7945,264.6916,355.4776 F,15,154664,155276,1,0 S,15,154664,155276,0.75,0.2 M,0,156884,,74,102 C,0,156884,,255,228,147 F,15,156884,157496,1,0 S,15,156884,157496,0.75,0.2 P,0,156884,157496,A
Sprite,Foreground,Centre,"sb\hl.png",0,0 M,0,144639,,111,146 F,0,144639,,1 S,0,144639,,0.75 C,0,144639,,196,255,136 M,0,144639,144677,111,146,145.071,156.3546 P,0,144639,145327,A M,0,144677,144715,145.071,156.3546,178.0316,169.825 F,15,144715,145327,1,0 S,15,144715,145327,0.75,0.2 M,0,149690,,422,440 C,0,149690,,255,228,147 F,15,149690,150302,1,0 S,15,149690,150302,0.75,0.2 P,0,149690,150302,A M,0,154741,,352,433 C,0,154741,,255,228,147 F,15,154741,155353,1,0 S,15,154741,155353,0.75,0.2 P,0,154741,155353,A M,0,157037,,172,84 F,0,157037,,1 S,0,157037,,0.75 C,0,157037,,128,255,255 M,0,157037,157075,172,84,174.3767,95.63195 P,0,157037,157878,A M,0,157075,157113,174.3767,95.63195,176.3399,107.3396 M,0,157113,157151,176.3399,107.3396,178.0019,119.0956 M,0,157151,157190,178.0019,119.0956,179.0463,130.9217 M,0,157190,157228,179.0463,130.9217,179.6714,142.7763 M,0,157228,157266,179.6714,142.7763,180,154 F,15,157266,157878,1,0 S,15,157266,157878,0.75,0.2
Sprite,Foreground,Centre,"sb\hl.png",0,0 M,0,149767,,478,428 C,0,149767,,255,228,147 F,15,149767,150379,1,0 S,15,149767,150379,0.75,0.2 P,0,149767,150379,A
Sprite,Foreground,Centre,"sb\hl.png",0,0 M,0,149843,,528,396 C,0,149843,,255,228,147 F,15,149843,150455,1,0 S,15,149843,150455,0.75,0.2 P,0,149843,150455,A
Sprite,Foreground,Centre,"sb\hl.png",0,0 M,0,203874,,195,410 F,0,203874,,1 S,0,203874,,0.75 C,0,203874,,196,255,136 M,0,203874,203912,195,410,223.9884,399.3846 P,0,203874,204715,A M,0,203912,203950,223.9884,399.3846,253.4324,390.1113 M,0,203950,203988,253.4324,390.1113,283.2841,382.2476 M,0,203988,204027,283.2841,382.2476,313.4763,375.8112 M,0,204027,204065,313.4763,375.8112,343.9409,370.8169 M,0,204065,204103,343.9409,370.8169,374.6139,367.3296 F,15,204103,204715,1,0 S,15,204103,204715,0.75,0.2 M,0,204792,,256,161 C,0,204792,,255,183,219 F,15,204792,205404,1,0 S,15,204792,205404,0.75,0.2 P,0,204792,205404,A M,0,205557,,263,233 C,0,205557,,255,228,147 F,15,205557,206169,1,0 S,15,205557,206169,0.75,0.2 P,0,205557,206169,A M,0,206170,,373,232 C,0,206170,,255,183,219 F,15,206170,206782,1,0 S,15,206170,206782,0.75,0.2 P,0,206170,206782,A M,0,206935,,64,380 C,0,206935,,128,255,255 F,15,206935,207547,1,0 S,15,206935,207547,0.75,0.2 P,0,206935,207547,A M,0,207700,,537,404 C,0,207700,,196,255,136 F,15,207700,208312,1,0 S,15,207700,208312,0.75,0.2 P,0,207700,208312,A M,0,208313,,275,60 C,0,208313,,128,255,255 F,15,208313,208925,1,0 S,15,208313,208925,0.75,0.2 P,0,208313,208925,A M,0,209078,,568,258 C,0,209078,,196,255,136 F,15,209078,209690,1,0 S,15,209078,209690,0.75,0.2 P,0,209078,209690,A M,0,209843,,151,61 F,0,209843,,1 S,0,209843,,0.75 C,0,209843,,255,183,219 M,0,209843,209881,151,61,154.7145,89.2569 P,0,209843,210684,A M,0,209881,209919,154.7145,89.2569,158.429,117.5138 M,0,209919,209957,158.429,117.5138,162.1436,145.7707 M,0,209957,209996,162.1436,145.7707,165.8581,174.0276 M,0,209996,210034,165.8581,174.0276,169.5726,202.2845 M,0,210034,210072,169.5726,202.2845,173.2871,230.5414 F,15,210072,210684,1,0 S,15,210072,210684,0.75,0.2
Sprite,Foreground,Centre,"sb\hl.png",0,0 M,0,204180,,459,379 C,0,204180,,255,228,147 F,15,204180,204792,1,0 S,15,204180,204792,0.75,0.2 P,0,204180,204792,A M,0,204945,,533,274 C,0,204945,,255,183,219 F,15,204945,205557,1,0 S,15,204945,205557,0.75,0.2 P,0,204945,205557,A M,0,205710,,526,185 C,0,205710,,128,255,255 F,15,205710,206322,1,0 S,15,205710,206322,0.75,0.2 P,0,205710,206322,A M,0,206323,,139,83 F,0,206323,,1 S,0,206323,,0.75 C,0,206323,,196,255,136 M,0,206323,206361,139,83,111.4705,75.62602 P,0,206323,207088,A M,0,206361,206399,111.4705,75.62602,83.94096,68.25204 M,0,206399,206437,83.94096,68.25204,73.16134,93.70747 M,0,206437,206476,73.16134,93.70747,62.97449,120.3247 F,15,206476,207088,1,0 S,15,206476,207088,0.75,0.2 M,0,207241,,137,195 C,0,207241,,255,183,219 F,15,207241,207853,1,0 S,15,207241,207853,0.75,0.2 P,0,207241,207853,A M,0,208006,,551,131 C,0,208006,,255,228,147 F,15,208006,208618,1,0 S,15,208006,208618,0.75,0.2 P,0,208006,208618,A M,0,208772,,438,97 C,0,208772,,255,183,219 F,15,208772,209384,1,0 S,15,208772,209384,0.75,0.2 P,0,208772,209384,A M,0,209537,,275,250 C,0,209537,,255,228,147 F,15,209537,210149,1,0 S,15,209537,210149,0.75,0.2 P,0,209537,210149,A M,0,210302,,489,136 F,0,210302,,1 S,0,210302,,0.75 C,0,210302,,196,255,136 M,0,210302,210340,489,136,492.4094,112.7974 P,0,210302,210990,A M,0,210340,210378,492.4094,112.7974,485,135 F,15,210378,210990,1,0 S,15,210378,210990,0.75,0.2
Sprite,Foreground,Centre,"sb\hl.png",0,0 M,0,204333,,191,209 C,0,204333,,255,228,147 F,15,204333,204945,1,0 S,15,204333,204945,0.75,0.2 P,0,204333,204945,A M,0,205098,,399,56 F,0,205098,,1 S,0,205098,,0.75 C,0,205098,,196,255,136 M,0,205098,205136,399,56,404.6732,83.92964 P,0,205098,205863,A M,0,205136,205174,404.6732,83.92964,410.3464,111.8593 M,0,205174,205212,410.3464,111.8593,416.0196,139.7889 M,0,205212,205251,416.0196,139.7889,421.6928,167.7186 F,15,205251,205863,1,0 S,15,205251,205863,0.75,0.2 M,0,205864,,295,89 C,0,205864,,128,255,255 F,15,205864,206476,1,0 S,15,205864,206476,0.75,0.2 P,0,205864,206476,A M,0,206629,,96,295 C,0,206629,,255,228,147 F,15,206629,207241,1,0 S,15,206629,207241,0.75,0.2 P,0,206629,207241,A M,0,207394,,341,435 F,0,207394,,1 S,0,207394,,0.75 C,0,207394,,196,255,136 M,0,207394,207432,341,435,368.6711,428.1805 P,0,207394,208235,A M,0,207432,207470,368.6711,428.1805,396.4938,422.0098 M,0,207470,207508,396.4938,422.0098,424.4523,416.4873 M,0,207508,207547,424.4523,416.4873,452.5377,411.6502 M,0,207547,207585,452.5377,411.6502,480.7273,407.4645 M,0,207585,207623,480.7273,407.4645,509.0114,403.9721 F,15,207623,208235,1,0 S,15,207623,208235,0.75,0.2 M,0,208389,,230,84 C,0,208389,,128,255,255 F,15,208389,209001,1,0 S,15,208389,209001,0.75,0.2 P,0,208389,209001,A M,0,209231,,355,280 C,0,209231,,196,255,136 F,15,209231,209843,1,0 S,15,209231,209843,0.75,0.2 P,0,209231,209843,A M,0,210149,,149,313 F,0,210149,,1 S,0,210149,,0.75 C,0,210149,,196,255,136 M,0,210149,210187,149,313,147.6664,337.1003 P,0,210149,210837,A M,0,210187,210225,147.6664,337.1003,156.7969,315.3434 F,15,210225,210837,1,0 S,15,210225,210837,0.75,0.2
Sprite,Foreground,Centre,"sb\hl.png",0,0 M,0,204486,,421,167 C,0,204486,,128,255,255 F,15,204486,205098,1,0 S,15,204486,205098,0.75,0.2 P,0,204486,205098,A M,0,205404,,562,102 C,0,205404,,255,228,147 F,15,205404,206016,1,0 S,15,205404,206016,0.75,0.2 P,0,205404,206016,A M,0,206017,,490,56 C,0,206017,,255,183,219 F,15,206017,206629,1,0 S,15,206017,206629,0.75,0.2 P,0,206017,206629,A M,0,206782,,234,238 C,0,206782,,255,228,147 F,15,206782,207394,1,0 S,15,206782,207394,0.75,0.2 P,0,206782,207394,A M,0,207853,,374,302 C,0,207853,,196,255,136 F,15,207853,208465,1,0 S,15,207853,208465,0.75,0.2 P,0,207853,208465,A M,0,208466,,243,133 F,0,208466,,1 S,0,208466,,0.75 C,0,208466,,128,255,255 M,0,208466,208504,243,133,270.2587,124.6867 P,0,208466,209307,A M,0,208504,208542,270.2587,124.6867,297.7698,117.2528 M,0,208542,208580,297.7698,117.2528,325.5017,110.691 M,0,208580,208619,325.5017,110.691,353.44,105.0714 M,0,208619,208657,353.44,105.0714,381.5401,100.3264 M,0,208657,208695,381.5401,100.3264,409.7861,96.54507 F,15,208695,209307,1,0 S,15,208695,209307,0.75,0.2 M,0,209384,,498,426 C,0,209384,,255,228,147 F,15,209384,209996,1,0 S,15,209384,209996,0.75,0.2 P,0,209384,209996,A
Sprite,Foreground,Centre,"sb\hl.png",0,0 M,0,204639,,277,428 C,0,204639,,128,255,255 F,15,204639,205251,1,0 S,15,204639,205251,0.75,0.2 P,0,204639,205251,A M,0,207088,,311,282 C,0,207088,,128,255,255 F,15,207088,207700,1,0 S,15,207088,207700,0.75,0.2 P,0,207088,207700,A M,0,208083,,568,153 C,0,208083,,255,228,147 F,15,208083,208695,1,0 S,15,208083,208695,0.75,0.2 P,0,208083,208695,A M,0,208925,,341,196 C,0,208925,,255,183,219 F,15,208925,209537,1,0 S,15,208925,209537,0.75,0.2 P,0,208925,209537,A M,0,209690,,510,162 C,0,209690,,128,255,255 F,15,209690,210302,1,0 S,15,209690,210302,0.75,0.2 P,0,209690,210302,A
Sprite,Foreground,Centre,"sb\hl.png",0,0 M,0,208159,,564,181 F,0,208159,,1 S,0,208159,,0.75 C,0,208159,,255,228,147 M,0,208159,208197,564,181,537.6252,170.2533 P,0,208159,208847,A M,0,208197,208235,537.6252,170.2533,510.265,162.3632 F,15,208235,208847,1,0 S,15,208235,208847,0.75,0.2
Sprite,Foreground,Centre,"sb\hl.png",0,0 M,0,235710,,152,186 C,0,235710,,128,255,255 F,15,235710,236322,1,0 S,15,235710,236322,0.75,0.2 P,0,235710,236322,A M,0,236323,,224,139 F,0,236323,,1 S,0,236323,,0.75 C,0,236323,,196,255,136 M,0,236323,236361,224,139,201.846,111.6815 P,0,236323,237088,A M,0,236361,236399,201.846,111.6815,169.4852,98.13115 M,0,236399,236437,169.4852,98.13115,134.5428,101.3249 M,0,236437,236476,134.5428,101.3249,105.5677,121.1433 F,15,236476,237088,1,0 S,15,236476,237088,0.75,0.2 M,0,237241,,493,138 F,0,237241,,1 S,0,237241,,0.75 C,0,237241,,255,183,219 M,0,237241,237279,493,138,521.0869,136.6464 P,0,237241,238006,A M,0,237279,237317,521.0869,136.6464,546.6741,148.066 M,0,237317,237355,546.6741,148.066,564.4283,169.7143 M,0,237355,237394,564.4283,169.7143,569.914,197.2004 F,15,237394,238006,1,0 S,15,237394,238006,0.75,0.2 M,0,238159,,74,332 F,0,238159,,1 S,0,238159,,0.75 C,0,238159,,255,228,147 M,0,238159,238197,74,332,79.94238,304.1271 P,0,238159,239000,A M,0,238197,238235,79.94238,304.1271,85.35611,276.1467 M,0,238235,238273,85.35611,276.1467,90.17274,248.0573 M,0,238273,238312,90.17274,248.0573,94.45531,219.8816 M,0,238312,238350,94.45531,219.8816,98.13841,191.6213 M,0,238350,238388,98.13841,191.6213,101.2851,163.2962 F,15,238388,239000,1,0 S,15,238388,239000,0.75,0.2 M,0,239001,,179,338 C,0,239001,,128,255,255 F,15,239001,239613,1,0 S,15,239001,239613,0.75,0.2 P,0,239001,239613,A M,0,239690,,227,118 F,0,239690,,1 S,0,239690,,0.75 C,0,239690,,255,183,219 M,0,239690,239728,227,118,199.3253,111.1911 P,0,239690,240455,A M,0,239728,239766,199.3253,111.1911,171.6506,104.3823 M,0,239766,239804,171.6506,104.3823,143.9759,97.57343 M,0,239804,239843,143.9759,97.57343,116.3012,90.76457 F,15,239843,240455,1,0 S,15,239843,240455,0.75,0.2 M,0,240761,,481,363 C,0,240761,,255,228,147 F,15,240761,241373,1,0 S,15,240761,241373,0.75,0.2 P,0,240761,241373,A M,0,241374,,338,182 C,0,241374,,255,228,147 F,15,241374,241986,1,0 S,15,241374,241986,0.75,0.2 P,0,241374,241986,A M,0,242139,,412,261 C,0,242139,,128,255,255 F,15,242139,242751,1,0 S,15,242139,242751,0.75,0.2 P,0,242139,242751,A M,0,242904,,331,218 C,0,242904,,255,183,219 F,15,242904,243516,1,0 S,15,242904,243516,0.75,0.2 P,0,242904,243516,A M,0,243517,,379,68 C,0,243517,,255,228,147 F,15,243517,244129,1,0 S,15,243517,244129,0.75,0.2 P,0,243517,244129,A M,0,244282,,289,164 C,0,244282,,196,255,136 F,15,244282,244894,1,0 S,15,244282,244894,0.75,0.2 P,0,244282,244894,A M,0,244971,,287,440 C,0,244971,,128,255,255 F,15,244971,245583,1,0 S,15,244971,245583,0.75,0.2 P,0,244971,245583,A M,0,245659,,101,101 C,0,245659,,224,224,224 F,15,245659,246271,1,0 S,15,245659,246271,0.75,0.2 P,0,245659,246271,A M,0,246348,,490,119 F,0,246348,,1 S,0,246348,,0.75 C,0,246348,,255,183,219 M,0,246348,246386,490,119,477.9728,96.11646 P,0,246348,247113,A M,0,246386,246424,477.9728,96.11646,453.2283,100.5668 M,0,246424,246462,453.2283,100.5668,449.622,125.4017 M,0,246462,246501,449.622,125.4017,473.3266,136.2116 F,15,246501,247113,1,0 S,15,246501,247113,0.75,0.2 M,0,247343,,521,436 C,0,247343,,255,228,147 F,15,247343,247955,1,0 S,15,247343,247955,0.75,0.2 P,0,247343,247955,A M,0,248261,,98,169 F,0,248261,,1 S,0,248261,,0.75 C,0,248261,,128,255,255 M,0,248261,248299,98,169,78.85327,147.8895 P,0,248261,249026,A M,0,248299,248337,78.85327,147.8895,59.70655,126.779 M,0,248337,248375,59.70655,126.779,67.67992,99.96026 M,0,248375,248414,67.67992,99.96026,76.69241,72.92278 F,15,248414,249026,1,0 S,15,248414,249026,0.75,0.2 M,0,249027,,375,221 C,0,249027,,255,183,219 F,15,249027,249639,1,0 S,15,249027,249639,0.75,0.2 P,0,249027,249639,A M,0,249792,,236,282 C,0,249792,,196,255,136 F,15,249792,250404,1,0 S,15,249792,250404,0.75,0.2 P,0,249792,250404,A M,0,250557,,292,373 F,0,250557,,1 S,0,250557,,0.75 C,0,250557,,128,255,255 M,0,250557,250595,292,373,303.9469,405.6475 P,0,250557,251245,A M,0,250595,250633,303.9469,405.6475,333.9357,422.9036 F,15,250633,251245,1,0 S,15,250633,251245,0.75,0.2 M,0,251323,,311,92 C,0,251323,,255,183,219 F,15,251323,251935,1,0 S,15,251323,251935,0.75,0.2 P,0,251323,251935,A M,0,252241,,166,84 C,0,252241,,255,228,147 F,15,252241,252853,1,0 S,15,252241,252853,0.75,0.2 P,0,252241,252853,A M,0,253159,,155,269 C,0,253159,,255,183,219 F,15,253159,253771,1,0 S,15,253159,253771,0.75,0.2 P,0,253159,253771,A M,0,253925,,251,439 C,0,253925,,255,183,219 F,15,253925,254537,1,0 S,15,253925,254537,0.75,0.2 P,0,253925,254537,A M,0,254690,,385,279 F,0,254690,,1 S,0,254690,,0.75 C,0,254690,,196,255,136 M,0,254690,254728,385,279,364.826,267.1872 P,0,254690,255455,A M,0,254728,254766,364.826,267.1872,351.6857,248.0377 M,0,254766,254804,351.6857,248.0377,348.59,224.9956 M,0,254804,254843,348.59,224.9956,356.2318,202.9991 F,15,254843,255455,1,0 S,15,254843,255455,0.75,0.2 M,0,255761,,275,233 F,0,255761,,1 S,0,255761,,0.75 C,0,255761,,255,228,147 M,0,255761,255799,275,233,278.6028,209.5589 P,0,255761,256526,A M,0,255799,255837,278.6028,209.5589,285.2729,186.8148 M,0,255837,255875,285.2729,186.8148,295.0783,165.2345 M,0,255875,255914,295.0783,165.2345,307.8244,145.2473 F,15,255914,256526,1,0 S,15,255914,256526,0.75,0.2 M,0,256527,,181,249 C,0,256527,,128,255,255 F,15,256527,257139,1,0 S,15,256527,257139,0.75,0.2 P,0,256527,257139,A M,0,257445,,304,113 F,0,257445,,1 S,0,257445,,0.75 C,0,257445,,128,255,255 M,0,257445,257483,304,113,298.4901,90.28496 P,0,257445,258210,A M,0,257483,257521,298.4901,90.28496,283.7489,72.35426 M,0,257521,257559,283.7489,72.35426,262.4113,63.2007 M,0,257559,257598,262.4113,63.2007,239.245,64.87706 F,15,257598,258210,1,0 S,15,257598,258210,0.75,0.2 M,0,258287,,368,332 C,0,258287,,196,255,136 F,15,258287,258899,1,0 S,15,258287,258899,0.75,0.2 P,0,258287,258899,A M,0,258976,,174,121 F,0,258976,,1 S,0,258976,,0.75 C,0,258976,,128,255,255 M,0,258976,259014,174,121,198.674,106.8772 P,0,258976,259664,A M,0,259014,259052,198.674,106.8772,225.6582,97.98754 F,15,259052,259664,1,0 S,15,259052,259664,0.75,0.2 M,0,259665,,84,198 C,0,259665,,196,255,136 F,15,259665,260277,1,0 S,15,259665,260277,0.75,0.2 P,0,259665,260277,A M,0,260353,,109,406 C,0,260353,,255,228,147 F,15,260353,260965,1,0 S,15,260353,260965,0.75,0.2 P,0,260353,260965,A M,0,260966,,291,344 C,0,260966,,128,255,255 F,15,260966,261578,1,0 S,15,260966,261578,0.75,0.2 P,0,260966,261578,A M,0,261654,,344,247 C,0,261654,,255,183,219 F,15,261654,262266,1,0 S,15,261654,262266,0.75,0.2 P,0,261654,262266,A M,0,262343,,344,247 F,0,262343,,1 S,0,262343,,0.75 C,0,262343,,255,228,147 M,0,262343,262381,344,247,371.0462,255.2759 P,0,262343,263031,A M,0,262381,262419,371.0462,255.2759,393.3179,272.6113 F,15,262419,263031,1,0 S,15,262419,263031,0.75,0.2 M,0,263108,,145,99 C,0,263108,,255,183,219 F,15,263108,263720,1,0 S,15,263108,263720,0.75,0.2 P,0,263108,263720,A
Sprite,Foreground,Centre,"sb\hl.png",0,0 M,0,235786,,95,198 C,0,235786,,128,255,255 F,15,235786,236398,1,0 S,15,235786,236398,0.75,0.2 P,0,235786,236398,A M,0,236552,,285,280 F,0,236552,,1 S,0,236552,,0.75 C,0,236552,,255,228,147 M,0,236552,236590,285,280,314.3944,295.1013 P,0,236552,237317,A M,0,236590,236628,314.3944,295.1013,349.1416,287.2418 M,0,236628,236666,349.1416,287.2418,383.8889,279.3823 M,0,236666,236705,383.8889,279.3823,402.084,251.2426 F,15,236705,237317,1,0 S,15,236705,237317,0.75,0.2 M,0,237547,,394,176 C,0,237547,,196,255,136 F,15,237547,238159,1,0 S,15,237547,238159,0.75,0.2 P,0,237547,238159,A M,0,238466,,120,84 F,0,238466,,1 S,0,238466,,0.75 C,0,238466,,255,228,147 M,0,238466,238504,120,84,147.1808,76.76997 P,0,238466,239231,A M,0,238504,238542,147.1808,76.76997,174.6247,82.4588 M,0,238542,238580,174.6247,82.4588,196.6804,99.7233 M,0,238580,238619,196.6804,99.7233,208.1089,125.3264 F,15,238619,239231,1,0 S,15,238619,239231,0.75,0.2 M,0,239384,,519,157 C,0,239384,,255,183,219 F,15,239384,239996,1,0 S,15,239384,239996,0.75,0.2 P,0,239384,239996,A M,0,240072,,447,214 C,0,240072,,196,255,136 F,15,240072,240684,1,0 S,15,240072,240684,0.75,0.2 P,0,240072,240684,A M,0,240915,,330,294 C,0,240915,,255,228,147 F,15,240915,241527,1,0 S,15,240915,241527,0.75,0.2 P,0,240915,241527,A M,0,241680,,177,136 C,0,241680,,255,228,147 F,15,241680,242292,1,0 S,15,241680,242292,0.75,0.2 P,0,241680,242292,A M,0,242598,,87,280 C,0,242598,,255,183,219 F,15,242598,243210,1,0 S,15,242598,243210,0.75,0.2 P,0,242598,243210,A M,0,243364,,170,248 C,0,243364,,255,228,147 F,15,243364,243976,1,0 S,15,243364,243976,0.75,0.2 P,0,243364,243976,A M,0,244129,,505,159 C,0,244129,,255,183,219 F,15,244129,244741,1,0 S,15,244129,244741,0.75,0.2 P,0,244129,244741,A M,0,244894,,240,419 C,0,244894,,128,255,255 F,15,244894,245506,1,0 S,15,244894,245506,0.75,0.2 P,0,244894,245506,A M,0,245583,,94,117 C,0,245583,,119,119,119 F,15,245583,246195,1,0 S,15,245583,246195,0.75,0.2 P,0,245583,246195,A M,0,246578,,570,190 C,0,246578,,255,183,219 F,15,246578,247190,1,0 S,15,246578,247190,0.75,0.2 P,0,246578,247190,A M,0,247496,,378,265 C,0,247496,,255,228,147 F,15,247496,248108,1,0 S,15,247496,248108,0.75,0.2 P,0,247496,248108,A M,0,248568,,288,263 F,0,248568,,1 S,0,248568,,0.75 C,0,248568,,255,183,219 M,0,248568,248606,288,263,283.1787,291.0892 P,0,248568,249333,A M,0,248606,248644,283.1787,291.0892,278.3574,319.1785 M,0,248644,248682,278.3574,319.1785,273.5361,347.2677 M,0,248682,248721,273.5361,347.2677,268.7148,375.3569 F,15,248721,249333,1,0 S,15,248721,249333,0.75,0.2 M,0,249486,,112,240 C,0,249486,,196,255,136 F,15,249486,250098,1,0 S,15,249486,250098,0.75,0.2 P,0,249486,250098,A M,0,250251,,534,302 C,0,250251,,255,228,147 F,15,250251,250863,1,0 S,15,250251,250863,0.75,0.2 P,0,250251,250863,A M,0,250864,,171,114 F,0,250864,,1 S,0,250864,,0.75 C,0,250864,,255,183,219 M,0,250864,250902,171,114,176.2532,146.8324 P,0,250864,251782,A M,0,250902,250940,176.2532,146.8324,183.3426,178.2319 M,0,250940,250978,183.3426,178.2319,187.1033,211.1793 M,0,250978,251017,187.1033,211.1793,191.7336,244.1053 M,0,251017,251055,191.7336,244.1053,205.9552,273.3394 M,0,251055,251093,205.9552,273.3394,236.95,281.9211 M,0,251093,251131,236.95,281.9211,262.8806,263.1115 M,0,251131,251170,262.8806,263.1115,264.7708,230.654 F,15,251170,251782,1,0 S,15,251170,251782,0.75,0.2 M,0,251935,,371,288 F,0,251935,,1 S,0,251935,,0.75 C,0,251935,,196,255,136 M,0,251935,251973,371,288,364.1469,257.8952 P,0,251935,252700,A M,0,251973,252011,364.1469,257.8952,357.2937,227.7904 M,0,252011,252049,357.2937,227.7904,350.4406,197.6855 M,0,252049,252088,350.4406,197.6855,343.5875,167.5807 F,15,252088,252700,1,0 S,15,252088,252700,0.75,0.2 M,0,252853,,261,97 F,0,252853,,1 S,0,252853,,0.75 C,0,252853,,255,183,219 M,0,252853,252891,261,97,255.0122,119.9789 P,0,252853,253618,A M,0,252891,252929,255.0122,119.9789,250.0222,143.1935 M,0,252929,252967,250.0222,143.1935,246.1089,166.6143 M,0,252967,253006,246.1089,166.6143,243.2808,190.1919 F,15,253006,253618,1,0 S,15,253006,253618,0.75,0.2 M,0,253619,,161,380 F,0,253619,,1 S,0,253619,,0.75 C,0,253619,,255,183,219 M,0,253619,253657,161,380,138.3702,372.8336 P,0,253619,254384,A M,0,253657,253695,138.3702,372.8336,115.2401,367.5219 M,0,253695,253733,115.2401,367.5219,91.73827,364.2198 M,0,253733,253772,91.73827,364.2198,68.03851,362.9518 F,15,253772,254384,1,0 S,15,253772,254384,0.75,0.2 M,0,254537,,468,341 C,0,254537,,196,255,136 F,15,254537,255149,1,0 S,15,254537,255149,0.75,0.2 P,0,254537,255149,A M,0,255302,,313,62 F,0,255302,,1 S,0,255302,,0.75 C,0,255302,,255,228,147 M,0,255302,255340,313,62,289.9858,67.78882 P,0,255302,256220,A M,0,255340,255378,289.9858,67.78882,268.278,77.32527 M,0,255378,255416,268.278,77.32527,249.4792,91.71336 M,0,255416,255455,249.4792,91.71336,235.9006,111.0729 M,0,255455,255493,235.9006,111.0729,223.1568,130.9708 M,0,255493,255531,223.1568,130.9708,204.3425,145.291 M,0,255531,255569,204.3425,145.291,182.2865,153.9619 M,0,255569,255608,182.2865,153.9619,158.9857,158.4448 F,15,255608,256220,1,0 S,15,255608,256220,0.75,0.2 M,0,256374,,76,346 C,0,256374,,255,228,147 F,15,256374,256986,1,0 S,15,256374,256986,0.75,0.2 P,0,256374,256986,A M,0,257139,,158,157 F,0,257139,,1 S,0,257139,,0.75 C,0,257139,,128,255,255 M,0,257139,257177,158,157,163.1518,180.1836 P,0,257139,257904,A M,0,257177,257215,163.1518,180.1836,168.7991,203.2511 M,0,257215,257253,168.7991,203.2511,174.9712,226.1839 M,0,257253,257292,174.9712,226.1839,181.6649,248.9699 F,15,257292,257904,1,0 S,15,257292,257904,0.75,0.2 M,0,258057,,529,217 C,0,258057,,255,183,219 F,15,258057,258669,1,0 S,15,258057,258669,0.75,0.2 P,0,258057,258669,A M,0,258670,,446,100 F,0,258670,,1 S,0,258670,,0.75 C,0,258670,,255,228,147 M,0,258670,258708,446,100,419.2119,90.41914 P,0,258670,259358,A M,0,258708,258746,419.2119,90.41914,391.1824,85.63114 F,15,258746,259358,1,0 S,15,258746,259358,0.75,0.2 M,0,259435,,118,239 C,0,259435,,196,255,136 F,15,259435,260047,1,0 S,15,259435,260047,0.75,0.2 P,0,259435,260047,A M,0,260200,,115,310 C,0,260200,,255,228,147 F,15,260200,260812,1,0 S,15,260200,260812,0.75,0.2 P,0,260200,260812,A M,0,260889,,262,391 C,0,260889,,128,255,255 F,15,260889,261501,1,0 S,15,260889,261501,0.75,0.2 P,0,260889,261501,A M,0,261578,,390,205 C,0,261578,,255,183,219 F,15,261578,262190,1,0 S,15,261578,262190,0.75,0.2 P,0,261578,262190,A M,0,262266,,274,237 C,0,262266,,196,255,136 F,15,262266,262878,1,0 S,15,262266,262878,0.75,0.2 P,0,262266,262878,A M,0,262955,,402,167 C,0,262955,,255,183,219 F,15,262955,263567,1,0 S,15,262955,263567,0.75,0.2 P,0,262955,263567,A M,0,263568,,375,396 C,0,263568,,255,228,147 F,15,263568,264180,1,0 S,15,263568,264180,0.75,0.2 P,0,263568,264180,A
Sprite,Foreground,Centre,"sb\hl.png",0,0 M,0,235863,,64,246 C,0,235863,,128,255,255 F,15,235863,236475,1,0 S,15,235863,236475,0.75,0.2 P,0,235863,236475,A M,0,236782,,344,56 F,0,236782,,1 S,0,236782,,0.75 C,0,236782,,128,255,255 M,0,236782,236820,344,56,339.7033,91.36494 P,0,236782,237470,A M,0,236820,236858,339.7033,91.36494,335.4066,126.7299 F,15,236858,237470,1,0 S,15,236858,237470,0.75,0.2 M,0,237700,,548,330 C,0,237700,,196,255,136 F,15,237700,238312,1,0 S,15,237700,238312,0.75,0.2 P,0,237700,238312,A M,0,238772,,230,407 F,0,238772,,1 S,0,238772,,0.75 C,0,238772,,128,255,255 M,0,238772,238810,230,407,251.1338,387.879 P,0,238772,239537,A M,0,238810,238848,251.1338,387.879,271.9257,368.6469 M,0,238848,238886,271.9257,368.6469,266.0544,340.7583 M,0,238886,238925,266.0544,340.7583,260.1831,312.8696 F,15,238925,239537,1,0 S,15,238925,239537,0.75,0.2 M,0,239996,,414,259 C,0,239996,,196,255,136 F,15,239996,240608,1,0 S,15,239996,240608,0.75,0.2 P,0,239996,240608,A M,0,241068,,455,182 F,0,241068,,1 S,0,241068,,0.75 C,0,241068,,255,228,147 M,0,241068,241106,455,182,481.5445,191.3595 P,0,241068,241833,A M,0,241106,241144,481.5445,191.3595,501.7758,210.9717 M,0,241144,241182,501.7758,210.9717,510.5088,237.7264 M,0,241182,241221,510.5088,237.7264,507.2651,265.7154 F,15,241221,241833,1,0 S,15,241221,241833,0.75,0.2 M,0,241986,,149,364 C,0,241986,,128,255,255 F,15,241986,242598,1,0 S,15,241986,242598,0.75,0.2 P,0,241986,242598,A M,0,242751,,228,331 C,0,242751,,255,183,219 F,15,242751,243363,1,0 S,15,242751,243363,0.75,0.2 P,0,242751,243363,A M,0,243670,,372,286 C,0,243670,,128,255,255 F,15,243670,244282,1,0 S,15,243670,244282,0.75,0.2 P,0,243670,244282,A M,0,244358,,265,179 C,0,244358,,196,255,136 F,15,244358,244970,1,0 S,15,244358,244970,0.75,0.2 P,0,244358,244970,A M,0,245047,,340,438 C,0,245047,,128,255,255 F,15,245047,245659,1,0 S,15,245047,245659,0.75,0.2 P,0,245047,245659,A M,0,245736,,79,111 C,0,245736,,119,119,119 F,15,245736,246348,1,0 S,15,245736,246348,0.75,0.2 P,0,245736,246348,A M,0,246731,,369,145 C,0,246731,,196,255,136 F,15,246731,247343,1,0 S,15,246731,247343,0.75,0.2 P,0,246731,247343,A M,0,247649,,473,136 F,0,247649,,1 S,0,247649,,0.75 C,0,247649,,255,228,147 M,0,247649,247687,473,136,485.5521,161.587 P,0,247649,248414,A M,0,247687,247725,485.5521,161.587,498.1042,187.174 M,0,247725,247763,498.1042,187.174,485.1024,211.5236 M,0,247763,247802,485.1024,211.5236,470.1369,235.7781 F,15,247802,248414,1,0 S,15,247802,248414,0.75,0.2 M,0,248797,,214,440 C,0,248797,,255,183,219 F,15,248797,249409,1,0 S,15,248797,249409,0.75,0.2 P,0,248797,249409,A M,0,249639,,296,83 C,0,249639,,196,255,136 F,15,249639,250251,1,0 S,15,249639,250251,0.75,0.2 P,0,249639,250251,A M,0,250328,,534,302 C,0,250328,,255,228,147 F,15,250328,250940,1,0 S,15,250328,250940,0.75,0.2 P,0,250328,250940,A M,0,251476,,64,344 F,0,251476,,1 S,0,251476,,0.75 C,0,251476,,196,255,136 M,0,251476,251514,64,344,49.93627,322.9035 P,0,251476,252394,A M,0,251514,251552,49.93627,322.9035,79.44595,331.9834 M,0,251552,251590,79.44595,331.9834,103.3772,340.4474 M,0,251590,251629,103.3772,340.4474,131.7558,352.6096 M,0,251629,251667,131.7558,352.6096,143.9563,379.8002 M,0,251667,251705,143.9563,379.8002,160.126,405.9951 M,0,251705,251743,160.126,405.9951,183.148,426.3806 M,0,251743,251782,183.148,426.3806,211.191,439.0556 F,15,251782,252394,1,0 S,15,251782,252394,0.75,0.2 M,0,252470,,64,165 C,0,252470,,255,228,147 F,15,252470,253082,1,0 S,15,252470,253082,0.75,0.2 P,0,252470,253082,A M,0,253313,,155,269 F,0,253313,,1 S,0,253313,,0.75 C,0,253313,,255,183,219 M,0,253313,253351,155,269,177.1836,261.968 P,0,253313,254078,A M,0,253351,253389,177.1836,261.968,199.8827,266.1953 M,0,253389,253427,199.8827,266.1953,217.4725,281.2618 M,0,253427,253466,217.4725,281.2618,225.1889,303.2113 F,15,253466,254078,1,0 S,15,253466,254078,0.75,0.2 M,0,254231,,318,359 C,0,254231,,196,255,136 F,15,254231,254843,1,0 S,15,254231,254843,0.75,0.2 P,0,254231,254843,A M,0,254996,,428,125 F,0,254996,,1 S,0,254996,,0.75 C,0,254996,,196,255,136 M,0,254996,255034,428,125,450.1832,133.4496 P,0,254996,255761,A M,0,255034,255072,450.1832,133.4496,472.9588,140.1223 M,0,255072,255110,472.9588,140.1223,496.2148,144.8598 M,0,255110,255149,496.2148,144.8598,519.784,147.6878 F,15,255149,255761,1,0 S,15,255149,255761,0.75,0.2 M,0,256068,,125,70 F,0,256068,,1 S,0,256068,,0.75 C,0,256068,,255,228,147 M,0,256068,256106,125,70,137.3423,90.25635 P,0,256068,256833,A M,0,256106,256144,137.3423,90.25635,147.1481,111.8431 M,0,256144,256182,147.1481,111.8431,154.0906,134.5198 M,0,256182,256221,154.0906,134.5198,158,157 F,15,256221,256833,1,0 S,15,256221,256833,0.75,0.2 M,0,256986,,280,307 C,0,256986,,128,255,255 F,15,256986,257598,1,0 S,15,256986,257598,0.75,0.2 P,0,256986,257598,A M,0,257751,,333,249 F,0,257751,,1 S,0,257751,,0.75 C,0,257751,,255,183,219 M,0,257751,257789,333,249,360.3618,241.0341 P,0,257751,258592,A M,0,257789,257827,360.3618,241.0341,387.9817,234.0153 M,0,257827,257865,387.9817,234.0153,415.8525,228.0706 M,0,257865,257904,415.8525,228.0706,443.912,223.0925 M,0,257904,257942,443.912,223.0925,472.1427,219.2009 M,0,257942,257980,472.1427,219.2009,500.4913,216.2902 F,15,257980,258592,1,0 S,15,257980,258592,0.75,0.2 M,0,258593,,455,85 C,0,258593,,255,228,147 F,15,258593,259205,1,0 S,15,258593,259205,0.75,0.2 P,0,258593,259205,A M,0,259282,,467,175 F,0,259282,,1 S,0,259282,,0.75 C,0,259282,,255,183,219 M,0,259282,259320,467,175,438.7941,171.3413 P,0,259282,259970,A M,0,259320,259358,438.7941,171.3413,411.8435,162.298 F,15,259358,259970,1,0 S,15,259358,259970,0.75,0.2 M,0,260047,,379,238 F,0,260047,,1 S,0,260047,,0.75 C,0,260047,,196,255,136 M,0,260047,260085,379,238,361.9781,215.3566 P,0,260047,260735,A M,0,260085,260123,361.9781,215.3566,338.8252,199.1135 F,15,260123,260735,1,0 S,15,260123,260735,0.75,0.2 M,0,260736,,314,393 C,0,260736,,255,228,147 F,15,260736,261348,1,0 S,15,260736,261348,0.75,0.2 P,0,260736,261348,A M,0,261425,,512,199 C,0,261425,,255,183,219 F,15,261425,262037,1,0 S,15,261425,262037,0.75,0.2 P,0,261425,262037,A M,0,262113,,164,317 C,0,262113,,196,255,136 F,15,262113,262725,1,0 S,15,262113,262725,0.75,0.2 P,0,262113,262725,A M,0,263261,,198,322 C,0,263261,,196,255,136 F,15,263261,263873,1,0 S,15,263261,263873,0.75,0.2 P,0,263261,263873,A
Sprite,Foreground,Centre,"sb\hl.png",0,0 M,0,235939,,76,303 C,0,235939,,128,255,255 F,15,235939,236551,1,0 S,15,235939,236551,0.75,0.2 P,0,235939,236551,A M,0,236935,,464,388 F,0,236935,,1 S,0,236935,,0.75 C,0,236935,,255,183,219 M,0,236935,236973,464,388,467.33,359.6952 P,0,236935,237776,A M,0,236973,237011,467.33,359.6952,470.6599,331.3904 M,0,237011,237049,470.6599,331.3904,473.9899,303.0856 M,0,237049,237088,473.9899,303.0856,477.3199,274.7808 M,0,237088,237126,477.3199,274.7808,480.6499,246.476 M,0,237126,237164,480.6499,246.476,483.9799,218.1712 F,15,237164,237776,1,0 S,15,237164,237776,0.75,0.2 M,0,237853,,342,430 F,0,237853,,1 S,0,237853,,0.75 C,0,237853,,196,255,136 M,0,237853,237891,342,430,315.1169,420.5793 P,0,237853,238618,A M,0,237891,237929,315.1169,420.5793,287.526,413.4927 M,0,237929,237967,287.526,413.4927,259.3848,409.0783 M,0,237967,238006,259.3848,409.0783,230.9682,407.0873 F,15,238006,238618,1,0 S,15,238006,238618,0.75,0.2 M,0,239078,,179,338 C,0,239078,,128,255,255 F,15,239078,239690,1,0 S,15,239078,239690,0.75,0.2 P,0,239078,239690,A M,0,240149,,449,158 C,0,240149,,196,255,136 F,15,240149,240761,1,0 S,15,240149,240761,0.75,0.2 P,0,240149,240761,A M,0,241527,,400,86 C,0,241527,,255,228,147 F,15,241527,242139,1,0 S,15,241527,242139,0.75,0.2 P,0,241527,242139,A M,0,242292,,334,424 F,0,242292,,1 S,0,242292,,0.75 C,0,242292,,128,255,255 M,0,242292,242330,334,424,305.915,419.1991 P,0,242292,243057,A M,0,242330,242368,305.915,419.1991,277.5771,416.2538 M,0,242368,242406,277.5771,416.2538,249.108,415.1673 M,0,242406,242445,249.108,415.1673,220.6261,415.9655 F,15,242445,243057,1,0 S,15,242445,243057,0.75,0.2 M,0,243823,,225,85 C,0,243823,,128,255,255 F,15,243823,244435,1,0 S,15,243823,244435,0.75,0.2 P,0,243823,244435,A M,0,244588,,521,337 C,0,244588,,255,228,147 F,15,244588,245200,1,0 S,15,244588,245200,0.75,0.2 P,0,244588,245200,A M,0,245277,,418,294 C,0,245277,,128,255,255 F,15,245277,245889,1,0 S,15,245277,245889,0.75,0.2 P,0,245277,245889,A M,0,246119,,379,237 F,0,246119,,1 S,0,246119,,0.75 C,0,246119,,255,183,219 M,0,246119,246157,379,237,405.0401,248.2013 P,0,246119,246884,A M,0,246157,246195,405.0401,248.2013,433.1782,251.2786 M,0,246195,246233,433.1782,251.2786,461.0045,246.1042 M,0,246233,246272,461.0045,246.1042,485.8951,232.6087 F,15,246272,246884,1,0 S,15,246272,246884,0.75,0.2 M,0,247037,,330,434 F,0,247037,,1 S,0,247037,,0.75 C,0,247037,,196,255,136 M,0,247037,247075,330,434,331.3398,406.009 P,0,247037,247802,A M,0,247075,247113,331.3398,406.009,346.6533,382.7002 M,0,247113,247151,346.6533,382.7002,371.5269,369.9325 M,0,247151,247190,371.5269,369.9325,399.3775,372.577 F,15,247190,247802,1,0 S,15,247190,247802,0.75,0.2 M,0,247955,,310,70 F,0,247955,,1 S,0,247955,,0.75 C,0,247955,,128,255,255 M,0,247955,247993,310,70,281.7869,74.02588 P,0,247955,248796,A M,0,247993,248031,281.7869,74.02588,253.4507,77.05972 M,0,248031,248069,253.4507,77.05972,228.0708,87.44827 M,0,248069,248108,228.0708,87.44827,202.7042,97.59763 M,0,248108,248146,202.7042,97.59763,174.3573,100.4986 M,0,248146,248184,174.3573,100.4986,146.2055,104.9248 F,15,248184,248796,1,0 S,15,248184,248796,0.75,0.2 M,0,248874,,214,440 C,0,248874,,255,183,219 F,15,248874,249486,1,0 S,15,248874,249486,0.75,0.2 P,0,248874,249486,A M,0,249945,,454,140 C,0,249945,,255,228,147 F,15,249945,250557,1,0 S,15,249945,250557,0.75,0.2 P,0,249945,250557,A M,0,250710,,409,321 C,0,250710,,128,255,255 F,15,250710,251322,1,0 S,15,250710,251322,0.75,0.2 P,0,250710,251322,A M,0,252317,,110,75 C,0,252317,,255,228,147 F,15,252317,252929,1,0 S,15,252317,252929,0.75,0.2 P,0,252317,252929,A M,0,254001,,251,439 C,0,254001,,255,183,219 F,15,254001,254613,1,0 S,15,254001,254613,0.75,0.2 P,0,254001,254613,A M,0,256680,,64,241 C,0,256680,,128,255,255 F,15,256680,257292,1,0 S,15,256680,257292,0.75,0.2 P,0,256680,257292,A M,0,258210,,368,332 C,0,258210,,196,255,136 F,15,258210,258822,1,0 S,15,258210,258822,0.75,0.2 P,0,258210,258822,A M,0,258823,,161,72 C,0,258823,,128,255,255 F,15,258823,259435,1,0 S,15,258823,259435,0.75,0.2 P,0,258823,259435,A M,0,259511,,85,251 C,0,259511,,196,255,136 F,15,259511,260123,1,0 S,15,259511,260123,0.75,0.2 P,0,259511,260123,A M,0,260276,,87,356 C,0,260276,,255,228,147 F,15,260276,260888,1,0 S,15,260276,260888,0.75,0.2 P,0,260276,260888,A M,0,261042,,334,309 C,0,261042,,128,255,255 F,15,261042,261654,1,0 S,15,261042,261654,0.75,0.2 P,0,261042,261654,A M,0,261731,,334,309 C,0,261731,,255,183,219 F,15,261731,262343,1,0 S,15,261731,262343,0.75,0.2 P,0,261731,262343,A M,0,262496,,318,433 F,0,262496,,1 S,0,262496,,0.75 C,0,262496,,255,228,147 M,0,262496,262534,318,433,291.0744,424.264 P,0,262496,263184,A M,0,262534,262572,291.0744,424.264,268.6968,407.0167 F,15,262572,263184,1,0 S,15,262572,263184,0.75,0.2 M,0,263415,,424,56 C,0,263415,,196,255,136 F,15,263415,264027,1,0 S,15,263415,264027,0.75,0.2 P,0,263415,264027,A
Sprite,Foreground,Centre,"sb\hl.png",0,0 M,0,236017,,124,334 F,0,236017,,1 S,0,236017,,0.75 C,0,236017,,255,183,219 M,0,236017,236055,124,334,135.6287,331.5941 P,0,236017,236858,A M,0,236055,236093,135.6287,331.5941,147.2574,329.1881 M,0,236093,236131,147.2574,329.1881,158.8862,326.7822 M,0,236131,236170,158.8862,326.7822,170.5149,324.3762 M,0,236170,236208,170.5149,324.3762,182.1436,321.9703 M,0,236208,236246,182.1436,321.9703,193.7723,319.5644 F,15,236246,236858,1,0 S,15,236246,236858,0.75,0.2 M,0,239231,,393,404 C,0,239231,,128,255,255 F,15,239231,239843,1,0 S,15,239231,239843,0.75,0.2 P,0,239231,239843,A M,0,240225,,419,111 C,0,240225,,196,255,136 F,15,240225,240837,1,0 S,15,240225,240837,0.75,0.2 P,0,240225,240837,A M,0,241833,,401,259 C,0,241833,,128,255,255 F,15,241833,242445,1,0 S,15,241833,242445,0.75,0.2 P,0,241833,242445,A M,0,243057,,127,56 F,0,243057,,1 S,0,243057,,0.75 C,0,243057,,196,255,136 M,0,243057,243095,127,56,132.992,83.86298 P,0,243057,243898,A M,0,243095,243133,132.992,83.86298,138.9841,111.726 M,0,243133,243171,138.9841,111.726,144.9761,139.5889 M,0,243171,243210,144.9761,139.5889,150.9682,167.4519 M,0,243210,243248,150.9682,167.4519,156.9602,195.3149 M,0,243248,243286,156.9602,195.3149,162.9522,223.1779 F,15,243286,243898,1,0 S,15,243286,243898,0.75,0.2 M,0,243976,,253,355 C,0,243976,,255,183,219 F,15,243976,244588,1,0 S,15,243976,244588,0.75,0.2 P,0,243976,244588,A M,0,244665,,562,377 C,0,244665,,255,228,147 F,15,244665,245277,1,0 S,15,244665,245277,0.75,0.2 P,0,244665,245277,A M,0,245353,,379,237 F,0,245353,,1 S,0,245353,,0.75 C,0,245353,,128,255,255 M,0,245353,245391,379,237,354.3438,222.8797 P,0,245353,246041,A M,0,245391,245429,354.3438,222.8797,327.1321,214.7895 F,15,245429,246041,1,0 S,15,245429,246041,0.75,0.2 M,0,246884,,495,327 C,0,246884,,196,255,136 F,15,246884,247496,1,0 S,15,246884,247496,0.75,0.2 P,0,246884,247496,A M,0,249180,,97,92 F,0,249180,,1 S,0,249180,,0.75 C,0,249180,,196,255,136 M,0,249180,249218,97,92,76.039,73.17613 P,0,249180,250021,A M,0,249218,249256,76.039,73.17613,82.20047,101.0021 M,0,249256,249294,82.20047,101.0021,88.36194,128.8281 M,0,249294,249333,88.36194,128.8281,94.52341,156.6541 M,0,249333,249371,94.52341,156.6541,100.6849,184.4801 M,0,249371,249409,100.6849,184.4801,106.8464,212.3061 F,15,249409,250021,1,0 S,15,249409,250021,0.75,0.2 M,0,250022,,473,98 C,0,250022,,255,228,147 F,15,250022,250634,1,0 S,15,250022,250634,0.75,0.2 P,0,250022,250634,A M,0,252394,,67,110 C,0,252394,,255,228,147 F,15,252394,253006,1,0 S,15,252394,253006,0.75,0.2 P,0,252394,253006,A M,0,254078,,251,439 C,0,254078,,196,255,136 F,15,254078,254690,1,0 S,15,254078,254690,0.75,0.2 P,0,254078,254690,A M,0,256833,,183,367 C,0,256833,,128,255,255 F,15,256833,257445,1,0 S,15,256833,257445,0.75,0.2 P,0,256833,257445,A M,0,258364,,368,332 C,0,258364,,196,255,136 F,15,258364,258976,1,0 S,15,258364,258976,0.75,0.2 P,0,258364,258976,A M,0,259129,,454,246 C,0,259129,,255,183,219 F,15,259129,259741,1,0 S,15,259129,259741,0.75,0.2 P,0,259129,259741,A M,0,259894,,238,299 F,0,259894,,1 S,0,259894,,0.75 C,0,259894,,196,255,136 M,0,259894,259932,238,299,248.774,272.7971 P,0,259894,260582,A M,0,259932,259970,248.774,272.7971,251.0107,244.5984 F,15,259970,260582,1,0 S,15,259970,260582,0.75,0.2 M,0,260583,,237,335 C,0,260583,,255,228,147 F,15,260583,261195,1,0 S,15,260583,261195,0.75,0.2 P,0,260583,261195,A M,0,261272,,495,303 C,0,261272,,128,255,255 F,15,261272,261884,1,0 S,15,261272,261884,0.75,0.2 P,0,261272,261884,A M,0,261960,,207,414 C,0,261960,,255,183,219 F,15,261960,262572,1,0 S,15,261960,262572,0.75,0.2 P,0,261960,262572,A M,0,262649,,160,207 F,0,262649,,1 S,0,262649,,0.75 C,0,262649,,128,255,255 M,0,262649,262687,160,207,188.12,202.3616 P,0,262649,263490,A M,0,262687,262725,188.12,202.3616,216.2401,197.7233 M,0,262725,262763,216.2401,197.7233,244.3601,193.0849 M,0,262763,262802,244.3601,193.0849,272.4801,188.4466 M,0,262802,262840,272.4801,188.4466,300.6001,183.8082 M,0,262840,262878,300.6001,183.8082,328.7202,179.1699 F,15,262878,263490,1,0 S,15,262878,263490,0.75,0.2
Sprite,Foreground,Centre,"sb\hl.png",0,0 M,0,239537,,341,302 C,0,239537,,255,183,219 F,15,239537,240149,1,0 S,15,239537,240149,0.75,0.2 P,0,239537,240149,A M,0,240302,,367,89 C,0,240302,,196,255,136 F,15,240302,240914,1,0 S,15,240302,240914,0.75,0.2 P,0,240302,240914,A M,0,244435,,271,207 F,0,244435,,1 S,0,244435,,0.75 C,0,244435,,196,255,136 M,0,244435,244473,271,207,299.3517,209.692 P,0,244435,245123,A M,0,244473,244511,299.3517,209.692,327.2393,215.4408 F,15,244511,245123,1,0 S,15,244511,245123,0.75,0.2 M,0,245124,,389,409 C,0,245124,,128,255,255 F,15,245124,245736,1,0 S,15,245124,245736,0.75,0.2 P,0,245124,245736,A M,0,245813,,78,196 F,0,245813,,1 S,0,245813,,0.75 C,0,245813,,128,255,255 M,0,245813,245851,78,196,111.1067,196.9696 P,0,245813,246654,A M,0,245851,245889,111.1067,196.9696,141.8991,185.2694 M,0,245889,245927,141.8991,185.2694,164.09,160.8502 M,0,245927,245966,164.09,160.8502,186.5643,136.7269 M,0,245966,246004,186.5643,136.7269,217.3889,124.9474 M,0,246004,246042,217.3889,124.9474,250.5349,124.2314 F,15,246042,246654,1,0 S,15,246042,246654,0.75,0.2 M,0,250098,,439,67 F,0,250098,,1 S,0,250098,,0.75 C,0,250098,,255,228,147 M,0,250098,250136,439,67,411.1084,68.71072 P,0,250098,250786,A M,0,250136,250174,411.1084,68.71072,388.6939,85.1411 F,15,250174,250786,1,0 S,15,250174,250786,0.75,0.2 M,0,252547,,101,204 F,0,252547,,1 S,0,252547,,0.75 C,0,252547,,128,255,255 M,0,252547,252585,101,204,110.203,196.5302 P,0,252547,253388,A M,0,252585,252623,110.203,196.5302,120.0985,190.0216 M,0,252623,252661,120.0985,190.0216,130.4988,184.3498 M,0,252661,252700,130.4988,184.3498,141.5889,180.18 M,0,252700,252738,141.5889,180.18,153.0341,177.1403 M,0,252738,252776,153.0341,177.1403,164.7048,175.177 F,15,252776,253388,1,0 S,15,252776,253388,0.75,0.2 M,0,254384,,401,421 C,0,254384,,196,255,136 F,15,254384,254996,1,0 S,15,254384,254996,0.75,0.2 P,0,254384,254996,A M,0,258517,,444,73 C,0,258517,,255,228,147 F,15,258517,259129,1,0 S,15,258517,259129,0.75,0.2 P,0,258517,259129,A M,0,259205,,478,214 C,0,259205,,255,183,219 F,15,259205,259817,1,0 S,15,259205,259817,0.75,0.2 P,0,259205,259817,A M,0,260429,,163,415 C,0,260429,,255,228,147 F,15,260429,261041,1,0 S,15,260429,261041,0.75,0.2 P,0,260429,261041,A M,0,261119,,390,309 C,0,261119,,128,255,255 F,15,261119,261731,1,0 S,15,261119,261731,0.75,0.2 P,0,261119,261731,A M,0,261807,,316,368 C,0,261807,,255,183,219 F,15,261807,262419,1,0 S,15,261807,262419,0.75,0.2 P,0,261807,262419,A
Sprite,Foreground,Centre,"sb\hl.png",0,0 M,0,240455,,285,383 F,0,240455,,1 S,0,240455,,0.75 C,0,240455,,255,228,147 M,0,240455,240493,285,383,312.194,374.4925 P,0,240455,241296,A M,0,240493,240531,312.194,374.4925,339.8322,367.5609 M,0,240531,240569,339.8322,367.5609,367.8609,362.4349 M,0,240569,240608,367.8609,362.4349,396.1385,358.929 M,0,240608,240646,396.1385,358.929,424.5832,357.2608 M,0,240646,240684,424.5832,357.2608,453.0771,357.233 F,15,240684,241296,1,0 S,15,240684,241296,0.75,0.2 M,0,244741,,541,429 F,0,244741,,1 S,0,244741,,0.75 C,0,244741,,255,228,147 M,0,244741,244779,541,429,513.9996,419.9426 P,0,244741,245429,A M,0,244779,244817,513.9996,419.9426,486.2008,413.7461 F,15,244817,245429,1,0 S,15,244817,245429,0.75,0.2 M,0,245506,,85,95 C,0,245506,,224,224,224 F,15,245506,246118,1,0 S,15,245506,246118,0.75,0.2 P,0,245506,246118,A M,0,250404,,534,302 F,0,250404,,1 S,0,250404,,0.75 C,0,250404,,128,255,255 M,0,250404,250442,534,302,563.3242,283.1082 P,0,250404,251092,A M,0,250442,250480,563.3242,283.1082,575.345,250.517 F,15,250480,251092,1,0 S,15,250480,251092,0.75,0.2 M,0,258899,,155,100 C,0,258899,,128,255,255 F,15,258899,259511,1,0 S,15,258899,259511,0.75,0.2 P,0,258899,259511,A M,0,259588,,64,225 C,0,259588,,196,255,136 F,15,259588,260200,1,0 S,15,259588,260200,0.75,0.2 P,0,259588,260200,A M,0,260506,,200,375 C,0,260506,,255,228,147 F,15,260506,261118,1,0 S,15,260506,261118,0.75,0.2 P,0,260506,261118,A M,0,261195,,444,324 C,0,261195,,128,255,255 F,15,261195,261807,1,0 S,15,261195,261807,0.75,0.2 P,0,261195,261807,A M,0,261884,,269,407 C,0,261884,,255,183,219 F,15,261884,262496,1,0 S,15,261884,262496,0.75,0.2 P,0,261884,262496,A
Sprite,Foreground,Centre,"sb\hl.png",0,0 M,0,245200,,420,358 C,0,245200,,128,255,255 F,15,245200,245812,1,0 S,15,245200,245812,0.75,0.2 P,0,245200,245812,A M,0,259741,,115,207 F,0,259741,,1 S,0,259741,,0.75 C,0,259741,,196,255,136 M,0,259741,259779,115,207,143.0957,203.4054 P,0,259741,260429,A M,0,259779,259817,143.0957,203.4054,168.6422,191.2756 F,15,259817,260429,1,0 S,15,259817,260429,0.75,0.2 M,0,260659,,291,344 C,0,260659,,255,228,147 F,15,260659,261271,1,0 S,15,260659,261271,0.75,0.2 P,0,260659,261271,A M,0,261348,,522,254 C,0,261348,,128,255,255 F,15,261348,261960,1,0 S,15,261348,261960,0.75,0.2 P,0,261348,261960,A M,0,262037,,152,386 C,0,262037,,196,255,136 F,15,262037,262649,1,0 S,15,262037,262649,0.75,0.2 P,0,262037,262649,A
Sprite,Foreground,Centre,"sb\hl.png",0,0 M,0,260812,,285,440 C,0,260812,,128,255,255 F,15,260812,261424,1,0 S,15,260812,261424,0.75,0.2 P,0,260812,261424,A M,0,261501,,451,188 C,0,261501,,255,183,219 F,15,261501,262113,1,0 S,15,261501,262113,0.75,0.2 P,0,261501,262113,A M,0,262190,,208,262 C,0,262190,,196,255,136 F,15,262190,262802,1,0 S,15,262190,262802,0.75,0.2 P,0,262190,262802,A
Sprite,Foreground,Centre,"sb\p.png",0,0 M,0,245506,,85,95 C,0,245506,,224,224,224 F,18,245506,245812,1,0 V,15,245506,245812,40,1000,0,1000 P,0,245506,245812,A
Sprite,Foreground,Centre,"sb\p.png",0,0 M,0,245583,,94,117 C,0,245583,,119,119,119 F,18,245583,245889,1,0 V,15,245583,245889,40,1000,0,1000 P,0,245583,245889,A
Sprite,Foreground,Centre,"sb\p.png",0,0 M,0,245659,,101,101 C,0,245659,,224,224,224 F,18,245659,245965,1,0 V,15,245659,245965,40,1000,0,1000 P,0,245659,245965,A
Sprite,Foreground,Centre,"sb\p.png",0,0 M,0,245736,,79,111 C,0,245736,,119,119,119 F,18,245736,246042,1,0 V,15,245736,246042,40,1000,0,1000 P,0,245736,246042,A
Sprite,Foreground,Centre,"sb\c.png",0,0 M,0,1853,,82,228 F,0,1853,2465,1,0 S,1,1853,2465,0,0.35 P,0,1853,2465,A
Sprite,Foreground,Centre,"sb\c.png",0,0 M,0,3077,,299,225 F,0,3077,3689,1,0 S,1,3077,3689,0,0.35 P,0,3077,3689,A
Sprite,Foreground,Centre,"sb\c.png",0,0 M,0,4302,,514,277 F,0,4302,4914,1,0 S,1,4302,4914,0,0.35 P,0,4302,4914,A
Sprite,Foreground,Centre,"sb\c.png",0,0 M,0,5526,,260,340 F,0,5526,6138,1,0 S,1,5526,6138,0,0.35 P,0,5526,6138,A
Sprite,Foreground,Centre,"sb\c.png",0,0 M,0,6751,,298,415 F,0,6751,7363,1,0 S,1,6751,7363,0,0.35 P,0,6751,7363,A
Sprite,Foreground,Centre,"sb\c.png",0,0 M,0,9200,,442,178 F,0,9200,9812,1,0 S,1,9200,9812,0,0.35 P,0,9200,9812,A
Sprite,Foreground,Centre,"sb\c.png",0,0 M,0,11649,,90,355 F,0,11649,12261,1,0 S,1,11649,12261,0,0.35 P,0,11649,12261,A
Sprite,Foreground,Centre,"sb\c.png",0,0 M,0,49589,,338,414 F,0,49589,50201,1,0 S,1,49589,50201,0,0.35 P,0,49589,50201,A
Sprite,Foreground,Centre,"sb\c.png",0,0 M,0,50814,,390,309 F,0,50814,51426,1,0 S,1,50814,51426,0,0.35 P,0,50814,51426,A
Sprite,Foreground,Centre,"sb\c.png",0,0 M,0,52038,,369,152 F,0,52038,52650,1,0 S,1,52038,52650,0,0.35 P,0,52038,52650,A
Sprite,Foreground,Centre,"sb\c.png",0,0 M,0,53263,,287,337 F,0,53263,53875,1,0 S,1,53263,53875,0,0.35 P,0,53263,53875,A
Sprite,Foreground,Centre,"sb\c.png",0,0 M,0,54487,,127,315 F,0,54487,55099,1,0 S,1,54487,55099,0,0.35 P,0,54487,55099,A
Sprite,Foreground,Centre,"sb\c.png",0,0 M,0,55712,,275,86 F,0,55712,56324,1,0 S,1,55712,56324,0,0.35 P,0,55712,56324,A
Sprite,Foreground,Centre,"sb\c.png",0,0 M,0,56936,,343,222 F,0,56936,57548,1,0 S,1,56936,57548,0,0.35 P,0,56936,57548,A
Sprite,Foreground,Centre,"sb\c.png",0,0 M,0,120608,,453,81 F,0,120608,121220,1,0 S,1,120608,121220,0,0.35 P,0,120608,121220,A
Sprite,Foreground,Centre,"sb\c.png",0,0 M,0,121833,,284,282 F,0,121833,122445,1,0 S,1,121833,122445,0,0.35 P,0,121833,122445,A
Sprite,Foreground,Centre,"sb\c.png",0,0 M,0,123057,,441,296 F,0,123057,123669,1,0 S,1,123057,123669,0,0.35 P,0,123057,123669,A
Sprite,Foreground,Centre,"sb\c.png",0,0 M,0,124282,,363,123 F,0,124282,124894,1,0 S,1,124282,124894,0,0.35 P,0,124282,124894,A
Sprite,Foreground,Centre,"sb\c.png",0,0 M,0,125506,,122,140 F,0,125506,126118,1,0 S,1,125506,126118,0,0.35 P,0,125506,126118,A
Sprite,Foreground,Centre,"sb\c.png",0,0 M,0,126731,,400,424 F,0,126731,127343,1,0 S,1,126731,127343,0,0.35 P,0,126731,127343,A
Sprite,Foreground,Centre,"sb\c.png",0,0 M,0,127955,,544,188 F,0,127955,128567,1,0 S,1,127955,128567,0,0.35 P,0,127955,128567,A
//Storyboard Layer 4 (Overlay)
//Storyboard Sound Samples

[TimingPoints]
629,306.122448979592,4,2,1,50,1,0
1241,-333.333333333333,4,2,1,50,0,0
1853,-200,4,2,1,50,0,0
6292,-200,4,2,1,5,0,0
6368,-200,4,2,1,50,0,0
6445,-200,4,2,1,50,0,0
6751,-142.857142857143,4,2,1,50,0,0
7822,-166.666666666667,4,2,1,50,0,0
9200,-200,4,2,1,50,0,0
11572,-200,4,2,1,5,0,0
11649,-200,4,2,1,50,0,0
12720,-100,4,2,1,50,0,0
12796,-100,4,2,1,5,0,0
15304,306.122448979592,4,2,2,80,1,0
15304,-100,4,2,2,80,0,0
16681,-100,4,2,1,80,0,0
16834,-100,4,2,2,80,0,0
18135,-100,4,2,1,80,0,0
18365,-100,4,2,5,80,0,0
18518,-100,4,2,6,80,0,0
18671,-100,4,2,2,80,0,0
18824,-71.4285714285714,4,2,1,80,0,0
19054,-71.4285714285714,4,2,1,5,0,0
19130,-71.4285714285714,4,2,1,80,0,0
19360,-71.4285714285714,4,2,1,5,0,0
19436,-71.4285714285714,4,2,1,80,0,0
19513,-71.4285714285714,4,2,1,5,0,0
19589,-71.4285714285714,4,2,2,80,0,0
19895,-200,4,2,2,80,0,0
20125,-200,4,2,2,5,0,0
20201,-100,4,2,62,80,0,0
20278,-100,4,2,2,80,0,0
20661,-100,4,2,69,80,0,0
20737,-100,4,2,2,80,0,0
21120,-100,4,2,61,80,0,0
21196,-100,4,2,2,80,0,0
21579,-100,4,2,61,80,0,0
21656,-100,4,2,2,80,0,0
22038,-100,4,2,62,80,0,0
22115,-100,4,2,2,80,0,0
22344,-100,4,2,69,80,0,0
22421,-100,4,2,2,80,0,0
22650,-100,4,2,62,80,0,0
22727,-100,4,2,2,80,0,0
22803,-100,4,2,2,5,0,0
22957,-100,4,2,2,80,0,0
23110,-100,4,2,69,80,0,0
23186,-100,4,2,2,80,0,0
23569,-100,4,2,61,80,0,0
23645,-100,4,2,2,80,0,0
24028,-100,4,2,69,80,0,0
24105,-100,4,2,2,80,0,0
24487,-100,4,2,65,80,0,0
24564,-100,4,2,2,80,0,0
24793,-100,4,2,69,80,0,0
24870,-100,4,2,2,80,0,0
25099,-100,4,2,62,80,0,0
25176,-100,4,2,2,80,0,0
25559,-100,4,2,69,80,0,0
25635,-100,4,2,2,80,0,0
26018,-100,4,2,61,80,0,0
26094,-100,4,2,2,80,0,0
26477,-100,4,2,61,80,0,0
26554,-100,4,2,2,80,0,0
26936,-100,4,2,62,80,0,0
27013,-100,4,2,2,80,0,0
27242,-100,4,2,69,80,0,0
27319,-100,4,2,2,80,0,0
27548,-100,4,2,61,80,0,0
27625,-100,4,2,2,80,0,0
28161,-100,4,2,62,80,0,0
28237,-100,4,2,2,80,0,0
28467,-100,4,2,61,80,0,0
28849,-100,4,2,61,5,0,0
28926,-100,4,2,61,80,0,0
29232,-100,4,2,1,80,0,0
29385,-100,4,2,5,80,0,0
29691,-100,4,2,6,80,0,0
29997,-133.333333333333,4,2,1,50,0,0
35967,-133.333333333333,4,2,2,50,0,0
38416,-76.9230769230769,4,2,2,80,0,0
38645,-76.9230769230769,4,2,2,5,0,0
38722,-76.9230769230769,4,2,2,80,0,0
38875,-76.9230769230769,4,2,2,80,0,0
39793,-100,4,2,2,80,0,0
44615,-100,4,2,2,5,0,0
44691,-100,4,2,2,80,0,0
47064,-100,4,2,2,5,0,0
47140,-100,4,2,2,80,0,0
47599,-83.3333333333333,4,2,2,80,0,0
48518,-100,4,2,5,80,0,0
48824,-100,4,2,6,80,0,0
48977,-100,4,2,2,80,0,0
49589,-133.333333333333,4,2,31,80,0,0
49666,-133.333333333333,4,2,1,80,0,0
49895,-133.333333333333,4,2,25,80,0,0
49972,-133.333333333333,4,2,1,80,0,0
50201,-133.333333333333,4,2,32,80,0,0
50278,-133.333333333333,4,2,1,80,0,0
50508,-133.333333333333,4,2,31,80,0,0
50584,-133.333333333333,4,2,1,80,0,0
50814,-133.333333333333,4,2,35,80,0,0
50890,-133.333333333333,4,2,1,80,0,0
50967,-133.333333333333,4,2,1,5,0,0
51120,-133.333333333333,4,2,1,80,0,0
51426,-133.333333333333,4,2,34,80,0,0
51502,-133.333333333333,4,2,1,80,0,0
51885,-133.333333333333,4,2,1,80,0,0
52038,-133.333333333333,4,2,31,80,0,0
52115,-133.333333333333,4,2,1,80,0,0
52344,-133.333333333333,4,2,25,80,0,0
52421,-133.333333333333,4,2,1,80,0,0
52650,-133.333333333333,4,2,32,80,0,0
52727,-133.333333333333,4,2,1,80,0,0
52957,-133.333333333333,4,2,31,80,0,0
53033,-133.333333333333,4,2,1,80,0,0
53263,-133.333333333333,4,2,35,80,0,0
53339,-133.333333333333,4,2,1,80,0,0
53416,-133.333333333333,4,2,5,80,0,0
53492,-133.333333333333,4,2,1,80,0,0
53722,-133.333333333333,4,2,6,80,0,0
53798,-133.333333333333,4,2,1,80,0,0
53875,-133.333333333333,4,2,31,80,0,0
53951,-133.333333333333,4,2,1,80,0,0
54487,-133.333333333333,4,2,31,80,0,0
54564,-133.333333333333,4,2,1,80,0,0
54640,-133.333333333333,4,2,1,5,0,0
54793,-133.333333333333,4,2,25,80,0,0
54870,-133.333333333333,4,2,1,80,0,0
55099,-133.333333333333,4,2,32,80,0,0
55176,-133.333333333333,4,2,1,80,0,0
55406,-133.333333333333,4,2,31,80,0,0
55482,-133.333333333333,4,2,1,80,0,0
55712,-133.333333333333,4,2,35,80,0,0
55788,-133.333333333333,4,2,1,80,0,0
56324,-133.333333333333,4,2,31,80,0,0
56400,-133.333333333333,4,2,1,80,0,0
57242,-133.333333333333,4,2,1,80,0,0
57548,-133.333333333333,4,2,1,80,0,0
57855,-133.333333333333,4,2,1,80,0,0
58161,-111.111111111111,4,2,1,80,0,0
59385,-100,4,2,1,70,0,0
61528,-100,4,2,1,70,0,0
64283,-83.3333333333333,4,2,2,70,0,0
64512,-83.3333333333333,4,2,2,5,0,0
64589,-83.3333333333333,4,2,2,70,0,0
66885,-83.3333333333333,4,2,1,70,0,0
68033,-83.3333333333333,4,2,1,5,0,0
68110,-66.6666666666667,4,2,1,70,0,0
68569,-200,4,2,1,60,0,0
68798,-200,4,2,1,5,0,0
68875,-117.647058823529,4,2,1,70,0,0
69104,-117.647058823529,4,2,1,80,0,0
69181,-71.4285714285714,4,2,2,80,0,1
69487,-83.3333333333333,4,2,2,80,0,1
73467,-66.6666666666667,4,2,2,80,0,1
73543,-66.6666666666667,4,2,2,5,0,1
73620,-66.6666666666667,4,2,2,80,0,1
73696,-66.6666666666667,4,2,2,5,0,1
73773,-66.6666666666667,4,2,2,80,0,1
73926,-83.3333333333333,4,2,2,80,0,1
76451,-83.3333333333333,4,2,2,5,0,1
76528,-83.3333333333333,4,2,2,80,0,1
78518,-83.3333333333333,4,2,1,80,0,1
78671,-83.3333333333333,4,2,2,80,0,1
78824,-83.3333333333333,4,2,1,80,0,1
78977,-83.3333333333333,4,2,2,80,0,1
82420,-83.3333333333333,4,2,2,5,0,1
82497,-83.3333333333333,4,2,2,80,0,1
83416,-83.3333333333333,4,2,1,80,0,1
83569,-83.3333333333333,4,2,2,80,0,1
83645,-83.3333333333333,4,2,1,80,0,1
83875,-71.4285714285714,4,2,2,80,0,1
83951,-71.4285714285714,4,2,2,5,0,1
84028,-71.4285714285714,4,2,2,80,0,1
84104,-71.4285714285714,4,2,2,5,0,1
84181,-71.4285714285714,4,2,2,80,0,1
84334,-71.4285714285714,4,2,2,80,0,1
84946,-76.9230769230769,4,2,2,80,0,1
85712,-83.3333333333333,4,2,1,80,0,1
86018,-200,4,2,2,80,0,1
86247,-200,4,2,2,5,0,1
86324,-100,4,2,2,60,0,0
88696,-100,4,2,2,5,0,0
88773,-83.3333333333333,4,2,2,70,0,1
89002,-83.3333333333333,4,2,2,5,0,1
89079,-83.3333333333333,4,2,2,80,0,1
89844,-100,4,2,2,80,0,0
89997,-100,4,2,2,5,0,0
91222,-100,4,2,62,80,0,0
91298,-100,4,2,1,80,0,0
91681,-100,4,2,69,80,0,0
91758,-100,4,2,1,80,0,0
92140,-100,4,2,97,80,0,0
92217,-100,4,2,1,80,0,0
92599,-100,4,2,69,80,0,0
92676,-100,4,2,1,80,0,0
93059,-100,4,2,62,80,0,0
93135,-100,4,2,1,80,0,0
93365,-100,4,2,69,80,0,0
93441,-100,4,2,1,80,0,0
93671,-100,4,2,62,80,0,0
93747,-100,4,2,1,80,0,0
94130,-100,4,2,69,80,0,0
94207,-100,4,2,2,80,0,0
94436,-100,4,2,2,80,0,0
94589,-100,4,2,61,80,0,0
94666,-100,4,2,2,80,0,0
94818,-100,4,2,2,5,0,0
94895,-100,4,2,2,80,0,0
95048,-100,4,2,61,80,0,0
95125,-100,4,2,2,80,0,0
95508,-100,4,2,65,80,0,0
95584,-100,4,2,2,80,0,0
95814,-100,4,2,61,80,0,0
95890,-100,4,2,2,80,0,0
96043,-100,4,2,2,5,0,0
96120,-100,4,2,62,80,0,0
96196,-100,4,2,2,80,0,0
96579,-100,4,2,69,80,0,0
96656,-100,4,2,2,80,0,0
97038,-100,4,2,61,80,0,0
97115,-100,4,2,2,80,0,0
97420,-100,4,2,2,5,0,0
97497,-100,4,2,69,80,0,0
97574,-100,4,2,2,80,0,0
97957,-100,4,2,62,80,0,0
98033,-100,4,2,2,80,0,0
98263,-100,4,2,69,80,0,0
98339,-100,4,2,2,80,0,0
98569,-100,4,2,62,80,0,0
98645,-100,4,2,2,80,0,0
99181,-100,4,2,69,80,0,0
99258,-100,4,2,2,80,0,0
99640,-100,4,2,61,80,0,0
99717,-100,4,2,2,80,0,0
99869,-100,4,2,2,5,0,0
99946,-100,4,2,65,80,0,0
100023,-100,4,2,1,80,0,0
100099,-100,4,2,62,80,0,0
100176,-100,4,2,1,80,0,0
100252,-100,4,2,99,80,0,0
100329,-100,4,2,1,80,0,0
100406,-100,4,2,5,80,0,0
100712,-100,4,2,6,80,0,0
101018,-111.111111111111,4,2,1,80,0,0
101783,-111.111111111111,4,2,2,80,0,0
102395,-111.111111111111,4,2,5,80,0,0
102548,-111.111111111111,4,2,5,80,0,0
102701,-111.111111111111,4,2,6,80,0,0
103008,-111.111111111111,4,2,1,80,0,0
104232,-111.111111111111,4,2,2,80,0,0
104844,-111.111111111111,4,2,5,80,0,0
105150,-111.111111111111,4,2,6,80,0,0
105457,-111.111111111111,4,2,1,80,0,0
106681,-111.111111111111,4,2,2,80,0,0
107446,315.789473684211,4,2,2,80,1,0
107551,-100,4,2,1,80,0,0
108288,-100,4,2,2,80,0,0
108393,306.122448979592,4,2,2,80,1,0
109617,-100,4,2,2,80,0,0
110765,-100,4,2,2,5,0,0
110813,306.122448979592,4,2,2,80,1,0
110813,-100,4,2,2,80,0,0
112114,-100,4,2,2,5,0,0
112190,-100,4,2,2,80,0,0
113185,-100,4,2,2,5,0,0
113261,-100,4,2,2,80,0,0
114563,-100,4,2,2,5,0,0
114639,-100,4,2,2,80,0,0
115634,-100,4,2,2,5,0,0
115710,-100,4,2,2,80,0,0
117011,-100,4,2,2,5,0,0
117088,-100,4,2,2,80,0,0
118619,-83.3333333333333,4,2,2,80,0,0
119690,-100,4,2,1,80,0,0
119996,-100,4,2,5,80,0,0
120302,-100,4,2,6,80,0,0
120608,-133.333333333333,4,2,31,80,0,0
120685,-133.333333333333,4,2,1,80,0,0
120915,-133.333333333333,4,2,25,80,0,0
120991,-133.333333333333,4,2,1,80,0,0
121221,-133.333333333333,4,2,32,80,0,0
121297,-133.333333333333,4,2,1,80,0,0
121527,-133.333333333333,4,2,31,80,0,0
121603,-133.333333333333,4,2,1,80,0,0
121833,-133.333333333333,4,2,35,80,0,0
121909,-133.333333333333,4,2,1,80,0,0
122445,-133.333333333333,4,2,34,80,0,0
122522,-133.333333333333,4,2,1,80,0,0
123057,-133.333333333333,4,2,31,80,0,0
123134,-133.333333333333,4,2,1,80,0,0
123364,-133.333333333333,4,2,25,80,0,0
123440,-133.333333333333,4,2,1,80,0,0
123670,-133.333333333333,4,2,32,80,0,0
123746,-133.333333333333,4,2,1,80,0,0
123976,-133.333333333333,4,2,31,80,0,0
124052,-133.333333333333,4,2,1,80,0,0
124282,-133.333333333333,4,2,35,80,0,0
124358,-133.333333333333,4,2,1,80,0,0
124435,-133.333333333333,4,2,5,80,0,0
124511,-133.333333333333,4,2,1,80,0,0
124741,-133.333333333333,4,2,6,80,0,0
124818,-133.333333333333,4,2,1,80,0,0
124894,-133.333333333333,4,2,31,80,0,0
124971,-133.333333333333,4,2,1,80,0,0
125506,-133.333333333333,4,2,31,80,0,0
125583,-133.333333333333,4,2,1,80,0,0
125813,-133.333333333333,4,2,25,80,0,0
125889,-133.333333333333,4,2,1,80,0,0
126119,-133.333333333333,4,2,32,80,0,0
126195,-133.333333333333,4,2,1,80,0,0
126425,-133.333333333333,4,2,31,80,0,0
126501,-133.333333333333,4,2,1,80,0,0
126731,-133.333333333333,4,2,35,80,0,0
126807,-133.333333333333,4,2,1,80,0,0
127343,-133.333333333333,4,2,31,80,0,0
127420,-133.333333333333,4,2,1,80,0,0
129180,-111.111111111111,4,2,1,80,0,0
130404,-100,4,2,1,70,0,0
132165,-100,4,2,1,5,0,0
132241,-100,4,2,1,70,0,0
135302,-83.3333333333333,4,2,2,70,0,0
138134,-83.3333333333333,4,2,1,70,0,0
138364,-83.3333333333333,4,2,5,70,0,0
138517,-83.3333333333333,4,2,6,70,0,0
138823,-71.4285714285714,4,2,2,70,0,0
139052,-71.4285714285714,4,2,2,5,0,0
139129,-66.6666666666667,4,2,1,70,0,0
139282,-66.6666666666667,4,2,2,70,0,0
139741,-66.6666666666667,4,2,2,80,0,0
139971,-66.6666666666667,4,2,1,80,0,0
140200,-71.4285714285714,4,2,2,80,0,1
140506,-83.3333333333333,4,2,2,80,0,1
144486,-66.6666666666667,4,2,2,80,0,1
144563,-66.6666666666667,4,2,2,5,0,1
144639,-66.6666666666667,4,2,2,80,0,1
144716,-66.6666666666667,4,2,2,5,0,1
144792,-66.6666666666667,4,2,2,80,0,1
144945,-83.3333333333333,4,2,2,80,0,1
147471,-83.3333333333333,4,2,2,5,0,1
147547,-83.3333333333333,4,2,2,80,0,1
149231,-83.3333333333333,4,2,1,80,0,1
149384,-83.3333333333333,4,2,2,80,0,1
149537,-83.3333333333333,4,2,1,80,0,1
149690,-83.3333333333333,4,2,2,80,0,1
149767,-83.3333333333333,4,2,1,80,0,1
149996,-83.3333333333333,4,2,2,80,0,1
154435,-83.3333333333333,4,2,1,80,0,1
154588,-83.3333333333333,4,2,2,80,0,1
154741,-83.3333333333333,4,2,1,80,0,1
154894,-71.4285714285714,4,2,2,80,0,1
154971,-71.4285714285714,4,2,2,5,0,1
155047,-71.4285714285714,4,2,2,80,0,1
155124,-71.4285714285714,4,2,2,5,0,1
155200,-71.4285714285714,4,2,2,80,0,1
155966,-76.9230769230769,4,2,2,80,0,1
156731,-76.9230769230769,4,2,1,80,0,1
157037,-200,4,2,2,80,0,1
157267,-200,4,2,2,5,0,1
157343,-100,4,2,2,60,0,0
159409,-100,4,2,1,70,0,0
159486,-100,4,2,2,70,0,0
159716,-100,4,2,2,5,0,0
159792,-83.3333333333333,4,2,2,80,0,1
160864,-100,4,2,2,80,0,0
161017,-100,4,2,2,5,0,0
162241,-100,4,2,1,80,0,0
170966,-100,4,2,5,80,0,0
171272,-100,4,2,6,80,0,0
171731,-83.3333333333333,4,2,2,70,0,0
171960,-83.3333333333333,4,2,2,5,0,0
172037,-100,4,2,69,70,0,0
172114,-100,4,2,2,70,0,0
172190,-100,4,2,61,70,0,0
172267,-100,4,2,2,70,0,0
172496,-100,4,2,62,70,0,0
172573,-100,4,2,2,70,0,0
172802,-100,4,2,65,70,0,0
172879,-100,4,2,2,70,0,0
173108,-100,4,2,10,70,0,0
173185,-100,4,2,2,70,0,0
173415,-100,4,2,71,70,0,0
173491,-100,4,2,2,70,0,0
173568,-100,4,2,65,70,0,0
173644,-100,4,2,2,70,0,0
173721,-100,4,2,64,70,0,0
173797,-100,4,2,2,70,0,0
173874,-100,4,2,64,70,0,0
173950,-100,4,2,2,70,0,0
174027,-100,4,2,11,70,0,0
174103,-100,4,2,2,70,0,0
174180,-100,4,2,64,70,0,0
174256,-100,4,2,2,70,0,0
174333,-100,4,2,12,70,0,0
174409,-100,4,2,2,70,0,0
174486,-100,4,2,65,70,0,0
174563,-100,4,2,2,70,0,0
174639,-100,4,2,54,70,0,0
174716,-100,4,2,2,70,0,0
174792,-100,4,2,57,70,0,0
174869,-100,4,2,2,70,0,0
174945,-100,4,2,11,70,0,0
175022,-100,4,2,2,70,0,0
175251,-100,4,2,64,70,0,0
175328,-100,4,2,2,70,0,0
175557,-100,4,2,16,70,0,0
175634,-100,4,2,2,70,0,0
175864,-100,4,2,2,70,0,0
175940,-100,4,2,2,70,0,0
176017,-100,4,2,56,70,0,0
176093,-100,4,2,2,70,0,0
176170,-100,4,2,61,70,0,0
176246,-100,4,2,2,70,0,0
176323,-100,4,2,16,70,0,0
176399,-100,4,2,2,5,0,0
176476,-100,4,2,62,70,0,0
176552,-100,4,2,2,70,0,0
176629,-100,4,2,64,70,0,0
176705,-100,4,2,2,70,0,0
176782,-100,4,2,65,70,0,0
176858,-100,4,2,2,70,0,0
176935,-100,4,2,66,70,0,0
177011,-100,4,2,2,70,0,0
177088,-100,4,2,14,70,0,0
177165,-100,4,2,2,70,0,0
177394,-100,4,2,66,70,0,0
177471,-100,4,2,2,70,0,0
177547,-100,4,2,14,70,0,0
177624,-100,4,2,2,70,0,0
177853,-100,4,2,66,70,0,0
177930,-100,4,2,2,70,0,0
178006,-100,4,2,14,70,0,0
178083,-100,4,2,2,70,0,0
178159,-100,4,2,71,70,0,0
178236,-100,4,2,2,70,0,0
178313,-100,4,2,65,70,0,0
178389,-100,4,2,2,70,0,0
178619,-100,4,2,71,70,0,0
178695,-100,4,2,2,70,0,0
178772,-100,4,2,65,70,0,0
178848,-100,4,2,2,70,0,0
179078,-100,4,2,71,70,0,0
179154,-100,4,2,2,70,0,0
179231,-100,4,2,65,70,0,0
179307,-100,4,2,2,70,0,0
179384,-100,4,2,79,70,0,0
179460,-100,4,2,2,70,0,0
179996,-100,4,2,37,70,0,0
180073,-100,4,2,65,70,0,0
180149,-100,4,2,79,70,0,0
180226,-100,4,2,16,70,0,0
180302,-100,4,2,12,70,0,0
180379,-100,4,2,79,70,0,0
180455,-100,4,2,74,70,0,0
180532,-100,4,2,75,70,0,0
180608,-66.6666666666667,4,2,81,70,0,0
180685,-66.6666666666667,4,2,75,70,0,0
180761,-66.6666666666667,4,2,24,70,0,0
180838,-66.6666666666667,4,2,79,70,0,0
180915,-66.6666666666667,4,2,75,70,0,0
180991,-66.6666666666667,4,2,74,70,0,0
181068,-66.6666666666667,4,2,79,70,0,0
181144,-66.6666666666667,4,2,65,70,0,0
181221,-100,4,2,74,70,0,0
181297,-100,4,2,79,70,0,0
181374,-100,4,2,65,70,0,0
181450,-100,4,2,12,70,0,0
181527,-100,4,2,79,70,0,0
181603,-100,4,2,65,70,0,0
181680,-100,4,2,12,70,0,0
181756,-100,4,2,61,70,0,0
181833,-100,4,2,72,70,0,0
181909,-100,4,2,2,70,0,0
182139,-83.3333333333333,4,2,2,70,0,0
182445,-83.3333333333333,4,2,21,70,0,0
182522,-83.3333333333333,4,2,2,70,0,0
182904,-83.3333333333333,4,2,71,70,0,0
182981,-83.3333333333333,4,2,1,70,0,0
183134,-83.3333333333333,4,2,1,5,0,0
183210,-83.3333333333333,4,2,1,70,0,0
183364,-83.3333333333333,4,2,1,70,0,0
183976,-83.3333333333333,4,2,5,70,0,0
184129,-83.3333333333333,4,2,6,70,0,0
184282,-133.333333333333,4,2,98,70,0,0
184358,-133.333333333333,4,2,1,80,0,0
189103,-133.333333333333,4,2,1,5,0,0
189180,-133.333333333333,4,2,1,80,0,0
191552,-133.333333333333,4,2,1,5,0,0
191629,-133.333333333333,4,2,1,80,0,0
193695,-133.333333333333,4,2,1,5,0,0
193772,-71.4285714285714,4,2,2,80,0,0
194001,-71.4285714285714,4,2,2,5,0,0
194078,-100,4,2,2,70,0,0
198823,-90.9090909090909,4,2,2,70,0,0
203491,-90.9090909090909,4,2,1,70,0,0
203568,-200,4,2,2,70,0,0
203797,-200,4,2,2,5,0,0
203874,-76.9230769230769,4,2,2,70,0,0
204180,-83.3333333333333,4,2,2,70,0,0
207624,-83.3333333333333,4,2,2,5,0,0
207700,-83.3333333333333,4,2,2,70,0,0
208083,-83.3333333333333,4,2,1,70,0,0
208159,-83.3333333333333,4,2,2,70,0,0
208389,-83.3333333333333,4,2,1,70,0,0
208466,-83.3333333333333,4,2,2,70,0,0
208695,-83.3333333333333,4,2,2,5,0,0
208772,-83.3333333333333,4,2,2,70,0,0
210073,-83.3333333333333,4,2,2,5,0,0
210149,-66.6666666666667,4,2,2,70,0,0
210608,-66.6666666666667,4,2,2,50,0,0
219716,-100,4,2,2,50,0,0
219792,-100,4,2,5,80,0,0
220404,-100,4,2,6,80,0,0
221017,-111.111111111111,4,2,1,80,0,0
222700,-111.111111111111,4,2,5,80,0,0
222853,-111.111111111111,4,2,1,80,0,0
223159,-111.111111111111,4,2,6,80,0,0
223466,-111.111111111111,4,2,1,80,0,0
223695,-111.111111111111,4,2,1,5,0,0
223772,-111.111111111111,4,2,1,80,0,0
223925,-111.111111111111,4,2,2,80,0,0
224001,-111.111111111111,4,2,2,5,0,0
224078,-111.111111111111,4,2,1,80,0,0
224231,-111.111111111111,4,2,2,80,0,0
224307,-111.111111111111,4,2,2,5,0,0
224384,-111.111111111111,4,2,1,80,0,0
224843,-111.111111111111,4,2,5,80,0,0
224996,-111.111111111111,4,2,1,80,0,0
225149,-111.111111111111,4,2,6,80,0,0
225302,-111.111111111111,4,2,1,80,0,0
225915,-166.666666666667,4,2,1,80,0,0
227598,-166.666666666667,4,2,5,80,0,0
227751,-166.666666666667,4,2,1,80,0,0
229741,-166.666666666667,4,2,5,80,0,0
229894,-166.666666666667,4,2,1,80,0,0
230047,-166.666666666667,4,2,6,80,0,0
230200,-166.666666666667,4,2,1,80,0,0
230506,-100,4,2,1,80,0,0
230736,-100,4,2,1,5,0,0
230813,-111.111111111111,4,2,1,70,0,0
233185,-111.111111111111,4,2,1,5,0,0
233261,-83.3333333333333,4,2,1,70,0,0
233568,-83.3333333333333,4,2,2,70,0,0
234027,-83.3333333333333,4,2,1,70,0,0
234180,-83.3333333333333,4,2,2,70,0,0
234256,-83.3333333333333,4,2,1,70,0,0
234486,-333.333333333333,4,2,1,60,0,0
234792,-333.333333333333,4,2,1,5,0,0
234869,-333.333333333333,4,2,1,80,0,0
235710,-100,4,2,2,80,0,1
236017,-200,4,2,2,80,0,0
236246,-200,4,2,2,5,0,0
236323,-66.6666666666667,4,2,2,80,0,1
236476,-66.6666666666667,4,2,2,5,0,0
236552,-66.6666666666667,4,2,2,80,0,1
236705,-66.6666666666667,4,2,2,5,0,0
236782,-66.6666666666667,4,2,2,80,0,1
236858,-66.6666666666667,4,2,2,5,0,0
236935,-83.3333333333333,4,2,2,80,0,1
239996,-83.3333333333333,4,2,1,80,0,1
240302,-83.3333333333333,4,2,2,80,0,1
243287,-83.3333333333333,4,2,2,5,0,1
243364,-83.3333333333333,4,2,2,80,0,1
244435,-83.3333333333333,4,2,1,80,0,1
244588,-83.3333333333333,4,2,2,80,0,1
244741,-83.3333333333333,4,2,1,80,0,1
244894,-83.3333333333333,4,2,5,80,0,1
245047,-83.3333333333333,4,2,6,80,0,1
245200,-83.3333333333333,4,2,2,80,0,1
245506,-83.3333333333333,4,2,2,80,0,0
245813,-71.4285714285714,4,2,2,80,0,1
246042,-71.4285714285714,4,2,2,5,0,1
246119,-83.3333333333333,4,2,2,80,0,1
249945,-83.3333333333333,4,2,1,80,0,1
250098,-83.3333333333333,4,2,2,80,0,1
250404,-66.6666666666667,4,2,2,80,0,1
250481,-66.6666666666667,4,2,2,5,0,1
250557,-66.6666666666667,4,2,2,80,0,1
250634,-66.6666666666667,4,2,2,5,0,1
250710,-66.6666666666667,4,2,2,80,0,1
250864,-71.4285714285714,4,2,2,80,0,1
251476,-76.9230769230769,4,2,2,80,0,1
252394,-76.9230769230769,4,2,1,80,0,1
252547,-200,4,2,2,80,0,1
252777,-200,4,2,2,5,0,1
252853,-100,4,2,2,60,0,0
256680,-100,4,2,5,60,0,0
256833,-100,4,2,6,60,0,0
256986,-100,4,2,2,60,0,0
257292,-100,4,2,1,80,0,0
257445,-100,4,2,2,70,0,0
257751,-83.3333333333333,4,2,1,80,0,1
258976,-83.3333333333333,4,2,2,80,0,1
260277,-83.3333333333333,4,2,1,80,0,1
260506,-83.3333333333333,4,2,2,80,0,1
260583,-83.3333333333333,4,2,1,80,0,1
260813,-83.3333333333333,4,2,2,80,0,1
260889,-83.3333333333333,4,2,1,80,0,1
261119,-83.3333333333333,4,2,2,80,0,1
261195,-83.3333333333333,4,2,1,80,0,1
261425,-83.3333333333333,4,2,2,80,0,1
261501,-83.3333333333333,4,2,1,80,0,1
261731,-83.3333333333333,4,2,2,80,0,1
261807,-83.3333333333333,4,2,1,80,0,1
262037,-83.3333333333333,4,2,2,80,0,1
262114,-83.3333333333333,4,2,1,80,0,1
262343,-83.3333333333333,4,2,5,80,0,1
262496,-83.3333333333333,4,2,6,80,0,1
262649,-83.3333333333333,4,2,2,80,0,1
262879,-83.3333333333333,4,2,2,5,0,1
262955,-83.3333333333333,4,2,2,80,0,1
263721,-100,4,2,2,80,0,0
263874,-100,4,2,2,5,0,0
266323,-111.111111111111,4,2,62,80,0,0
266399,-111.111111111111,4,2,1,80,0,0
266782,-111.111111111111,4,2,69,80,0,0
266858,-111.111111111111,4,2,1,80,0,0
267241,-111.111111111111,4,2,97,80,0,0
267318,-111.111111111111,4,2,1,80,0,0
267700,-111.111111111111,4,2,69,80,0,0
267777,-111.111111111111,4,2,1,80,0,0
268159,-111.111111111111,4,2,62,80,0,0
268236,-111.111111111111,4,2,1,80,0,0
268466,-111.111111111111,4,2,99,80,0,0
268542,-111.111111111111,4,2,1,80,0,0
268772,-111.111111111111,4,2,62,80,0,0
268848,-111.111111111111,4,2,1,80,0,0
269231,-111.111111111111,4,2,69,80,0,0
269307,-111.111111111111,4,2,1,80,0,0
269690,-111.111111111111,4,2,97,80,0,0
269767,-111.111111111111,4,2,1,80,0,0
270149,-111.111111111111,4,2,69,80,0,0
270226,-111.111111111111,4,2,1,80,0,0
270608,-111.111111111111,4,2,65,80,0,0
270685,-111.111111111111,4,2,1,80,0,0
270915,-111.111111111111,4,2,99,80,0,0
270991,-111.111111111111,4,2,1,80,0,0
271221,-111.111111111111,4,2,62,80,0,0
271297,-111.111111111111,4,2,1,80,0,0
271680,-111.111111111111,4,2,69,80,0,0
271756,-111.111111111111,4,2,1,80,0,0
272139,-111.111111111111,4,2,97,80,0,0
272216,-111.111111111111,4,2,1,80,0,0
272598,-111.111111111111,4,2,69,80,0,0
272675,-111.111111111111,4,2,1,80,0,0
273057,-111.111111111111,4,2,62,80,0,0
273134,-111.111111111111,4,2,1,80,0,0
273364,-111.111111111111,4,2,99,80,0,0
273440,-111.111111111111,4,2,1,80,0,0
273670,-111.111111111111,4,2,62,80,0,0
273746,-111.111111111111,4,2,1,80,0,0
274129,-111.111111111111,4,2,69,80,0,0
274205,-111.111111111111,4,2,1,80,0,0
274588,-111.111111111111,4,2,61,80,0,0
274665,-111.111111111111,4,2,2,80,0,0
275047,-111.111111111111,4,2,61,80,0,0
275124,-111.111111111111,4,2,2,80,0,0
275200,-111.111111111111,4,2,6,80,0,0
275353,-111.111111111111,4,2,1,80,0,0
275506,-111.111111111111,4,2,62,80,0,0
275583,-111.111111111111,4,2,2,80,0,0
275813,-83.3333333333333,4,2,64,80,0,0
275889,-83.3333333333333,4,2,2,80,0,0
276042,-83.3333333333333,4,2,2,5,0,0
276119,-100,4,2,62,80,0,0
276195,-100,4,2,2,80,0,0
276578,-100,4,2,69,80,0,0
276654,-100,4,2,2,80,0,0
277037,-100,4,2,61,80,0,0
277114,-100,4,2,2,80,0,0
277496,-100,4,2,69,80,0,0
277573,-100,4,2,2,80,0,0
277955,-100,4,2,62,80,0,0
278032,-100,4,2,2,80,0,0
278261,-100,4,2,69,80,0,0
278338,-100,4,2,2,80,0,0
278568,-100,4,2,62,80,0,0
278644,-100,4,2,2,80,0,0
279027,-100,4,2,69,80,0,0
279103,-100,4,2,2,80,0,0
279486,-100,4,2,61,80,0,0
279563,-100,4,2,2,80,0,0
279945,-100,4,2,69,80,0,0
280022,-100,4,2,2,80,0,0
280404,-100,4,2,65,80,0,0
280481,-100,4,2,2,80,0,0
280710,-100,4,2,69,80,0,0
280787,-100,4,2,2,80,0,0
281017,-83.3333333333333,4,2,62,80,0,0
281093,-83.3333333333333,4,2,2,80,0,0
281476,-83.3333333333333,4,2,69,80,0,0
281552,-83.3333333333333,4,2,2,80,0,0
281935,-83.3333333333333,4,2,61,80,0,0
282011,-83.3333333333333,4,2,2,80,0,0
282318,-83.3333333333333,4,2,2,5,0,0
282394,-83.3333333333333,4,2,69,80,0,0
282471,-83.3333333333333,4,2,2,80,0,0
282853,-83.3333333333333,4,2,62,80,0,0
282930,-83.3333333333333,4,2,2,80,0,0
283159,-83.3333333333333,4,2,69,80,0,0
283236,-83.3333333333333,4,2,2,80,0,0
283466,-83.3333333333333,4,2,62,80,0,0
283542,-83.3333333333333,4,2,2,80,0,0
283925,-83.3333333333333,4,2,69,80,0,0
284001,-83.3333333333333,4,2,2,80,0,0
284384,-83.3333333333333,4,2,61,80,0,0
284460,-83.3333333333333,4,2,2,80,0,0
284843,-83.3333333333333,4,2,69,80,0,0
284920,-83.3333333333333,4,2,2,80,0,0
284996,-83.3333333333333,4,2,5,80,0,0
285149,-83.3333333333333,4,2,6,80,0,0
285302,-83.3333333333333,4,2,62,80,0,0
285379,-83.3333333333333,4,2,2,80,0,0
285608,-83.3333333333333,4,2,64,80,0,0
285685,-83.3333333333333,4,2,1,80,0,0
285915,-133.333333333333,4,2,1,80,0,0
285991,-133.333333333333,4,2,1,5,0,0
286068,-133.333333333333,4,2,1,80,0,0
286144,-133.333333333333,4,2,1,5,0,0
286221,-133.333333333333,4,2,1,80,0,0
286297,-133.333333333333,4,2,1,5,0,0
286374,-133.333333333333,4,2,1,80,0,0
286450,-133.333333333333,4,2,1,5,0,0
286833,-133.333333333333,4,2,1,80,0,0
286909,-133.333333333333,4,2,1,5,0,0
286986,-133.333333333333,4,2,1,80,0,0
287063,-133.333333333333,4,2,1,5,0,0
287139,-133.333333333333,4,2,1,80,0,0
287216,-133.333333333333,4,2,1,5,0,0
287292,-133.333333333333,4,2,1,80,0,0
287369,-133.333333333333,4,2,1,5,0,0
287598,-133.333333333333,4,2,1,80,0,0
287675,-133.333333333333,4,2,1,5,0,0
287751,-133.333333333333,4,2,1,80,0,0
287981,-133.333333333333,4,2,1,5,0,0
288057,-500,4,2,98,80,0,0
288134,-500,4,2,1,80,0,0
288670,-500,4,2,1,70,0,0
289282,-500,4,2,1,60,0,0
289894,-500,4,2,1,50,0,0
290506,-500,4,2,1,40,0,0
291119,-500,4,2,1,30,0,0
291731,-500,4,2,1,20,0,0
292343,-500,4,2,1,10,0,0
292649,-500,4,2,1,5,0,0

[Colours]
Combo1 : 119,119,119
Combo2 : 128,255,255
Combo3 : 255,183,219
Combo4 : 196,255,136
Combo5 : 255,228,147
Combo6 : 224,224,224

[HitObjects]
35,117,1241,70,0,P|27:144|17:171,1,56.9999982604981
18,172,1853,6,0,B|70:162|70:162|89:142|89:142|154:129,1,142.5,2|0,0:0|0:0,0:0:0:0:
228,76,2465,2,0,P|220:45|176:23,2,71.25
235,169,3077,2,0,P|273:162|314:113,1,95,2|0,0:0|0:0,0:0:0:0:
388,8,3690,2,0,P|375:44|396:104,1,95
450,221,4302,70,0,P|424:191|318:218,1,142.5,2|0,0:0|0:0,0:0:0:0:
357,331,4914,2,0,P|365:297|382:261,2,71.25
196,284,5526,2,0,P|171:293|141:298,1,47.5,2|0,0:0|0:0,0:0:0:0:
126,297,5833,1,0,0:0:0:0:
264,221,5986,2,0,P|245:287|234:369,1,142.5
234,359,6751,6,0,B|229:344|219:335|219:335|277:311|319:376,1,132.999995941162,2|0,0:0|0:0,0:0:0:0:
112,373,7210,2,0,P|127:330|142:244,1,132.999995941162,2|0,0:0|0:0,0:0:0:0:
141,217,7669,1,0,0:0:0:0:
36,111,7822,2,0,B|22:134|22:134|102:162|159:88,1,170.999994781494,2|0,0:0|0:0,0:0:0:0:
170,76,8435,1,0,0:0:0:0:
322,7,8588,2,0,P|281:38|266:108,1,113.999996520996,2|0,0:0|0:0,0:0:0:0:
311,153,9047,1,0,0:0:0:0:
378,122,9200,70,0,P|427:118|456:171,1,95,2|0,0:0|0:0,0:0:0:0:
462,305,9659,2,0,P|473:281|491:260,1,47.5
371,198,9965,2,0,P|386:217|396:239,1,47.5
323,366,10271,2,0,P|272:359|219:357,1,95
152,364,10731,1,0,0:0:0:0:
152,364,10884,1,0,0:0:0:0:
54,193,11190,1,0,0:0:0:0:
54,193,11343,2,0,P|87:200|94:237,1,71.25
26,299,11649,6,0,B|102:231|195:247|195:247|212:280|254:285,1,237.5,2|0,0:0|0:0,0:0:0:0:
265,205,12567,1,0,0:0:0:0:
122,384,12720,6,0,L|136:324,1,47.5,2|0,0:0|0:0,0:0:0:0:
256,192,13103,12,0,15246,0:0:0:0:
354,71,15304,6,0,B|358:57|364:48|364:48|292:21|257:112,1,142.5,6|0,3:1|0:0,0:0:0:0:
261,111,15610,1,0,1:0:0:0:
471,264,15763,2,0,P|404:241|302:232,1,142.5,2|0,0:0|0:0,0:0:0:0:
309,228,16069,1,0,3:0:0:0:
298,363,16222,2,0,P|352:355|366:303,1,95,0|0,1:0|0:0,0:0:0:0:
139,348,16528,5,6,3:2:0:0:
261,209,16681,1,0,1:0:0:0:
290,207,16757,1,0,1:0:0:0:
309,229,16834,2,0,P|304:260|288:288,1,47.5,0|0,1:0|0:0,0:0:0:0:
121,355,16987,2,0,P|135:283|151:185,1,142.5,2|0,0:0|0:0,0:0:0:0:
142,196,17293,1,0,3:0:0:0:
31,363,17446,2,0,P|39:319|48:260,1,95,0|0,1:0|0:0,0:0:0:0:
122,5,17752,5,6,3:2:0:0:
0,123,17906,1,0,1:0:0:0:
27,142,17982,1,0,1:0:0:0:
60,135,18059,2,0,L|135:121,1,47.5,0|0,1:0|1:0,0:0:0:0:
352,81,18212,37,0,1:0:0:0:
328,77,18288,1,0,1:0:0:0:
304,74,18365,1,10,3:0:0:0:
281,70,18441,1,8,3:0:0:0:
257,67,18518,1,10,3:0:0:0:
234,63,18594,1,8,3:0:0:0:
210,60,18671,1,2,3:2:0:0:
389,176,18824,6,0,B|429:187|429:187|516:117|516:117|507:67,1,199.499993911743,6|0,3:2|0:0,0:0:0:0:
328,77,19130,6,0,B|343:143|343:143|337:176|337:176|360:286,1,199.499993911743,6|0,3:2|0:0,0:0:0:0:
466,258,19436,6,0,B|471:255|471:255|486:233|486:233|461:244|461:244|459:249,1,66.4999979705811,6|0,3:2|0:0,0:0:0:0:
375,363,19589,37,2,1:2:0:0:
181,219,19742,1,0,0:0:0:0:
204,186,19819,1,0,0:0:0:0:
243,182,19895,2,0,P|276:186|304:221,1,71.25,2|0,1:2|0:0,0:0:0:0:
259,383,20201,6,0,P|266:336|278:291,1,95,6|0,3:0|0:0,0:0:0:0:
375,363,20508,1,0,1:0:0:0:
171,307,20661,2,0,P|114:358|-4:364,1,190,2|0,0:0|3:0,0:0:0:0:
80,65,21120,1,2,1:2:0:0:
120,240,21273,6,0,P|71:226|15:217,1,95,4|0,3:2|0:0,0:0:0:0:
171,307,21579,1,2,3:0:0:0:
205,44,21732,2,0,P|210:94|222:157,1,95,0|0,1:0|0:0,0:0:0:0:
316,234,21962,1,0,1:0:0:0:
319,225,22038,6,0,B|342:224|366:233|366:233|382:217|406:209,1,95,2|0,3:0|3:0,0:0:0:0:
487,15,22344,2,0,B|464:16|440:7|440:7|424:23|399:30,1,95,2|0,1:2|0:0,0:0:0:0:
492,295,22650,38,0,B|512:276|512:276|500:203,1,95,6|0,3:0|0:0,0:0:0:0:
359,304,22957,1,0,1:0:0:0:
299,91,23110,1,2,0:0:0:0:
306,101,23187,1,0,1:0:0:0:
313,111,23263,2,0,L|293:227,1,95,0|0,3:0|3:0,0:0:0:0:
447,142,23569,1,2,1:2:0:0:
210,272,23722,6,0,P|169:260|99:251,1,95,4|0,3:2|0:0,0:0:0:0:
240,36,24028,1,2,3:2:0:0:
72,19,24181,2,0,P|81:63|90:121,1,95,0|0,1:0|0:0,0:0:0:0:
90,131,24411,1,0,1:0:0:0:
90,131,24487,1,2,3:0:0:0:
372,64,24640,1,0,3:0:0:0:
296,204,24793,2,0,P|260:167|282:114,1,95,2|0,1:2|0:0,0:0:0:0:
507,16,25099,6,0,P|497:64|489:134,1,95,6|0,3:0|3:0,0:0:0:0:
299,48,25406,1,0,1:0:0:0:
500,213,25558,1,2,0:2:0:0:
492,222,25635,1,0,1:0:0:0:
485,232,25711,2,0,P|440:222|375:214,1,95,0|0,3:0|3:0,0:0:0:0:
450,57,26018,1,2,1:2:0:0:
228,226,26171,6,0,P|223:178|211:118,1,95,4|0,3:2|0:0,0:0:0:0:
71,217,26477,1,2,3:0:0:0:
256,353,26630,2,0,P|300:325|280:271,1,95,0|0,1:0|0:0,0:0:0:0:
169,286,26860,1,0,1:0:0:0:
172,298,26936,38,0,B|130:307|130:307|125:314|125:314|71:326,1,95,2|0,3:0|3:0,0:0:0:0:
332,359,27242,2,0,B|373:368|373:368|379:375|379:375|433:387,1,95,2|0,1:2|3:0,0:0:0:0:
341,142,27548,5,6,1:2:0:0:
256,353,27701,1,0,3:0:0:0:
512,244,27855,2,0,L|406:226,1,95,0|0,1:0|3:0,0:0:0:0:
399,225,28084,1,0,0:0:0:0:
399,225,28161,5,2,1:2:0:0:
228,31,28314,1,0,3:0:0:0:
461,111,28467,1,2,1:2:0:0:
162,250,28620,6,0,P|154:179|140:88,1,142.5,6|0,3:2|0:0,0:0:0:0:
140,89,28926,1,0,1:0:0:0:
253,190,29079,1,0,1:0:0:0:
0,192,29232,1,0,1:0:0:0:
2,180,29309,1,0,1:0:0:0:
5,168,29385,37,10,3:0:0:0:
97,183,29538,1,8,3:0:0:0:
162,250,29691,1,10,3:0:0:0:
176,343,29844,1,8,3:0:0:0:
88,308,29997,53,6,1:2:0:0:
88,308,30304,2,0,P|65:287|13:289,1,71.2500027179719,2|2,1:2|0:0,0:0:0:0:
162,250,30610,1,0,1:0:0:0:
162,250,30916,2,0,P|166:214|177:161,1,71.2500027179719,0|2,1:0|0:0,0:0:0:0:
70,111,31222,1,0,1:0:0:0:
70,111,31528,6,0,P|34:124|24:161,1,71.2500027179719,0|0,1:0|0:0,0:0:0:0:
149,71,31834,2,0,P|144:39|139:-5,1,71.2500027179719,2|0,1:2|0:0,0:0:0:0:
223,125,32140,2,0,P|247:104|301:112,1,71.2500027179719,2|0,1:2|0:0,0:0:0:0:
384,239,32446,69,2,1:2:0:0:
384,239,32752,2,0,P|415:227|461:216,1,71.2500027179719,2|2,1:2|0:0,0:0:0:0:
338,338,33059,1,0,1:0:0:0:
338,338,33365,2,0,P|314:320|268:318,1,71.2500027179719,0|2,1:0|0:0,0:0:0:0:
196,383,33671,2,0,P|191:349|182:302,1,71.2500027179719,0|0,1:0|0:0,0:0:0:0:
84,214,33977,6,0,P|85:253|125:271,1,71.2500027179719,2|0,1:2|0:0,0:0:0:0:
221,240,34207,1,0,0:0:0:0:
224,233,34283,2,0,P|256:222|299:214,1,71.2500027179719,2|0,1:2|0:0,0:0:0:0:
123,89,34589,2,0,P|132:122|143:170,1,71.2500027179719,2|0,1:2|0:0,0:0:0:0:
187,17,34895,69,6,1:2:0:0:
187,17,35201,2,0,P|220:8|270:0,1,71.2500027179719,2|2,1:2|0:0,0:0:0:0:
372,54,35508,1,0,1:0:0:0:
372,54,35814,5,0,1:0:0:0:
506,19,35967,1,2,1:2:0:0:
286,90,36120,69,0,3:0:0:0:
306,158,36273,1,0,3:0:0:0:
491,141,36426,5,0,3:0:0:0:
460,243,36579,1,2,3:2:0:0:
260,231,36732,69,2,3:2:0:0:
300,367,36885,1,0,0:0:0:0:
479,318,37038,5,2,1:2:0:0:
140,378,37191,5,0,3:0:0:0:
140,378,38416,6,0,L|162:177,1,185.249991519928,6|0,3:1|0:0,0:0:0:0:
153,170,38722,1,0,0:0:0:0:
235,322,38875,1,0,1:0:0:0:
63,197,39028,1,0,0:0:0:0:
291,169,39181,2,0,P|261:162|234:147,1,61.7499971733095,14|8,0:3|0:3,0:0:0:0:
42,14,39334,5,12,0:3:0:0:
30,17,39411,1,12,0:3:0:0:
19,20,39487,1,14,0:3:0:0:
0,61,39564,1,8,0:3:0:0:
14,104,39640,1,8,0:3:0:0:
53,127,39716,1,8,0:3:0:0:
97,118,39793,6,0,B|168:107|168:107|196:78|196:78|283:60,1,190,6|2,3:1|1:2,0:0:0:0:
431,11,40252,2,0,B|403:50|403:50|419:110,1,95,2|0,0:0|3:0,0:0:0:0:
493,175,40559,1,2,3:2:0:0:
306,129,40712,1,0,1:0:0:0:
376,299,40865,38,0,B|428:251|511:259|511:259|483:275|474:310,1,190,2|0,3:2|3:0,0:0:0:0:
259,384,41324,2,0,B|228:348|228:348|243:283,1,95,0|0,1:0|0:0,0:0:0:0:
147,157,41630,1,2,3:2:0:0:
152,180,41706,1,0,0:0:0:0:
157,202,41783,1,0,3:0:0:0:
355,220,41936,2,0,P|397:212|415:151,1,95,2|0,1:2|0:0,0:0:0:0:
261,2,42242,6,0,P|178:17|59:32,1,190,6|2,3:2|1:2,0:0:0:0:
127,250,42701,2,0,L|147:153,1,95,2|0,0:0|3:0,0:0:0:0:
198,288,43008,1,2,3:2:0:0:
75,118,43161,1,2,1:2:0:0:
20,318,43314,6,0,B|61:310|91:295|91:295|130:313|130:313|161:298|198:288,1,190,2|0,3:2|3:0,0:0:0:0:
327,183,43773,2,0,P|316:227|307:284,1,95,2|0,1:2|0:0,0:0:0:0:
307,294,44002,1,0,0:0:0:0:
307,294,44079,1,2,3:2:0:0:
445,179,44232,1,0,3:0:0:0:
208,44,44385,2,0,P|172:96|95:90,1,142.5,2|0,1:2|0:0,0:0:0:0:
29,49,44691,6,0,B|69:17|69:17|41:181,1,190,6|2,3:2|1:2,0:0:0:0:
45,365,45150,2,0,P|11:332|25:281,1,95,2|0,0:0|3:0,0:0:0:0:
259,234,45457,1,2,3:2:0:0:
124,169,45610,1,0,1:0:0:0:
180,381,45763,38,0,P|272:364|387:349,1,190,2|0,3:2|3:0,0:0:0:0:
465,173,46222,1,0,1:0:0:0:
259,234,46375,1,2,0:0:0:0:
264,210,46451,1,0,0:0:0:0:
269,187,46528,1,2,3:2:0:0:
385,113,46681,1,2,3:2:0:0:
248,27,46834,2,0,L|270:202,1,142.5,2|0,1:2|0:0,0:0:0:0:
269,187,47140,5,4,3:2:0:0:
442,24,47293,1,0,3:0:0:0:
160,110,47446,1,0,1:0:0:0:
504,226,47599,6,0,B|507:203|524:185|524:185|464:201|464:201|433:255|356:251,1,227.999993041992,4|0,3:2|3:0,0:0:0:0:
181,295,48059,1,0,1:0:0:0:
101,21,48212,6,0,B|153:5|164:63|164:63|130:158,1,170.999994781494,4|0,3:2|0:0,0:0:0:0:
12,199,48518,2,0,P|96:218|175:290,1,190,8|8,3:0|3:0,0:0:0:0:
278,187,48977,37,0,3:0:0:0:
181,295,49130,1,0,3:0:0:0:
296,273,49283,1,0,3:0:0:0:
257,351,49436,1,0,3:0:0:0:
274,358,49589,53,6,3:2:0:0:
274,358,49895,2,0,P|307:348|360:345,1,71.2500027179719,2|2,0:0|3:2,0:0:0:0:
430,375,50201,1,2,0:0:0:0:
430,375,50355,1,2,3:2:0:0:
326,253,50508,5,2,1:2:0:0:
326,253,50814,2,0,P|330:217|337:182,1,71.2500027179719,2|0,3:2|0:0,0:0:0:0:
325,267,51120,1,2,0:0:0:0:
238,237,51273,2,0,P|242:201|249:166,1,71.2500027179719,2|0,3:2|0:0,0:0:0:0:
237,250,51579,1,2,3:2:0:0:
305,96,51732,69,0,1:0:0:0:
305,96,52038,5,0,3:0:0:0:
195,219,52344,2,0,P|154:214|111:195,1,71.2500027179719,2|0,0:0|3:0,0:0:0:0:
94,124,52650,2,0,P|110:161|115:208,1,71.2500027179719,0|0,0:0|3:0,0:0:0:0:
63,259,52957,69,0,1:2:0:0:
63,259,53110,1,0,0:0:0:0:
223,281,53263,5,0,0:0:0:0:
84,341,53416,2,0,P|78:308|68:264,1,71.2500027179719,8|0,3:0|0:0,0:0:0:0:
207,364,53722,2,0,P|213:328|221:294,1,71.2500027179719,8|0,3:0|0:0,0:0:0:0:
249,166,54028,1,0,3:0:0:0:
63,259,54181,69,0,1:0:0:0:
63,259,54487,2,0,P|69:223|97:194,1,71.2500027179719,2|0,3:2|0:0,0:0:0:0:
169,148,54793,1,2,0:0:0:0:
169,148,54946,1,2,3:2:0:0:
45,117,55099,2,0,P|42:81|36:41,1,71.2500027179719,2|2,0:0|3:2,0:0:0:0:
210,17,55406,5,2,1:2:0:0:
211,30,55712,2,0,P|215:65|222:100,1,71.2500027179719,2|0,3:2|0:0,0:0:0:0:
210,17,56018,1,2,0:0:0:0:
299,13,56171,2,0,P|303:48|310:83,1,71.2500027179719,2|0,3:2|0:0,0:0:0:0:
298,0,56477,1,2,3:2:0:0:
279,166,56630,69,0,1:0:0:0:
279,166,56936,6,0,P|318:171|354:189,1,71.2500027179719,4|0,3:2|0:0,0:0:0:0:
424,220,57242,2,0,L|446:145,1,71.2500027179719,10|0,1:2|0:0,0:0:0:0:
477,75,57548,2,0,P|438:70|402:52,1,71.2500027179719,8|0,1:2|0:0,0:0:0:0:
332,21,57855,2,0,L|309:95,1,71.2500027179719,8|0,1:2|0:0,0:0:0:0:
215,230,58161,69,0,3:0:0:0:
346,184,58314,1,0,1:0:0:0:
163,57,58467,2,0,P|174:98|183:147,1,85.4999973907472,2|0,3:2|3:0,0:0:0:0:
93,323,58773,5,2,3:2:0:0:
95,311,58849,1,0,3:0:0:0:
97,301,58926,1,0,1:0:0:0:
98,290,59002,1,2,1:2:0:0:
100,280,59079,1,0,1:0:0:0:
205,354,59232,1,2,3:2:0:0:
19,215,59385,6,0,B|71:225|102:180|102:180|130:135|182:140,1,190,6|0,3:2|1:0,0:0:0:0:
29,127,59844,1,2,0:0:0:0:
171,227,59997,2,0,P|224:219|256:183,1,95,2|0,3:2|3:0,0:0:0:0:
123,34,60304,1,2,1:2:0:0:
262,104,60457,1,2,0:0:0:0:
372,46,60610,6,0,P|357:96|336:241,1,190,0|0,3:0|1:0,0:0:0:0:
351,330,61069,1,2,0:0:0:0:
476,214,61222,1,2,3:2:0:0:
259,294,61451,1,0,0:0:0:0:
259,294,61528,1,0,1:0:0:0:
351,330,61681,1,2,0:0:0:0:
122,358,61834,6,0,B|138:369|146:388|146:388|178:233,1,190,2|0,3:2|1:0,0:0:0:0:
95,180,62293,1,2,0:0:0:0:
205,37,62446,2,0,P|155:43|122:90,1,95,2|0,3:2|3:0,0:0:0:0:
219,151,62752,1,2,1:2:0:0:
306,110,62906,1,2,0:0:0:0:
307,220,63059,5,0,3:0:0:0:
205,37,63212,1,0,3:0:0:0:
3,200,63365,2,0,B|42:189|42:189|54:191|54:191|94:179,1,95,0|0,1:0|0:0,0:0:0:0:
198,304,63671,37,0,3:0:0:0:
195,315,63747,1,0,0:0:0:0:
192,327,63824,1,0,3:0:0:0:
189,338,63900,1,0,1:0:0:0:
187,350,63977,1,2,1:2:0:0:
107,258,64130,1,0,1:0:0:0:
384,380,64283,6,0,B|370:311|370:311|381:290|381:290|362:186,1,170.999994781494,6|0,1:0|0:0,0:0:0:0:
350,142,64589,5,2,1:2:0:0:
260,383,64742,1,0,3:0:0:0:
484,249,64895,5,2,1:2:0:0:
198,206,65048,1,0,3:0:0:0:
278,50,65201,37,2,1:2:0:0:
368,291,65354,1,0,3:0:0:0:
126,141,65508,6,0,L|153:28,1,113.999996520996,2|0,1:2|3:0,0:0:0:0:
368,291,65814,5,2,1:2:0:0:
278,50,65967,1,0,3:0:0:0:
451,115,66120,5,2,1:2:0:0:
270,272,66273,1,0,3:0:0:0:
162,135,66426,38,0,P|224:129|264:197,1,113.999996520996,2|0,1:2|3:0,0:0:0:0:
122,273,66732,5,4,1:2:0:0:
62,93,66885,1,0,3:0:0:0:
270,272,67038,5,0,1:0:0:0:
268,62,67191,1,0,3:0:0:0:
423,261,67344,5,2,1:2:0:0:
90,179,67497,1,2,3:2:0:0:
377,64,67650,1,2,1:2:0:0:
286,371,67804,38,0,L|104:358,1,170.999994781494,6|0,3:2|0:0,0:0:0:0:
7,313,68110,6,0,B|12:289|10:278|10:278|19:285|44:287,1,71.2500027179719,2|0,1:2|0:0,0:0:0:0:
305,90,68263,2,0,B|300:65|302:54|302:54|293:61|268:63,1,71.2500027179719,2|0,1:2|0:0,0:0:0:0:
268,62,68569,38,0,L|347:79,1,71.25,2|0,0:0|0:0,0:0:0:0:
358,101,68875,6,0,L|239:75,1,121.125002310276,2|0,0:0|0:0,0:0:0:0:
0,35,69181,6,0,P|99:23|210:4,1,199.499993911743,6|0,3:1|0:0,0:0:0:0:
239,75,69487,2,0,P|228:113|150:131,1,113.999996520996,8|0,1:2|0:0,0:0:0:0:
40,362,69793,6,0,B|14:326|14:326|31:254,1,113.999996520996,10|0,3:2|3:0,0:0:0:0:
197,298,70023,2,0,B|161:324|161:324|89:307,1,113.999996520996,2|0,0:0|0:0,0:0:0:0:
104,228,70252,1,2,1:0:0:0:
269,354,70406,6,0,P|346:336|452:322,1,170.999994781494,10|0,3:2|0:0,0:0:0:0:
471,325,70712,1,10,1:2:0:0:
291,247,70865,1,0,0:0:0:0:
476,88,71018,5,10,3:2:0:0:
395,236,71171,1,0,3:0:0:0:
225,132,71324,2,0,P|236:76|245:11,1,113.999996520996,10|0,1:2|0:0,0:0:0:0:
11,119,71630,38,0,B|73:136|73:136|90:162|90:162|162:182,1,170.999994781494,10|0,3:2|0:0,0:0:0:0:
225,132,71936,2,0,L|369:102,1,113.999996520996,8|0,1:2|0:0,0:0:0:0:
149,1,72242,6,0,B|176:50|176:50|140:95,1,113.999996520996,10|0,3:2|0:0,0:0:0:0:
74,42,72472,1,2,0:0:0:0:
74,42,72548,1,8,1:2:0:0:
238,211,72701,1,2,0:0:0:0:
409,26,72855,6,0,P|353:16|279:8,1,113.999996520996,10|0,0:0|3:0,0:0:0:0:
238,316,73161,1,8,1:2:0:0:
454,88,73314,1,0,0:0:0:0:
454,88,73390,1,0,0:0:0:0:
454,88,73467,6,0,P|481:63|480:10,1,71.2500027179719,8|0,3:2|0:0,0:0:0:0:
238,211,73620,2,0,P|262:238|315:237,1,71.2500027179719,0|0,3:0|0:0,0:0:0:0:
332,124,73773,1,2,1:2:0:0:
54,53,73926,38,0,P|94:152|129:286,1,227.999993041992,6|0,3:2|3:0,0:0:0:0:
238,211,74385,1,8,1:2:0:0:
391,303,74538,2,0,P|359:349|304:358,1,113.999996520996,2|8,0:0|3:2,0:0:0:0:
352,163,74844,1,2,3:2:0:0:
441,94,74997,1,10,1:2:0:0:
482,275,75150,5,6,3:2:0:0:
337,51,75304,1,10,0:0:0:0:
511,158,75457,1,2,3:2:0:0:
417,219,75610,1,10,1:2:0:0:
243,112,75763,2,0,P|186:119|155:180,1,113.999996520996,2|8,0:0|3:2,0:0:0:0:
169,367,76069,1,2,3:2:0:0:
46,302,76222,2,0,P|125:296|252:265,1,170.999994781494,8|0,1:2|0:0,0:0:0:0:
302,250,76528,6,0,L|284:384,1,113.999996520996,14|0,3:2|0:0,0:0:0:0:
243,112,76834,5,10,1:2:0:0:
375,339,76987,1,0,0:0:0:0:
450,150,77140,37,10,3:2:0:0:
153,211,77293,1,0,3:0:0:0:
496,351,77446,6,0,B|488:302|488:302|477:288|477:288|469:240,1,113.999996520996,10|0,1:2|0:0,0:0:0:0:
410,41,77752,5,6,1:2:0:0:
214,276,77906,1,0,0:0:0:0:
450,150,78059,5,0,1:0:0:0:
223,9,78212,1,0,0:0:0:0:
295,145,78365,37,2,3:2:0:0:
63,47,78518,5,0,1:0:0:0:
100,34,78594,1,0,1:0:0:0:
138,43,78671,2,0,P|150:70|151:119,1,56.9999982604981,2|0,1:2|0:0,0:0:0:0:
47,342,78824,5,0,1:0:0:0:
0,292,78900,1,0,1:0:0:0:
13,224,78977,6,0,B|62:210|92:243|92:243|115:290|165:287,1,170.999994781494,6|0,3:1|0:0,0:0:0:0:
238,299,79283,2,0,P|214:349|162:367,1,113.999996520996,8|0,1:2|0:0,0:0:0:0:
138,43,79589,38,0,P|198:52|231:117,1,113.999996520996,10|0,3:2|3:0,0:0:0:0:
135,180,79819,2,0,P|107:141|154:141,1,113.999996520996,2|0,0:0|0:0,0:0:0:0:
231,182,80048,1,2,1:0:0:0:
334,5,80201,6,0,P|358:66|387:194,1,170.999994781494,10|0,3:2|0:0,0:0:0:0:
387,202,80508,1,10,1:2:0:0:
228,92,80661,1,0,0:0:0:0:
221,347,80814,5,10,3:2:0:0:
289,177,80967,1,0,3:0:0:0:
422,374,81120,2,0,B|479:380|479:380|513:310,1,113.999996520996,10|0,1:2|0:0,0:0:0:0:
391,113,81426,6,0,P|325:96|295:188,1,170.999994781494,10|0,3:2|0:0,0:0:0:0:
354,223,81732,2,0,P|409:202|486:192,1,113.999996520996,8|0,1:2|0:0,0:0:0:0:
213,356,82038,38,0,L|231:221,1,113.999996520996,10|0,3:2|0:0,0:0:0:0:
200,162,82268,1,2,0:0:0:0:
200,162,82344,1,8,1:2:0:0:
0,324,82497,1,2,3:2:0:0:
288,176,82650,5,10,0:0:0:0:
29,243,82804,1,0,3:0:0:0:
137,2,82957,2,0,P|121:86|106:198,1,170.999994781494,8|0,1:2|0:0,0:0:0:0:
108,199,83263,1,8,3:2:0:0:
363,189,83416,5,0,1:0:0:0:
417,203,83492,1,0,1:0:0:0:
470,186,83569,1,0,1:0:0:0:
506,143,83645,1,0,1:0:0:0:
512,87,83722,1,0,1:0:0:0:
487,36,83798,1,0,1:0:0:0:
438,8,83875,6,0,P|402:13|352:25,1,66.4999979705811,6|0,3:2|0:0,0:0:0:0:
215,182,84028,2,0,P|250:176|301:165,1,66.4999979705811,0|0,3:0|0:0,0:0:0:0:
420,107,84181,1,0,1:0:0:0:
146,316,84334,38,0,B|200:336|249:330|249:330|279:377|279:377|332:365|403:392,1,265.999991882324,6|2,3:2|3:2,0:0:0:0:
357,210,84793,1,2,1:2:0:0:
55,366,84946,6,0,B|3:353|-13:289|-13:289|14:253|69:246|69:246|74:274|63:299,1,246.999988693238,6|0,3:2|3:0,0:0:0:0:
0,102,85406,2,0,P|62:119|132:127,1,123.499994346619,0|2,1:0|0:0,0:0:0:0:
404,44,85712,5,0,1:0:0:0:
361,8,85788,1,0,1:0:0:0:
306,17,85865,1,0,1:0:0:0:
276,63,85941,1,0,1:0:0:0:
289,116,86018,6,0,P|321:122|365:125,1,71.25,2|0,1:2|0:0,0:0:0:0:
418,213,86324,38,0,P|428:179|497:137,1,95,6|8,3:2|0:0,0:0:0:0:
323,206,86630,1,2,3:2:0:0:
323,206,86783,2,0,P|332:259|338:312,1,95,10|0,0:0|3:0,0:0:0:0:
493,340,87089,2,0,P|467:303|406:315,1,95,10|0,0:0|3:0,0:0:0:0:
254,383,87395,1,10,0:0:0:0:
254,383,87472,1,0,0:0:0:0:
254,383,87548,5,0,3:0:0:0:
163,352,87701,1,10,0:0:0:0:
228,282,87855,1,2,3:1:0:0:
137,251,88008,2,0,P|100:262|102:335,1,95,10|0,0:0|3:0,0:0:0:0:
264,198,88314,1,10,0:0:0:0:
96,139,88467,6,0,B|65:173|65:173|116:154|194:140,1,142.5,2|0,3:2|0:0,0:0:0:0:
283,91,88773,6,0,L|77:66,1,170.999994781494,6|0,3:2|0:0,0:0:0:0:
39,62,89079,37,0,1:0:0:0:
264,198,89232,1,0,1:0:0:0:
137,251,89385,5,0,1:0:0:0:
244,8,89538,1,0,1:0:0:0:
487,187,89691,5,2,1:2:0:0:
131,55,89844,2,0,B|130:32|102:23|102:23|114:41|113:70,1,95,2|0,1:2|0:0,0:0:0:0:
131,55,91222,6,0,L|346:19,1,190,6|0,3:2|1:0,0:0:0:0:
484,43,91681,2,0,P|441:60|421:102,1,95,2|0,0:2|3:0,0:0:0:0:
484,43,91987,1,0,0:0:0:0:
412,195,92140,38,0,B|360:193|337:140|337:140|303:106|244:122,1,190,2|0,1:2|3:0,0:0:0:0:
194,236,92599,2,0,P|249:227|276:181,1,95,2|0,0:2|1:0,0:0:0:0:
97,169,92906,1,0,0:0:0:0:
97,169,93059,6,0,L|80:269,1,95,2|0,3:2|0:0,0:0:0:0:
252,119,93365,2,0,L|236:25,1,95,2|0,1:2|0:0,0:0:0:0:
97,169,93671,6,0,P|146:170|252:254,1,190,6|0,3:0|1:0,0:0:0:0:
200,356,94130,1,2,1:2:0:0:
392,294,94283,2,0,B|353:300|353:300|342:309|342:309|274:319,1,95
486,377,94589,6,0,L|513:218,1,142.5,6|0,1:2|0:0,0:0:0:0:
512,212,94895,37,0,3:0:0:0:
401,183,95048,1,10,0:3:0:0:
504,85,95201,1,0,3:0:0:0:
270,1,95355,5,0,3:0:0:0:
280,71,95508,1,10,0:3:0:0:
290,141,95661,1,0,0:0:0:0:
48,41,95814,6,0,B|41:25|27:19|27:19|107:5|123:95,1,142.5,6|0,1:3|0:0,0:0:0:0:
176,179,96120,6,0,L|25:163,1,142.5,6|0,3:2|0:0,0:0:0:0:
10,160,96426,1,0,1:0:0:0:
91,359,96579,2,0,P|130:330|148:286,1,95,2|0,0:2|0:0,0:0:0:0:
55,271,96885,1,0,3:0:0:0:
176,179,97038,37,2,1:2:0:0:
256,257,97191,2,0,L|398:273,1,142.5,0|0,3:0|0:0,0:0:0:0:
422,271,97497,1,2,3:2:0:0:
310,112,97650,2,0,P|279:108|257:166,1,95,0|0,1:0|0:0,0:0:0:0:
449,180,97957,6,0,L|471:75,1,95,2|0,0:2|3:0,0:0:0:0:
290,19,98263,2,0,L|309:111,1,95,2|0,1:2|3:0,0:0:0:0:
98,225,98569,5,6,1:3:0:0:
215,0,98722,1,0,3:0:0:0:
294,252,98875,5,0,1:0:0:0:
133,52,99028,1,0,3:0:0:0:
310,111,99181,37,2,1:2:0:0:
189,287,99334,1,0,3:0:0:0:
444,194,99487,5,0,1:0:0:0:
243,363,99640,6,0,B|217:379|217:379|106:368,1,142.5,6|0,3:2|0:0,0:0:0:0:
80,364,99946,1,2,1:2:0:0:
169,217,100099,1,2,1:2:0:0:
45,249,100252,1,2,1:2:0:0:
45,249,100329,1,0,1:2:0:0:
45,249,100406,5,10,3:0:0:0:
189,287,100559,1,8,3:0:0:0:
72,166,100712,1,10,3:0:0:0:
172,99,100865,1,8,3:0:0:0:
111,23,101018,5,6,3:2:0:0:
111,23,101324,1,2,1:2:0:0:
27,66,101477,1,2,1:2:0:0:
124,28,101630,1,0,3:0:0:0:
220,170,101783,5,6,1:2:0:0:
304,127,101936,1,0,3:0:0:0:
172,99,102089,69,6,1:2:0:0:
299,221,102242,1,0,3:0:0:0:
217,246,102395,1,8,3:0:0:0:
217,246,102472,1,0,0:0:0:0:
217,246,102548,5,8,3:0:0:0:
362,280,102701,1,8,3:0:0:0:
280,305,102855,1,10,3:0:0:0:
398,195,103008,1,0,3:0:0:0:
304,127,103161,1,2,1:2:0:0:
340,43,103314,1,0,1:0:0:0:
512,138,103467,69,6,3:2:0:0:
512,138,103773,1,2,1:2:0:0:
480,31,103926,1,2,1:2:0:0:
501,149,104079,1,0,3:0:0:0:
323,201,104232,5,6,1:2:0:0:
427,104,104385,1,0,3:0:0:0:
312,206,104538,69,6,1:2:0:0:
486,252,104691,1,0,3:0:0:0:
379,329,104844,5,8,3:0:0:0:
383,308,104920,1,8,3:0:0:0:
387,287,104997,1,10,3:0:0:0:
215,262,105150,69,8,3:0:0:0:
225,260,105227,1,8,3:0:0:0:
235,258,105303,1,10,3:0:0:0:
280,373,105457,5,0,3:0:0:0:
280,373,105533,1,0,3:0:0:0:
280,373,105610,1,2,1:2:0:0:
312,267,105763,1,0,1:0:0:0:
123,363,105916,69,6,3:2:0:0:
123,363,106222,1,2,1:2:0:0:
16,331,106375,1,2,1:2:0:0:
133,355,106528,1,0,3:0:0:0:
214,205,106681,5,6,1:2:0:0:
97,229,106834,1,0,3:0:0:0:
52,106,106987,69,6,1:2:0:0:
224,210,107140,1,0,3:0:0:0:
224,210,107446,5,0,1:0:0:0:
268,244,107551,69,0,1:0:0:0:
325,246,107656,5,0,1:0:0:0:
300,154,107761,69,0,3:0:0:0:
295,165,107867,5,0,1:0:0:0:
308,164,107972,69,0,3:0:0:0:
385,123,108077,5,0,1:0:0:0:
317,70,108182,69,0,3:0:0:0:
385,16,108288,5,0,1:0:0:0:
373,0,108393,69,2,0:0:0:0:
256,192,109617,12,0,110765,0:0:0:0:
212,111,110813,22,0,B|140:103|140:103|115:79|115:79|29:71,1,190,6|2,3:1|1:2,0:0:0:0:
218,188,111272,2,0,P|267:167|287:99,1,95,2|0,0:0|0:0,0:0:0:0:
178,17,111578,1,2,3:2:0:0:
178,17,111884,6,0,P|168:79|150:164,1,142.5,2|0,1:2|0:0,0:0:0:0:
145,179,112190,1,0,3:0:0:0:
268,45,112343,5,0,1:0:0:0:
331,119,112496,1,0,0:0:0:0:
320,122,112573,1,0,0:0:0:0:
308,125,112649,1,2,3:2:0:0:
297,128,112726,1,0,0:0:0:0:
286,132,112802,1,0,3:0:0:0:
408,249,112955,6,0,P|439:202|390:225,1,142.5,2|0,1:2|0:0,0:0:0:0:
291,220,113261,38,0,B|346:210|376:255|376:255|405:299|476:285,1,190,6|2,3:2|1:2,0:0:0:0:
260,359,113721,1,2,0:0:0:0:
260,359,114027,5,2,3:2:0:0:
343,252,114180,1,2,0:0:0:0:
172,205,114333,2,0,B|146:230|116:250|116:250|143:273|172:317,1,142.5,2|0,1:2|0:0,0:0:0:0:
174,323,114639,1,0,3:0:0:0:
269,203,114792,5,2,1:2:0:0:
90,109,114945,1,0,0:0:0:0:
78,111,115021,1,0,0:0:0:0:
66,113,115098,1,2,3:2:0:0:
55,115,115174,1,0,0:0:0:0:
43,118,115251,1,0,3:0:0:0:
237,42,115404,6,0,B|245:18|272:9|272:9|213:-5|184:78,1,142.5,2|0,1:2|0:0,0:0:0:0:
250,135,115710,38,0,B|289:135|308:104|308:104|327:76|378:76,1,142.5,6|0,3:2|0:0,0:0:0:0:
396,80,116017,1,2,1:2:0:0:
355,254,116170,2,0,P|307:242|247:239,1,95,2|0,0:0|0:0,0:0:0:0:
471,142,116476,2,0,P|463:188|450:234,1,95,2|0,3:2|0:0,0:0:0:0:
337,371,116782,6,0,L|166:354,1,142.5,2|0,1:2|0:0,0:0:0:0:
171,353,117088,1,0,3:0:0:0:
239,197,117241,2,0,B|262:239|262:239|215:278,1,95,0|2,1:0|0:0,0:0:0:0:
126,264,117547,5,2,3:2:0:0:
208,71,117700,1,0,3:0:0:0:
329,164,117853,1,2,1:2:0:0:
87,129,118006,1,0,1:0:0:0:
460,188,118159,5,6,3:2:0:0:
352,65,118313,1,0,3:0:0:0:
247,309,118466,1,2,1:2:0:0:
137,47,118619,38,0,B|97:11|29:23|29:23|-17:68|6:165,1,227.999993041992,6|2,3:2|3:2,0:0:0:0:
182,146,119078,1,0,1:0:0:0:
8,353,119231,6,0,B|34:316|34:316|168:289|168:289|216:327,1,227.999993041992,6|0,3:2|0:0,0:0:0:0:
438,382,119690,5,0,1:0:0:0:
401,322,119792,5,0,1:0:0:0:
452,274,119894,37,0,1:0:0:0:
375,219,119996,5,8,3:0:0:0:
382,188,120098,5,8,3:0:0:0:
390,157,120200,5,8,3:0:0:0:
456,113,120302,37,8,3:0:0:0:
452,97,120404,5,8,3:0:0:0:
448,82,120506,5,8,3:0:0:0:
389,25,120608,22,0,P|348:32|302:35,1,71.2500027179719,6|0,3:2|0:0,0:0:0:0:
312,127,120915,2,0,P|276:130|241:136,1,71.2500027179719,2|2,0:0|3:2,0:0:0:0:
158,96,121221,1,2,0:0:0:0:
158,96,121374,1,0,3:2:0:0:
220,226,121527,5,2,1:2:0:0:
220,226,121833,2,0,P|254:217|304:212,1,71.2500027179719,2|0,3:2|3:0,0:0:0:0:
207,235,122139,1,2,0:0:0:0:
240,315,122292,2,0,P|274:306|324:301,1,71.2500027179719,0|2,3:0|0:0,0:0:0:0:
227,324,122598,1,2,3:2:0:0:
377,240,122751,69,0,1:0:0:0:
377,240,123057,5,0,3:0:0:0:
479,114,123364,2,0,P|488:79|502:40,1,71.2500027179719,2|0,0:0|3:0,0:0:0:0:
418,19,123670,2,0,P|406:52|397:87,1,71.2500027179719,0|0,0:0|3:0,0:0:0:0:
415,178,123976,69,0,1:0:0:0:
415,178,124129,1,0,0:0:0:0:
299,67,124282,5,0,3:0:0:0:
319,209,124435,2,0,P|327:174|339:140,1,71.2500027179719,8|0,3:0|0:0,0:0:0:0:
197,38,124741,2,0,P|208:71|217:106,1,71.2500027179719,8|0,3:0|0:0,0:0:0:0:
204,197,125047,1,0,3:0:0:0:
58,84,125200,69,0,1:0:0:0:
58,84,125506,2,0,P|50:125|37:167,1,71.2500027179719,2|2,3:2|0:0,0:0:0:0:
133,169,125813,2,0,P|123:203|116:238,1,71.2500027179719,2|2,0:0|1:2,0:0:0:0:
55,307,126119,1,2,0:0:0:0:
55,307,126272,1,2,3:2:0:0:
127,364,126425,2,0,P|159:351|210:348,1,71.2500027179719,2|2,1:2|0:0,0:0:0:0:
336,368,126731,5,2,3:2:0:0:
294,246,126884,2,0,P|285:281|265:328,1,71.2500027179719,0|2,3:0|0:0,0:0:0:0:
424,378,127190,2,0,L|398:234,1,142.500005435944,2|2,3:2|3:2,0:0:0:0:
480,132,127649,1,0,1:0:0:0:
480,132,127955,70,0,L|459:200,1,71.2500027179719,4|0,3:2|0:0,0:0:0:0:
382,165,128261,2,0,P|349:150|314:146,1,71.2500027179719,10|0,1:2|0:0,0:0:0:0:
347,70,128567,2,0,L|368:1,1,71.2500027179719,8|0,1:2|0:0,0:0:0:0:
445,37,128874,2,0,P|477:51|512:55,1,71.2500027179719,8|0,1:2|0:0,0:0:0:0:
314,145,129180,6,0,L|335:289,1,128.249996086121,4|0,1:2|0:0,0:0:0:0:
345,343,129486,69,2,3:2:0:0:
179,271,129639,1,0,3:0:0:0:
123,262,129716,1,0,1:0:0:0:
77,293,129792,2,0,P|84:338|141:365,1,85.4999973907472,2|0,1:2|3:0,0:0:0:0:
184,376,130022,1,2,1:2:0:0:
184,376,130098,6,0,L|242:388,1,42.7499986953736,0|0,1:0|0:0,0:0:0:0:
332,271,130251,2,0,L|274:283,1,42.7499986953736,2|0,3:2|0:0,0:0:0:0:
263,307,130404,6,0,L|289:110,1,190,6|0,3:2|1:0,0:0:0:0:
388,169,130864,1,2,0:0:0:0:
295,31,131017,2,0,B|250:15|250:15|228:56,1,95,2|0,3:2|3:0,0:0:0:0:
131,142,131323,1,2,1:2:0:0:
41,12,131476,2,0,P|94:16|121:66,1,95,2|0,0:0|3:0,0:0:0:0:
67,199,131782,5,0,3:0:0:0:
229,153,131935,2,0,B|285:168|285:168|296:188|296:188|375:209,1,142.5,2|0,1:2|0:0,0:0:0:0:
424,222,132241,1,2,3:2:0:0:
350,7,132471,1,2,0:0:0:0:
350,7,132548,1,0,1:0:0:0:
472,83,132700,1,2,0:0:0:0:
355,203,132853,6,0,P|367:160|427:146,1,95,2|0,3:2|0:0,0:0:0:0:
503,313,133159,2,0,P|456:304|390:299,1,95,0|2,1:0|0:0,0:0:0:0:
253,229,133466,1,2,3:2:0:0:
298,378,133619,1,0,3:0:0:0:
126,335,133772,2,0,P|135:293|195:280,1,95,2|2,1:2|0:0,0:0:0:0:
325,198,134078,5,0,3:0:0:0:
216,159,134231,1,0,3:0:0:0:
324,29,134384,37,0,1:0:0:0:
253,229,134537,1,0,0:0:0:0:
113,108,134690,5,0,3:0:0:0:
109,72,134766,1,0,0:0:0:0:
123,40,134843,1,0,3:0:0:0:
151,19,134919,1,0,1:0:0:0:
186,14,134996,2,0,P|213:20|238:38,1,47.5,2|0,1:2|0:0,0:0:0:0:
341,126,135149,1,0,1:0:0:0:
11,217,135302,6,0,P|91:228|204:252,1,170.999994781494,6|0,3:1|0:0,0:0:0:0:
238,319,135608,5,2,1:2:0:0:
200,261,135685,1,0,3:0:0:0:
226,204,135761,1,0,3:0:0:0:
282,193,135838,1,0,3:0:0:0:
329,218,135915,1,2,1:2:0:0:
379,218,135991,1,0,3:0:0:0:
414,184,136068,1,0,3:0:0:0:
419,139,136144,1,0,3:0:0:0:
395,102,136221,38,0,P|368:94|337:74,1,56.9999982604981,2|0,1:2|3:0,0:0:0:0:
388,293,136374,2,0,P|415:301|440:316,1,56.9999982604981,0|0,3:0|3:0,0:0:0:0:
164,339,136527,5,2,1:2:0:0:
107,365,136603,1,0,3:0:0:0:
58,334,136680,1,0,3:0:0:0:
53,283,136756,1,0,3:0:0:0:
82,247,136833,1,2,1:2:0:0:
111,216,136909,1,0,3:0:0:0:
116,176,136986,1,0,3:0:0:0:
99,142,137063,1,0,3:0:0:0:
68,126,137139,6,0,P|37:131|16:158,1,56.9999982604981,2|0,1:2|3:0,0:0:0:0:
239,305,137292,2,0,P|229:275|226:237,1,56.9999982604981,0|0,3:0|3:0,0:0:0:0:
226,3,137445,5,2,1:2:0:0:
182,36,137521,1,0,3:0:0:0:
180,91,137598,1,0,3:0:0:0:
222,126,137674,1,0,3:0:0:0:
276,116,137751,38,0,P|300:102|347:91,1,56.9999982604981,4|0,3:2|3:0,0:0:0:0:
480,211,137904,1,0,1:0:0:0:
486,232,137981,1,0,1:0:0:0:
492,253,138057,2,0,P|462:240|410:237,1,56.9999982604981,0|0,1:0|1:0,0:0:0:0:
478,336,138210,2,0,P|448:323|396:320,1,56.9999982604981,0|0,1:0|1:0,0:0:0:0:
353,168,138364,5,8,3:0:0:0:
119,197,138517,1,8,3:0:0:0:
365,175,138670,1,0,3:0:0:0:
37,358,138823,6,0,B|18:310|77:287|77:287|152:257|117:186,1,199.499993911743,4|0,1:2|0:0,0:0:0:0:
64,154,139129,6,0,P|30:172|-9:179,1,71.2500027179719,0|0,1:0|0:0,0:0:0:0:
125,380,139282,2,0,P|158:361|198:355,1,71.2500027179719,4|0,1:2|0:0,0:0:0:0:
330,374,139435,37,0,1:0:0:0:
330,374,139511,1,0,1:0:0:0:
330,374,139588,1,2,1:2:0:0:
140,153,139741,5,0,1:0:0:0:
127,147,139818,1,0,1:0:0:0:
113,143,139894,5,2,1:2:0:0:
64,154,139971,1,0,1:0:0:0:
28,197,140047,1,0,1:0:0:0:
32,261,140124,1,0,1:0:0:0:
83,309,140200,6,0,L|297:270,1,199.499993911743,6|0,3:1|0:0,0:0:0:0:
354,245,140506,2,0,P|407:237|454:293,1,113.999996520996,8|0,1:2|0:0,0:0:0:0:
135,239,140813,38,0,P|99:194|117:132,1,113.999996520996,10|0,3:2|3:0,0:0:0:0:
243,112,141042,2,0,P|221:164|160:176,1,113.999996520996,2|0,0:0|0:0,0:0:0:0:
117,72,141272,1,2,1:0:0:0:
354,245,141425,6,0,P|365:155|386:45,1,170.999994781494,10|0,3:2|0:0,0:0:0:0:
388,48,141731,1,10,1:2:0:0:
243,112,141884,1,0,0:0:0:0:
453,172,142037,5,10,3:2:0:0:
268,266,142190,1,0,3:0:0:0:
474,375,142343,2,0,B|510:330|510:330|484:268,1,113.999996520996,10|0,1:2|0:0,0:0:0:0:
282,379,142649,6,0,P|206:359|109:356,1,170.999994781494,10|0,3:2|0:0,0:0:0:0:
58,297,142955,2,0,P|76:249|172:240,1,113.999996520996,8|0,1:2|0:0,0:0:0:0:
429,124,143261,38,0,P|366:120|315:94,1,113.999996520996,10|0,3:2|0:0,0:0:0:0:
255,42,143491,1,2,0:0:0:0:
255,42,143568,1,8,1:2:0:0:
343,268,143721,1,2,0:0:0:0:
142,30,143874,6,0,L|16:14,1,113.999996520996,10|0,0:0|3:0,0:0:0:0:
197,273,144180,1,8,1:2:0:0:
321,99,144333,1,0,3:0:0:0:
321,99,144409,1,0,0:0:0:0:
321,99,144486,6,0,P|332:63|358:6,1,71.2500027179719,8|0,1:2|0:0,0:0:0:0:
47,90,144639,2,0,P|83:101|140:127,1,71.2500027179719,0|0,3:0|0:0,0:0:0:0:
304,186,144792,1,10,1:2:0:0:
0,312,144945,6,0,B|43:297|89:293|89:293|109:259|109:259|159:258|204:238,1,227.999993041992,6|0,3:2|3:0,0:0:0:0:
304,186,145404,1,8,1:2:0:0:
131,59,145557,2,0,B|114:114|114:114|173:149,1,113.999996520996,2|8,0:0|3:2,0:0:0:0:
304,102,145864,1,2,3:2:0:0:
408,148,146017,1,10,1:2:0:0:
298,298,146170,37,6,3:2:0:0:
381,67,146323,1,10,0:0:0:0:
512,194,146476,1,2,3:2:0:0:
304,102,146629,1,10,1:2:0:0:
497,2,146782,2,0,B|490:46|490:46|481:63|481:63|471:124,1,113.999996520996,2|8,0:0|3:2,0:0:0:0:
359,338,147088,1,2,3:2:0:0:
291,217,147241,2,0,P|206:239|172:323,1,170.999994781494,8|0,1:2|0:0,0:0:0:0:
110,384,147547,6,0,L|94:246,1,113.999996520996,10|0,1:2|3:0,0:0:0:0:
245,71,147853,5,10,1:2:0:0:
36,184,148006,1,0,3:0:0:0:
291,217,148159,5,10,1:2:0:0:
45,80,148313,1,0,3:0:0:0:
322,19,148466,38,0,B|348:68|348:68|322:122,1,113.999996520996,10|0,1:2|3:0,0:0:0:0:
25,302,148772,5,6,1:2:0:0:
171,15,148925,1,0,0:0:0:0:
322,120,149078,6,0,L|190:101,1,113.999996520996,0|0,3:0|1:0,0:0:0:0:
125,87,149307,1,0,1:0:0:0:
113,74,149384,2,0,L|127:146,1,56.9999982604981,2|0,1:2|0:0,0:0:0:0:
267,358,149537,5,0,1:0:0:0:
308,377,149614,1,0,1:0:0:0:
358,384,149690,1,2,1:2:0:0:
414,372,149767,1,0,1:0:0:0:
464,340,149843,1,0,1:0:0:0:
499,287,149920,1,0,1:0:0:0:
512,220,149996,38,0,L|486:26,1,170.999994781494,6|0,3:1|0:0,0:0:0:0:
426,0,150302,2,0,P|365:6|324:52,1,113.999996520996,8|0,1:2|0:0,0:0:0:0:
344,222,150608,6,0,B|365:243|392:253|392:253|403:226|402:184,1,113.999996520996,10|0,3:2|3:0,0:0:0:0:
289,158,150838,2,0,P|262:202|276:271,1,113.999996520996,2|0,0:0|0:0,0:0:0:0:
368,117,151068,1,2,1:0:0:0:
216,15,151221,6,0,P|137:39|35:55,1,170.999994781494,10|0,3:2|0:0,0:0:0:0:
21,55,151527,1,10,1:2:0:0:
227,120,151680,1,0,0:0:0:0:
2,249,151833,5,10,3:2:0:0:
133,80,151986,1,0,3:0:0:0:
280,240,152139,2,0,L|163:216,1,113.999996520996,10|0,1:2|0:0,0:0:0:0:
0,384,152445,38,0,P|69:366|191:357,1,170.999994781494,10|0,3:2|0:0,0:0:0:0:
244,317,152751,2,0,P|285:352|365:356,1,113.999996520996,8|0,1:2|0:0,0:0:0:0:
512,110,153057,6,0,P|452:123|398:130,1,113.999996520996,10|0,3:2|0:0,0:0:0:0:
314,122,153287,1,2,0:0:0:0:
314,122,153364,1,8,1:2:0:0:
440,281,153517,1,2,3:2:0:0:
498,8,153670,5,10,0:0:0:0:
235,143,153823,1,0,3:0:0:0:
468,352,153976,2,0,P|512:310|505:245,1,113.999996520996,8|0,1:2|0:0,0:0:0:0:
215,217,154282,5,8,3:2:0:0:
170,374,154435,1,0,1:0:0:0:
132,339,154511,1,0,1:0:0:0:
145,289,154588,2,0,P|175:292|220:308,1,56.9999982604981,0|0,1:0|0:0,0:0:0:0:
288,377,154741,1,0,1:0:0:0:
97,221,154894,38,0,L|32:203,1,66.4999979705811,6|0,3:2|0:0,0:0:0:0:
265,56,155047,2,0,L|247:120,1,66.4999979705811,0|0,3:0|0:0,0:0:0:0:
215,217,155200,1,0,1:0:0:0:
502,73,155353,6,0,B|510:49|529:32|529:32|450:65|450:65|430:140|331:148,1,265.999991882324,6|2,3:2|3:2,0:0:0:0:
159,89,155813,1,2,1:2:0:0:
42,353,155966,6,0,B|9:346|-8:295|30:264|64:271|64:271|213:304,1,246.999988693238,6|0,3:2|3:0,0:0:0:0:
446,275,156425,2,0,L|302:243,1,123.499994346619,0|2,1:0|0:0,0:0:0:0:
37,144,156731,5,0,1:0:0:0:
1,101,156807,1,0,1:0:0:0:
10,46,156884,1,0,1:0:0:0:
56,16,156960,1,0,1:0:0:0:
108,28,157037,38,0,P|114:63|116:98,1,71.25,2|0,1:2|0:0,0:0:0:0:
87,210,157343,6,0,P|123:175|187:201,1,95,6|8,3:2|0:0,0:0:0:0:
261,126,157649,1,2,3:2:0:0:
261,126,157802,2,0,P|246:173|236:231,1,95,10|0,0:0|3:0,0:0:0:0:
150,262,158108,2,0,P|185:293|186:343,1,95,10|0,0:0|3:0,0:0:0:0:
41,365,158415,1,10,0:0:0:0:
41,365,158491,1,0,0:0:0:0:
41,365,158568,5,0,3:0:0:0:
119,325,158721,1,10,0:0:0:0:
201,371,158874,1,2,3:1:0:0:
279,331,159027,2,0,P|329:331|372:386,1,95,10|0,0:0|3:0,0:0:0:0:
163,235,159333,5,10,3:2:0:0:
163,235,159409,1,0,1:0:0:0:
161,234,159486,2,0,B|131:213|142:159|142:159|144:198|169:208,1,142.5,2|0,1:2|0:0,0:0:0:0:
255,137,159792,38,0,L|55:109,1,170.999994781494,6|0,3:2|0:0,0:0:0:0:
1,98,160098,5,0,1:0:0:0:
255,217,160251,1,0,3:0:0:0:
309,201,160328,1,0,3:0:0:0:
364,186,160404,1,0,1:0:0:0:
269,43,160557,5,0,3:0:0:0:
184,349,160710,1,2,1:2:0:0:
448,44,160864,6,0,B|473:41|483:17|483:17|473:41|487:63,1,95,2|0,1:2|0:0,0:0:0:0:
448,44,162241,21,6,0:0:0:0:
256,192,162318,12,0,164690,0:0:0:0:
368,166,170966,85,8,3:0:0:0:
308,300,171272,69,8,3:0:0:0:
476,247,171578,6,0,P|491:227|494:189,1,47.5
368,166,171731,6,0,P|381:249|394:354,1,170.999994781494,4|0,1:2|0:0,0:0:0:0:
393,359,172037,5,6,3:2:0:0:
197,287,172190,2,0,P|153:297|156:366,1,95,2|0,0:0|1:0,0:0:0:0:
287,238,172496,2,0,P|274:195|261:130,1,95,2|0,0:2|3:0,0:0:0:0:
156,197,172802,1,2,3:2:0:0:
273,69,172955,1,0,1:0:0:0:
35,34,173108,6,0,P|41:79|56:136,1,95,2|0,3:2|0:0,0:0:0:0:
197,287,173415,1,2,0:0:0:0:
8,220,173568,1,2,1:2:0:0:
161,89,173721,1,2,0:2:0:0:
156,197,173874,5,2,3:2:0:0:
53,127,174027,1,2,3:2:0:0:
98,313,174180,37,2,1:2:0:0:
254,206,174333,1,2,3:2:0:0:
161,89,174486,5,2,3:2:0:0:
197,287,174639,1,2,0:2:0:0:
53,127,174792,1,2,1:2:0:0:
291,65,174945,5,2,2:2:0:0:
291,65,175022,1,0,0:0:0:0:
291,65,175098,2,0,L|278:110,1,47.5,8|8,3:0|0:3,0:0:0:0:
254,206,175251,1,2,3:2:0:0:
441,125,175404,1,0,1:0:0:0:
512,286,175557,6,0,P|419:296|352:360,1,190,2|0,0:2|0:0,0:0:0:0:
354,204,176017,1,2,1:2:0:0:
266,372,176170,1,2,0:0:0:0:
266,372,176246,1,0,0:0:0:0:
266,372,176323,2,0,P|257:351|255:327,1,47.5,10|8,3:2|0:3,0:0:0:0:
275,243,176476,37,2,3:2:0:0:
174,320,176629,1,2,1:2:0:0:
59,240,176782,1,2,0:2:0:0:
163,19,176935,5,2,3:2:0:0:
272,137,177088,1,2,0:2:0:0:
115,172,177241,1,0,1:0:0:0:
178,16,177394,5,2,0:2:0:0:
178,16,177471,1,0,0:0:0:0:
178,16,177547,2,0,L|207:64,1,47.5,10|8,3:2|0:3,0:0:0:0:
265,151,177700,1,0,3:0:0:0:
105,159,177853,5,2,1:2:0:0:
264,8,178006,1,2,0:2:0:0:
226,286,178159,37,2,3:2:0:0:
125,57,178313,1,2,0:2:0:0:
374,85,178466,1,0,1:0:0:0:
200,280,178619,5,2,0:0:0:0:
200,280,178695,1,0,0:0:0:0:
200,280,178772,2,0,L|183:213,1,47.5,10|8,3:2|0:3,0:0:0:0:
142,37,178925,1,0,3:0:0:0:
382,108,179078,5,2,1:2:0:0:
105,159,179231,1,2,0:2:0:0:
417,245,179384,6,0,P|349:215|255:205,1,142.5,6|0,3:2|0:0,0:0:0:0:
237,139,179690,37,0,1:0:0:0:
204,145,179767,1,0,3:0:0:0:
177,125,179843,2,0,P|188:100|198:72,1,47.5,0|0,3:0|3:0,0:0:0:0:
18,157,179996,5,10,3:2:0:0:
28,204,180073,1,10,3:2:0:0:
38,250,180149,2,0,L|97:225,1,47.5,2|0,3:2|3:0,0:0:0:0:
314,358,180302,5,2,1:2:0:0:
281,316,180379,1,2,3:2:0:0:
230,290,180455,1,2,3:2:0:0:
165,291,180532,1,2,3:2:0:0:
98,314,180608,6,0,L|111:398,1,71.2500027179719,2|2,3:2|3:2,0:0:0:0:
395,230,180761,2,0,L|405:159,1,71.2500027179719,2|2,3:2|3:2,0:0:0:0:
219,219,180915,38,0,L|232:303,1,71.2500027179719,2|2,1:2|3:2,0:0:0:0:
493,384,181068,2,0,L|503:313,1,71.2500027179719,2|2,3:2|3:2,0:0:0:0:
423,46,181221,5,10,3:2:0:0:
390,31,181297,1,10,3:2:0:0:
355,36,181374,1,2,3:2:0:0:
328,58,181450,1,2,3:2:0:0:
316,91,181527,5,2,1:2:0:0:
319,102,181603,1,0,3:2:0:0:
322,113,181680,1,2,3:2:0:0:
325,125,181756,1,0,3:2:0:0:
328,136,181833,5,6,1:2:0:0:
61,31,181986,1,0,3:0:0:0:
187,291,182139,38,0,L|329:248,1,113.999996520996,0|0,1:0|0:0,0:0:0:0:
323,248,182369,1,0,0:0:0:0:
323,248,182445,5,2,1:2:0:0:
56,128,182598,1,0,3:0:0:0:
390,31,182751,1,0,1:0:0:0:
136,0,182904,6,0,B|150:70|150:70|164:84|164:84|183:185,1,170.999994781494,6|0,3:2|0:0,0:0:0:0:
184,190,183210,1,0,3:0:0:0:
478,260,183364,5,0,3:0:0:0:
487,217,183440,1,0,3:0:0:0:
477,176,183517,1,0,3:0:0:0:
451,143,183593,1,0,1:0:0:0:
413,122,183670,37,0,1:0:0:0:
329,158,183823,1,0,3:0:0:0:
293,259,183976,1,8,3:0:0:0:
348,346,184129,1,8,3:0:0:0:
434,375,184282,53,6,3:2:0:0:
434,375,184588,2,0,P|469:362|520:357,1,71.2500027179719,0|0,3:0|0:0,0:0:0:0:
399,299,184894,2,0,P|368:279|328:281,1,71.2500027179719,2|0,3:2|0:0,0:0:0:0:
498,203,185200,2,0,P|485:237|477:274,1,71.2500027179719,0|0,3:0|0:0,0:0:0:0:
365,162,185506,6,0,P|428:150|456:67,2,142.500005435944,2|0|0,3:2|3:0|3:0,0:0:0:0:
203,29,186425,2,0,P|227:47|242:92,1,71.2500027179719,2|0,3:2|0:0,0:0:0:0:
156,180,186731,70,0,P|80:167|6:159,1,142.500005435944,10|0,3:2|3:0,0:0:0:0:
47,300,187190,2,0,P|66:277|126:265,1,71.2500027179719,2|0,0:0|3:0,0:0:0:0:
202,302,187496,1,2,0:0:0:0:
202,302,187649,2,0,P|190:343|182:387,1,71.2500027179719,2|8,3:2|0:0,0:0:0:0:
212,222,187955,6,0,B|252:223|274:261|274:261|296:298|356:296,1,142.500005435944,2|0,3:2|3:0,0:0:0:0:
418,286,188415,1,0,0:0:0:0:
418,286,188491,1,0,0:0:0:0:
418,286,188568,70,0,P|408:321|396:380,1,71.2500027179719,10|0,3:2|0:0,0:0:0:0:
485,169,188874,2,0,P|434:161|448:100,1,106.875004076958,10|0,3:2|0:0,0:0:0:0:
508,82,189180,6,0,L|361:103,1,142.500005435944,6|0,3:2|3:0,0:0:0:0:
285,52,189639,1,2,0:0:0:0:
285,52,189792,2,0,P|301:17|347:9,1,71.2500027179719,0|0,3:0|0:0,0:0:0:0:
183,29,190098,2,0,P|196:65|206:108,1,71.2500027179719,2|0,3:2|0:0,0:0:0:0:
184,165,190328,1,0,0:0:0:0:
184,165,190404,70,0,P|145:152|96:148,1,71.2500027179719,10|0,3:2|0:0,0:0:0:0:
197,172,190710,1,2,3:2:0:0:
163,246,190864,2,0,P|124:233|75:229,1,71.2500027179719,10|0,0:0|3:0,0:0:0:0:
176,253,191170,1,0,0:0:0:0:
78,359,191323,2,0,P|130:336|202:335,1,106.875004076958,10|0,3:2|0:0,0:0:0:0:
263,310,191629,6,0,L|276:381,1,71.2500027179719,6|0,3:2|0:0,0:0:0:0:
342,309,191935,2,0,L|355:380,1,71.2500027179719,8|0,3:2|0:0,0:0:0:0:
421,308,192241,2,0,L|434:379,1,71.2500027179719,8|0,3:2|0:0,0:0:0:0:
381,237,192547,69,10,3:2:0:0:
276,381,192700,1,0,1:0:0:0:
268,200,192853,5,2,3:2:0:0:
434,379,193006,1,0,1:0:0:0:
496,211,193159,1,0,3:0:0:0:
345,80,193313,69,0,1:0:0:0:
333,104,193390,1,0,1:0:0:0:
322,129,193466,2,0,P|370:109|438:97,1,106.875004076958,2|0,3:2|0:0,0:0:0:0:
512,79,193772,6,0,L|285:50,1,199.499993911743,4|0,1:2|0:0,0:0:0:0:
214,1,194078,6,0,P|228:65|244:153,1,142.5,6|0,3:2|0:0,0:0:0:0:
232,221,194384,2,0,P|268:224|311:172,1,95,0|0,1:0|0:0,0:0:0:0:
140,85,194690,1,2,3:2:0:0:
117,90,194766,1,0,0:0:0:0:
94,96,194843,1,0,3:0:0:0:
40,257,194996,2,0,P|82:239|145:226,1,95,0|0,1:0|0:0,0:0:0:0:
306,377,195302,6,0,B|342:367|354:333|354:333|365:296|419:287,1,142.5,2|0,3:2|0:0,0:0:0:0:
487,265,195608,2,0,P|512:245|483:261,1,95,0|0,1:0|0:0,0:0:0:0:
432,365,195915,1,0,3:0:0:0:
432,365,195991,1,0,0:0:0:0:
432,365,196068,1,0,3:0:0:0:
282,301,196221,2,0,P|301:258|315:197,1,95,2|2,1:2|0:0,0:0:0:0:
230,52,196527,6,0,P|295:68|376:80,1,142.5,0|0,3:0|0:0,0:0:0:0:
443,46,196833,2,0,P|482:47|504:112,1,95,2|2,1:2|0:0,0:0:0:0:
385,253,197139,1,0,3:0:0:0:
390,229,197215,1,0,0:0:0:0:
396,206,197292,1,2,3:2:0:0:
439,313,197445,1,2,1:2:0:0:
342,146,197598,1,2,0:0:0:0:
256,361,197751,6,0,P|297:345|357:338,1,95,0|0,3:0|3:0,0:0:0:0:
194,165,198057,37,0,1:0:0:0:
107,378,198210,1,0,3:0:0:0:
30,147,198364,5,0,1:0:0:0:
282,226,198517,1,0,3:0:0:0:
8,321,198670,5,2,1:2:0:0:
162,53,198823,6,0,B|203:14|259:36|259:36|290:91|373:83,1,209.000006378174,6|2,3:2|3:2,0:0:0:0:
512,25,199282,1,2,1:2:0:0:
261,155,199435,1,2,0:0:0:0:
334,0,199588,1,2,3:2:0:0:
512,222,199741,1,0,3:0:0:0:
439,67,199894,1,2,1:2:0:0:
305,258,200047,38,0,P|378:269|472:305,1,156.750004783631,2|0,3:2|0:0,0:0:0:0:
478,310,200353,1,2,3:2:0:0:
184,377,200506,2,0,P|200:328|211:269,1,104.500003189087,0|2,1:0|3:2,0:0:0:0:
207,249,200736,1,0,0:0:0:0:
207,249,200813,5,0,1:0:0:0:
59,271,200966,1,0,3:0:0:0:
331,362,201119,1,2,1:2:0:0:
198,127,201272,6,0,B|107:153|107:153|102:165|102:165|1:194,1,209.000006378174,6|2,3:2|3:2,0:0:0:0:
136,1,201731,2,0,L|258:36,1,104.500003189087,2|2,1:2|0:0,0:0:0:0:
434,25,202037,1,2,3:2:0:0:
265,173,202190,1,0,3:0:0:0:
451,31,202343,1,2,1:2:0:0:
512,258,202496,6,0,P|443:225|353:199,1,156.750004783631,2|0,3:2|0:0,0:0:0:0:
340,196,202802,1,0,3:0:0:0:
236,29,202955,2,0,P|282:51|297:117,1,104.500003189087,4|0,1:2|0:0,0:0:0:0:
90,256,203261,37,0,1:0:0:0:
61,214,203337,1,0,3:0:0:0:
79,166,203414,1,0,3:0:0:0:
127,153,203490,1,0,1:0:0:0:
166,184,203568,6,0,P|174:219|179:259,1,71.25,2|0,1:2|0:0,0:0:0:0:
131,354,203874,6,0,P|216:327|327:310,1,185.249991519928,6|0,3:1|0:0,0:0:0:0:
395,323,204180,5,2,1:2:0:0:
127,153,204333,1,0,3:0:0:0:
357,111,204486,37,2,1:2:0:0:
213,372,204639,1,0,3:0:0:0:
192,105,204792,5,2,1:2:0:0:
469,218,204945,1,0,3:0:0:0:
335,0,205098,6,0,L|361:128,1,113.999996520996,2|0,1:2|0:0,0:0:0:0:
498,46,205404,5,2,1:2:0:0:
199,177,205557,1,0,3:0:0:0:
462,129,205710,37,2,1:2:0:0:
231,33,205864,1,0,3:0:0:0:
426,0,206017,5,2,1:2:0:0:
309,176,206170,1,0,3:0:0:0:
75,27,206323,6,0,B|19:12|19:12|-12:93,1,113.999996520996,4|0,1:2|3:0,0:0:0:0:
32,239,206629,5,2,1:2:0:0:
170,182,206782,1,0,3:0:0:0:
0,324,206935,37,0,1:0:0:0:
247,226,207088,1,0,3:0:0:0:
73,139,207241,5,0,1:0:0:0:
277,379,207394,6,0,P|363:360|487:344,1,170.999994781494,4|0,3:2|0:0,0:0:0:0:
473,348,207700,1,0,3:0:0:0:
310,246,207853,1,0,3:0:0:0:
487,75,208006,5,0,3:0:0:0:
504,97,208083,1,0,1:0:0:0:
500,125,208159,2,0,P|464:111|430:103,1,56.9999982604981,2|0,1:2|0:0,0:0:0:0:
211,4,208313,37,0,3:0:0:0:
166,28,208389,1,0,1:0:0:0:
179,77,208466,2,0,P|260:55|382:37,1,170.999994781494,6|0,1:2|0:0,0:0:0:0:
374,41,208772,5,0,3:0:0:0:
277,140,208925,1,8,3:2:0:0:
504,202,209078,5,0,3:0:0:0:
291,224,209231,1,8,3:2:0:0:
434,370,209384,5,0,3:0:0:0:
211,194,209537,1,8,3:2:0:0:
446,106,209690,37,8,3:2:0:0:
87,5,209843,6,0,L|115:218,1,170.999994781494,0|0,1:0|0:0,0:0:0:0:
85,257,210149,6,0,P|77:278|88:257,1,71.2500027179719,0|0,1:0|0:0,0:0:0:0:
425,80,210302,2,0,P|432:58|421:79,1,71.2500027179719,0|0,1:0|0:0,0:0:0:0:
65,321,219716,37,0,0:0:0:0:
69,326,219792,1,8,3:0:0:0:
211,243,220022,69,8,3:0:0:0:
90,174,220251,5,8,3:0:0:0:
214,0,220404,69,10,3:0:0:0:
195,83,220634,5,8,3:0:0:0:
176,166,220864,69,8,3:0:0:0:
277,58,221017,22,0,P|355:39|407:122,1,170.999994781494,6|2,1:2|1:2,0:0:0:0:
349,224,221476,2,0,P|343:182|322:139,1,85.4999973907472,2|0,0:0|1:0,0:0:0:0:
506,131,221782,2,0,P|487:169|481:211,1,85.4999973907472,2|2,0:0|1:2,0:0:0:0:
506,131,222088,1,2,0:0:0:0:
466,326,222241,6,0,P|372:311|290:306,1,170.999994781494,2|2,1:2|1:2,0:0:0:0:
183,357,222700,1,8,3:0:0:0:
231,268,222853,1,2,1:2:0:0:
81,284,223006,1,0,0:0:0:0:
129,195,223159,2,0,B|124:159|150:133|150:133|120:151|111:190,1,128.249996086121,10|0,3:0|0:0,0:0:0:0:
203,188,223466,6,0,L|342:161,1,128.249996086121,4|0,1:2|0:0,0:0:0:0:
350,159,223772,1,0,1:0:0:0:
221,86,223925,2,0,L|271:102,1,42.7499986953736,8|0,1:2|0:0,0:0:0:0:
372,155,224078,1,2,1:2:0:0:
262,277,224231,2,0,L|303:244,1,42.7499986953736,8|0,1:2|0:0,0:0:0:0:
394,151,224384,2,0,P|433:148|467:196,1,85.4999973907472,2|2,1:2|0:0,0:0:0:0:
370,283,224690,5,0,1:0:0:0:
333,80,224843,1,8,3:0:0:0:
503,103,224996,1,0,1:0:0:0:
308,168,225149,1,8,3:0:0:0:
497,261,225302,37,0,1:0:0:0:
461,350,225455,1,0,3:0:0:0:
369,381,225608,1,2,1:2:0:0:
287,331,225761,1,0,3:0:0:0:
70,345,225915,54,0,B|40:371|73:407|136:389|111:319|81:302|81:302|52:279|42:244|41:157|143:152,1,341.999989562989,6|2,3:2|3:2,0:0:0:0:
305,235,227139,2,0,P|385:226|433:149,1,170.999994781494,0|8,1:0|3:0,0:0:0:0:
322,113,227751,2,0,P|315:151|341:116,1,113.999996520996,2|2,0:0|3:2,0:0:0:0:
42,14,228364,6,0,B|82:6|94:42|60:79|60:79|119:28|171:59|171:59|234:93|298:28,1,341.999989562989,2|2,3:2|3:2,0:0:0:0:
485,66,229588,1,0,1:0:0:0:
414,138,229741,2,0,L|396:18,1,113.999996520996,8|8,3:0|3:0,0:0:0:0:
397,25,230353,1,0,3:0:0:0:
501,145,230506,70,0,P|487:205|472:297,1,142.5,6|0,1:2|0:0,0:0:0:0:
474,306,230813,22,0,P|440:280|378:285,1,85.4999973907472,6|0,3:2|0:0,0:0:0:0:
317,384,231119,2,0,P|331:343|307:286,1,85.4999973907472,2|2,3:2|0:0,0:0:0:0:
194,258,231425,2,0,P|236:259|284:218,1,85.4999973907472,0|2,3:0|0:0,0:0:0:0:
275,102,231731,2,0,P|287:143|340:175,1,85.4999973907472,0|2,3:0|0:0,0:0:0:0:
425,181,231960,1,0,0:0:0:0:
425,181,232037,6,0,L|512:157,1,85.4999973907472,8|0,3:2|0:0,0:0:0:0:
389,49,232343,1,10,3:2:0:0:
343,236,232496,1,0,0:0:0:0:
287,23,232649,1,10,3:2:0:0:
489,84,232802,1,0,0:0:0:0:
441,260,232955,2,0,P|431:211|479:242,1,128.249996086121,10|0,3:2|0:0,0:0:0:0:
459,363,233261,6,0,B|417:381|382:343|382:343|351:304|282:334,1,170.999994781494,6|0,3:2|0:0,0:0:0:0:
102,270,233568,5,0,1:0:0:0:
105,303,233644,1,0,0:0:0:0:
131,332,233721,1,0,3:0:0:0:
175,339,233797,1,0,3:0:0:0:
216,312,233874,1,0,1:0:0:0:
224,262,233950,1,0,3:0:0:0:
186,220,234027,1,0,1:0:0:0:
142,185,234103,1,0,1:0:0:0:
126,124,234180,1,2,1:2:0:0:
152,60,234256,1,0,1:0:0:0:
218,27,234333,2,0,P|253:31|285:45,1,56.9999982604981,0|0,3:0|3:0,0:0:0:0:
471,303,234486,6,0,B|447:289|446:254|446:254|437:288|406:292,1,113.999996520996,2|0,0:0|0:0,0:0:0:0:
88,130,235710,21,6,3:1:0:0:
31,142,235786,1,0,3:0:0:0:
0,190,235863,1,0,1:0:0:0:
12,247,235939,1,0,1:0:0:0:
60,278,236017,6,0,L|147:260,1,71.25,0|0,1:0|0:0,0:0:0:0:
160,83,236323,6,0,P|99:41|35:73,1,142.500005435944,6|0,3:2|0:0,0:0:0:0:
221,224,236552,6,0,B|242:241|242:241|326:222|326:222|340:191,1,142.500005435944,2|0,1:2|0:0,0:0:0:0:
280,0,236782,38,0,L|267:107,1,71.2500027179719,2|0,1:2|0:0,0:0:0:0:
400,332,236935,6,0,L|422:145,1,170.999994781494,6|0,3:1|0:0,0:0:0:0:
429,82,237241,2,0,P|476:87|496:173,1,113.999996520996,10|0,1:2|0:0,0:0:0:0:
330,120,237547,5,10,3:2:0:0:
484,274,237700,1,0,3:0:0:0:
278,374,237853,2,0,P|226:358|160:351,1,113.999996520996,10|0,1:2|0:0,0:0:0:0:
10,276,238159,6,0,P|27:187|38:100,1,170.999994781494,10|0,3:2|0:0,0:0:0:0:
56,28,238466,2,0,P|113:27|144:95,1,113.999996520996,8|0,1:2|0:0,0:0:0:0:
166,351,238772,38,0,B|208:313|208:313|192:237,1,113.999996520996,10|0,3:2|0:0,0:0:0:0:
115,282,239001,1,2,0:0:0:0:
115,282,239078,1,8,1:2:0:0:
329,348,239231,1,2,0:0:0:0:
455,101,239384,5,10,0:0:0:0:
277,246,239537,1,0,3:0:0:0:
163,62,239690,2,0,L|37:31,1,113.999996520996,8|0,1:2|0:0,0:0:0:0:
350,203,239996,5,0,1:0:0:0:
383,158,240072,1,0,1:0:0:0:
385,102,240149,1,0,1:0:0:0:
355,55,240225,1,0,1:0:0:0:
303,33,240302,1,2,1:2:0:0:
221,327,240455,6,0,P|294:308|405:302,1,170.999994781494,6|0,3:2|0:0,0:0:0:0:
417,307,240761,1,0,3:0:0:0:
266,238,240915,1,8,1:2:0:0:
391,126,241068,2,0,P|439:157|440:217,1,113.999996520996,2|8,0:0|3:2,0:0:0:0:
274,126,241374,1,2,3:2:0:0:
336,30,241527,1,10,1:2:0:0:
113,80,241680,1,2,3:2:0:0:
337,203,241833,37,10,0:0:0:0:
85,308,241986,1,2,3:2:0:0:
348,205,242139,1,10,1:2:0:0:
270,368,242292,2,0,P|211:360|156:360,1,113.999996520996,2|8,0:0|3:2,0:0:0:0:
23,224,242598,5,2,3:2:0:0:
164,275,242751,1,10,1:2:0:0:
267,162,242904,1,2,3:2:0:0:
63,0,243057,6,0,L|103:186,1,170.999994781494,6|0,1:2|0:0,0:0:0:0:
106,192,243364,5,2,1:2:0:0:
315,12,243517,1,0,3:0:0:0:
308,230,243670,37,2,1:2:0:0:
161,29,243823,1,0,3:0:0:0:
189,299,243976,5,2,1:2:0:0:
441,103,244129,1,0,3:0:0:0:
225,108,244282,5,6,3:2:0:0:
201,123,244358,1,0,0:0:0:0:
207,151,244435,2,0,P|238:154|279:164,1,56.9999982604981,0|0,1:0|1:0,0:0:0:0:
457,281,244588,5,2,1:2:0:0:
498,321,244665,1,0,0:0:0:0:
477,373,244741,2,0,P|443:362|398:355,1,56.9999982604981,0|0,1:0|1:0,0:0:0:0:
176,363,244894,37,10,3:0:0:0:
223,384,244971,1,8,3:0:0:0:
276,382,245047,1,8,3:0:0:0:
325,353,245124,1,8,3:0:0:0:
356,302,245200,1,0,3:0:0:0:
354,238,245277,1,0,3:0:0:0:
315,181,245353,2,0,P|291:167|251:157,1,56.9999982604981,0|0,3:0|3:0,0:0:0:0:
21,39,245506,53,2,3:2:0:0:
30,61,245583,5,0,0:0:0:0:
37,45,245659,69,0,3:0:0:0:
15,55,245736,5,0,3:0:0:0:
14,140,245813,6,0,B|73:150|100:105|100:105|129:56|205:71,1,199.499993911743,6|0,1:0|0:0,0:0:0:0:
315,181,246119,6,0,P|388:193|441:158,1,113.999996520996,8|0,3:2|3:0,0:0:0:0:
426,63,246348,2,0,P|408:37|411:80,1,113.999996520996,2|0,0:0|0:0,0:0:0:0:
506,134,246578,1,2,1:0:0:0:
305,89,246731,5,10,3:2:0:0:
431,271,246884,1,0,0:0:0:0:
266,378,247037,2,0,P|273:337|347:322,1,113.999996520996,10|0,1:2|0:0,0:0:0:0:
457,380,247343,5,10,3:2:0:0:
314,209,247496,1,0,3:0:0:0:
409,80,247649,2,0,B|435:133|435:133|406:180,1,113.999996520996,10|0,1:2|0:0,0:0:0:0:
246,14,247955,38,0,B|208:20|177:22|177:22|151:41|151:41|116:42|66:52,1,170.999994781494,6|0,3:2|0:0,0:0:0:0:
34,113,248261,2,0,B|-5:70|-5:70|19:-2,1,113.999996520996,8|0,1:2|0:0,0:0:0:0:
224,207,248568,6,0,L|201:341,1,113.999996520996,10|0,3:2|0:0,0:0:0:0:
150,384,248797,1,2,0:0:0:0:
150,384,248874,1,8,1:2:0:0:
311,165,249027,1,2,3:2:0:0:
33,36,249180,6,0,B|12:17|12:17|43:157,1,170.999994781494,2|0,0:0|0:0,0:0:0:0:
48,184,249486,1,2,1:2:0:0:
232,27,249639,1,2,0:0:0:0:
172,226,249792,1,0,3:0:0:0:
390,84,249945,5,2,1:2:0:0:
409,42,250022,1,0,1:0:0:0:
375,11,250098,2,0,P|345:13|319:37,1,56.9999982604981,2|0,1:2|0:0,0:0:0:0:
470,246,250251,1,0,3:0:0:0:
470,246,250328,1,0,0:0:0:0:
470,246,250404,38,0,P|499:228|509:175,1,71.2500027179719,6|0,3:2|0:0,0:0:0:0:
228,317,250557,2,0,P|239:349|290:367,1,71.2500027179719,0|0,3:0|0:0,0:0:0:0:
345,265,250710,1,0,1:0:0:0:
107,58,250864,6,0,B|115:108|115:108|120:115|120:115|119:126|119:126|128:190|128:190|137:248|219:233|200:172,1,265.999991882324,6|2,3:2|3:2,0:0:0:0:
247,36,251323,1,2,1:2:0:0:
0,288,251476,6,0,B|-17:266|-17:266|22:278|22:278|27:274|27:274|29:280|29:280|71:298|71:298|90:372|159:386,1,246.999988693238,6|0,3:2|3:0,0:0:0:0:
307,232,251935,2,0,L|279:109,1,123.499994346619,0|0,1:0|0:0,0:0:0:0:
102,28,252241,5,0,3:0:0:0:
46,19,252317,1,0,3:0:0:0:
3,54,252394,1,0,1:0:0:0:
0,109,252470,1,0,1:0:0:0:
37,148,252547,38,0,P|67:128|123:119,1,71.25,2|0,1:2|0:0,0:0:0:0:
197,41,252853,6,0,P|186:87|178:150,1,95,6|8,3:2|0:0,0:0:0:0:
91,213,253159,1,2,3:2:0:0:
91,213,253313,2,0,P|137:210|157:270,1,95,10|0,0:0|3:0,0:0:0:0:
97,324,253619,2,0,P|49:311|-8:307,1,95,10|0,0:0|3:0,0:0:0:0:
187,383,253925,1,10,0:0:0:0:
187,383,254001,1,0,0:0:0:0:
187,383,254078,5,0,3:0:0:0:
254,303,254231,1,10,0:0:0:0:
337,365,254384,1,2,3:2:0:0:
404,285,254537,1,10,0:0:0:0:
321,223,254690,2,0,P|287:192|300:137,1,95,0|8,3:0|0:0,0:0:0:0:
364,69,254996,2,0,P|408:84|460:92,1,95,2|0,3:2|0:0,0:0:0:0:
249,6,255302,6,0,B|189:17|171:57|171:57|151:102|73:104,1,190,6|2,3:2|3:2,0:0:0:0:
211,177,255761,2,0,P|221:131|251:80,1,95,10|0,0:0|3:0,0:0:0:0:
61,14,256068,2,0,P|83:55|94:101,1,95,10|0,0:0|3:0,0:0:0:0:
12,290,256374,1,2,1:2:0:0:
117,193,256527,37,0,0:0:0:0:
0,185,256680,1,10,3:0:0:0:
119,311,256833,1,10,3:0:0:0:
216,251,256986,1,2,3:2:0:0:
94,101,257139,2,0,P|106:152|124:213,1,95,0|0,3:0|0:0,0:0:0:0:
240,57,257445,2,0,P|225:20|159:17,1,95,0|2,1:0|3:2,0:0:0:0:
269,193,257751,6,0,P|347:173|476:158,1,170.999994781494,6|0,3:1|0:0,0:0:0:0:
465,161,258057,1,2,1:2:0:0:
304,276,258210,5,2,3:2:0:0:
304,276,258287,1,0,3:0:0:0:
304,276,258364,1,0,1:0:0:0:
380,17,258517,5,2,3:2:0:0:
391,29,258593,1,0,3:0:0:0:
382,44,258670,2,0,P|350:33|307:29,1,56.9999982604981,0|0,1:0|0:0,0:0:0:0:
97,16,258823,37,2,3:2:0:0:
91,44,258899,1,0,3:0:0:0:
110,65,258976,2,0,P|134:51|171:40,1,56.9999982604981,0|0,1:0|0:0,0:0:0:0:
390,190,259129,5,2,3:2:0:0:
414,158,259205,1,0,3:0:0:0:
403,119,259282,2,0,P|369:114|335:100,1,56.9999982604981,2|0,1:2|3:0,0:0:0:0:
54,183,259435,5,2,3:2:0:0:
21,195,259511,1,0,3:0:0:0:
0,169,259588,1,0,1:0:0:0:
20,142,259665,1,0,3:0:0:0:
51,151,259741,2,0,P|78:148|123:119,1,56.9999982604981,2|0,3:2|3:0,0:0:0:0:
174,243,259894,2,0,P|185:217|182:164,1,56.9999982604981,2|0,1:2|3:0,0:0:0:0:
315,182,260047,2,0,P|298:159|251:135,1,56.9999982604981,0|0,3:0|3:0,0:0:0:0:
51,254,260200,5,2,1:2:0:0:
23,300,260276,1,0,1:0:0:0:
45,350,260353,1,0,1:0:0:0:
99,359,260429,1,0,1:0:0:0:
136,319,260506,1,0,1:0:0:0:
173,279,260583,1,0,1:0:0:0:
227,288,260659,1,0,1:0:0:0:
250,337,260736,1,0,1:0:0:0:
221,384,260812,37,0,1:0:0:0:
198,335,260889,1,0,1:0:0:0:
227,288,260966,1,0,1:0:0:0:
270,253,261042,1,0,1:0:0:0:
326,253,261119,1,0,1:0:0:0:
380,268,261195,1,0,1:0:0:0:
431,247,261272,1,0,1:0:0:0:
458,198,261348,1,0,1:0:0:0:
448,143,261425,5,0,1:0:0:0:
387,132,261501,1,0,1:0:0:0:
326,149,261578,1,0,1:0:0:0:
280,191,261654,1,0,1:0:0:0:
270,253,261731,1,0,1:0:0:0:
252,312,261807,1,0,1:0:0:0:
205,351,261884,1,0,1:0:0:0:
143,358,261960,1,0,1:0:0:0:
88,330,262037,5,0,1:0:0:0:
100,261,262113,1,0,1:0:0:0:
144,206,262190,1,2,1:2:0:0:
210,181,262266,1,0,1:0:0:0:
280,191,262343,6,0,P|305:198|337:226,1,56.9999982604981,10|8,3:0|3:0,0:0:0:0:
254,377,262496,2,0,P|228:369|197:342,1,56.9999982604981,8|8,3:0|3:0,0:0:0:0:
96,151,262649,38,0,L|290:119,1,170.999994781494,6|0,3:2|0:0,0:0:0:0:
338,111,262955,5,0,1:0:0:0:
81,43,263108,1,0,1:0:0:0:
134,266,263261,5,0,1:0:0:0:
360,0,263415,1,0,1:0:0:0:
311,340,263568,5,2,1:2:0:0:
200,30,263721,2,0,B|183:19|169:-2|169:-2|165:31|180:48,1,95,2|0,1:2|0:0,0:0:0:0:
195,42,266323,54,0,B|149:51|128:90|128:90|106:130|45:138,1,170.999994781494,6|0,3:0|1:0,0:0:0:0:
176,198,266782,2,0,P|206:169|204:127,2,85.4999973907472,2|0|0,0:2|3:0|0:0,0:0:0:0:
30,257,267241,1,2,1:2:0:0:
30,257,267394,2,0,P|74:259|114:286,1,85.4999973907472,0|0,0:0|3:0,0:0:0:0:
186,371,267700,2,0,P|265:353|363:349,1,170.999994781494,2|0,0:0|0:0,0:0:0:0:
464,266,268159,6,0,P|502:291|511:342,1,85.4999973907472,2|0,3:2|0:0,0:0:0:0:
337,212,268466,2,0,P|339:166|379:133,1,85.4999973907472,2|0,1:2|0:0,0:0:0:0:
512,78,268772,6,0,B|449:66|449:66|421:36|421:36|349:20,1,170.999994781494,2|0,3:2|1:0,0:0:0:0:
231,120,269231,2,0,P|273:117|311:79,2,85.4999973907472,2|0|0,0:0|3:0|0:0,0:0:0:0:
127,17,269690,1,2,1:2:0:0:
127,17,269843,2,0,B|168:40|168:40|147:168,1,170.999994781494,0|2,0:0|0:2,0:0:0:0:
56,239,270302,2,0,L|37:132,1,85.4999973907472
170,322,270608,38,0,P|124:325|75:337,1,85.4999973907472,2|0,3:2|0:0,0:0:0:0:
147,162,270915,2,0,P|189:171|232:174,1,85.4999973907472,2|0,1:2|0:0,0:0:0:0:
264,349,271221,6,0,P|337:324|443:331,1,170.999994781494,6|0,3:0|1:0,0:0:0:0:
511,239,271680,2,0,P|485:202|432:198,2,85.4999973907472,2|0|0,0:2|3:0|0:0,0:0:0:0:
319,252,272139,1,2,1:2:0:0:
319,252,272292,2,0,B|308:205|351:184|351:184|393:164|381:101,1,170.999994781494,0|2,0:0|0:2,0:0:0:0:
237,73,272751,2,0,P|263:106|303:121,1,85.4999973907472
396,16,273057,6,0,L|313:37,1,85.4999973907472,2|0,3:2|0:0,0:0:0:0:
219,141,273364,2,0,L|302:120,1,85.4999973907472,2|0,1:2|0:0,0:0:0:0:
498,204,273670,6,0,P|466:170|425:157,1,85.4999973907472,2|0,3:2|0:0,0:0:0:0:
414,326,273976,2,0,P|427:285|421:244,1,85.4999973907472,0|2,1:0|0:2,0:0:0:0:
266,314,274282,2,0,P|307:305|340:278,1,85.4999973907472,0|0,3:0|0:0,0:0:0:0:
182,20,274588,37,2,3:2:0:0:
269,225,274741,1,0,1:0:0:0:
268,56,274894,5,0,0:0:0:0:
170,226,275047,1,10,3:0:0:0:
318,140,275200,1,8,3:0:0:0:
120,86,275353,5,0,1:0:0:0:
89,94,275429,1,0,1:0:0:0:
58,102,275506,1,2,1:2:0:0:
219,141,275659,1,0,3:0:0:0:
0,38,275813,6,0,P|26:102|53:218,1,170.999994781494,2|0,1:2|0:0,0:0:0:0:
97,284,276119,38,0,P|137:242|142:177,1,95,6|0,3:2|0:0,0:0:0:0:
4,301,276425,1,0,1:0:0:0:
198,384,276578,2,0,B|253:379|270:333|270:333|290:276|364:274,1,190,2|0,0:2|3:0,0:0:0:0:
492,220,277037,5,2,1:2:0:0:
277,140,277190,2,0,P|295:185|367:179,1,95,0|0,3:0|0:0,0:0:0:0:
503,106,277496,1,2,3:2:0:0:
336,6,277649,2,0,P|350:58|360:120,1,95,0|0,1:0|0:0,0:0:0:0:
75,43,277955,6,0,B|99:35|115:19|115:19|139:28|162:27,1,95,2|0,3:2|3:0,0:0:0:0:
277,140,278261,2,0,B|253:148|237:164|237:164|213:155|190:156,1,95,2|0,1:2|3:0,0:0:0:0:
0,263,278568,6,0,P|46:271|91:287,1,95,2|0,3:2|3:0,0:0:0:0:
159,361,278874,1,0,1:0:0:0:
362,235,279027,1,2,0:2:0:0:
365,247,279103,1,0,0:0:0:0:
368,259,279180,2,0,P|321:250|276:234,1,95,0|0,3:0|3:0,0:0:0:0:
190,155,279486,1,2,1:2:0:0:
402,57,279639,38,0,L|383:165,1,95,0|0,3:0|0:0,0:0:0:0:
328,325,279945,1,2,3:2:0:0:
512,259,280098,2,0,P|486:226|428:221,1,95,0|0,1:0|0:0,0:0:0:0:
419,357,280328,1,0,0:0:0:0:
419,357,280404,6,0,P|464:343|523:337,1,95,2|0,3:2|3:0,0:0:0:0:
477,130,280710,2,0,P|432:144|373:150,1,95,2|0,1:2|3:0,0:0:0:0:
192,7,281017,5,6,1:2:0:0:
327,262,281170,1,0,3:0:0:0:
412,67,281323,5,0,1:0:0:0:
162,212,281476,1,2,3:2:0:0:
308,11,281629,37,0,1:0:0:0:
130,65,281782,1,0,3:0:0:0:
384,149,281935,1,2,1:2:0:0:
5,169,282088,6,0,P|18:270|32:385,1,170.999994781494,4|0,3:2|0:0,0:0:0:0:
29,367,282394,5,2,3:2:0:0:
327,224,282547,1,0,1:0:0:0:
126,143,282700,1,0,3:0:0:0:
193,362,282853,6,0,B|249:377|249:377|295:304,1,113.999996520996,2|0,1:2|3:0,0:0:0:0:
512,122,283159,2,0,B|482:169|482:169|426:154,1,113.999996520996,2|0,1:2|3:0,0:0:0:0:
153,10,283466,37,6,1:3:0:0:
216,290,283619,1,0,3:0:0:0:
217,63,283772,5,0,1:0:0:0:
43,246,283925,1,2,3:2:0:0:
315,261,284078,5,0,1:0:0:0:
20,125,284231,1,0,3:0:0:0:
298,48,284384,5,2,1:2:0:0:
117,319,284537,1,0,3:0:0:0:
340,160,284690,37,0,1:0:0:0:
151,4,284843,1,2,3:2:0:0:
43,246,284996,5,8,3:0:0:0:
243,39,285149,1,8,3:0:0:0:
248,53,285226,1,8,3:0:0:0:
253,67,285302,6,0,P|312:83|379:78,1,113.999996520996,2|0,3:2|0:0,0:0:0:0:
496,326,285608,2,0,P|437:310|370:315,1,113.999996520996,2|0,1:2|0:0,0:0:0:0:
83,330,285915,22,0,P|66:334|49:338,1,35.625001358986,2|0,0:0|0:0,0:0:0:0:
103,341,286068,2,0,P|107:358|111:376,1,35.625001358986
114,321,286221,2,0,P|131:317|149:314,1,35.625001358986
94,310,286374,2,0,P|90:293|87:276,1,35.625001358986,2|0,0:0|0:0,0:0:0:0:
87,276,286833,6,0,P|90:293|94:310,1,35.625001358986,2|0,0:0|0:0,0:0:0:0:
148,314,286986,2,0,P|131:317|114:321,1,35.625001358986
110,375,287139,2,0,P|107:358|103:341,1,35.625001358986
49,337,287292,2,0,P|66:334|83:330,1,35.625001358986,2|0,0:0|0:0,0:0:0:0:
83,330,287598,70,0,P|66:334|49:337,1,35.625001358986
64,199,287751,2,0,P|119:201|158:243,1,106.875004076958,2|0,0:0|0:0,0:0:0:0:
345,224,288057,38,0,B|341:139|216:153|198:246|251:309|313:270|309:374|309:374|361:288|401:342|470:308|492:227|397:154|347:233,1,646,2|0,0:0|0:0,0:0:0:0:
