osu file format v14

[General]
AudioFilename: audio.mp3
AudioLeadIn: 0
PreviewTime: 74590
Countdown: 0
SampleSet: Soft
StackLeniency: 0.7
Mode: 0
LetterboxInBreaks: 0
WidescreenStoryboard: 1

[Editor]
Bookmarks: 69233,97419,101375,114068,156266
DistanceSpacing: 1
BeatDivisor: 4
GridSize: 16
TimelineZoom: 2.5

[Metadata]
Title:Hoshishizuku
TitleUnicode:ホシシズク
Artist:ShinRa-Bansho
ArtistUnicode:森羅万象
Creator:SayuMana
Version:Normal
Source:maimai でらっくす FESTiVAL
Tags:maimai deluxe dx sega video game rhythm game japanese pop jpop j-pop あやぽんず* Ayaponzu* あよ ayo ckharv ayesha altugle shizuku- shikibe mayu kazato asa
BeatmapID:3818419
BeatmapSetID:1855099

[Difficulty]
HPDrainRate:3
CircleSize:3
OverallDifficulty:4
ApproachRate:5
SliderMultiplier:0.999999999999999
SliderTickRate:1

[Events]
//Background and Video events
0,0,"maimai.jpg",0,0
Video,0,"video.m4v"
//Break Periods
2,59342,63417
2,104378,108252
//Storyboard Layer 0 (Background)
//Storyboard Layer 1 (Fail)
//Storyboard Layer 2 (Pass)
//Storyboard Layer 3 (Foreground)
//Storyboard Layer 4 (Overlay)
//Storyboard Sound Samples

[TimingPoints]
1321,329.67032967033,4,2,1,40,1,0
1321,-111.111111111111,4,2,1,40,0,0
6595,-111.111111111111,4,2,1,50,0,0
9233,-111.111111111111,4,2,1,60,0,0
11870,-100,4,2,1,70,0,0
14507,-100,4,2,1,60,0,0
16980,-100,4,2,1,70,0,0
18628,-100,4,2,1,75,0,0
19452,-100,4,2,1,50,0,0
19782,-90.9090909090909,4,2,1,80,0,0
32969,-111.111111111111,4,2,1,40,0,0
41540,-111.111111111111,4,2,1,70,0,0
43518,-100,4,2,1,70,0,0
54068,-111.111111111111,4,2,1,50,0,0
59342,-111.111111111111,4,2,1,40,0,0
64617,-111.111111111111,4,2,1,50,0,0
67255,-100,4,2,1,60,0,0
74672,-100,4,2,1,50,0,0
75167,-90.9090909090909,4,2,1,80,0,0
85716,-90.9090909090909,4,2,1,85,0,0
96266,-100,4,2,1,70,0,0
101540,-90.9090909090909,4,2,1,85,0,0
104178,-100,4,2,1,40,0,0
106815,-100,4,2,1,50,0,0
108134,-100,4,2,1,60,0,0
108793,-100,4,2,1,70,0,0
109452,-90.9090909090909,4,2,1,80,0,0
114727,-90.9090909090909,4,2,1,70,0,0
117364,-90.9090909090909,4,2,1,80,0,0
121485,-90.9090909090909,4,2,1,60,0,0
121650,-100,4,2,1,60,0,0
123793,-100,4,2,1,70,0,0
126595,-90.9090909090909,4,2,1,80,0,0
131870,-90.9090909090909,4,2,1,85,0,0
145881,-90.9090909090909,4,2,1,40,0,0
146375,-90.9090909090909,4,2,1,80,0,0
156266,-90.9090909090909,4,2,1,40,0,0

[Colours]
Combo1 : 250,180,240
Combo2 : 120,200,230
Combo3 : 255,230,130
Combo4 : 160,230,150

[HitObjects]
467,321,1321,6,0,L|526:309,2,44.999998626709,2|2|2,0:0|0:0|0:0,0:0:0:0:
425,304,1815,1,2,0:0:0:0:
348,199,2310,1,2,0:0:0:0:
348,199,2474,2,0,L|368:106,1,89.999997253418,2|2,0:0|0:0,0:0:0:0:
350,67,2969,1,2,0:0:0:0:
350,67,3134,1,2,0:0:0:0:
236,5,3628,5,2,0:0:0:0:
236,5,3793,2,0,P|192:-1|154:21,1,89.999997253418,2|2,0:0|0:0,0:0:0:0:
119,50,4288,1,2,0:0:0:0:
76,129,4617,2,0,L|31:120,2,44.999998626709,2|2|2,0:0|0:0|0:0,0:0:0:0:
101,166,5112,1,2,0:0:0:0:
178,120,5441,1,2,0:0:0:0:
252,171,5771,2,0,P|275:230|234:296,1,134.999995880127,2|2,0:0|0:0,0:0:0:0:
181,355,6595,6,0,L|122:343,2,44.999998626709,6|2|2,1:2|0:0|1:2,0:0:0:0:
216,383,7090,2,0,L|309:363,1,89.999997253418,2|2,0:0|0:0,0:0:0:0:
345,381,7584,1,2,1:2:0:0:
367,293,7914,2,0,L|355:234,1,44.999998626709,2|2,1:2|0:0,0:0:0:0:
327,223,8244,1,2,1:2:0:0:
327,223,8408,2,0,L|347:130,1,89.999997253418,2|2,0:0|0:0,0:0:0:0:
403,69,9068,6,0,P|366:46|322:52,1,89.999997253418,6|2,0:0|0:0,0:0:0:0:
287,79,9562,1,10,0:0:0:0:
287,79,9727,1,2,1:2:0:0:
240,155,10057,2,0,L|196:146,1,44.999998626709,2|10,1:2|0:0,0:0:0:0:
155,140,10386,1,2,1:2:0:0:
155,140,10551,1,12,0:0:0:0:
95,71,10881,1,10,0:0:0:0:
12,107,11211,1,10,0:0:0:0:
20,196,11540,1,8,0:0:0:0:
108,217,11870,6,0,L|86:316,1,99.9999999999999,6|10,1:2|0:0,0:0:0:0:
113,357,12364,2,0,L|210:335,1,99.9999999999999,6|0,1:2|1:0,0:0:0:0:
254,361,12859,1,14,0:0:0:0:
333,299,13189,1,0,1:0:0:0:
333,299,13353,2,0,P|342:250|319:206,1,99.9999999999999,14|2,0:0|1:2,0:0:0:0:
278,178,13848,1,14,0:0:0:0:
208,249,14178,1,10,0:0:0:0:
115,212,14507,6,0,B|127:164|91:165|108:108,1,99.9999999999999,6|0,1:2|1:0,0:0:0:0:
127,68,15002,1,2,1:2:0:0:
213,17,15331,1,0,1:0:0:0:
276,94,15661,2,0,P|319:122|374:106,1,99.9999999999999,10|0,0:0|1:0,0:0:0:0:
409,89,16156,1,10,0:0:0:0:
469,168,16485,1,2,1:2:0:0:
406,247,16815,5,0,1:0:0:0:
406,247,16980,2,0,B|358:235|359:271|302:254,1,99.9999999999999,6|0,1:2|1:0,0:0:0:0:
269,224,17474,1,0,1:0:0:0:
186,281,17804,1,0,1:0:0:0:
136,200,18134,1,8,0:0:0:0:
136,200,18299,2,0,L|157:101,1,99.9999999999999,6|2,1:2|1:2,0:0:0:0:
143,53,18793,2,0,L|93:63,1,50,2|2,1:2|1:2,0:0:0:0:
52,34,19123,1,10,0:0:0:0:
0,228,19782,6,0,B|63:209|54:258|121:236,1,110.000003356934,6|10,1:2|0:0,0:0:0:0:
136,200,20277,1,2,1:2:0:0:
220,269,20606,1,2,1:2:0:0:
303,196,20936,2,0,L|281:86,1,110.000003356934,2|2,1:2|1:2,0:0:0:0:
350,2,21595,2,0,P|402:-10|447:17,1,110.000003356934,2|2,0:0|1:2,0:0:0:0:
500,120,22255,5,2,0:0:0:0:
500,120,22419,2,0,B|481:183|530:174|508:241,1,110.000003356934,2|10,1:2|0:0,0:0:0:0:
483,273,22914,1,2,1:2:0:0:
509,379,23244,1,2,1:2:0:0:
403,348,23573,2,0,L|293:326,1,110.000003356934,2|0,1:2|1:0,0:0:0:0:
188,331,24233,1,2,0:0:0:0:
188,331,24397,2,0,L|198:384,2,55.0000016784668,0|2|10,1:0|1:2|0:0,0:0:0:0:
151,296,24892,5,2,0:0:0:0:
151,296,25057,2,0,L|173:186,1,110.000003356934,6|8,1:2|0:0,0:0:0:0:
155,141,25551,1,2,0:0:0:0:
155,141,25716,1,2,1:2:0:0:
228,58,26046,1,8,0:0:0:0:
316,122,26375,2,0,P|361:93|413:106,1,110.000003356934,0|10,1:0|0:0,0:0:0:0:
458,146,26870,1,8,0:0:0:0:
458,146,27035,2,0,L|436:253,1,110.000003356934,10|10,0:0|0:3,0:0:0:0:
428,368,27694,1,6,1:2:0:0:
428,368,29672,5,10,0:0:0:0:
428,368,29837,2,0,L|374:357,1,55.0000016784668,2|0,1:2|0:0,0:0:0:0:
318,354,30167,2,0,B|337:291|288:300|310:233,1,110.000003356934,6|0,1:2|1:0,0:0:0:0:
340,205,30661,1,8,0:0:0:0:
245,147,30991,1,0,1:0:0:0:
179,236,31321,5,4,0:3:0:0:
179,236,31485,2,0,L|69:258,1,110.000003356934,6|0,1:2|1:0,0:0:0:0:
32,226,31980,1,8,0:0:0:0:
32,226,32145,2,0,L|54:116,1,110.000003356934,6|0,1:2|1:0,0:0:0:0:
27,69,32639,1,0,1:0:0:0:
103,22,32969,6,0,P|140:-1|184:6,1,89.999997253418,6|2,1:2|1:2,0:0:0:0:
245,71,33628,2,0,L|225:164,1,89.999997253418,2|2,1:2|1:2,0:0:0:0:
211,248,34288,2,0,L|167:257,2,44.999998626709,2|2|2,1:2|0:0|1:2,0:0:0:0:
279,306,34947,2,0,P|316:329|360:322,1,89.999997253418,2|2,1:2|1:2,0:0:0:0:
427,262,35606,6,0,L|418:218,1,44.999998626709,2|2,1:2|0:0,0:0:0:0:
443,180,35936,1,2,1:2:0:0:
423,92,36266,2,0,L|432:48,2,44.999998626709,2|2|2,1:2|0:0|1:2,0:0:0:0:
383,112,36760,2,0,L|290:132,1,89.999997253418,2|2,0:0|0:0,0:0:0:0:
255,152,37255,2,0,L|246:196,1,44.999998626709,2|2,1:2|0:0,0:0:0:0:
280,225,37584,1,2,1:2:0:0:
229,299,37914,1,2,1:2:0:0:
300,353,38244,6,0,P|343:360|381:337,2,89.999997253418,2|2|2,1:2|1:2|1:2,0:0:0:0:
229,299,39233,1,2,1:2:0:0:
280,225,39562,2,0,L|324:216,2,44.999998626709,2|2|2,1:2|0:0|1:2,0:0:0:0:
219,157,40222,2,0,L|237:69,1,89.999997253418,2|2,1:2|1:2,0:0:0:0:
175,3,40881,6,0,L|131:12,1,44.999998626709,2|2,1:2|0:0,0:0:0:0:
97,42,41211,1,2,1:2:0:0:
29,101,41540,2,0,L|38:145,1,44.999998626709,10|10,0:0|0:0,0:0:0:0:
74,181,41870,1,10,0:0:0:0:
74,181,42035,2,0,L|54:274,1,89.999997253418,6|2,1:2|1:2,0:0:0:0:
65,312,42529,1,8,0:0:0:0:
150,284,42859,1,2,1:2:0:0:
203,356,43189,2,0,L|247:347,1,44.999998626709,8|4,0:0|0:3,0:0:0:0:
280,309,43518,6,0,B|328:297|327:333|384:316,2,99.9999999999999,6|10|2,1:2|0:0|1:2,0:0:0:0:
212,234,44507,1,10,0:0:0:0:
273,155,44837,2,0,L|263:105,1,50,2|2,1:2|1:2,0:0:0:0:
289,63,45167,1,10,0:0:0:0:
206,7,45496,2,0,P|157:-1|117:27,1,99.9999999999999,2|8,1:2|0:0,0:0:0:0:
85,121,46156,6,0,L|94:170,1,50,2|2,1:2|0:0,0:0:0:0:
81,218,46485,1,10,0:0:0:0:
47,312,46815,2,0,L|-4:299,2,50,2|2|10,1:2|0:0|0:0,0:0:0:0:
74,353,47310,2,0,P|114:380|162:372,1,99.9999999999999,2|2,1:2|1:2,0:0:0:0:
206,346,47804,2,0,L|196:296,1,50,10|2,0:0|0:0,0:0:0:0:
223,254,48134,1,2,1:2:0:0:
153,182,48463,1,10,0:0:0:0:
211,100,48793,6,0,L|320:120,2,99.9999999999999,6|10|2,1:2|0:0|1:2,0:0:0:0:
153,182,49782,1,10,0:0:0:0:
223,254,50112,2,0,L|287:241,1,50,2|2,1:2|1:2,0:0:0:0:
318,262,50441,1,10,0:0:0:0:
394,197,50771,2,0,P|421:156|413:108,1,99.9999999999999,2|8,1:2|0:0,0:0:0:0:
355,26,51430,6,0,B|307:14|308:50|251:33,1,99.9999999999999,2|10,1:2|0:0,0:0:0:0:
219,12,51925,1,2,0:0:0:0:
219,12,52090,1,2,1:2:0:0:
146,81,52419,1,10,0:0:0:0:
199,165,52749,2,0,L|189:215,1,50,10|2,0:0|1:2,0:0:0:0:
212,258,53079,2,0,L|309:237,1,99.9999999999999,10|10,0:0|0:0,0:0:0:0:
400,279,53738,1,4,0:3:0:0:
463,215,54068,6,0,L|481:128,1,89.999997253418,6|2,1:2|0:0,0:0:0:0:
460,86,54562,1,2,1:2:0:0:
398,28,54892,1,2,0:0:0:0:
398,28,55057,2,0,L|354:38,1,44.999998626709,2|0,0:0|0:0,0:0:0:0:
313,57,55386,2,0,P|290:94|296:138,1,89.999997253418,2|2,1:2|0:0,0:0:0:0:
328,171,55881,2,0,P|351:208|345:252,1,89.999997253418,2|2,1:2|0:0,0:0:0:0:
309,280,56375,1,2,0:0:0:0:
242,340,56705,6,0,L|252:384,2,44.999998626709,2|2|2,1:2|0:0|1:2,0:0:0:0:
210,307,57200,2,0,L|123:289,1,89.999997253418,2|2,1:2|0:0,0:0:0:0:
83,311,57694,1,2,0:0:0:0:
15,251,58024,2,0,P|8:207|31:169,1,89.999997253418,2|0,1:2|1:0,0:0:0:0:
72,147,58518,1,8,0:0:0:0:
72,147,58683,2,0,L|116:157,2,44.999998626709,2|0|2,1:2|1:0|1:2,0:0:0:0:
72,24,64617,6,0,P|95:61|89:105,1,89.999997253418,6|2,1:2|0:0,0:0:0:0:
22,165,65277,2,0,P|-1:202|5:246,1,89.999997253418,6|8,1:2|0:3,0:0:0:0:
46,326,65936,2,0,L|90:317,1,44.999998626709,10|10,0:0|0:0,0:0:0:0:
130,338,66266,1,10,0:0:0:0:
182,264,66596,2,0,L|271:282,1,89.999997253418,2|8,1:2|0:0,0:0:0:0:
370,289,67255,6,0,L|380:339,2,50,6|2|2,1:2|1:2|1:2,0:0:0:0:
406,254,67749,2,0,P|435:215|429:167,1,99.9999999999999,10|8,0:0|0:0,0:0:0:0:
350,106,68408,2,0,L|252:127,1,99.9999999999999,14|0,0:0|1:0,0:0:0:0:
204,110,68903,1,10,0:0:0:0:
139,33,69233,1,10,0:0:0:0:
46,71,69562,1,10,0:3:0:0:
58,170,69892,6,0,B|73:220|37:219|49:267,1,99.9999999999999,6|8,1:2|0:0,0:0:0:0:
71,317,70386,1,2,1:2:0:0:
71,317,70551,2,0,P|119:322|158:292,1,99.9999999999999,2|8,0:0|0:0,0:0:0:0:
188,251,71046,2,0,L|286:272,1,99.9999999999999,4|0,1:2|1:0,0:0:0:0:
324,240,71540,1,8,0:0:0:0:
346,147,71870,1,0,1:0:0:0:
346,147,72035,2,0,L|336:97,1,50,10|10,0:0|0:0,0:0:0:0:
358,52,72364,6,0,P|406:46|445:76,1,99.9999999999999,6|2,1:2|1:2,0:0:0:0:
471,118,72859,1,10,0:0:0:0:
463,217,73189,2,0,L|513:227,2,50,10|2|10,0:0|1:2|0:0,0:0:0:0:
418,239,73683,2,0,B|403:289|439:288|427:336,1,99.9999999999999,6|8,1:2|0:0,0:0:0:0:
396,375,74178,2,0,L|346:365,1,50,0|8,1:0|0:0,0:0:0:0:
298,378,74507,1,8,0:0:0:0:
56,281,75167,6,0,L|1:270,2,55.0000016784668,6|2|10,1:2|0:0|0:0,0:0:0:0:
93,240,75661,2,0,L|71:132,1,110.000003356934,2|0,0:0|1:0,0:0:0:0:
101,87,76156,1,10,0:0:0:0:
101,87,76321,1,2,0:0:0:0:
185,16,76650,2,0,L|251:33,1,55.0000016784668,2|10,0:0|0:0,0:0:0:0:
287,55,76980,2,0,B|268:118|317:109|295:176,1,110.000003356934,2|0,1:2|1:0,0:0:0:0:
288,218,77474,5,10,0:0:0:0:
288,218,77639,2,0,L|181:196,1,110.000003356934,2|2,0:0|0:0,0:0:0:0:
133,225,78134,1,10,0:0:0:0:
54,148,78463,2,0,L|64:94,2,55.0000016784668,2|2|10,1:2|0:0|0:0,0:0:0:0:
15,187,78958,2,0,L|37:294,1,110.000003356934,2|2,0:0|0:0,0:0:0:0:
53,352,79452,1,10,0:0:0:0:
53,352,79617,2,0,P|98:380|150:368,1,110.000003356934,2|0,1:2|1:0,0:0:0:0:
235,297,80277,5,2,1:2:0:0:
235,297,80441,2,0,L|288:307,2,55.0000016784668,6|2|10,1:2|1:2|0:0,0:0:0:0:
177,273,80936,2,0,P|148:227|161:175,1,110.000003356934,2|0,0:0|0:0,0:0:0:0:
210,149,81430,1,10,0:0:0:0:
210,149,81595,1,2,0:0:0:0:
307,97,81925,2,0,L|297:43,1,55.0000016784668,2|10,0:0|0:0,0:0:0:0:
336,3,82255,2,0,P|388:-9|433:18,1,110.000003356934,2|0,1:2|1:0,0:0:0:0:
477,61,82749,5,10,0:0:0:0:
477,61,82914,2,0,B|496:124|447:115|469:182,1,110.000003356934,2|2,0:0|0:0,0:0:0:0:
495,213,83408,1,10,0:0:0:0:
439,308,83738,2,0,L|449:362,2,55.0000016784668,2|10|10,1:2|0:0|0:0,0:0:0:0:
401,267,84233,2,0,P|355:238|303:250,1,110.000003356934,6|0,1:2|1:0,0:0:0:0:
254,274,84727,1,0,1:0:0:0:
161,330,85057,1,8,0:0:0:0:
161,330,85222,2,0,L|171:384,2,55.0000016784668,8|8|8,0:0|0:0|0:0,0:0:0:0:
144,277,85716,6,0,L|90:267,1,55.0000016784668,6|2,1:2|1:2,0:0:0:0:
42,266,86046,1,10,0:0:0:0:
42,266,86211,2,0,P|13:220|25:168,1,110.000003356934,2|2,1:2|1:2,0:0:0:0:
62,128,86705,1,10,0:0:0:0:
162,80,87035,2,0,L|216:90,1,55.0000016784668,8|2,0:0|1:2,0:0:0:0:
257,135,87364,1,10,0:0:0:0:
257,135,87529,2,0,B|276:198|227:189|249:256,1,110.000003356934,2|0,1:2|1:0,0:0:0:0:
254,299,88024,5,10,0:0:0:0:
254,299,88189,2,0,P|300:328|352:316,1,110.000003356934,2|2,1:2|1:2,0:0:0:0:
393,280,88683,1,10,0:0:0:0:
458,191,89013,2,0,L|512:201,2,55.0000016784668,10|2|10,0:0|1:2|0:0,0:0:0:0:
403,183,89507,2,0,P|374:137|386:85,1,110.000003356934,2|2,1:2|1:2,0:0:0:0:
404,36,90002,1,10,0:0:0:0:
404,36,90167,2,0,B|341:17|350:66|283:43,1,110.000003356934,2|8,1:2|0:0,0:0:0:0:
188,53,90826,5,10,0:0:0:0:
188,53,90991,2,0,L|178:-1,2,55.0000016784668,6|2|10,1:2|1:2|0:0,0:0:0:0:
223,95,91485,2,0,L|201:202,1,110.000003356934,2|2,1:2|1:2,0:0:0:0:
233,247,91980,1,10,0:0:0:0:
155,325,92310,2,0,L|101:335,1,55.0000016784668,10|2,0:0|1:2,0:0:0:0:
49,337,92639,1,10,0:0:0:0:
49,337,92804,2,0,P|20:291|32:239,1,110.000003356934,6|10,1:2|0:0,0:0:0:0:
60,192,93299,1,8,0:0:0:0:
129,107,93628,6,0,B|192:126|183:77|250:100,1,110.000003356934,6|10,1:2|0:0,0:0:0:0:
282,124,94123,1,2,1:2:0:0:
342,32,94452,1,10,0:0:0:0:
441,91,94782,1,2,1:2:0:0:
441,91,94947,2,0,L|419:198,1,110.000003356934,10|4,0:0|1:2,0:0:0:0:
457,301,95606,2,0,L|511:291,2,55.0000016784668,2|2|2,0:0|0:0|0:0,0:0:0:0:
378,363,96266,6,0,L|281:342,1,99.9999999999999,6|0,1:2|1:0,0:0:0:0:
237,363,96760,1,0,1:0:0:0:
237,363,96925,1,8,0:0:0:0:
146,335,97255,1,8,0:0:0:0:
146,335,97419,2,0,P|118:292|134:237,1,99.9999999999999,6|8,1:2|0:0,0:0:0:0:
159,208,97914,1,0,1:0:0:0:
254,237,98244,1,10,0:0:0:0:
316,158,98573,1,10,0:3:0:0:
266,71,98903,6,0,B|218:59|219:95|162:78,1,99.9999999999999,14|0,0:0|1:0,0:0:0:0:
128,49,99397,1,8,0:3:0:0:
48,107,99727,1,0,1:0:0:0:
48,107,99892,2,0,L|69:204,1,99.9999999999999,8|0,0:0|1:0,0:0:0:0:
41,246,100386,1,4,0:3:0:0:
116,319,100716,1,0,1:0:0:0:
116,319,100881,2,0,L|106:368,2,50,10|2|2,0:0|1:2|1:2,0:0:0:0:
217,275,101540,6,0,B|280:256|271:305|338:283,1,110.000003356934,14|0,0:0|1:0,0:0:0:0:
372,262,102035,2,0,B|391:199|342:208|364:141,1,110.000003356934,12|0,0:0|1:0,0:0:0:0:
397,115,102529,1,14,0:0:0:0:
311,54,102859,1,0,1:0:0:0:
311,54,103024,2,0,L|322:-1,2,55.0000016784668,8|8|8,0:0|0:0|0:0,0:0:0:0:
269,90,103518,2,0,L|162:112,1,110.000003356934,8|8,0:0|0:0,0:0:0:0:
116,90,104013,1,8,0:0:0:0:
116,90,104178,1,6,1:2:0:0:
99,352,109452,6,0,B|162:333|153:382|220:359,1,110.000003356934,6|8,1:2|0:0,0:0:0:0:
273,276,110112,2,0,L|339:293,2,55.0000016784668,2|2|10,1:2|0:0|0:0,0:0:0:0:
238,240,110606,1,2,0:0:0:0:
238,240,110771,2,0,P|224:188|253:143,1,110.000003356934,2|10,1:2|0:0,0:0:0:0:
321,57,111430,2,0,L|304:-9,2,55.0000016784668,2|2|10,1:2|0:0|0:0,0:0:0:0:
372,89,111925,5,6,0:3:0:0:
372,89,112090,2,0,B|435:70|426:119|493:96,2,110.000003356934,6|8|2,1:2|0:0|1:2,0:0:0:0:
338,132,112914,1,2,0:0:0:0:
338,132,113079,1,10,0:0:0:0:
245,187,113408,2,0,P|232:239|261:284,1,110.000003356934,2|10,1:2|0:0,0:0:0:0:
363,328,114068,2,0,L|429:311,2,55.0000016784668,6|6|14,0:3|0:3|0:0,0:0:0:0:
261,284,114727,6,0,P|208:271|163:300,1,110.000003356934,6|2,1:2|1:2,0:0:0:0:
134,347,115222,1,2,1:2:0:0:
134,347,115386,1,2,1:2:0:0:
35,298,115716,2,0,L|45:244,1,55.0000016784668,2|2,1:2|1:2,0:0:0:0:
69,194,116046,1,6,1:2:0:0:
4,105,116375,1,10,0:0:0:0:
69,18,116704,1,10,0:0:0:0:
173,50,117034,1,10,0:0:0:0:
173,160,117364,6,0,B|236:141|227:190|294:167,1,110.000003356934,6|8,1:2|0:0,0:0:0:0:
325,143,117859,1,4,1:2:0:0:
415,205,118189,2,0,L|404:258,1,55.0000016784668,2|10,1:2|0:0,0:0:0:0:
391,312,118518,1,14,0:0:0:0:
288,348,118848,1,10,0:3:0:0:
218,266,119177,1,2,1:2:0:0:
279,173,119507,2,0,L|268:119,2,55.0000016784668,10|4|12,0:3|0:3|0:0,0:0:0:0:
213,267,121650,6,0,B|261:279|260:243|317:260,1,99.9999999999999,10|10,0:0|0:0,0:0:0:0:
512,36,122969,2,0,B|464:48|465:12|408:29,1,99.9999999999999,10|10,0:0|0:0,0:0:0:0:
332,82,123628,1,8,0:0:0:0:
332,82,123793,2,0,L|353:179,1,99.9999999999999,6|2,1:2|1:2,0:0:0:0:
324,220,124288,1,8,0:0:0:0:
266,301,124617,2,0,L|256:350,2,50,10|6|2,0:3|0:3|1:2,0:0:0:0:
229,265,125112,2,0,L|132:286,1,99.9999999999999,14|2,0:0|1:2,0:0:0:0:
86,281,125606,1,8,0:0:0:0:
86,281,125771,2,0,P|58:240|66:192,1,99.9999999999999,10|8,0:0|0:0,0:0:0:0:
129,116,126430,5,10,0:0:0:0:
129,116,126595,2,0,L|119:62,2,55.0000016784668,6|2|10,1:2|1:2|0:0,0:0:0:0:
160,161,127090,2,0,B|223:142|214:191|281:169,1,110.000003356934,2|0,0:0|0:0,0:0:0:0:
312,141,127584,1,10,0:0:0:0:
312,141,127749,1,2,0:0:0:0:
397,210,128079,2,0,L|387:264,1,55.0000016784668,2|10,0:0|0:0,0:0:0:0:
379,318,128408,2,0,P|333:346|281:333,1,110.000003356934,2|0,1:2|1:0,0:0:0:0:
255,290,128903,5,10,0:0:0:0:
255,290,129068,2,0,L|148:312,1,110.000003356934,2|2,0:0|0:0,0:0:0:0:
99,284,129562,1,10,0:0:0:0:
56,182,129892,2,0,L|2:172,2,55.0000016784668,2|10|10,1:2|0:0|0:0,0:0:0:0:
90,139,130386,1,6,1:2:0:0:
139,40,130716,2,0,P|191:27|236:55,1,110.000003356934,2|10,1:2|0:0,0:0:0:0:
338,96,131375,2,0,L|392:86,2,55.0000016784668,10|10|10,0:0|0:0|0:0,0:0:0:0:
303,139,131870,6,0,L|293:193,1,55.0000016784668,6|2,1:2|1:2,0:0:0:0:
254,232,132200,1,10,0:0:0:0:
254,232,132364,2,0,L|276:339,1,110.000003356934,2|2,1:2|1:2,0:0:0:0:
241,382,132859,1,10,0:0:0:0:
132,366,133189,2,0,L|78:356,1,55.0000016784668,8|2,0:0|1:2,0:0:0:0:
27,351,133518,1,10,0:0:0:0:
27,351,133683,2,0,P|-1:305|11:253,1,110.000003356934,2|0,1:2|1:0,0:0:0:0:
65,232,134178,5,10,0:0:0:0:
65,232,134342,2,0,B|84:169|35:178|57:111,1,110.000003356934,2|2,1:2|1:2,0:0:0:0:
94,89,134837,1,10,0:0:0:0:
198,53,135167,2,0,L|188:-1,2,55.0000016784668,10|2|10,0:0|1:2|0:0,0:0:0:0:
237,90,135661,2,0,L|215:197,1,110.000003356934,2|2,1:2|1:2,0:0:0:0:
238,253,136156,1,10,0:0:0:0:
238,253,136321,2,0,L|345:231,1,110.000003356934,2|8,1:2|0:0,0:0:0:0:
447,286,136980,5,10,0:0:0:0:
447,286,137145,2,0,L|437:340,2,55.0000016784668,6|2|10,1:2|1:2|0:0,0:0:0:0:
481,243,137639,2,0,L|459:136,1,110.000003356934,2|10,1:2|0:0,0:0:0:0:
482,85,138134,1,10,0:0:0:0:
389,25,138463,2,0,L|335:35,1,55.0000016784668,10|2,0:0|1:2,0:0:0:0:
294,72,138793,1,10,0:0:0:0:
294,72,138958,2,0,P|266:118|278:170,1,110.000003356934,6|10,1:2|0:0,0:0:0:0:
318,207,139452,5,8,0:0:0:0:
318,207,139617,1,8,0:0:0:0:
407,271,139947,2,0,L|397:325,1,55.0000016784668,2|10,1:2|0:0,0:0:0:0:
360,366,140277,2,0,P|307:378|261:350,1,110.000003356934,2|2,1:2|1:2,0:0:0:0:
236,307,140771,1,10,0:0:0:0:
236,307,140936,2,0,B|173:288|182:337|115:315,1,110.000003356934,6|0,1:2|1:0,0:0:0:0:
83,289,141430,1,8,0:0:0:0:
12,204,141760,2,0,P|0:151|27:105,1,110.000003356934,8|2,0:0|1:2,0:0:0:0:
69,69,142255,5,2,1:2:0:0:
69,69,142419,2,0,L|176:91,1,110.000003356934,4|8,1:2|0:0,0:0:0:0:
227,70,142914,1,2,1:2:0:0:
297,154,143244,2,0,L|351:144,1,55.0000016784668,2|10,1:2|0:0,0:0:0:0:
403,162,143573,6,0,B|384:225|433:216|411:283,1,110.000003356934,6|8,1:2|0:0,0:0:0:0:
389,317,144068,1,8,0:0:0:0:
294,372,144397,1,8,0:0:0:0:
221,297,144727,1,8,0:0:0:0:
221,297,144892,2,0,L|114:319,1,110.000003356934,4|8,1:2|0:0,0:0:0:0:
64,293,145386,1,8,0:0:0:0:
64,293,146375,6,0,L|9:282,2,55.0000016784668,6|2|10,1:2|0:0|0:0,0:0:0:0:
108,260,146870,2,0,B|127:197|78:206|100:139,1,110.000003356934,2|0,0:0|1:0,0:0:0:0:
130,112,147364,1,10,0:0:0:0:
130,112,147529,1,2,0:0:0:0:
199,27,147858,2,0,L|252:40,1,55.0000016784668,2|10,0:0|0:0,0:0:0:0:
304,60,148189,2,0,L|326:167,1,110.000003356934,2|0,1:2|1:0,0:0:0:0:
332,226,148682,5,10,0:0:0:0:
332,226,148848,2,0,P|286:254|234:242,1,110.000003356934,2|2,0:0|0:0,0:0:0:0:
189,210,149342,1,10,0:0:0:0:
102,142,149671,2,0,L|112:88,2,55.0000016784668,2|2|10,1:2|0:0|0:0,0:0:0:0:
65,183,150166,2,0,L|87:290,1,110.000003356934,2|2,0:0|0:0,0:0:0:0:
107,347,150660,1,10,0:0:0:0:
107,347,150825,2,0,P|152:375|204:363,1,110.000003356934,14|0,0:0|1:0,0:0:0:0:
276,279,151485,5,10,0:0:0:0:
276,279,151649,2,0,L|329:289,2,55.0000016784668,6|2|10,1:2|1:2|0:0,0:0:0:0:
233,242,152145,2,0,L|211:135,1,110.000003356934,2|0,0:0|0:0,0:0:0:0:
241,90,152638,1,10,0:0:0:0:
241,90,152803,1,2,0:0:0:0:
308,3,153133,2,0,L|371:18,1,55.0000016784668,2|10,0:0|0:0,0:0:0:0:
414,31,153463,2,0,P|442:76|430:128,1,110.000003356934,2|0,1:2|1:0,0:0:0:0:
386,160,153957,5,10,0:0:0:0:
386,160,154122,2,0,B|367:223|416:214|394:281,1,110.000003356934,2|2,0:0|0:0,0:0:0:0:
354,299,154616,1,10,0:0:0:0:
248,329,154946,2,0,L|258:383,2,55.0000016784668,10|10|6,0:0|0:3|0:3,0:0:0:0:
236,274,155441,6,0,B|199:215|118:226|118:226|79:304|-5:289,1,275.000008392334,6|2,1:2|0:0,0:0:0:0:
18,181,156595,1,2,0:0:0:0:
