osu file format v14

[General]
AudioFilename: audio.mp3
AudioLeadIn: 0
PreviewTime: 161236
Countdown: 0
SampleSet: Soft
StackLeniency: 0.4
Mode: 0
LetterboxInBreaks: 0
WidescreenStoryboard: 1

[Editor]
DistanceSpacing: 1.3
BeatDivisor: 8
GridSize: 4
TimelineZoom: 2.650001

[Metadata]
Title:Dramatic Hizakurige
TitleUnicode:ドラマティック膝栗毛
Artist:ShinRa-Bansho
ArtistUnicode:森羅万象
Creator:-Mikan
Version:adioni's Expert
Source:東方Project
Tags:Journey AtHeoN Athy Shizuku- kazato asa adioni Ducky- Karia lolia RepL4y Lemaire Hikan touhou video game 卯酉東海道 ~ Retrospective 53 minutes あやぽんず* Ayaponzu* ヒロシゲ36号 ~ Neo Super-Express Hiroshige No.36 シンクロ2 Synchro 2 j-rock jrock japanese
BeatmapID:2305393
BeatmapSetID:942284

[Difficulty]
HPDrainRate:5
CircleSize:3.5
OverallDifficulty:8.8
ApproachRate:9.3
SliderMultiplier:1.8
SliderTickRate:1

[Events]
//Background and Video events
0,0,"OrangeMagicanGirl.png",0,0
//Break Periods
2,161436,173539
//Storyboard Layer 0 (Background)
//Storyboard Layer 1 (Fail)
//Storyboard Layer 2 (Pass)
//Storyboard Layer 3 (Foreground)
//Storyboard Layer 4 (Overlay)
//Storyboard Sound Samples

[TimingPoints]
772,301.507537688442,4,2,1,50,1,0
772,-111.111111111111,4,2,1,50,0,0
1375,-111.111111111111,4,2,1,50,0,0
2430,-111.111111111111,4,2,1,50,0,0
3184,-111.111111111111,4,2,1,60,0,0
3485,-111.111111111111,4,2,1,30,0,0
3636,-111.111111111111,4,2,1,40,0,0
3787,-111.111111111111,4,2,1,50,0,0
3937,-111.111111111111,4,2,1,60,0,0
4013,-111.111111111111,4,2,1,60,0,0
4088,-111.111111111111,4,2,1,70,0,0
4239,-111.111111111111,4,2,1,80,0,0
4691,-111.111111111111,4,2,1,80,0,0
4993,-111.111111111111,4,2,1,80,0,0
5444,-111.111111111111,4,2,1,60,0,0
8008,-111.111111111111,4,2,1,50,0,0
10118,-111.111111111111,4,2,1,60,0,0
10420,-111.111111111111,4,2,1,50,0,0
11324,-181.818181818182,4,2,1,60,0,0
11626,-166.666666666666,4,2,1,60,0,0
12229,-166.666666666666,4,2,1,60,0,0
12681,-100,4,2,1,60,0,0
12832,-90.9090909090909,4,2,1,70,0,0
13133,-90.9090909090909,4,2,1,70,0,0
13435,-90.9090909090909,4,2,1,70,0,0
13736,-90.9090909090909,4,2,1,70,0,0
14339,-90.9090909090909,4,2,1,70,0,0
14641,-90.9090909090909,4,2,1,70,0,0
14942,-90.9090909090909,4,2,1,70,0,0
15545,-90.9090909090909,4,2,1,70,0,0
15847,-76.9230769230769,4,2,1,70,0,0
16450,-90.9090909090909,4,2,1,70,0,0
16751,-100,4,2,1,70,0,0
17053,-100,4,2,1,70,0,0
17279,-100,4,2,1,70,0,0
17354,-100,4,2,1,70,0,0
17656,-100,4,2,1,70,0,0
17957,-100,4,2,1,70,0,0
18259,-100,4,2,1,70,0,0
19012,-100,4,2,1,70,0,0
19163,-100,4,2,1,70,0,0
19313,-100,4,2,1,70,0,0
19465,-100,4,2,1,70,0,0
20068,-100,4,2,1,70,0,0
20369,-100,4,2,1,70,0,0
20897,-100,4,2,1,70,0,0
20972,-100,4,2,1,70,0,0
21274,-100,4,2,1,60,0,0
22179,-100,4,2,1,70,0,0
22480,-125,4,2,1,60,0,0
24892,-125,4,2,1,60,0,0
25194,-125,4,2,1,60,0,0
25947,-125,4,2,1,60,0,0
26098,-125,4,2,1,60,0,0
26701,-125,4,2,1,60,0,0
26851,-125,4,2,1,60,0,0
29716,-125,4,2,1,60,0,0
30018,-125,4,2,1,60,0,0
30771,-125,4,2,1,60,0,0
30922,-90.9090909090909,4,2,1,70,0,0
31224,-90.9090909090909,4,2,1,70,0,0
31525,-90.9090909090909,4,2,1,70,0,0
31826,-90.9090909090909,4,2,1,60,0,0
32052,-90.9090909090909,4,2,1,60,0,0
32128,-90.9090909090909,4,2,1,70,0,0
32430,-90.9090909090909,4,2,1,70,0,0
32731,-90.9090909090909,4,2,1,70,0,0
33033,-90.9090909090909,4,2,1,70,0,0
33636,-90.9090909090909,4,2,1,70,0,0
33937,-90.9090909090909,4,2,1,70,0,0
34239,-90.9090909090909,4,2,1,70,0,0
34842,-90.9090909090909,4,2,1,70,0,0
35445,-90.9090909090909,4,2,1,70,0,0
35746,-90.9090909090909,4,2,1,70,0,0
36048,-90.9090909090909,4,2,1,70,0,0
36349,-90.9090909090909,4,2,1,70,0,0
36651,-90.9090909090909,4,2,1,70,0,0
36952,-125,4,2,1,60,0,0
39063,-125,4,2,1,70,0,0
39364,-125,4,2,1,60,0,0
41701,-125,4,2,1,60,0,0
41777,-125,4,2,1,70,0,0
42078,-125,4,2,1,60,0,0
43284,-125,4,2,1,50,0,0
43887,-125,4,2,1,60,0,0
44189,-125,4,2,1,50,0,0
44641,-125,4,2,1,50,0,0
45395,-90.9090909090909,4,2,1,50,0,0
45696,-166.666666666667,4,2,1,40,0,0
46299,-166.666666666667,4,2,1,60,0,0
46601,-90.9090909090909,4,2,1,80,0,0
49314,-90.9090909090909,4,2,1,80,0,0
50822,-90.9090909090909,4,2,1,60,0,0
51349,-90.9090909090909,4,2,1,60,0,0
51425,-90.9090909090909,4,2,1,80,0,0
54138,-90.9090909090909,4,2,1,80,0,0
54440,-90.9090909090909,4,2,1,80,0,0
55646,-90.9090909090909,4,2,1,60,0,0
56249,-90.9090909090909,4,2,1,80,0,0
58585,-90.9090909090909,4,2,1,80,0,0
58661,-90.9090909090909,4,2,1,80,0,0
61073,-90.9090909090909,4,2,1,80,0,0
61375,-90.9090909090909,4,2,1,30,0,0
61526,-90.9090909090909,4,2,1,40,0,0
61676,-90.9090909090909,4,2,1,50,0,0
61827,-90.9090909090909,4,2,1,60,0,0
61978,-90.9090909090909,4,2,1,70,0,0
62128,-90.9090909090909,4,2,1,80,0,0
62279,-90.9090909090909,4,2,1,60,0,0
63485,-125,4,2,1,50,0,0
65143,-200,4,2,1,50,0,0
65596,-111.111111111111,4,2,1,50,0,0
65897,-111.111111111111,4,2,1,60,0,0
67856,-111.111111111111,4,2,1,60,0,0
68008,-111.111111111111,4,2,1,60,0,0
68309,-111.111111111111,4,2,1,60,0,0
69817,-111.111111111111,4,2,1,60,0,0
69967,-111.111111111111,4,2,1,60,0,0
72832,-111.111111111111,4,2,1,60,0,0
73133,-111.111111111111,4,2,1,60,0,0
73435,-111.111111111111,4,2,1,50,0,0
73736,-111.111111111111,4,2,1,60,0,0
73887,-111.111111111111,4,2,1,70,0,0
74038,-111.111111111111,4,2,1,80,0,0
74189,-111.111111111111,4,2,1,90,0,0
74339,-111.111111111111,4,2,1,60,0,0
74641,-90.9090909090908,4,2,1,60,0,0
74942,-111.111111111111,4,2,1,60,0,0
75168,-111.111111111111,4,2,1,60,0,0
75244,-111.111111111111,4,2,1,60,0,0
75545,301.507537688442,3,2,1,60,1,0
75846,-100,3,2,1,60,0,0
76148,-100,3,2,1,60,0,0
77655,-100,3,2,1,60,0,0
77957,-100,3,2,1,60,0,0
78560,-100,3,2,1,60,0,0
78710,-100,3,2,1,60,0,0
79011,-100,3,2,1,60,0,0
79163,-100,3,2,1,60,0,0
79464,-100,3,2,1,60,0,0
79766,-100,3,2,1,60,0,0
80972,301.507537688442,4,2,1,70,1,0
80972,-90.9090909090909,4,2,1,70,0,0
81575,-90.9090909090909,4,2,1,60,0,0
81725,-90.9090909090909,4,2,1,60,0,0
81876,-90.9090909090909,4,2,1,70,0,0
82178,-105.263157894737,4,2,1,60,0,0
82781,-105.263157894737,4,2,1,60,0,0
84288,-105.263157894737,4,2,1,70,0,0
84590,-105.263157894737,4,2,1,60,0,0
85193,-105.263157894737,4,2,1,60,0,0
85494,-105.263157894737,4,2,1,70,0,0
86700,-105.263157894737,4,2,1,60,0,0
87002,-105.263157894737,4,2,1,60,0,0
87303,-105.263157894737,4,2,1,60,0,0
88208,-105.263157894737,4,2,1,60,0,0
88509,-105.263157894737,4,2,1,45,0,0
88811,-105.263157894737,4,2,1,50,0,0
88886,-105.263157894737,4,2,1,50,0,0
88961,-105.263157894737,4,2,1,60,0,0
89037,-105.263157894737,4,2,1,60,0,0
89112,-105.263157894737,4,2,1,70,0,0
89263,-105.263157894737,4,2,1,80,0,0
89414,-105.263157894737,4,2,1,60,0,0
90469,-105.263157894737,4,2,1,60,0,0
90620,-105.263157894737,4,2,1,60,0,0
91826,-105.263157894737,4,2,1,50,0,0
92429,-105.263157894737,4,2,1,50,0,0
94539,-105.263157894737,4,2,1,50,0,0
96650,-105.263157894737,4,2,1,50,0,0
96951,-105.263157894737,4,2,1,60,0,0
97253,-105.263157894737,4,2,1,60,0,0
97856,-105.263157894737,4,2,1,50,0,0
98760,-71.4285714285714,4,2,1,60,0,0
99062,-90.9090909090909,4,2,1,80,0,0
101776,-90.9090909090909,4,2,1,80,0,0
103283,-90.9090909090909,4,2,1,60,0,0
103811,-90.9090909090909,4,2,1,60,0,0
103886,-90.9090909090909,4,2,1,80,0,0
106600,-90.9090909090909,4,2,1,80,0,0
106901,-90.9090909090909,4,2,1,80,0,0
107504,-90.9090909090909,4,2,1,80,0,0
107806,-90.9090909090909,4,2,1,80,0,0
108107,-90.9090909090909,4,2,1,60,0,0
108710,-90.9090909090909,4,2,1,80,0,0
112478,-90.9090909090909,4,2,1,70,0,0
112630,-90.9090909090909,4,2,1,60,0,0
112780,-90.9090909090909,4,2,1,50,0,0
112931,-90.9090909090909,4,2,1,40,0,0
113534,-90.9090909090909,4,2,1,80,0,0
113836,-90.9090909090909,4,2,1,30,0,0
113987,-90.9090909090909,4,2,1,40,0,0
114137,-90.9090909090909,4,2,1,50,0,0
114288,-90.9090909090909,4,2,1,60,0,0
114439,-90.9090909090909,4,2,1,70,0,0
114590,-90.9090909090909,4,2,1,80,0,0
114740,-90.9090909090909,4,2,1,60,0,0
115946,-111.111111111111,4,2,1,50,0,0
118056,-111.111111111111,4,2,1,70,0,0
118359,-111.111111111111,4,2,1,60,0,0
119564,-111.111111111111,4,2,1,60,0,0
120770,-111.111111111111,4,2,1,60,0,0
121977,-111.111111111111,4,2,1,60,0,0
122580,-111.111111111111,4,2,1,60,0,0
123183,-111.111111111111,4,2,1,70,0,0
123484,-111.111111111111,4,2,1,70,0,0
125595,-111.111111111111,4,2,1,70,0,0
126047,-111.111111111111,4,2,1,70,0,0
126349,-90.9090909090909,4,2,1,70,0,0
126499,-90.9090909090909,4,2,1,70,0,0
126951,-90.9090909090909,4,2,1,70,0,0
127328,-90.9090909090909,4,2,1,70,0,0
127403,-90.9090909090909,4,2,1,70,0,0
127705,-90.9090909090909,4,2,1,80,0,0
128007,-90.9090909090909,4,2,1,60,0,0
128610,-90.9090909090909,4,2,1,70,0,0
128760,-90.9090909090909,4,2,1,60,0,0
128911,-90.9090909090909,4,2,1,50,0,0
129213,-90.9090909090909,4,2,1,60,0,0
129816,-90.9090909090909,4,2,1,70,0,0
129966,-90.9090909090909,4,2,1,60,0,0
130117,-90.9090909090909,4,2,1,50,0,0
130419,-90.9090909090909,4,2,1,60,0,0
131022,-90.9090909090909,4,2,1,80,0,0
131172,-90.9090909090909,4,2,1,70,0,0
131323,-90.9090909090909,4,2,1,60,0,0
131473,-90.9090909090909,4,2,1,50,0,0
131625,-100,4,2,1,40,0,0
132228,-111.111111111111,4,2,1,60,0,0
132831,-100,4,2,1,60,0,0
133132,-100,4,2,1,40,0,0
133282,-100,4,2,1,60,0,0
133735,-100,4,2,1,40,0,0
133885,-100,4,2,1,60,0,0
134037,-90.9090909090909,4,2,1,60,0,0
134338,-90.9090909090909,4,2,1,40,0,0
134488,-90.9090909090909,4,2,1,60,0,0
134941,-90.9090909090909,4,2,1,40,0,0
135091,-90.9090909090909,4,2,1,60,0,0
135243,-83.3333333333333,4,2,1,60,0,0
135544,-83.3333333333333,4,2,1,40,0,0
135694,-83.3333333333333,4,2,1,60,0,0
136147,-83.3333333333333,4,2,1,40,0,0
136297,-83.3333333333333,4,2,1,60,0,0
137052,-83.3333333333333,4,2,1,40,0,0
137202,-83.3333333333333,4,2,1,50,0,0
137353,-83.3333333333333,4,2,1,60,0,0
137503,-83.3333333333333,4,2,1,70,0,0
137655,-83.3333333333333,4,2,1,60,0,0
137956,-90.9090909090909,4,2,1,60,0,0
140670,-90.9090909090909,4,2,1,80,0,0
140820,-90.9090909090909,4,2,1,70,0,0
140971,-90.9090909090909,4,2,1,60,0,0
141121,-90.9090909090909,4,2,1,50,0,0
141273,-90.9090909090909,4,2,1,60,0,0
142781,-90.9090909090909,4,2,1,60,0,0
146323,-90.9090909090909,4,2,1,60,0,0
146399,-90.9090909090909,4,2,1,60,0,0
146700,-90.9090909090909,4,2,1,70,0,0
146851,-90.9090909090909,4,2,1,60,0,0
147002,-90.9090909090909,4,2,1,50,0,0
147152,-90.9090909090909,4,2,1,40,0,0
147303,-90.9090909090909,4,2,1,60,0,0
147605,-90.9090909090909,4,2,1,60,0,0
148208,-90.9090909090909,4,2,1,60,0,0
150620,-90.9090909090909,4,2,1,70,0,0
150770,-90.9090909090909,4,2,1,80,0,0
150921,-90.9090909090909,4,2,1,60,0,0
152429,-90.9090909090909,4,2,1,60,0,0
156348,-90.9090909090909,4,2,1,70,0,0
156499,-90.9090909090909,4,2,1,80,0,0
156650,-90.9090909090909,4,2,1,90,0,0
156801,-90.9090909090909,4,2,1,100,0,0
156951,428.571428571429,4,2,1,60,1,0
156951,-454.545454545455,4,2,1,60,0,0
161236,428.571428571429,4,2,1,40,1,0
174093,301.507537688442,4,2,1,70,1,0
174710,301.507537688442,4,2,1,80,1,0
174710,-83.3333333333333,4,2,1,80,0,0
176217,-83.3333333333333,4,2,1,80,0,0
177348,-83.3333333333333,4,2,1,80,0,0
177423,-83.3333333333333,4,2,1,80,0,0
177725,-83.3333333333333,4,2,1,80,0,0
178328,-83.3333333333333,4,2,1,80,0,0
178478,-83.3333333333333,4,2,1,70,0,0
178629,-83.3333333333333,4,2,1,60,0,0
178780,-83.3333333333333,4,2,1,50,0,0
178931,-76.9230769230769,4,2,1,80,0,0
179232,-76.9230769230769,4,2,1,90,0,0
179534,-83.3333333333333,4,2,1,80,0,0
180137,-83.3333333333333,4,2,1,80,0,0
183755,-83.3333333333333,4,2,1,70,0,0
184358,-83.3333333333333,4,2,1,80,0,0
186317,-83.3333333333333,4,2,1,50,0,0
186468,-83.3333333333333,4,2,1,60,0,0
186618,-83.3333333333333,4,2,1,70,0,0
186770,-100,4,2,1,70,0,0
187071,-100,4,2,1,70,0,0
187172,-100,4,2,1,70,0,0
187574,-100,4,2,1,70,0,0
187674,-100,4,2,1,70,0,0
188579,-83.3333333333333,4,2,1,70,0,0
188880,-83.3333333333333,4,2,1,70,0,0
189182,-83.3333333333333,4,2,1,80,0,0
189483,-83.3333333333333,4,2,1,80,0,0
190991,-83.3333333333333,4,2,1,60,0,0
191292,-83.3333333333333,4,2,1,60,0,0
191594,-83.3333333333333,4,2,1,80,0,0
192197,-83.3333333333333,4,2,1,40,0,0
192347,-83.3333333333333,4,2,1,50,0,0
192498,-83.3333333333333,4,2,1,60,0,0
192648,-83.3333333333333,4,2,1,70,0,0
192800,-83.3333333333333,4,2,1,80,0,0
193403,-83.3333333333333,4,2,1,60,0,0
193704,-83.3333333333333,4,2,1,60,0,0
193930,-83.3333333333333,4,2,1,60,0,0
194005,-83.3333333333333,4,2,1,80,0,0
198227,-83.3333333333333,4,2,1,80,0,0
198377,-83.3333333333333,4,2,1,70,0,0
198529,-83.3333333333333,4,2,1,60,0,0
198679,-83.3333333333333,4,2,1,50,0,0
198830,-83.3333333333333,4,2,1,60,0,0
199282,-83.3333333333333,4,2,1,60,0,0
199735,-83.3333333333333,4,2,1,60,0,0
200488,-83.3333333333333,4,2,1,60,0,0
200941,-83.3333333333333,4,2,1,60,0,0
201242,-83.3333333333333,4,2,1,80,0,0
201694,-83.3333333333333,4,2,1,50,0,0
201845,-83.3333333333333,4,2,1,60,0,0
201996,-83.3333333333333,4,2,1,70,0,0
202147,-83.3333333333333,4,2,1,80,0,0
202297,-66.6666666666667,4,2,1,60,0,0
203051,-66.6666666666667,4,2,4,60,0,0
203352,-66.6666666666667,4,2,1,70,0,0
203654,-90.9090909090909,4,2,1,70,0,0
203804,-90.9090909090909,4,2,1,70,0,0
203956,-90.9090909090909,4,2,1,70,0,0
204559,-90.9090909090909,4,2,1,70,0,0
205010,-90.9090909090909,4,2,1,70,0,0
205162,-90.9090909090909,4,2,1,70,0,0
205765,-90.9090909090909,4,2,1,70,0,0
206066,-90.9090909090909,4,2,2,70,0,0
206216,-90.9090909090909,4,2,2,70,0,0
206368,-90.9090909090909,4,2,1,70,0,0
206669,-76.9230769230769,4,2,1,70,0,0
207272,-90.9090909090909,4,2,1,70,0,0
207649,-90.9090909090909,4,2,1,70,0,0
207800,-90.9090909090909,4,2,1,60,0,0
207875,-90.9090909090909,4,2,1,70,0,0
208628,-90.9090909090909,4,2,1,70,0,0
208780,-90.9090909090909,4,2,1,70,0,0
209307,-90.9090909090909,4,2,1,70,0,0
209383,-90.9090909090909,4,2,1,70,0,0
209684,-90.9090909090909,4,2,2,70,0,0
209834,-90.9090909090909,4,2,2,70,0,0
209986,-90.9090909090909,4,2,1,70,0,0
210136,-90.9090909090909,4,2,1,70,0,0
210287,-90.9090909090909,4,2,1,70,0,0
210437,-90.9090909090909,4,2,1,70,0,0
210589,-90.9090909090909,4,2,2,70,0,0
210890,-90.9090909090909,4,2,2,70,0,0
211191,-90.9090909090909,4,2,1,60,0,0
212096,-90.9090909090909,4,2,1,80,0,0
212247,-90.9090909090909,4,2,1,70,0,0
212398,-90.9090909090909,4,2,1,60,0,0
212549,-90.9090909090909,4,2,1,50,0,0
212699,-90.9090909090909,4,2,1,40,0,0
213001,-90.9090909090909,4,2,1,60,0,0
213302,-90.9090909090909,4,2,1,80,0,0

[Colours]
Combo1 : 226,217,92
Combo2 : 249,164,70
Combo3 : 159,0,0

[HitObjects]
100,195,772,6,0,L|206:180,1,80.9999975280763,4|0,1:0|0:0,2:0:0:0:
357,205,1073,2,0,B|271:164|267:245|166:189,1,161.999995056153,2|2,2:0|2:0,0:0:0:0:
133,102,1525,1,0,0:0:0:0:
249,33,1676,2,0,P|238:73|235:129,1,80.9999975280763,2|0,2:0|0:0,0:0:0:0:
275,231,1978,6,0,P|286:274|289:319,1,80.9999975280763,6|2,1:0|2:0,2:0:0:0:
134,347,2279,2,0,P|156:296|200:306,1,80.9999975280763,2|8,0:0|2:3,0:0:0:0:
200,304,2505,1,2,0:0:0:0:
200,304,2581,2,0,L|85:291,1,80.9999975280763,2|8,2:0|2:3,0:0:0:0:
53,229,2882,1,8,2:3:0:0:
53,229,3033,1,0,0:0:0:0:
175,196,3184,6,0,L|371:218,1,161.999995056153,6|8,1:0|2:0,0:0:0:0:
393,290,3636,1,8,2:0:0:0:
284,179,3787,2,0,P|296:136|294:120,3,40.4999987640381,8|2|8|2,2:0|0:0|2:0|0:0,0:0:0:0:
282,51,4088,1,8,2:0:0:0:
282,51,4239,1,8,2:0:0:0:
443,73,4390,6,0,P|387:48|355:61,1,80.9999975280763,6|0,1:2|0:0,2:0:0:0:
143,111,4691,2,0,P|198:135|230:122,1,80.9999975280763,4|0,1:1|0:0,2:0:0:0:
459,69,4993,6,0,P|397:42|361:56,1,80.9999975280763,8|0,2:3|1:0,2:0:0:0:
126,113,5294,2,0,P|187:139|223:125,1,80.9999975280763,0|2,1:0|2:3,0:0:0:0:
282,51,5596,5,4,2:3:0:0:
282,51,5746,1,2,0:0:0:0:
324,206,5897,1,2,0:0:0:0:
324,206,6048,1,2,0:0:0:0:
57,297,6349,5,2,0:0:0:0:
256,382,6651,5,2,0:0:0:0:
191,197,6952,5,2,0:0:0:0:
147,362,7254,5,2,0:0:0:0:
241,283,7405,2,0,P|264:291|313:291,3,40.4999987640381,2|0|0|0,2:0|2:0|2:0|2:0,2:0:0:0:
312,308,7706,2,0,P|352:294|406:290,1,80.9999975280763,4|0,2:0|0:0,2:0:0:0:
426,309,7932,1,0,2:0:0:0:
426,309,8008,6,0,L|411:196,1,80.9999975280763,6|0,1:0|2:0,2:0:0:0:
395,103,8309,1,0,2:0:0:0:
298,189,8460,2,0,P|254:201|207:179,1,80.9999975280763,0|0,2:0|2:0,0:0:0:0:
266,24,8761,6,0,L|261:134,1,80.9999975280763,0|0,1:0|2:0,0:0:0:0:
91,162,9063,2,0,L|86:72,1,80.9999975280763,0|0,1:0|1:0,0:0:0:0:
289,14,9364,2,0,L|284:124,1,80.9999975280763,0|0,2:0|2:0,0:0:0:0:
76,176,9666,1,0,1:0:0:0:
3,1,9817,1,0,2:0:0:0:
195,119,10118,5,4,1:2:0:0:
190,309,10420,6,0,P|138:321|92:297,1,80.9999975280763,2|0,1:0|2:0,2:0:0:0:
275,240,10721,1,0,2:0:0:0:
375,289,10872,2,0,P|377:341|345:393,1,80.9999975280763,0|0,1:0|2:0,0:0:0:0:
149,229,11174,1,0,1:0:0:0:
149,229,11249,1,0,1:0:0:0:
149,229,11324,2,0,L|142:179,1,49.5000015106202,4|0,1:2|0:0,2:0:0:0:
67,122,11626,6,0,B|159:101|134:169|238:141,1,161.999995056153,0|0,1:0|0:0,2:0:0:0:
512,126,12229,5,8,2:3:0:0:
504,120,12304,1,8,2:3:0:0:
489,113,12380,1,8,2:3:0:0:
464,109,12455,1,8,2:3:0:0:
435,117,12530,1,12,2:0:0:0:
413,141,12606,1,0,1:0:0:0:
411,175,12681,2,0,L|420:228,1,45,0|0,1:0|2:0,0:0:0:0:
334,93,12832,6,0,B|251:58|264:132|172:104,1,148.500004531861,4|0,1:0|2:0,2:0:0:0:
94,183,13133,2,0,P|176:189|213:277,1,148.50000453186,8|0,2:0|0:0,2:0:0:0:
286,324,13435,2,0,L|296:163,1,148.50000453186,0|0,1:0|0:0,0:0:0:0:
296,176,13736,1,8,2:0:0:0:
124,271,13887,1,0,2:0:0:0:
226,384,14038,6,0,P|291:357|383:364,1,148.50000453186,0|0,1:0|2:0,2:0:0:0:
469,289,14339,2,0,L|297:267,1,148.50000453186,8|0,2:0|0:0,2:0:0:0:
224,192,14641,2,0,L|396:170,1,148.50000453186,0|0,1:0|0:0,0:0:0:0:
371,173,14942,1,8,3:2:0:0:
224,73,15093,1,0,2:0:0:0:
488,50,15244,6,0,L|475:156,1,99.0000030212403,0|0,1:0|0:0,2:0:0:0:
460,270,15545,1,8,2:0:0:0:
383,69,15696,1,0,2:0:0:0:
192,303,15847,6,0,P|186:243|175:171,1,116.999994644165,0|0,1:0|1:0,0:0:0:0:
306,117,16148,2,0,P|298:174|292:233,1,116.999994644165,8|0,2:0|2:0,0:0:0:0:
258,36,16450,6,0,P|353:34|390:112,1,148.500004531861,0|0,1:0|2:0,2:0:0:0:
465,145,16751,2,0,P|455:219|449:319,1,135,8|0,2:0|0:0,2:0:0:0:
401,380,17053,2,0,P|348:319|284:332,1,135,0|0,1:0|1:0,2:0:0:0:
197,367,17354,2,0,P|191:299|182:232,1,135,12|0,2:0|2:0,2:0:0:0:
70,248,17656,6,0,P|87:293|174:266,1,135,4|0,1:0|2:0,2:0:0:0:
218,190,17957,2,0,P|223:122|232:55,1,135,8|0,2:0|0:0,2:0:0:0:
232,55,18259,1,0,1:0:0:0:
94,150,18410,1,0,1:0:0:0:
71,29,18560,1,8,2:0:0:0:
218,190,18711,1,0,2:0:0:0:
144,308,18862,6,0,P|100:332|52:324,1,90,0|0,1:0|0:0,2:0:0:0:
338,299,19163,2,0,P|294:275|246:283,1,90,8|0,2:0|1:0,2:0:0:0:
404,368,19465,6,0,P|428:332|416:257,1,90,0|0,1:0|1:0,2:0:0:0:
321,91,19766,2,0,P|318:140|343:182,1,90,8|8,2:0|2:0,2:0:0:0:
506,94,20068,6,0,P|446:104|377:123,1,90,4|0,1:2|0:0,2:0:0:0:
131,101,20369,2,0,P|185:93|228:79,1,90,12|0,2:1|2:0,2:0:0:0:
126,297,20671,1,8,2:3:0:0:
109,300,20746,1,8,2:3:0:0:
87,295,20821,1,8,2:3:0:0:
69,279,20897,1,8,0:3:0:0:
62,258,20972,1,8,2:0:0:0:
176,213,21123,5,0,1:0:0:0:
195,364,21274,1,8,2:0:0:0:
174,201,21425,1,8,2:0:0:0:
413,251,21726,5,8,2:0:0:0:
432,100,21877,1,8,2:0:0:0:
411,263,22028,1,0,1:0:0:0:
345,27,22179,2,0,L|354:92,3,45,14|2|2|2,2:0|0:0|0:0|2:0,2:0:0:0:
432,100,22480,6,0,B|346:88|385:153|269:152,1,144,4|10,1:0|2:0,0:0:0:0:
206,86,22932,1,0,1:0:0:0:
302,150,23083,2,0,P|315:190|298:235,1,72,2|2,2:0|1:2,0:0:0:0:
230,308,23385,1,10,2:0:0:0:
230,308,23535,1,2,2:0:0:0:
154,182,23686,6,0,P|189:188|244:192,1,72,2|2,1:2|1:0,0:0:0:0:
325,257,23988,2,0,P|365:250|404:248,1,72,10|2,2:0|1:2,0:0:0:0:
512,140,24289,2,0,P|461:81|381:110,1,144,2|10,2:0|2:0,2:0:0:0:
263,121,24741,1,0,1:0:0:0:
263,121,24817,1,0,1:0:0:0:
263,121,24892,6,0,B|211:112|211:112|166:122|166:122|99:111,1,144,0|10,1:2|2:0,2:0:0:0:
34,179,25344,1,0,1:0:0:0:
99,51,25495,2,0,P|123:90|109:135,1,72,2|2,2:0|1:2,0:0:0:0:
55,242,25797,2,0,P|31:203|45:158,1,72,10|2,2:0|2:0,2:0:0:0:
120,186,26098,5,2,1:2:0:0:
141,284,26249,1,2,2:0:0:0:
33,329,26400,5,10,2:0:0:0:
55,242,26551,1,2,1:2:0:0:
206,348,26701,6,0,P|154:376|109:369,1,72,2|2,2:0|1:2,0:0:0:0:
288,227,27003,2,0,L|458:251,1,144,10|0,2:0|1:0,2:0:0:0:
511,174,27455,1,0,0:0:0:0:
441,315,27606,6,0,P|426:268|439:230,1,72,10|0,2:0|1:0,2:0:0:0:
371,82,27907,2,0,P|386:129|373:167,1,72,2|2,2:0|1:2,0:0:0:0:
288,227,28209,1,10,2:0:0:0:
389,275,28359,1,2,2:0:0:0:
229,384,28510,1,2,1:2:0:0:
308,330,28661,1,2,1:2:0:0:
188,182,28812,1,10,2:0:0:0:
206,287,28962,1,2,1:2:0:0:
378,157,29113,6,0,P|345:134|295:121,1,72,2|0,2:0|1:0,2:0:0:0:
186,56,29415,2,0,P|145:71|94:80,1,72,10|0,2:0|0:0,2:0:0:0:
0,199,29716,2,0,P|53:186|126:258,1,144,0|10,1:2|2:0,2:0:0:0:
99,384,30168,1,0,1:0:0:0:
40,278,30319,1,2,2:0:0:0:
183,333,30470,1,2,1:2:0:0:
0,372,30621,1,10,2:0:0:0:
0,372,30771,1,2,2:0:0:0:
217,229,30922,6,0,B|255:256|255:256|354:230,1,148.500004531861,6|0,1:2|2:0,2:0:0:0:
450,151,31224,2,0,L|433:263,1,99.0000030212403,4|0,1:0|0:0,2:0:0:0:
366,121,31525,1,10,2:0:0:0:
360,113,31600,1,8,2:0:0:0:
353,98,31676,1,8,2:0:0:0:
349,73,31751,1,8,2:0:0:0:
357,44,31826,1,2,1:2:0:0:
381,22,31902,1,0,1:0:0:0:
415,20,31977,2,0,P|421:51|430:86,1,49.5000015106202,0|0,1:0|1:0,0:0:0:0:
250,162,32128,6,0,P|260:91|272:2,1,148.50000453186,4|0,1:0|2:0,2:0:0:0:
168,80,32430,2,0,B|85:68|101:122|15:112,1,148.50000453186,8|0,2:0|0:0,2:0:0:0:
146,170,32731,2,0,P|200:187|294:247,1,148.50000453186,0|0,1:0|0:0,0:0:0:0:
279,234,33033,1,8,2:0:0:0:
166,311,33184,1,0,2:0:0:0:
382,124,33334,6,0,L|365:284,1,148.50000453186,0|0,1:0|2:0,2:0:0:0:
449,364,33636,2,0,L|464:216,1,148.50000453186,8|0,2:0|0:0,2:0:0:0:
505,98,33937,2,0,P|465:139|367:102,1,148.50000453186,0|0,1:0|0:0,0:0:0:0:
381,123,34239,1,12,2:0:0:0:
503,288,34390,1,0,2:0:0:0:
254,344,34540,6,0,L|264:245,1,99.0000030212403,0|0,1:0|0:0,2:0:0:0:
367,116,34842,1,8,2:0:0:0:
149,193,34993,1,0,2:0:0:0:
264,245,35143,1,0,1:0:0:0:
216,98,35294,1,0,1:0:0:0:
153,303,35445,1,12,2:0:0:0:
218,76,35596,1,0,1:0:0:0:
275,261,35746,6,0,P|329:273|378:252,1,99.0000030212403,4|0,1:2|1:0,2:0:0:0:
136,174,36048,2,0,P|82:162|33:183,1,99.0000030212403,12|0,2:1|0:0,2:0:0:0:
430,185,36349,2,0,L|437:130,3,50,8|0|0|0,1:3|1:0|1:0|1:0,2:0:0:0:
458,97,36651,2,0,L|470:264,1,148.50000453186,8|0,2:0|2:0,2:0:0:0:
484,278,36952,6,0,B|406:266|429:338|328:330,1,144,4|10,1:0|2:0,0:0:0:0:
252,284,37405,1,0,1:0:0:0:
339,160,37555,2,0,L|347:264,1,72,2|2,2:0|1:2,0:0:0:0:
172,180,37857,2,0,L|178:100,1,72,10|2,2:0|2:0,0:0:0:0:
272,28,38158,5,2,1:2:0:0:
272,28,38309,1,2,1:2:0:0:
101,62,38460,1,10,2:0:0:0:
172,180,38611,1,2,1:2:0:0:
101,282,38761,2,0,P|61:293|9:270,1,72,2|0,2:0|1:0,2:0:0:0:
172,180,39063,2,0,P|212:169|264:192,1,72,14|0,2:0|0:0,2:0:0:0:
442,314,39364,6,0,P|373:323|331:250,1,144,0|10,1:0|2:0,2:0:0:0:
359,163,39817,1,0,1:0:0:0:
470,216,39967,2,0,L|481:131,1,72,2|2,2:0|1:2,0:0:0:0:
349,91,40269,2,0,L|359:163,1,72,10|2,2:0|2:0,2:0:0:0:
440,18,40570,5,2,1:2:0:0:
440,18,40721,1,2,1:2:0:0:
258,73,40872,1,10,2:0:0:0:
464,125,41023,1,2,1:2:0:0:
341,22,41174,2,0,P|353:75|332:119,1,72,2|0,2:0|1:0,2:0:0:0:
232,174,41475,2,0,L|145:161,1,72,10|0,2:0|1:0,2:0:0:0:
133,187,41701,1,0,1:0:0:0:
133,187,41777,6,0,P|147:254|83:249,1,144,4|10,1:2|2:0,2:0:0:0:
39,181,42229,1,0,1:0:0:0:
158,340,42380,2,0,P|202:328|245:327,1,72,2|2,2:0|1:2,0:0:0:0:
329,216,42681,2,0,P|285:204|242:203,1,72,14|2,2:0|1:2,2:0:0:0:
101,77,42983,5,2,1:2:0:0:
98,92,43133,1,2,1:2:0:0:
329,124,43284,1,14,2:0:0:0:
326,109,43434,1,0,1:0:0:0:
201,34,43586,5,6,2:0:0:0:
229,159,43736,1,0,1:0:0:0:
296,12,43887,1,14,2:0:0:0:
217,258,44038,2,0,P|182:243|155:238,1,36,2|0,0:0|2:0,0:0:0:0:
88,188,44189,6,0,P|152:172|241:157,1,144,4|0,1:0|0:0,2:0:0:0:
262,370,44641,1,8,2:3:0:0:
262,370,44792,2,0,L|174:361,1,72,2|8,2:2|2:3,0:0:0:0:
22,289,45093,2,0,L|110:280,1,72,8|2,2:3|2:0,2:0:0:0:
303,155,45395,2,0,B|259:121|259:121|251:257,1,148.50000453186,2|0,1:2|0:0,2:0:0:0:
267,239,45696,6,0,P|251:227|215:219,1,53.9999983520508,2|0,1:2|2:0,0:0:0:0:
154,151,45998,2,0,P|176:136|203:131,1,53.9999983520508,6|0,1:2|2:0,0:0:0:0:
81,99,46299,2,0,P|68:115|61:151,1,53.9999983520508,6|2,1:2|0:0,2:0:0:0:
165,249,46525,1,2,2:0:0:0:
165,249,46601,6,0,L|152:138,1,99.0000030212403,4|0,1:0|2:0,2:0:0:0:
11,249,46902,2,0,L|0:347,1,99.0000030212403,10|0,2:0|1:0,0:0:0:0:
23,164,47204,1,10,2:0:0:0:
181,335,47354,1,0,1:0:0:0:
244,154,47505,1,8,2:0:0:0:
87,367,47656,1,0,1:0:0:0:
93,106,47807,6,0,B|121:120|121:120|103:213,1,99.0000030212403,10|0,2:0|0:0,2:0:0:0:
209,350,48108,2,0,B|181:336|181:336|199:243,1,99.0000030212403,10|0,2:0|1:0,2:0:0:0:
317,224,48410,1,10,2:0:0:0:
99,274,48560,1,2,1:2:0:0:
312,359,48711,1,10,2:0:0:0:
157,181,48862,1,2,1:2:0:0:
386,299,49013,6,0,P|432:264|486:261,1,99.0000030212403,10|0,2:0|0:0,2:0:0:0:
352,132,49314,2,0,L|245:107,1,99.0000030212403,10|0,2:0|2:0,2:0:0:0:
157,181,49616,1,10,2:0:0:0:
145,90,49766,1,2,1:2:0:0:
287,27,49917,1,10,2:0:0:0:
255,109,50068,1,2,1:2:0:0:
103,11,50219,6,0,P|128:0|171:5,3,49.5000015106202,10|2|2|2,2:0|2:0|2:0|2:0,0:0:0:0:
42,79,50520,2,0,P|26:62|19:32,3,49.5000015106202,10|2|2|2,2:0|2:0|1:2|2:0,0:0:0:0:
129,113,50822,5,10,2:0:0:0:
125,122,50897,1,2,0:0:0:0:
122,131,50972,1,2,1:2:0:0:
118,140,51048,1,2,0:0:0:0:
115,150,51123,2,0,B|212:145|156:204|282:206,1,148.50000453186,10|0,2:0|1:0,2:0:0:0:
267,193,51425,6,0,B|235:183|235:183|246:281,1,99.0000030212403,4|0,1:0|2:0,2:0:0:0:
153,300,51726,2,0,B|121:310|121:310|132:212,1,99.0000030212403,10|0,2:0|1:0,0:0:0:0:
258,339,52028,1,10,2:0:0:0:
36,268,52179,1,0,1:0:0:0:
267,193,52329,1,8,2:0:0:0:
53,362,52480,1,0,1:0:0:0:
19,174,52631,6,0,L|1:66,1,99.0000030212403,10|0,2:0|2:0,2:0:0:0:
167,174,52932,2,0,L|151:272,1,99.0000030212403,10|0,2:0|1:0,2:0:0:0:
263,34,53234,1,10,2:0:0:0:
86,77,53385,1,2,1:2:0:0:
362,132,53535,1,10,2:0:0:0:
185,81,53686,1,2,1:2:0:0:
430,63,53837,6,0,P|459:120|452:155,1,99.0000030212403,10|0,2:0|0:0,2:0:0:0:
331,260,54138,2,0,P|279:236|231:234,1,99.0000030212403,10|0,2:0|0:0,2:0:0:0:
130,315,54440,1,10,2:0:0:0:
248,372,54591,1,2,1:2:0:0:
128,219,54741,1,10,2:0:0:0:
65,384,54892,1,2,1:2:0:0:
245,282,55043,6,0,P|237:255|237:231,3,49.5000015106202,10|2|2|2,2:0|2:0|2:0|2:0,0:0:0:0:
205,157,55344,2,0,P|212:130|213:106,3,49.5000015106202,14|0|2|0,2:0|0:0|2:0|0:0,2:0:0:0:
260,16,55646,5,8,2:3:0:0:
285,48,55721,1,8,0:0:0:0:
311,60,55797,1,8,2:0:0:0:
341,59,55872,1,8,2:0:0:0:
363,51,55947,1,8,2:3:0:0:
381,47,56023,1,0,1:0:0:0:
396,51,56098,2,0,P|391:78|391:103,1,49.5000015106202,0|0,1:0|0:0,0:0:0:0:
315,154,56249,6,0,P|325:212|325:267,1,99.0000030212403,4|0,1:0|2:0,2:0:0:0:
466,384,56550,2,0,P|475:335|477:286,1,99.0000030212403,8|0,2:0|1:0,0:0:0:0:
442,140,56852,1,8,2:0:0:0:
366,336,57003,1,0,1:0:0:0:
243,218,57153,1,8,2:0:0:0:
463,272,57304,1,0,1:0:0:0:
230,225,57455,6,0,P|208:269|199:317,1,99.0000030212403,10|2,2:0|1:2,0:0:0:0:
84,223,57756,2,0,P|62:178|53:130,1,99.0000030212403,10|2,2:0|1:2,0:0:0:0:
112,50,57983,1,2,0:0:0:0:
112,50,58058,2,0,B|199:21|169:88|277:57,1,148.50000453186,10|0,2:0|0:0,2:0:0:0:
357,20,58359,2,0,L|341:176,1,148.50000453186,10|0,2:0|1:0,2:0:0:0:
341,167,58661,5,10,2:0:0:0:
255,62,58812,1,0,2:0:0:0:
291,253,58962,1,8,2:0:0:0:
357,20,59113,1,0,1:0:0:0:
239,167,59264,5,8,2:0:0:0:
384,251,59415,1,0,1:0:0:0:
235,325,59565,1,8,2:0:0:0:
291,253,59716,1,0,1:0:0:0:
443,322,59867,6,0,P|411:341|380:341,3,49.5000015106202,10|2|2|2,2:0|2:0|1:2|2:0,0:0:0:0:
469,236,60168,2,0,P|492:242|512:256,3,49.5000015106202,10|2|2|2,2:0|2:0|1:2|2:0,0:0:0:0:
384,251,60470,2,0,B|355:211|355:211|387:112,1,148.50000453186,10|2,2:0|2:0,0:0:0:0:
403,104,60771,2,0,L|460:122,1,49.5000015106202,12|0,2:0|0:0,2:0:0:0:
329,174,60922,2,0,L|281:159,1,49.5000015106202,8|0,0:0|2:0,0:0:0:0:
384,251,61073,5,4,1:0:0:0:
316,67,61224,1,0,0:0:0:0:
215,261,61375,5,8,2:0:0:0:
225,104,61526,1,8,2:0:0:0:
68,243,61676,5,8,2:0:0:0:
150,43,61827,1,8,2:0:0:0:
178,176,61978,5,8,2:0:0:0:
0,33,62128,1,8,2:0:0:0:
319,48,62279,5,8,2:0:0:0:
424,288,63485,6,0,B|403:333|403:333|385:226,1,144,4|0,1:0|0:0,0:0:0:0:
418,159,63937,1,2,0:0:0:0:
306,211,64088,2,0,P|264:215|224:182,1,72,0|2,0:0|0:0,0:0:0:0:
156,138,64390,1,0,0:0:0:0:
153,154,64540,1,0,0:0:0:0:
269,71,64691,5,2,0:0:0:0:
71,106,65143,6,0,P|60:134|64:182,1,67.5,8|0,2:3|0:0,0:0:0:0:
108,243,65445,1,0,1:0:0:0:
108,243,65520,1,0,1:0:0:0:
108,243,65596,2,0,B|155:264|155:264|252:227,1,121.499996292114,12|0,0:0|0:0,0:0:0:0:
236,210,65897,6,0,L|298:221,3,40.4999987640381,0|0|0|0,3:0|3:0|3:0|3:0,0:0:0:0:
283,304,66199,2,0,L|322:296,3,40.4999987640381,2|0|8|0,3:2|3:0|3:2|3:0,0:0:0:0:
369,215,66500,5,2,3:2:0:0:
397,238,66576,1,0,3:0:0:0:
422,235,66651,1,2,3:2:0:0:
439,222,66726,1,0,3:0:0:0:
446,208,66802,1,10,3:2:0:0:
443,192,66877,1,0,3:0:0:0:
435,175,66952,2,0,L|369:189,1,40.4999987640381,2|0,3:2|3:2,0:0:0:0:
308,111,67103,6,0,L|399:91,1,80.9999975280763,10|2,3:2|1:2,0:0:0:0:
227,144,67405,1,2,0:0:0:0:
316,19,67555,1,2,1:2:0:0:
291,217,67706,2,0,P|255:240|205:240,1,80.9999975280763,2|0,1:2|0:0,0:0:0:0:
92,167,68008,2,0,P|135:163|99:198,1,121.499996292114,6|0,1:2|2:0,2:0:0:0:
9,170,68309,6,0,P|10:146|27:116,3,40.4999987640381,0|0|0|0,3:0|3:0|3:0|3:0,0:0:0:0:
41,250,68611,2,0,P|47:269|47:289,3,40.4999987640381,2|0|8|0,3:2|3:0|3:2|3:0,0:0:0:0:
9,375,68912,5,2,3:2:0:0:
40,351,68988,1,0,3:0:0:0:
69,345,69063,1,2,3:2:0:0:
91,348,69138,1,0,3:0:0:0:
111,358,69214,1,10,3:2:0:0:
125,364,69289,1,0,3:0:0:0:
141,372,69364,2,0,L|180:361,1,40.4999987640381,2|0,3:2|3:0,0:0:0:0:
253,290,69515,6,0,P|218:285|158:270,1,80.9999975280763,10|2,3:2|1:2,0:0:0:0:
270,384,69817,1,2,0:0:0:0:
363,327,69967,1,2,1:2:0:0:
289,210,70118,2,0,B|271:244|271:244|286:309,2,80.9999975280763,2|8|8,1:2|2:3|2:3,0:0:0:0:
357,153,70570,1,0,0:0:0:0:
215,159,70721,6,0,P|196:148|164:144,3,40.4999987640381,0|0|0|0,3:2|3:2|3:2|3:2,0:0:0:0:
300,76,71023,2,0,P|317:65|336:60,3,40.4999987640381,2|0|8|0,3:2|3:2|3:2|3:2,0:0:0:0:
189,28,71324,5,2,3:2:0:0:
147,36,71400,1,0,3:2:0:0:
129,55,71475,1,2,3:2:0:0:
121,78,71550,1,0,3:2:0:0:
115,95,71626,1,10,3:2:0:0:
95,106,71701,1,0,3:2:0:0:
75,107,71777,2,0,P|66:86|64:62,1,40.4999987640381,2|0,3:2|3:2,0:0:0:0:
200,124,71927,6,0,P|192:180|187:240,1,80.9999975280763,10|2,3:2|1:2,0:0:0:0:
228,43,72229,1,2,0:0:0:0:
357,142,72380,1,2,1:2:0:0:
205,279,72530,2,0,P|246:306|214:266,1,121.499996292114,2|0,1:2|0:0,0:0:0:0:
177,160,72832,2,0,P|214:130|207:177,1,121.499996292114,4|0,1:0|2:0,2:0:0:0:
116,232,73133,5,6,1:2:0:0:
133,237,73284,1,0,0:0:0:0:
51,144,73435,5,10,2:0:0:0:
93,130,73586,1,8,2:0:0:0:
4,244,73736,5,8,2:0:0:0:
65,338,73887,1,8,2:0:0:0:
267,161,74038,5,8,2:0:0:0:
100,237,74189,1,8,2:0:0:0:
218,381,74339,6,0,B|241:299|241:299|222:297|206:283,1,121.499996292114,0|0,1:0|2:0,2:0:0:0:
194,256,74641,2,0,L|261:247,1,49.5000015106202,4|0,1:2|0:0,0:0:0:0:
338,229,74792,1,2,1:2:0:0:
149,130,74942,2,0,L|298:168,1,121.499996292114,2|0,1:2|1:0,2:0:0:0:
266,160,75244,1,2,1:2:0:0:
348,32,75395,1,0,1:0:0:0:
348,32,75470,1,0,1:0:0:0:
348,32,75545,6,0,B|316:121|393:103|352:216,2,180,4|8|8,1:0|2:0|2:0,2:0:0:0:
479,66,76298,2,0,P|451:65|420:73,1,45
211,150,76449,6,0,P|254:195|231:131,2,180,0|8|8,1:0|2:3|2:3,0:0:0:0:
166,42,77203,2,0,P|159:70|156:100,1,45
87,241,77354,6,0,P|81:162|64:62,2,180,0|8|8,1:0|2:0|2:0,2:0:0:0:
25,313,78107,5,0,0:0:0:0:
109,352,78258,1,0,1:0:0:0:
175,248,78409,1,8,2:3:0:0:
213,238,78560,1,2,2:0:0:0:
252,334,78710,1,0,1:0:0:0:
268,340,78861,2,0,P|317:341|361:298,1,90,10|0,2:0|0:0,0:0:0:0:
453,359,79163,2,0,P|416:323|442:196,2,180,2|8|8,1:2|2:0|2:0,2:0:0:0:
431,205,79916,5,0,0:0:0:0:
508,134,80067,1,0,1:0:0:0:
326,232,80218,1,8,2:3:0:0:
499,274,80369,1,0,1:0:0:0:
378,312,80519,1,0,1:0:0:0:
267,155,80670,2,0,P|310:188|368:176,1,90,8|0,2:0|0:0,2:0:0:0:
425,25,80972,6,0,B|369:37|334:2|334:2|355:45|330:111,1,198.000006042481,12|0,2:1|1:0,2:0:0:0:
115,121,81424,2,0,B|103:82|115:55|115:55|173:30|177:91|258:42,1,198.000006042481,12|0,2:0|1:0,2:0:0:0:
323,190,81876,2,0,L|270:180,3,49.5000015106202,14|2|2|2,2:0|0:0|0:0|2:0,2:0:0:0:
242,270,82178,6,0,B|277:232|277:232|394:256,1,170.999995433807,4|10,1:0|2:0,0:0:0:0:
490,338,82630,1,0,2:0:0:0:
490,338,82705,1,0,0:0:0:0:
490,338,82781,2,0,P|481:288|476:235,1,85.4999977169037,2|2,1:2|1:2,0:0:0:0:
463,138,83082,1,10,2:0:0:0:
355,292,83233,1,2,2:0:0:0:
331,102,83384,6,0,P|338:149|342:186,1,85.4999977169037,2|0,1:2|2:0,2:0:0:0:
231,346,83685,2,0,P|239:300|242:261,1,85.4999977169037,10|2,2:0|2:0,0:0:0:0:
96,184,83987,2,0,P|131:196|151:194,1,42.7499988584519,2|0,1:2|0:0,2:0:0:0:
236,149,84137,1,0,1:0:0:0:
236,149,84213,1,0,1:0:0:0:
236,149,84288,2,0,L|86:168,1,128.249996575356,14|0,2:0|2:0,2:0:0:0:
96,184,84590,6,0,B|192:174|155:247|261:235,1,170.999995433807,0|10,1:0|2:0,0:0:0:0:
362,148,85042,1,2,2:0:0:0:
362,148,85117,1,2,0:0:0:0:
362,148,85193,1,2,1:2:0:0:
297,75,85343,1,2,1:2:0:0:
428,70,85494,5,10,2:0:0:0:
232,145,85645,1,2,2:0:0:0:
355,240,85796,1,2,1:2:0:0:
312,42,85946,1,2,2:0:0:0:
153,191,86097,1,10,2:0:0:0:
392,155,86248,1,2,2:0:0:0:
172,44,86399,2,0,B|151:29|127:36|127:36|146:78|133:130,1,128.249996575356,2|0,1:2|2:0,2:0:0:0:
153,191,86700,6,0,P|117:229|141:171,1,170.999995433807,14|4,2:0|1:0,2:0:0:0:
261,144,87152,2,0,L|254:195,1,42.7499988584519,0|0,2:0|0:0,0:0:0:0:
244,275,87303,1,10,2:0:0:0:
0,316,87454,6,0,B|82:263|72:343|181:302,1,170.999995433807,2|0,2:0|1:0,2:0:0:0:
396,347,87906,2,0,P|323:336|301:309,1,85.4999977169037,10|0,2:0|0:0,2:0:0:0:
403,93,88208,2,0,L|375:267,1,170.999995433807,2|10,1:2|2:0,2:0:0:0:
236,166,88660,1,2,1:2:0:0:
246,152,88735,1,2,1:0:0:0:
261,144,88811,2,0,P|267:165|270:185,1,42.7499988584519,8|0,2:0|0:0,0:0:0:0:
276,273,88961,5,8,2:0:0:0:
239,299,89037,1,8,0:0:0:0:
201,281,89112,1,10,2:0:0:0:
166,261,89188,1,8,0:0:0:0:
136,272,89263,1,8,2:0:0:0:
124,285,89338,1,8,0:0:0:0:
122,296,89414,5,4,1:0:0:0:
50,240,89564,1,0,2:0:0:0:
131,156,89715,1,10,2:0:0:0:
175,363,89866,1,0,1:0:0:0:
244,109,90017,1,2,2:0:0:0:
200,258,90167,1,0,1:0:0:0:
148,44,90318,1,8,2:0:0:0:
148,44,90469,1,0,1:0:0:0:
310,220,90620,6,0,B|399:170|383:242|477:202,2,170.999995433807,10|14|6,2:0|2:0|1:2,2:0:0:0:
232,189,91298,1,0,1:0:0:0:
224,180,91374,2,0,L|231:122,1,42.7499988584519,0|0,1:0|1:0,0:0:0:0:
294,30,91524,1,0,1:0:0:0:
331,17,91600,1,0,1:0:0:0:
368,31,91675,1,0,1:0:0:0:
382,57,91750,1,0,1:0:0:0:
377,80,91826,5,4,1:0:0:0:
363,291,91977,1,0,0:0:0:0:
278,341,92127,6,0,L|128:320,1,128.249996575356,2|0,1:2|0:0,2:0:0:0:
136,339,92429,2,0,B|151:305|151:305|130:254,1,85.4999977169037,2|0,1:2|2:0,0:0:0:0:
227,165,92730,2,0,B|212:199|212:199|233:250,1,85.4999977169037,2|2,1:2|2:0,0:0:0:0:
395,193,93032,6,0,P|351:200|292:205,1,85.4999977169037,2|2,1:2|2:0,2:0:0:0:
151,62,93333,2,0,P|194:69|254:74,1,85.4999977169037,2|6,1:2|2:0,0:0:0:0:
344,32,93635,1,2,1:2:0:0:
227,165,93786,1,0,2:0:0:0:
375,155,93936,2,0,P|390:178|391:232,1,42.7499988584519,2|0,1:2|0:0,2:0:0:0:
367,288,94087,1,0,1:0:0:0:
367,288,94162,1,0,0:0:0:0:
367,288,94238,6,0,P|400:238|486:253,1,128.249996575356,0|0,1:0|0:0,0:0:0:0:
482,262,94539,2,0,P|469:309|470:361,1,85.4999977169037,6|0,1:2|2:0,2:0:0:0:
331,373,94841,2,0,L|238:357,1,85.4999977169037,2|6,1:2|2:0,0:0:0:0:
174,257,95142,2,0,L|266:241,1,85.4999977169037,0|2,1:0|2:0,0:0:0:0:
122,339,95444,5,6,1:2:0:0:
37,246,95595,1,8,2:3:0:0:
43,231,95670,1,0,1:2:0:0:
49,216,95745,1,2,1:2:0:0:
149,137,95896,2,0,L|162:188,2,42.7499988584519,8|0|2,2:3|1:0|1:2,0:0:0:0:
64,108,96198,1,0,2:0:0:0:
136,48,96348,1,6,1:2:0:0:
232,81,96499,1,0,0:0:0:0:
262,184,96650,6,0,P|248:236|241:328,1,128.249996575356,4|0,1:0|0:0,2:0:0:0:
254,330,96951,2,0,P|224:322|186:315,1,42.7499988584519,2|0,1:2|0:0,2:0:0:0:
119,262,97102,1,4,2:3:0:0:
119,262,97178,1,0,1:0:0:0:
119,262,97253,2,0,P|139:257|160:251,1,42.7499988584519,10|0,1:2|1:0,0:0:0:0:
97,362,97404,5,10,1:2:0:0:
66,348,97479,1,8,1:0:0:0:
37,310,97554,1,10,1:2:0:0:
34,256,97630,1,8,1:2:0:0:
58,202,97705,1,10,1:2:0:0:
69,136,97781,1,8,1:2:0:0:
38,71,97856,5,6,1:2:0:0:
77,101,98157,5,2,2:0:0:0:
110,56,98459,5,2,2:0:0:0:
109,146,98760,6,0,B|137:199|201:207|242:167|242:167|228:152|224:120,1,188.999994232178,4|0,2:0|2:0,2:0:0:0:
311,13,99062,6,0,P|299:66|312:110,1,99.0000030212403,4|0,1:0|2:0,2:0:0:0:
458,265,99363,2,0,P|470:211|457:168,1,99.0000030212403,10|0,2:0|1:0,0:0:0:0:
393,58,99665,1,10,2:0:0:0:
296,243,99816,1,0,1:0:0:0:
498,158,99966,1,8,2:0:0:0:
246,70,100117,1,0,1:0:0:0:
355,164,100268,5,10,2:0:0:0:
126,233,100419,1,0,2:0:0:0:
279,345,100569,1,10,2:0:0:0:
156,125,100720,1,0,1:0:0:0:
41,344,100871,1,10,2:0:0:0:
243,243,101022,1,2,1:2:0:0:
20,93,101173,1,10,2:0:0:0:
114,257,101323,1,2,1:2:0:0:
254,57,101474,6,0,L|375:45,1,99.0000030212403,10|0,2:0|0:0,2:0:0:0:
460,289,101776,2,0,L|339:277,1,99.0000030212403,10|0,2:0|2:0,2:0:0:0:
294,150,102077,1,10,2:0:0:0:
411,201,102228,1,2,1:2:0:0:
368,78,102379,1,10,2:0:0:0:
287,266,102529,1,2,1:2:0:0:
178,171,102680,6,0,P|173:145|163:102,3,49.5000015106202,10|2|2|2,2:0|2:0|2:0|2:0,0:0:0:0:
61,324,102982,2,0,P|66:298|76:255,3,49.5000015106202,10|2|2|2,2:0|2:0|1:2|2:0,0:0:0:0:
287,266,103283,6,0,B|205:250|226:323|118:299,1,148.50000453186,10|0,2:0|0:0,2:0:0:0:
61,324,103585,2,0,P|129:334|208:361,1,148.50000453186,10|0,2:0|1:0,2:0:0:0:
299,364,103886,6,0,P|291:318|287:266,1,99.0000030212403,4|0,1:0|2:0,2:0:0:0:
191,78,104188,2,0,P|187:127|178:176,1,99.0000030212403,10|0,2:0|1:0,0:0:0:0:
104,245,104489,1,10,2:0:0:0:
315,166,104640,1,0,1:0:0:0:
83,55,104791,1,8,2:0:0:0:
220,263,104941,1,0,1:0:0:0:
403,96,105092,5,10,2:0:0:0:
229,143,105243,1,0,2:0:0:0:
379,328,105394,5,10,2:0:0:0:
332,155,105544,1,0,1:0:0:0:
147,305,105695,5,10,2:0:0:0:
320,257,105846,1,2,1:2:0:0:
170,72,105997,5,10,2:0:0:0:
218,245,106147,1,2,1:2:0:0:
360,61,106298,6,0,B|268:34|297:114|188:74,1,148.50000453186,10|0,2:0|2:0,2:0:0:0:
170,72,106600,2,0,P|177:126|181:187,1,99.0000030212403,10|0,2:0|0:0,2:0:0:0:
63,310,106901,1,10,2:0:0:0:
84,203,107052,1,2,1:2:0:0:
186,378,107203,1,10,2:0:0:0:
178,262,107353,1,2,1:2:0:0:
291,321,107504,6,0,P|289:294|284:257,3,49.5000015106202,8|2|2|2,1:3|2:0|2:0|2:0,0:0:0:0:
408,187,107806,2,0,P|405:211|403:236,3,49.5000015106202,14|0|2|0,2:0|0:0|2:0|0:0,2:0:0:0:
198,122,108107,5,8,2:3:0:0:
237,130,108183,1,2,0:0:0:0:
255,144,108258,1,10,2:0:0:0:
260,162,108333,1,10,2:0:0:0:
260,181,108409,1,8,2:3:0:0:
252,193,108484,1,2,0:0:0:0:
243,201,108559,1,2,2:0:0:0:
233,205,108635,1,2,0:0:0:0:
228,200,108710,6,0,P|272:176|328:186,1,99.0000030212403,4|0,1:0|2:0,2:0:0:0:
462,305,109012,2,0,P|418:329|362:319,1,99.0000030212403,8|0,2:0|1:0,0:0:0:0:
408,117,109313,2,0,L|421:221,1,99.0000030212403,8|0,2:0|1:0,0:0:0:0:
230,384,109615,2,0,L|242:285,1,99.0000030212403,8|0,2:0|1:0,0:0:0:0:
86,109,109916,6,0,B|134:125|144:172|144:172|189:128|256:152,1,198.000006042481,10|10,2:0|2:0,0:0:0:0:
243,148,110368,1,2,1:2:0:0:
314,28,110519,1,10,2:0:0:0:
345,170,110670,1,0,1:0:0:0:
181,68,110821,1,10,2:0:0:0:
105,232,110971,1,0,1:0:0:0:
218,176,111122,5,10,2:0:0:0:
25,151,111273,1,0,2:0:0:0:
236,274,111424,5,8,2:0:0:0:
7,303,111575,1,0,1:0:0:0:
176,102,111725,5,8,2:0:0:0:
207,357,111876,1,0,1:0:0:0:
356,129,112027,5,8,2:0:0:0:
312,346,112178,1,0,1:0:0:0:
241,185,112328,6,0,P|218:183|184:199,3,49.5000015106202,10|2|2|2,2:0|2:0|1:2|2:0,0:0:0:0:
255,55,112630,2,0,P|278:53|312:69,3,49.5000015106202,10|2|2|2,2:0|2:0|1:2|2:0,0:0:0:0:
166,96,112931,2,0,B|80:72|108:141|14:119,1,148.50000453186,10|2,2:0|2:0,0:0:0:0:
9,105,113233,2,0,L|3:51,1,49.5000015106202,12|0,2:0|0:0,2:0:0:0:
140,181,113384,2,0,L|134:230,1,49.5000015106202,0|0,0:0|2:0,0:0:0:0:
171,8,113534,5,4,1:0:0:0:
223,160,113685,1,0,0:0:0:0:
312,40,113836,5,8,2:0:0:0:
260,237,113987,1,8,2:0:0:0:
423,104,114137,5,8,2:0:0:0:
269,323,114288,1,8,2:0:0:0:
475,222,114439,5,8,2:0:0:0:
307,131,114590,1,10,2:0:0:0:
433,384,114740,5,4,2:1:0:0:
117,226,115946,6,0,B|234:201|234:201|256:220|254:266,1,161.999995056153,4|2,1:2|1:2,2:0:0:0:
195,322,116399,1,8,2:3:0:0:
52,285,116549,2,0,B|67:314|67:314|52:368,1,80.9999975280763,2|2,2:0|1:2,0:0:0:0:
101,207,116851,2,0,B|86:178|86:178|101:124,1,80.9999975280763,10|2,2:0|2:0,2:0:0:0:
212,11,117152,6,0,P|186:35|119:39,1,80.9999975280763,2|8,1:2|2:3,0:0:0:0:
184,141,117454,2,0,P|223:148|253:174,1,80.9999975280763,2|8,2:0|2:3,0:0:0:0:
404,204,117755,2,0,B|323:202|342:263|260:267,1,161.999995056153,2|12,2:0|2:0,2:0:0:0:
427,80,118208,1,0,1:0:0:0:
427,80,118284,1,0,1:0:0:0:
427,80,118359,6,0,P|465:90|533:92,1,80.9999975280763,4|0,1:0|2:0,2:0:0:0:
269,12,118660,2,0,P|209:15|202:116,1,161.999995056153,8|0,2:0|1:0,0:0:0:0:
312,121,119112,1,0,1:0:0:0:
110,3,119263,2,0,P|94:44|107:111,1,80.9999975280763,8|0,2:0|0:0,2:0:0:0:
178,263,119564,6,0,L|190:84,1,161.999995056153,2|8,1:2|2:0,2:0:0:0:
272,224,120017,1,0,2:0:0:0:
95,80,120167,1,0,1:0:0:0:
95,80,120318,1,0,1:0:0:0:
73,219,120469,2,0,P|110:189|144:181,1,80.9999975280763,8|0,2:0|0:0,2:0:0:0:
432,242,120770,6,0,P|357:231|253:222,1,161.999995056153,6|8,1:2|2:0,2:0:0:0:
157,279,121223,1,0,2:0:0:0:
249,125,121374,2,0,P|254:157|259:209,1,80.9999975280763,0|0,1:0|1:0,0:0:0:0:
412,352,121675,1,8,2:0:0:0:
432,242,121826,1,0,0:0:0:0:
279,353,121977,6,0,B|222:345|222:345|176:367|176:367|100:360,1,161.999995056153,2|12,1:2|2:0,2:0:0:0:
23,234,122429,1,0,1:0:0:0:
23,234,122504,1,0,1:0:0:0:
23,234,122580,2,0,L|93:226,1,40.4999987640381,8|0,3:0|0:0,2:0:0:0:
93,148,122730,2,0,L|163:156,1,40.4999987640381,0|0,1:0|1:0,0:0:0:0:
200,221,122881,1,0,1:0:0:0:
166,62,123032,1,0,1:0:0:0:
379,174,123183,6,0,P|344:124|269:130,1,121.499996292114,4|0,1:0|0:0,2:0:0:0:
274,142,123484,5,8,2:0:0:0:
248,306,123635,1,0,1:0:0:0:
139,108,123786,5,8,2:0:0:0:
333,264,123937,1,0,1:0:0:0:
225,49,124087,5,8,2:0:0:0:
121,249,124238,1,0,1:0:0:0:
41,69,124389,5,8,2:0:0:0:
259,159,124539,1,0,1:0:0:0:
41,298,124690,5,8,2:0:0:0:
221,251,124841,1,0,1:0:0:0:
61,167,124992,5,8,2:0:0:0:
141,360,125142,1,0,1:0:0:0:
302,86,125293,5,12,2:0:0:0:
231,340,125444,1,0,0:0:0:0:
132,109,125595,5,8,1:3:0:0:
114,65,125670,1,0,1:0:0:0:
138,24,125745,1,8,1:3:0:0:
185,18,125821,1,0,1:0:0:0:
218,51,125896,2,0,L|209:109,1,40.4999987640381,0|0,1:0|2:0,2:0:0:0:
247,169,126047,2,0,L|238:227,1,40.4999987640381,0|0,1:2|2:0,2:0:0:0:
325,24,126198,2,0,L|316:81,1,40.4999987640381,8|0,1:3|0:0,2:0:0:0:
367,195,126349,2,0,L|353:279,1,49.5000015106202,0|0,1:0|2:0,0:0:0:0:
438,0,126499,1,8,0:0:0:0:
480,218,126650,6,0,L|456:358,1,99.0000030212403,4|0,1:0|0:0,2:0:0:0:
285,314,126951,2,0,P|315:308|340:307,1,49.5000015106202,8|0,1:3|2:0,2:0:0:0:
220,374,127102,1,0,1:0:0:0:
188,360,127177,1,0,0:0:0:0:
154,352,127252,1,8,2:0:0:0:
119,351,127328,1,8,0:0:0:0:
85,356,127403,5,8,2:0:0:0:
208,244,127554,1,0,0:0:0:0:
0,312,127705,1,12,2:0:0:0:
70,229,127856,1,0,1:0:0:0:
70,229,127931,1,0,1:0:0:0:
70,229,128007,6,0,L|78:167,3,49.5000015106202,0|0|0|0,1:0|2:0|2:0|2:0,0:0:0:0:
137,116,128308,1,0,2:0:0:0:
153,126,128383,1,0,2:0:0:0:
173,132,128458,1,8,2:0:0:0:
192,131,128534,1,0,2:0:0:0:
211,124,128610,6,0,L|204:74,3,49.5000015106202,2|2|2|2,1:2|2:0|2:0|2:0,0:0:0:0:
309,17,128911,2,0,L|302:66,3,49.5000015106202,10|2|2|2,2:0|2:0|2:0|2:0,0:0:0:0:
374,133,129213,5,0,1:2:0:0:
398,120,129288,1,0,2:0:0:0:
425,120,129363,1,0,2:0:0:0:
450,134,129439,1,0,2:0:0:0:
464,158,129514,2,0,P|458:180|456:212,1,49.5000015106202,0|0,2:0|2:0,0:0:0:0:
366,228,129665,2,0,P|371:250|374:282,1,49.5000015106202,8|0,2:0|2:0,0:0:0:0:
276,170,129816,6,0,P|270:192|268:224,3,49.5000015106202,2|2|2|2,1:2|2:0|2:0|2:0,0:0:0:0:
201,316,130117,2,0,P|198:291|192:267,3,49.5000015106202,10|2|2|2,2:0|2:0|2:0|2:0,0:0:0:0:
45,181,130419,5,0,1:2:0:0:
61,202,130494,1,0,2:0:0:0:
85,213,130569,1,0,2:0:0:0:
113,209,130645,1,0,2:0:0:0:
137,193,130720,2,0,L|147:138,1,49.5000015106202,0|0,2:0|2:0,0:0:0:0:
73,83,130871,2,0,L|62:28,1,49.5000015106202,8|0,2:0|2:0,0:0:0:0:
219,69,131022,6,0,P|237:33|230:10,3,49.5000015106202,2|2|2|2,1:2|2:0|2:0|2:0,0:0:0:0:
244,162,131323,2,0,P|282:149|293:128,3,49.5000015106202,10|2|2|2,2:0|2:0|2:0|2:0,0:0:0:0:
376,241,131625,6,0,L|311:257,3,45,0|0|0|0,1:2|2:0|2:0|2:0,0:0:0:0:
299,348,131926,2,0,L|234:332,3,45,0|0|8|0,2:0|2:0|2:0|2:0,0:0:0:0:
248,255,132228,6,0,L|183:271,3,40.4999987640381,8|0|0|0,1:3|0:0|2:0|2:0,2:0:0:0:
171,362,132529,2,0,L|106:346,3,40.4999987640381,8|0|8|0,2:0|2:0|2:0|2:0,2:0:0:0:
30,242,132831,6,0,P|58:226|106:228,3,45,4|0|0|0,1:0|2:0|2:0|2:0,0:0:0:0:
130,153,133132,2,0,P|102:137|54:139,3,45,2|2|10|2,2:0|2:0|3:2|2:0,0:0:0:0:
296,336,133434,6,0,P|268:320|220:322,3,45,0|0|0|0,1:0|2:0|2:0|2:0,0:0:0:0:
196,247,133735,2,0,P|224:231|272:233,3,45,10|2|2|2,3:2|2:0|2:0|2:0,0:0:0:0:
426,136,134037,6,0,L|420:187,3,49.5000015106202,2|0|0|0,1:2|2:0|1:0|2:0,0:0:0:0:
393,282,134338,2,0,L|456:276,3,49.5000015106202,2|2|10|2,2:0|2:0|3:2|2:0,0:0:0:0:
266,0,134640,6,0,L|272:51,3,49.5000015106202,0|0|0|0,1:0|2:0|2:0|2:0,0:0:0:0:
299,146,134941,2,0,L|236:140,3,49.5000015106202,10|2|2|2,1:2|2:0|1:2|2:0,0:0:0:0:
98,228,135243,6,0,P|102:189|116:158,3,53.9999983520508,2|0|0|0,1:2|2:0|1:0|2:0,0:0:0:0:
188,352,135544,2,0,P|186:325|179:299,3,53.9999983520508,2|2|10|2,2:0|2:0|3:2|2:0,0:0:0:0:
488,133,135846,6,0,P|484:94|470:63,3,53.9999983520508,0|0|0|0,1:0|2:0|2:0|2:0,0:0:0:0:
398,257,136147,2,0,P|399:230|406:204,3,53.9999983520508,10|2|2|2,3:2|2:0|2:0|2:0,0:0:0:0:
362,83,136449,5,8,1:3:0:0:
329,102,136524,1,0,2:0:0:0:
299,101,136600,1,0,2:0:0:0:
278,88,136675,1,0,2:0:0:0:
254,74,136750,1,8,1:3:0:0:
236,71,136826,1,0,2:0:0:0:
212,70,136901,1,0,2:0:0:0:
202,75,136977,1,0,2:0:0:0:
192,81,137052,6,0,L|201:171,3,53.9999983520508,8|2|2|2,1:3|2:0|2:0|2:0,0:0:0:0:
296,226,137353,1,6,2:0:0:0:
284,261,137428,1,2,2:0:0:0:
275,298,137503,1,6,2:0:0:0:
270,334,137579,1,2,2:0:0:0:
267,372,137655,6,0,B|173:344|196:423|77:366,1,161.999995056153,4|0,1:0|2:0,2:0:0:0:
40,318,137956,2,0,P|31:260|17:212,1,99.0000030212403,2|8,2:0|2:0,2:0:0:0:
82,161,138183,1,0,0:0:0:0:
94,179,138258,2,0,B|140:201|140:201|196:179,1,99.0000030212403,2|2,2:0|1:2,2:0:0:0:
275,112,138559,1,10,2:0:0:0:
139,2,138710,1,2,2:0:0:0:
139,2,138786,1,0,0:0:0:0:
139,2,138861,6,0,L|149:117,1,99.0000030212403,0|0,1:0|0:0,2:0:0:0:
260,293,139162,2,0,L|268:194,1,99.0000030212403,0|10,2:0|2:0,0:0:0:0:
275,112,139389,1,0,0:0:0:0:
275,112,139464,1,2,1:2:0:0:
184,183,139615,1,2,2:0:0:0:
352,236,139765,2,0,P|300:198|259:195,1,99.0000030212403,10|2,2:0|2:0,0:0:0:0:
75,346,140067,6,0,B|188:354|149:285|266:293,1,198.000006042481,0|0,1:0|2:0,2:0:0:0:
404,315,140519,2,0,P|348:331|331:328,1,49.5000015106202,8|0,2:0|0:0,0:0:0:0:
251,341,140670,2,0,L|261:277,3,49.5000015106202,2|2|2|2,1:2|2:0|2:0|2:0,0:0:0:0:
91,205,140971,2,0,L|98:253,3,49.5000015106202,10|2|2|2,2:0|2:0|2:0|2:0,0:0:0:0:
213,107,141273,6,0,P|200:170|195:218,1,99.0000030212403,2|0,1:2|2:0,2:0:0:0:
26,360,141575,2,0,P|19:310|8:262,1,99.0000030212403,2|8,2:0|2:0,2:0:0:0:
32,65,141876,5,8,1:3:0:0:
58,58,141951,1,2,2:0:0:0:
84,55,142027,1,2,2:0:0:0:
108,58,142102,1,2,2:0:0:0:
129,67,142178,1,10,2:0:0:0:
149,71,142253,1,2,2:0:0:0:
168,71,142328,1,10,2:0:0:0:
179,68,142404,1,2,2:0:0:0:
196,62,142479,6,0,P|185:114|181:163,1,99.0000030212403,4|0,1:0|0:0,2:0:0:0:
221,248,142705,1,0,2:0:0:0:
233,260,142781,2,0,B|185:283|185:283|116:257,1,99.0000030212403,2|8,2:0|2:0,2:0:0:0:
295,160,143082,2,0,L|422:146,1,99.0000030212403,2|2,1:2|2:0,2:0:0:0:
466,247,143384,1,10,2:0:0:0:
341,359,143534,1,2,2:0:0:0:
341,359,143610,1,2,2:0:0:0:
341,359,143685,6,0,L|227:353,1,99.0000030212403,2|0,1:2|0:0,2:0:0:0:
91,275,143987,1,2,2:0:0:0:
216,158,144137,2,0,P|227:190|230:212,1,49.5000015106202,10|0,2:0|0:0,0:0:0:0:
317,261,144288,2,0,P|326:207|345:154,1,99.0000030212403,2|2,1:2|2:0,0:0:0:0:
444,99,144590,1,8,2:0:0:0:
492,216,144740,2,0,L|434:205,1,49.5000015106202,2|2,2:0|2:0,0:0:0:0:
319,152,144891,6,0,P|303:101|297:27,1,99.0000030212403,2|0,1:2|2:0,2:0:0:0:
194,254,145193,2,0,P|210:203|216:129,1,99.0000030212403,2|8,2:0|2:0,0:0:0:0:
63,67,145494,2,0,P|108:94|171:73,1,99.0000030212403,2|0,1:2|2:0,0:0:0:0:
408,267,145796,2,0,P|363:240|300:261,1,99.0000030212403,10|2,2:0|2:0,0:0:0:0:
73,284,146097,5,10,2:0:0:0:
97,302,146173,1,8,1:3:0:0:
124,298,146248,1,0,1:0:0:0:
138,284,146323,1,2,1:2:0:0:
139,269,146399,2,0,L|120:166,1,99.0000030212403,4|0,2:0|0:0,2:0:0:0:
48,41,146700,5,2,1:2:0:0:
66,50,146776,1,2,2:0:0:0:
99,52,146851,1,2,2:0:0:0:
135,32,146926,1,2,2:0:0:0:
181,17,147002,2,0,L|313:35,1,99.0000030212403,10|2,1:2|1:2,0:0:0:0:
500,107,147303,6,0,P|469:111|447:116,3,49.5000015106202,4|0|0|0,1:0|0:0|0:0|2:0,2:0:0:0:
422,157,147605,2,0,P|372:129|312:136,1,99.0000030212403,2|10,2:0|2:0,2:0:0:0:
327,367,147906,2,0,P|336:314|348:218,1,148.50000453186,2|0,1:2|0:0,2:0:0:0:
348,220,148208,1,10,2:0:0:0:
415,328,148358,2,0,P|434:318|439:288,1,49.5000015106202,2|2,1:2|1:2,0:0:0:0:
290,285,148509,6,0,L|177:298,1,99.0000030212403,2|0,1:2|2:0,2:0:0:0:
60,358,148811,1,2,2:0:0:0:
121,229,148961,1,10,2:0:0:0:
121,229,149037,1,2,2:0:0:0:
121,229,149112,1,2,1:2:0:0:
23,185,149263,1,2,2:0:0:0:
200,180,149414,2,0,P|181:158|145:140,3,49.5000015106202,10|0|10|0,2:0|2:0|2:0|2:0,2:0:0:0:
207,279,149715,6,0,P|263:254|317:250,1,99.0000030212403,2|0,1:2|2:0,2:0:0:0:
500,191,150017,2,0,P|444:166|390:162,1,99.0000030212403,2|8,2:0|2:0,0:0:0:0:
154,48,150318,2,0,L|164:154,1,99.0000030212403,2|2,1:2|2:0,0:0:0:0:
389,352,150620,2,0,L|398:253,1,99.0000030212403,10|2,2:0|2:0,0:0:0:0:
452,30,150921,6,0,L|459:81,3,49.5000015106202,2|0|0|0,1:2|0:0|2:0|0:0,2:0:0:0:
373,161,151223,2,0,L|366:111,3,49.5000015106202,2|0|8|0,1:2|0:0|2:0|0:0,0:0:0:0:
307,41,151524,1,8,1:3:0:0:
274,32,151600,1,2,0:0:0:0:
248,41,151675,1,2,0:0:0:0:
233,61,151750,1,2,0:0:0:0:
232,77,151826,2,0,P|210:75|184:69,1,49.5000015106202,2|2,1:2|2:0,0:0:0:0:
111,16,151977,2,0,P|89:18|63:24,1,49.5000015106202,2|2,2:0|2:0,0:0:0:0:
1,114,152127,6,0,B|28:126|43:143|43:143|21:197|59:262,1,148.50000453186,4|0,1:0|2:0,2:0:0:0:
62,254,152429,2,0,P|61:312|44:360,1,99.0000030212403,2|8,2:0|2:0,2:0:0:0:
230,216,152730,2,0,L|131:186,1,99.0000030212403,2|2,1:2|2:0,2:0:0:0:
154,313,153032,1,10,2:0:0:0:
326,203,153183,2,0,P|315:180|307:157,1,49.5000015106202,2|0,2:0|2:0,0:0:0:0:
320,61,153333,6,0,B|228:52|264:113|167:112,1,148.50000453186,2|0,1:2|0:0,2:0:0:0:
167,95,153635,2,0,P|120:78|92:73,3,49.5000015106202,2|0|8|0,2:0|0:0|2:0|0:0,0:0:0:0:
83,96,153936,2,0,P|95:172|100:229,1,99.0000030212403,2|2,1:2|2:0,0:0:0:0:
215,313,154238,2,0,P|220:263|229:215,1,99.0000030212403,10|2,2:0|2:0,0:0:0:0:
441,106,154539,6,0,P|461:137|419:129,1,99.0000030212403,12|0,2:0|2:0,2:0:0:0:
276,43,154841,2,0,P|344:31|387:21,1,99.0000030212403,10|0,2:0|1:0,0:0:0:0:
438,263,155142,2,0,P|389:252|340:244,1,99.0000030212403,10|0,2:0|1:0,0:0:0:0:
64,157,155444,2,0,P|132:145|175:135,1,99.0000030212403,10|0,2:0|1:0,0:0:0:0:
172,355,155745,5,10,1:2:0:0:
121,366,155821,1,2,2:0:0:0:
80,350,155896,1,2,2:0:0:0:
61,319,155971,1,2,2:0:0:0:
63,279,156047,1,10,1:2:0:0:
83,255,156122,1,2,2:0:0:0:
110,244,156198,1,2,2:0:0:0:
139,248,156273,1,2,2:0:0:0:
162,262,156348,5,10,1:2:0:0:
180,268,156424,1,2,2:0:0:0:
200,268,156499,1,10,2:0:0:0:
212,262,156575,1,2,2:0:0:0:
220,255,156650,1,10,1:2:0:0:
222,246,156725,1,2,2:0:0:0:
220,240,156801,1,10,2:0:0:0:
216,233,156876,1,10,2:0:0:0:
209,230,156951,6,0,B|196:265|195:326|258:343|258:343|267:266|105:225|77:349,1,396.000012084961,8|2,2:0|2:0,2:0:0:0:
169,154,174093,5,10,2:0:0:0:
292,338,174243,1,10,2:0:0:0:
331,50,174394,1,10,2:0:0:0:
193,281,174545,1,10,2:0:0:0:
163,54,174710,6,0,P|112:68|73:126,1,107.999996704102,4|0,1:0|2:0,2:0:0:0:
306,248,175011,2,0,L|324:99,1,107.999996704102,10|0,2:0|1:0,0:0:0:0:
184,293,175313,1,10,2:0:0:0:
417,218,175463,1,0,1:0:0:0:
247,82,175614,1,10,2:0:0:0:
391,369,175765,1,2,1:2:0:0:
443,126,175916,6,0,B|360:103|372:178|269:160,1,161.999995056153,10|0,2:0|0:0,0:0:0:0:
210,204,176217,2,0,P|265:217|317:264,1,107.999996704102,10|0,2:0|1:0,0:0:0:0:
391,369,176519,1,10,2:0:0:0:
450,251,176669,1,2,1:2:0:0:
256,384,176820,2,0,P|249:342|241:327,3,53.9999983520508,10|2|2|2,2:0|2:0|1:2|2:0,0:0:0:0:
305,247,177122,6,0,P|268:293|160:303,1,161.999995056153,8|0,2:0|0:0,2:0:0:0:
166,193,177423,2,0,P|210:159|187:221,1,161.999995056153,10|0,2:0|0:0,2:0:0:0:
94,254,177725,1,10,2:0:0:0:
154,82,177875,1,0,1:0:0:0:
170,307,178026,1,12,2:0:0:0:
80,29,178177,1,0,0:0:0:0:
262,147,178328,6,0,P|286:129|331:130,3,53.9999983520508,8|2|2|2,1:3|1:2|1:2|1:2,0:0:0:0:
378,73,178629,1,2,1:2:0:0:
408,93,178704,1,2,1:2:0:0:
436,99,178780,1,2,1:2:0:0:
456,101,178855,1,2,1:2:0:0:
479,97,178931,6,0,P|470:148|465:219,1,116.999994644165,8|0,2:0|0:0,2:0:0:0:
349,361,179232,2,0,P|344:302|335:244,1,116.999994644165,4|0,1:2|0:0,2:0:0:0:
87,224,179534,6,0,P|144:260|215:230,1,107.999996704102,4|0,1:0|0:0,0:0:0:0:
357,41,179835,2,0,B|266:17|283:88|167:62,1,161.999995056153,10|0,2:0|0:0,0:0:0:0:
131,14,180137,1,10,2:0:0:0:
158,175,180287,1,0,1:0:0:0:
324,138,180438,1,10,2:0:0:0:
294,336,180589,1,2,1:2:0:0:
5,126,180740,6,0,L|118:99,1,107.999996704102,10|0,2:0|2:0,0:0:0:0:
343,248,181041,2,0,L|237:222,1,107.999996704102,10|0,2:0|1:0,0:0:0:0:
52,310,181343,1,10,2:0:0:0:
110,100,181493,1,2,1:2:0:0:
200,308,181644,1,10,2:0:0:0:
0,234,181795,2,0,P|38:216|73:218,1,53.9999983520508,2|2,1:2|2:0,0:0:0:0:
146,215,181946,5,12,2:0:0:0:
110,100,182096,1,0,1:0:0:0:
234,161,182247,1,0,1:0:0:0:
200,308,182398,1,2,1:2:0:0:
324,240,182549,1,2,1:2:0:0:
287,68,182699,1,2,1:2:0:0:
417,142,182850,6,0,P|411:172|406:202,1,53.9999983520508,2|0,1:2|0:0,0:0:0:0:
491,316,183001,2,0,P|484:288|481:262,1,53.9999983520508,2|0,1:2|0:0,0:0:0:0:
470,61,183152,1,8,1:3:0:0:
482,68,183227,1,2,0:0:0:0:
492,88,183302,1,2,1:2:0:0:
489,123,183378,1,2,0:0:0:0:
458,145,183453,1,2,1:2:0:0:
417,142,183529,1,2,2:0:0:0:
389,105,183604,1,10,2:0:0:0:
348,74,183679,1,2,2:0:0:0:
287,68,183755,6,0,P|260:72|206:99,3,53.9999983520508,2|2|2|2,1:2|2:0|1:2|1:2,0:0:0:0:
200,152,184056,5,2,1:2:0:0:
173,148,184131,1,2,1:2:0:0:
146,145,184206,1,2,1:2:0:0:
119,141,184282,1,2,1:2:0:0:
92,138,184358,6,0,L|102:284,1,107.999996704102,4|0,1:0|2:0,2:0:0:0:
308,231,184659,2,0,L|300:338,1,107.999996704102,10|0,2:0|1:0,0:0:0:0:
9,188,184961,6,0,L|19:334,1,107.999996704102,10|0,2:0|1:0,0:0:0:0:
396,277,185262,2,0,L|388:384,1,107.999996704102,8|0,2:0|1:0,0:0:0:0:
175,107,185564,6,0,L|304:94,1,107.999996704102,10|0,2:0|2:0,2:0:0:0:
283,268,185865,2,0,L|154:255,1,107.999996704102,10|0,2:0|1:0,0:0:0:0:
98,28,186167,6,0,L|227:15,1,107.999996704102,10|2,2:0|1:2,0:0:0:0:
330,360,186468,2,0,L|201:347,1,107.999996704102,10|2,2:0|2:0,0:0:0:0:
369,134,186770,6,0,B|389:116|414:116|414:116|459:175|410:252,1,180,4|2,1:2|1:2,2:0:0:0:
339,269,187172,5,10,1:2:0:0:
277,284,187272,5,8,1:2:0:0:
223,261,187373,6,0,P|218:202|206:132,1,120,2|8,1:2|1:2,0:0:0:0:
160,78,187674,5,10,1:2:0:0:
214,98,187774,5,10,1:2:0:0:
267,73,187875,5,0,1:0:0:0:
288,18,187976,6,0,P|348:27|427:29,1,135,2|0,1:2|1:0,0:0:0:0:
507,164,188277,5,8,1:3:0:0:
481,167,188352,1,2,2:0:0:0:
455,170,188427,1,2,2:0:0:0:
430,174,188503,1,2,2:0:0:0:
405,177,188579,6,0,B|433:212|433:212|412:311,1,107.999996704102,6|0,1:2|0:0,2:0:0:0:
107,207,188880,2,0,B|79:172|79:172|100:73,1,107.999996704102,6|0,1:2|0:0,2:0:0:0:
204,245,189182,6,0,P|149:309|45:292,1,161.999995056153,4|0,1:0|0:0,2:0:0:0:
26,243,189483,1,10,2:0:0:0:
181,148,189634,1,0,1:0:0:0:
31,0,189785,2,0,L|7:114,1,107.999996704102,10|0,2:0|1:0,0:0:0:0:
280,176,190086,2,0,L|257:70,1,107.999996704102,10|0,2:0|1:0,0:0:0:0:
117,56,190388,5,10,2:0:0:0:
364,11,190539,1,10,2:0:0:0:
112,159,190689,1,10,2:0:0:0:
428,168,190840,1,10,2:0:0:0:
31,0,190991,1,2,1:2:0:0:
510,63,191292,5,12,1:2:0:0:
339,257,191594,5,4,1:0:0:0:
321,263,191669,1,0,1:0:0:0:
297,261,191745,1,0,1:0:0:0:
273,248,191820,1,0,1:0:0:0:
251,224,191895,1,2,1:2:0:0:
221,206,191971,1,0,1:0:0:0:
178,202,192046,1,8,2:0:0:0:
136,227,192122,1,8,0:0:0:0:
129,272,192197,6,0,L|145:352,3,53.9999983520508,8|8|8|8,1:0|2:0|2:0|2:0,0:0:0:0:
331,116,192498,2,0,L|315:196,3,53.9999983520508,8|8|8|8,1:0|2:0|2:0|2:0,0:0:0:0:
279,351,192800,5,2,1:2:0:0:
175,115,192951,1,2,1:2:0:0:
349,248,193101,1,2,1:2:0:0:
65,164,193252,1,2,1:2:0:0:
422,79,193403,6,0,P|380:30|275:40,1,161.999995056153,2|0,1:2|0:0,2:0:0:0:
242,170,193704,2,0,L|254:244,1,53.9999983520508,2|0,1:2|0:0,2:0:0:0:
271,324,193855,1,0,1:0:0:0:
273,339,193930,1,8,2:0:0:0:
276,355,194005,5,4,1:0:0:0:
331,116,194157,1,0,2:0:0:0:
180,292,194307,5,8,2:0:0:0:
411,175,194458,1,0,1:0:0:0:
167,105,194609,5,8,2:0:0:0:
385,271,194760,1,0,1:0:0:0:
464,32,194911,5,8,2:0:0:0:
254,181,195061,1,0,1:0:0:0:
491,364,195212,6,0,L|474:242,1,107.999996704102,10|2,2:0|1:2,0:0:0:0:
345,9,195514,2,0,L|330:115,1,107.999996704102,10|2,2:0|1:2,0:0:0:0:
195,365,195815,6,0,P|147:358|86:354,1,107.999996704102,10|0,2:0|1:2,0:0:0:0:
14,128,196117,2,0,P|67:124|121:117,1,107.999996704102,10|0,2:0|1:2,0:0:0:0:
293,231,196418,5,4,1:0:0:0:
66,268,196569,1,0,2:0:0:0:
356,137,196720,5,8,2:0:0:0:
129,100,196871,1,0,1:0:0:0:
349,316,197021,5,8,2:0:0:0:
280,58,197172,1,0,1:0:0:0:
177,361,197323,5,8,2:0:0:0:
218,137,197473,1,0,1:0:0:0:
218,137,197549,1,0,1:0:0:0:
218,137,197624,2,0,P|226:192|230:249,1,107.999996704102,4|0,1:0|2:0,2:0:0:0:
459,32,197926,5,10,2:0:0:0:
455,53,198001,1,0,1:0:0:0:
452,74,198076,1,4,1:3:0:0:
450,96,198152,1,0,1:0:0:0:
448,117,198227,6,0,P|482:140|513:133,3,53.9999983520508,8|8|8|8,1:3|1:3|1:3|1:3,0:0:0:0:
320,81,198529,2,0,P|346:76|365:57,3,53.9999983520508,8|8|8|8,1:3|1:3|1:3|1:3,0:0:0:0:
243,154,198830,5,4,1:0:0:0:
392,210,198981,2,0,B|305:187|332:269|218:256,1,161.999995056153,8|0,2:0|0:0,0:0:0:0:
159,214,199282,1,0,1:0:0:0:
377,370,199433,6,0,P|376:308|401:180,1,161.999995056153,8|0,2:0|2:0,2:0:0:0:
438,134,199735,1,0,2:0:0:0:
483,253,199885,1,8,2:0:0:0:
257,108,200036,5,2,1:2:0:0:
337,37,200187,2,0,P|347:114|357:229,1,161.999995056153,8|0,2:0|0:0,0:0:0:0:
340,274,200488,1,0,1:0:0:0:
178,267,200639,6,0,P|210:211|268:214,1,107.999996704102,8|0,2:0|0:0,2:0:0:0:
246,381,200941,2,0,P|186:364|72:351,1,161.999995056153,2|2,2:0|2:0,2:0:0:0:
12,325,201242,6,0,P|26:293|53:278,3,53.9999983520508,4|0|0|0,1:2|0:0|1:0|0:0,0:0:0:0:
178,267,201544,2,0,P|154:262|110:257,3,53.9999983520508,0|0|8|8,1:0|0:0|2:0|2:0,0:0:0:0:
43,205,201845,5,8,2:0:0:0:
31,192,201921,1,8,2:0:0:0:
39,170,201996,1,8,2:0:0:0:
70,153,202071,1,8,2:0:0:0:
111,167,202147,1,8,2:0:0:0:
161,160,202222,1,8,2:0:0:0:
187,104,202297,6,0,L|179:27,1,67.5000025749208,4|0,1:2|2:0,2:0:0:0:
405,238,203051,6,0,B|401:283|434:304|434:304|328:277|347:358|235:327,1,270.000010299683,2|14,2:3|2:0,2:0:0:0:
265,136,203503,1,2,2:0:0:0:
265,136,203579,1,2,2:0:0:0:
265,136,203654,6,0,P|273:182|281:257,1,99.0000030212403,4|0,1:0|0:0,2:0:0:0:
452,147,203956,2,0,P|457:97|466:49,1,99.0000030212403,8|0,2:0|2:0,2:0:0:0:
210,57,204257,2,0,P|277:100|352:67,1,148.50000453186,0|0,1:0|0:0,0:0:0:0:
338,81,204559,1,8,2:0:0:0:
157,166,204709,1,0,2:0:0:0:
279,233,204860,6,0,P|289:285|265:336,1,99.0000030212403,0|0,1:0|0:0,2:0:0:0:
66,207,205162,2,0,P|56:155|80:104,1,99.0000030212403,8|0,2:0|2:0,2:0:0:0:
199,278,205463,2,0,B|114:256|131:324|37:300,1,148.50000453186,0|0,1:0|0:0,0:0:0:0:
58,305,205765,1,8,2:0:0:0:
179,370,205916,1,0,2:0:0:0:
340,200,206066,6,0,P|287:194|209:183,1,99.0000030212403,2|0,1:3|0:0,2:0:0:0:
417,315,206368,2,0,P|364:321|286:332,1,99.0000030212403,8|0,2:0|2:0,2:0:0:0:
456,112,206669,6,0,P|444:184|439:251,1,116.999994644165,0|0,1:0|1:0,0:0:0:0:
167,272,206971,2,0,P|161:213|151:156,1,116.999994644165,8|0,0:0|1:0,0:0:0:0:
224,51,207272,6,0,P|214:77|189:81,3,49.5000015106202,2|2|2|2,1:2|2:0|2:0|2:0,0:0:0:0:
80,113,207574,2,0,P|90:87|115:83,3,49.5000015106202,12|0|0|0,2:1|0:0|0:0|2:0,2:0:0:0:
298,106,207875,5,8,1:3:0:0:
198,191,208026,1,2,2:0:0:0:
309,111,208177,1,10,2:0:0:0:
66,21,208328,1,2,1:2:0:0:
178,6,208478,6,0,P|172:53|166:126,1,99.0000030212403,4|0,1:2|0:0,2:0:0:0:
403,170,208780,2,0,P|399:121|393:72,1,99.0000030212403,12|0,2:0|2:0,2:0:0:0:
177,287,209081,2,0,P|222:325|337:293,1,148.50000453186,0|0,1:0|2:0,0:0:0:0:
307,319,209383,1,8,2:0:0:0:
266,144,209534,1,0,2:0:0:0:
121,215,209684,6,0,P|70:207|5:201,1,99.0000030212403,2|0,1:3|0:0,2:0:0:0:
359,248,209986,2,0,P|407:240|457:235,1,99.0000030212403,8|0,2:0|0:0,2:0:0:0:
103,114,210287,2,0,P|52:106|-13:100,1,99.0000030212403,0|0,1:0|0:0,2:0:0:0:
414,332,210589,2,0,P|462:324|512:319,1,99.0000030212403,10|0,2:3|2:0,2:0:0:0:
285,22,210890,6,0,B|309:145|237:91|258:213,1,198.000006042481,0|12,1:0|2:1,2:0:0:0:
290,308,211343,1,0,2:0:0:0:
143,72,211493,2,0,P|167:68|191:59,3,49.5000015106202,8|0|0|0,2:3|0:0|2:3|0:0,0:0:0:0:
399,187,211795,2,0,P|375:183|352:175,3,49.5000015106202,8|8|0|0,1:3|1:3|1:3|0:0,0:0:0:0:
165,192,212096,5,10,2:0:0:0:
111,216,212172,1,2,2:0:0:0:
91,258,212247,1,10,2:0:0:0:
93,293,212323,1,2,2:0:0:0:
82,322,212398,1,2,1:2:0:0:
50,337,212473,1,2,2:0:0:0:
22,334,212549,1,10,2:0:0:0:
6,317,212624,1,2,2:0:0:0:
3,302,212699,2,0,L|59:310,3,49.5000015106202,10|0|0|0,2:0|2:0|1:2|2:0,0:0:0:0:
192,384,213001,5,14,2:0:0:0:
188,357,213076,1,2,2:0:0:0:
185,332,213151,1,6,2:0:0:0:
182,306,213227,1,2,2:0:0:0:
179,281,213302,1,4,1:0:0:0:
