osu file format v14

[General]
AudioFilename: audio.mp3
AudioLeadIn: 0
PreviewTime: 161236
Countdown: 0
SampleSet: Soft
StackLeniency: 0.4
Mode: 0
LetterboxInBreaks: 0
WidescreenStoryboard: 1

[Editor]
Bookmarks: 5596,12832,20520,22480,32128,36952,46601,62279,65897,75545,82178,91826,99062,114740,128007,137655,156951,174093,194006,203654,213302,221745
DistanceSpacing: 1.3
BeatDivisor: 8
GridSize: 4
TimelineZoom: 5.649999

[Metadata]
Title:Dramatic Hizakurige
TitleUnicode:ドラマティック膝栗毛
Artist:ShinRa-Bansho
ArtistUnicode:森羅万象
Creator:-Mikan
Version:Shizuku's Lunatic
Source:東方Project
Tags:Journey AtHeoN Athy Shizuku- kazato asa adioni Ducky- Karia lolia RepL4y Lemaire Hikan touhou video game 卯酉東海道 ~ Retrospective 53 minutes あやぽんず* Ayaponzu* ヒロシゲ36号 ~ Neo Super-Express Hiroshige No.36 シンクロ2 Synchro 2 j-rock jrock japanese
BeatmapID:2055166
BeatmapSetID:942284

[Difficulty]
HPDrainRate:5.5
CircleSize:4
OverallDifficulty:8.5
ApproachRate:9.3
SliderMultiplier:1.92
SliderTickRate:1

[Events]
//Background and Video events
0,0,"OrangeMagicanGirl.png",0,0
//Break Periods
2,161435,173539
//Storyboard Layer 0 (Background)
//Storyboard Layer 1 (Fail)
//Storyboard Layer 2 (Pass)
//Storyboard Layer 3 (Foreground)
//Storyboard Layer 4 (Overlay)
//Storyboard Sound Samples

[TimingPoints]
772,301.507537688442,4,2,1,50,1,0
772,-133.333333333333,4,2,1,50,0,0
3184,-133.333333333333,4,2,1,60,0,0
3485,-133.333333333333,4,2,1,30,0,0
3636,-133.333333333333,4,2,1,40,0,0
3787,-133.333333333333,4,2,1,50,0,0
3937,-133.333333333333,4,2,1,60,0,0
4088,-133.333333333333,4,2,1,70,0,0
4239,-133.333333333333,4,2,1,80,0,0
4390,-100,4,2,1,80,0,0
4616,-100,4,2,1,5,0,0
4691,-100,4,2,1,80,0,0
4917,-100,4,2,1,5,0,0
4993,-100,4,2,1,80,0,0
5444,-100,4,2,1,60,0,0
8008,-100,4,2,1,50,0,0
10118,-100,4,2,1,60,0,0
10420,-100,4,2,1,50,0,0
11324,-100,4,2,1,60,0,0
11550,-100,4,2,1,5,0,0
11626,-133.333333333333,4,2,1,60,0,0
12229,-100,4,2,1,60,0,0
12832,-83.3333333333333,4,2,1,70,0,0
13058,-83.3333333333333,4,2,1,5,0,0
13133,-83.3333333333333,4,2,1,70,0,0
14264,-83.3333333333333,4,2,1,5,0,0
14339,-83.3333333333333,4,2,1,70,0,0
15470,-83.3333333333333,4,2,1,5,0,0
15545,-83.3333333333333,4,2,1,70,0,0
17882,-83.3333333333333,4,2,1,5,0,0
17957,-83.3333333333333,4,2,1,70,0,0
19088,-83.3333333333333,4,2,1,5,0,0
19163,-83.3333333333333,4,2,1,70,0,0
20294,-83.3333333333333,4,2,1,5,0,0
20369,-71.4285714285714,4,2,1,70,0,0
21274,-71.4285714285714,4,2,1,60,0,0
22404,-71.4285714285714,4,2,1,5,0,0
22480,-111.111111111111,4,2,1,60,0,0
27530,-111.111111111111,4,2,1,5,0,0
27606,-111.111111111111,4,2,1,60,0,0
30922,-100,4,2,1,70,0,0
31224,-83.3333333333333,4,2,1,70,0,0
31450,-83.3333333333333,4,2,1,5,0,0
31525,-66.6666666666667,4,2,1,70,0,0
31827,-133.333333333333,4,2,1,60,0,0
32128,-83.3333333333333,4,2,1,70,0,0
32354,-83.3333333333333,4,2,1,5,0,0
32430,-83.3333333333333,4,2,1,70,0,0
33560,-83.3333333333333,4,2,1,5,0,0
33636,-83.3333333333333,4,2,1,70,0,0
34766,-83.3333333333333,4,2,1,5,0,0
34842,-83.3333333333333,4,2,1,70,0,0
36048,-66.6666666666667,4,2,1,70,0,0
36274,-66.6666666666667,4,2,1,5,0,0
36349,-100,4,2,1,70,0,0
36877,-100,4,2,1,5,0,0
36952,-100,4,2,1,60,0,0
39063,-100,4,2,1,70,0,0
39364,-100,4,2,1,60,0,0
41400,-100,4,2,1,5,0,0
41475,-100,4,2,1,60,0,0
41777,-100,4,2,1,70,0,0
42078,-100,4,2,1,60,0,0
43284,-100,4,2,1,50,0,0
43887,-100,4,2,1,60,0,0
44189,-200,4,2,1,50,0,0
45696,-200,4,2,1,40,0,0
46299,-76.9230769230769,4,2,1,60,0,0
46525,-76.9230769230769,4,2,1,5,0,0
46601,-71.4285714285714,4,2,1,80,0,1
49540,-71.4285714285714,4,2,1,5,0,1
49616,-71.4285714285714,4,2,1,80,0,1
50822,-71.4285714285714,4,2,1,60,0,1
51425,-71.4285714285714,4,2,1,80,0,1
51651,-71.4285714285714,4,2,1,5,0,1
51726,-71.4285714285714,4,2,1,80,0,1
52555,-71.4285714285714,4,2,1,5,0,1
52631,-71.4285714285714,4,2,1,80,0,1
55646,-71.4285714285714,4,2,1,60,0,1
56249,-71.4285714285714,4,2,1,80,0,1
58284,-71.4285714285714,4,2,1,5,0,1
58359,-71.4285714285714,4,2,1,80,0,1
61375,-71.4285714285714,4,2,1,30,0,1
61525,-71.4285714285714,4,2,1,40,0,1
61676,-71.4285714285714,4,2,1,50,0,1
61827,-71.4285714285714,4,2,1,60,0,1
61978,-71.4285714285714,4,2,1,70,0,1
62128,-71.4285714285714,4,2,1,80,0,1
62279,-200,4,2,1,60,0,0
62882,-200,4,2,1,5,0,0
63033,-200,4,2,1,60,0,0
63485,-200,4,2,1,50,0,0
65596,-100,4,2,1,50,0,0
65822,-100,4,2,1,5,0,0
65897,-100,4,2,1,60,0,0
66048,-125,4,2,1,60,0,0
68234,-125,4,2,1,5,0,0
68309,-125,4,2,1,60,0,0
73058,-125,4,2,1,5,0,0
73133,-125,4,2,1,60,0,0
73435,-125,4,2,1,50,0,0
73736,-125,4,2,1,60,0,0
73887,-125,4,2,1,70,0,0
74038,-125,4,2,1,80,0,0
74189,-125,4,2,1,90,0,0
74339,-125,4,2,1,60,0,0
74565,-125,4,2,1,5,0,0
74641,-66.6666666666667,4,2,1,60,0,0
74867,-66.6666666666667,4,2,1,5,0,0
74942,-100,4,2,1,60,0,0
75244,-83.3333333333333,4,2,1,60,0,0
75470,-83.3333333333333,4,2,1,5,0,0
75545,301.507537688442,3,2,1,60,1,0
76675,-100,3,2,1,5,0,0
76751,-100,3,2,1,60,0,0
77580,-100,3,2,1,5,0,0
77655,-100,3,2,1,60,0,0
79087,-100,3,2,1,5,0,0
79163,-100,3,2,1,60,0,0
80972,301.507537688442,4,2,1,70,1,0
81575,-100,4,2,1,60,0,0
81876,-76.9230769230769,4,2,1,70,0,0
82102,-76.9230769230769,4,2,1,5,0,0
82178,-100,4,2,1,60,0,0
84213,-100,4,2,1,5,0,0
84288,-100,4,2,1,70,0,0
84590,-100,4,2,1,60,0,0
84816,-100,4,2,1,5,0,0
84891,-100,4,2,1,60,0,0
85494,-100,4,2,1,70,0,0
86625,-100,4,2,1,5,0,0
86700,-100,4,2,1,60,0,0
88509,-100,4,2,1,45,0,0
88811,-100,4,2,1,50,0,0
88961,-100,4,2,1,60,0,0
89112,-100,4,2,1,70,0,0
89263,-100,4,2,1,80,0,0
89414,-100,4,2,1,60,0,0
89640,-100,4,2,1,5,0,0
89715,-100,4,2,1,60,0,0
90846,-100,4,2,1,5,0,0
90921,-100,4,2,1,60,0,0
91826,-100,4,2,1,50,0,0
92052,-100,4,2,1,5,0,0
92127,-111.111111111111,4,2,1,50,0,0
94464,-111.111111111111,4,2,1,5,0,0
94539,-111.111111111111,4,2,1,50,0,0
96273,-111.111111111111,4,2,1,5,0,0
96348,-83.3333333333333,4,2,1,50,0,0
96574,-83.3333333333333,4,2,1,5,0,0
96650,-100,4,2,1,50,0,0
96951,-100,4,2,1,60,0,0
97856,-100,4,2,1,50,0,0
98760,-66.6666666666667,4,2,1,60,0,0
98986,-66.6666666666667,4,2,1,5,0,0
99062,-71.4285714285714,4,2,1,80,0,1
103283,-71.4285714285714,4,2,1,60,0,1
103886,-71.4285714285714,4,2,1,80,0,1
104112,-71.4285714285714,4,2,1,5,0,1
104188,-71.4285714285714,4,2,1,80,0,1
108107,-71.4285714285714,4,2,1,60,0,1
108635,-71.4285714285714,4,2,1,5,0,1
108710,-71.4285714285714,4,2,1,80,0,1
112478,-71.4285714285714,4,2,1,70,0,1
112630,-71.4285714285714,4,2,1,60,0,1
112781,-71.4285714285714,4,2,1,50,0,1
112931,-71.4285714285714,4,2,1,40,0,1
113534,-71.4285714285714,4,2,1,80,0,1
113836,-71.4285714285714,4,2,1,30,0,1
113987,-71.4285714285714,4,2,1,40,0,1
114137,-71.4285714285714,4,2,1,50,0,1
114288,-71.4285714285714,4,2,1,60,0,1
114439,-71.4285714285714,4,2,1,70,0,1
114590,-71.4285714285714,4,2,1,80,0,1
114740,-300.00300003,4,2,1,60,0,0
115946,-125,4,2,1,50,0,0
118056,-125,4,2,1,70,0,0
118358,-100,4,2,1,60,0,0
123183,-71.4285714285714,4,2,1,70,0,0
124615,-71.4285714285714,4,2,1,5,0,0
124690,-71.4285714285714,4,2,1,70,0,0
127705,-71.4285714285714,4,2,1,80,0,0
128007,-71.4285714285714,4,2,1,60,0,0
128610,-83.3333333333333,4,2,1,70,0,0
128760,-83.3333333333333,4,2,1,60,0,0
128911,-83.3333333333333,4,2,1,50,0,0
129213,-83.3333333333333,4,2,1,60,0,0
129816,-83.3333333333333,4,2,1,70,0,0
129966,-83.3333333333333,4,2,1,60,0,0
130117,-83.3333333333333,4,2,1,50,0,0
130419,-83.3333333333333,4,2,1,60,0,0
131022,-83.3333333333333,4,2,1,80,0,0
131173,-83.3333333333333,4,2,1,70,0,0
131323,-83.3333333333333,4,2,1,60,0,0
131474,-83.3333333333333,4,2,1,50,0,0
131625,-83.3333333333333,4,2,1,40,0,0
132228,-83.3333333333333,4,2,1,60,0,0
133132,-83.3333333333333,4,2,1,40,0,0
133282,-83.3333333333333,4,2,1,60,0,0
133735,-83.3333333333333,4,2,1,40,0,0
133885,-83.3333333333333,4,2,1,60,0,0
134338,-83.3333333333333,4,2,1,40,0,0
134488,-83.3333333333333,4,2,1,60,0,0
134941,-83.3333333333333,4,2,1,40,0,0
135091,-83.3333333333333,4,2,1,60,0,0
135544,-83.3333333333333,4,2,1,40,0,0
135695,-83.3333333333333,4,2,1,60,0,0
136147,-83.3333333333333,4,2,1,40,0,0
136298,-83.3333333333333,4,2,1,60,0,0
137052,-83.3333333333333,4,2,1,40,0,0
137202,-83.3333333333333,4,2,1,50,0,0
137353,-83.3333333333333,4,2,1,60,0,0
137503,-83.3333333333333,4,2,1,70,0,0
137655,-83.3333333333333,4,2,1,60,0,0
140670,-83.3333333333333,4,2,1,80,0,0
140821,-83.3333333333333,4,2,1,70,0,0
140971,-83.3333333333333,4,2,1,60,0,0
141122,-83.3333333333333,4,2,1,50,0,0
141273,-83.3333333333333,4,2,1,60,0,0
146700,-83.3333333333333,4,2,1,70,0,0
146851,-83.3333333333333,4,2,1,60,0,0
147002,-83.3333333333333,4,2,1,50,0,0
147152,-83.3333333333333,4,2,1,40,0,0
147303,-83.3333333333333,4,2,1,60,0,0
150620,-83.3333333333333,4,2,1,70,0,0
150770,-83.3333333333333,4,2,1,80,0,0
150921,-83.3333333333333,4,2,1,60,0,0
156348,-83.3333333333333,4,2,1,70,0,0
156499,-83.3333333333333,4,2,1,80,0,0
156650,-83.3333333333333,4,2,1,90,0,0
156801,-83.3333333333333,4,2,1,100,0,0
156951,428.571428571429,4,2,1,60,1,0
156951,-400,4,2,1,60,0,0
158986,-400,4,2,1,5,0,0
159093,-200,4,2,1,60,0,0
161235,-200,4,2,1,40,0,0
161236,428.571428571429,4,2,1,40,1,0
174093,301.507537688442,4,2,1,70,1,0
174710,301.507537688442,4,2,1,80,1,1
174710,-71.4285714285714,4,2,1,80,0,1
177649,-71.4285714285714,4,2,1,5,0,1
177725,-71.4285714285714,4,2,1,80,0,1
178478,-71.4285714285714,4,2,1,70,0,1
178629,-71.4285714285714,4,2,1,60,0,1
178779,-71.4285714285714,4,2,1,50,0,1
178931,-71.4285714285714,4,2,1,80,0,1
179157,-71.4285714285714,4,2,1,5,0,1
179232,-71.4285714285714,4,2,1,90,0,1
179534,-71.4285714285714,4,2,1,80,0,1
179760,-71.4285714285714,4,2,1,5,0,1
179835,-71.4285714285714,4,2,1,80,0,1
183755,-71.4285714285714,4,2,1,70,0,1
184358,-71.4285714285714,4,2,1,80,0,1
186393,-71.4285714285714,4,2,1,50,0,1
186468,-71.4285714285714,4,2,1,60,0,1
186619,-71.4285714285714,4,2,1,70,0,1
186770,-100,4,2,1,70,0,1
188805,-100,4,2,1,5,0,1
188880,-66.6666666666667,4,2,1,70,0,1
189106,-66.6666666666667,4,2,1,5,0,1
189182,-71.4285714285714,4,2,1,80,0,1
190991,-71.4285714285714,4,2,1,60,0,1
191217,-71.4285714285714,4,2,1,5,0,1
191292,-71.4285714285714,4,2,1,60,0,1
191594,-71.4285714285714,4,2,1,80,0,1
192197,-71.4285714285714,4,2,1,40,0,1
192348,-71.4285714285714,4,2,1,50,0,1
192498,-71.4285714285714,4,2,1,60,0,1
192649,-71.4285714285714,4,2,1,70,0,1
192800,-71.4285714285714,4,2,1,80,0,1
193403,-71.4285714285714,4,2,1,60,0,1
194006,-71.4285714285714,4,2,1,80,0,1
198377,-71.4285714285714,4,2,1,70,0,1
198529,-71.4285714285714,4,2,1,60,0,1
198680,-71.4285714285714,4,2,1,50,0,1
198831,-71.4285714285714,4,2,1,60,0,1
199433,-83.3333333333333,4,2,1,60,0,1
201242,-83.3333333333333,4,2,1,80,0,1
201694,-83.3333333333333,4,2,1,50,0,1
201845,-83.3333333333333,4,2,1,60,0,1
201995,-83.3333333333333,4,2,1,70,0,1
202147,-83.3333333333333,4,2,1,80,0,1
202297,-83.3333333333333,4,2,1,60,0,0
203051,-83.3333333333333,4,2,4,60,0,0
203353,-83.3333333333333,4,2,1,70,0,0
203880,-83.3333333333333,4,2,1,5,0,0
203956,-83.3333333333333,4,2,1,70,0,0
205086,-83.3333333333333,4,2,1,5,0,0
205162,-83.3333333333333,4,2,1,70,0,0
206066,-83.3333333333333,4,2,2,70,0,0
206292,-83.3333333333333,4,2,2,5,0,0
206368,-83.3333333333333,4,2,1,70,0,0
208704,-83.3333333333333,4,2,1,5,0,0
208780,-83.3333333333333,4,2,1,70,0,0
209684,-83.3333333333333,4,2,2,70,0,0
209910,-83.3333333333333,4,2,2,5,0,0
209986,-83.3333333333333,4,2,1,70,0,0
210589,-83.3333333333333,4,2,2,70,0,0
211116,-83.3333333333333,4,2,2,5,0,0
211192,-71.4285714285714,4,2,1,60,0,0
212096,-71.4285714285714,4,2,1,80,0,0
212247,-71.4285714285714,4,2,1,70,0,0
212549,-71.4285714285714,4,2,1,50,0,0
212699,-71.4285714285714,4,2,1,40,0,0
213001,-71.4285714285714,4,2,1,60,0,0
213302,-71.4285714285714,4,2,1,80,0,0

[Colours]
Combo1 : 226,217,92
Combo2 : 249,164,70
Combo3 : 159,0,0

[HitObjects]
420,96,772,6,0,B|384:64|388:20|388:20|308:80|304:176|368:236|368:236|396:200|456:208,1,432.000016479493,4|2,1:0|2:0,2:0:0:0:
432,296,1978,6,0,L|286:283,1,144.000005493164,6|2,1:0|2:0,2:0:0:0:
388,368,2430,1,8,2:3:0:0:
388,368,2581,2,0,L|315:361,1,72.0000027465821,2|8,2:0|2:3,2:0:0:0:
172,356,2882,1,8,2:3:0:0:
172,356,3184,6,0,L|164:284,1,72.0000027465821,6|0,1:0|2:0,2:0:0:0:
188,104,3485,5,8,2:0:0:0:
164,284,3636,1,8,2:0:0:0:
276,84,3787,5,8,2:0:0:0:
252,304,3937,1,8,2:0:0:0:
364,64,4088,5,8,2:0:0:0:
340,324,4239,1,8,2:0:0:0:
512,104,4390,6,0,P|464:152|392:140,1,144,6|0,1:2|2:0,2:0:0:0:
364,64,4691,2,0,L|372:16,1,48,4|0,1:0|2:0,2:0:0:0:
178,88,4842,2,0,L|186:136,1,48,0|0,2:0|2:0,2:0:0:0:
264,188,4993,2,0,L|280:92,1,96,8|0,2:3|1:0,2:0:0:0:
124,236,5294,2,0,L|140:332,1,96,0|2,1:0|2:3,2:0:0:0:
24,104,5596,5,4,2:3:0:0:
104,140,5746,1,0,2:0:0:0:
178,88,5897,1,0,2:0:0:0:
316,116,6048,5,0,2:0:0:0:
187,179,6349,5,0,2:0:0:0:
340,32,6651,5,0,2:0:0:0:
403,246,6952,5,0,2:0:0:0:
139,330,7254,5,0,2:0:0:0:
160,60,7405,6,0,L|157:109,1,48,0|0,2:0|2:0,2:0:0:0:
68,192,7555,2,0,L|65:143,1,48,0|0,2:0|2:0,2:0:0:0:
180,36,7706,2,0,L|174:134,1,96,4|0,2:0|2:0,2:0:0:0:
136,344,8008,6,0,P|188:332|228:352,1,96,6|0,1:0|2:0,2:0:0:0:
232,356,8234,1,0,2:0:0:0:
236,368,8309,2,0,L|252:272,1,96,0|0,2:0|2:0,2:0:0:0:
363,338,8611,5,0,2:0:0:0:
392,191,8761,1,0,1:0:0:0:
356,352,8912,2,0,L|340:256,1,96,0|0,2:0|1:0,2:0:0:0:
400,88,9214,2,0,P|412:136|400:180,1,96,0|0,1:0|2:0,2:0:0:0:
251,273,9515,2,0,P|203:259|171:227,1,96,0|0,2:0|1:0,2:0:0:0:
44,136,9817,5,0,2:0:0:0:
80,320,9967,1,0,1:0:0:0:
134,136,10118,2,0,P|88:122|43:136,1,96,4|0,1:2|2:0,2:0:0:0:
224,16,10420,5,2,1:0:0:0:
249,171,10570,1,0,2:0:0:0:
100,36,10721,1,0,2:0:0:0:
88,208,10872,2,0,L|80:304,1,96,0|0,1:0|2:0,2:0:0:0:
249,171,11174,1,0,1:0:0:0:
308,356,11324,6,0,P|385:338|433:374,1,144,4|0,1:2|2:0,2:0:0:0:
387,215,11626,6,0,P|400:314|308:356,1,216.000008239746,0|0,1:0|2:0,2:0:0:0:
308,356,12229,6,0,L|302:309,1,48,8|8,2:3|2:3,2:0:0:0:
256,152,12380,2,0,L|250:199,1,48,8|8,2:3|2:3,2:0:0:0:
169,357,12530,2,0,L|166:333,6,24,12|0|0|0|0|0|0,2:0|2:0|2:0|2:0|2:0|2:0|2:0,2:0:0:0:
232,280,12832,6,0,B|208:328|164:320|164:320|76:304,1,172.799994726563,4|0,1:0|2:0,2:0:0:0:
24,364,13133,2,0,P|0:316|16:256,1,115.199996484375,8|0,2:0|2:0,2:0:0:0:
140,80,13435,1,0,1:0:0:0:
78,304,13586,1,0,1:0:0:0:
4,100,13736,2,0,L|120:84,1,115.199996484375,8|0,2:0|2:0,2:0:0:0:
432,132,14038,6,0,B|392:168|392:168|320:184|300:116,1,172.799994726563,0|0,1:0|2:0,2:0:0:0:
317,11,14339,2,0,P|327:66|300:116,1,115.199996484375,8|0,2:0|2:0,2:0:0:0:
112,0,14641,1,0,1:0:0:0:
245,49,14792,1,0,1:0:0:0:
158,186,14942,2,0,B|134:150|134:150|150:66,1,115.199996484375,8|0,3:2|2:0,2:0:0:0:
224,276,15244,6,0,P|164:236|68:260,1,172.799994726563,0|0,1:0|2:0,2:0:0:0:
176,344,15545,2,0,L|292:328,1,115.199996484375,8|0,2:0|2:0,2:0:0:0:
464,192,15847,1,0,1:0:0:0:
392,376,15998,1,0,1:0:0:0:
362,144,16148,1,8,2:0:0:0:
290,328,16299,1,0,2:0:0:0:
308,80,16450,6,0,P|364:60|420:80,1,115.199996484375,0|0,1:0|2:0,2:0:0:0:
304,232,16751,2,0,L|188:208,1,115.199996484375,8|0,2:0|2:0,2:0:0:0:
148,276,16978,1,0,2:0:0:0:
148,276,17053,2,0,P|112:224|120:172,1,115.199996484375,0|0,1:0|1:0,2:0:0:0:
192,12,17354,2,0,L|208:128,1,115.199996484375,12|0,2:0|2:0,2:0:0:0:
137,369,17656,6,0,P|217:317|293:329,1,172.799994726563,4|0,1:0|2:0,2:0:0:0:
396,380,17957,2,0,P|336:380|300:340,1,115.199996484375,8|0,2:0|2:0,2:0:0:0:
352,120,18259,1,0,1:0:0:0:
372,292,18410,1,0,1:0:0:0:
468,140,18560,2,0,P|420:108|364:108,1,115.199996484375,8|0,2:0|2:0,2:0:0:0:
200,315,18862,6,0,L|372:291,1,172.799994726563,0|0,1:0|2:0,2:0:0:0:
423,355,19163,2,0,P|452:306|443:250,1,115.199996484375,8|0,2:0|1:0,2:0:0:0:
272,64,19465,1,0,1:0:0:0:
272,64,19616,1,0,1:0:0:0:
200,315,19766,2,0,L|84:300,1,115.199996484375,8|8,2:0|2:0,2:0:0:0:
16,100,20068,6,0,P|100:80|152:144,1,172.799994726563,4|0,1:2|2:0,2:0:0:0:
88,220,20369,6,0,P|72:192|72:156,1,67.1999979492188,12|0,2:1|2:0,2:0:0:0:
255,1,20520,2,0,P|271:29|271:65,1,67.1999979492188,0|0,2:0|2:0,2:0:0:0:
151,138,20671,5,8,2:3:0:0:
380,176,20822,1,8,2:3:0:0:
271,63,20973,1,8,2:0:0:0:
200,316,21123,1,0,1:0:0:0:
180,52,21274,5,8,2:0:0:0:
264,264,21425,1,8,2:0:0:0:
380,176,21726,5,8,2:0:0:0:
71,157,21877,2,0,B|80:204|80:204|56:240|56:240|84:292|40:356|40:356|76:304|144:288|200:316|200:316|158:315|134:345,1,470.399985644532,8|0,2:0|2:0,2:0:0:0:
264,264,22480,6,0,P|280:304|272:348,1,86.3999973632813,4|0,1:0|2:0,2:0:0:0:
200,212,22782,1,10,2:0:0:0:
273,345,22932,2,0,P|357:345|413:281,1,172.799994726563,0|2,1:0|1:2,2:0:0:0:
368,144,23385,2,0,P|348:188|348:228,1,86.3999973632813,10|2,2:0|2:0,2:0:0:0:
500,32,23686,5,2,1:2:0:0:
368,144,23837,1,2,1:0:0:0:
464,124,23988,1,10,2:0:0:0:
292,84,24139,1,2,1:2:0:0:
264,264,24289,6,0,L|351:253,1,86.3999973632813,2|0,2:0|1:0,2:0:0:0:
332,64,24591,2,0,L|244:72,1,86.3999973632813,10|0,2:0|2:0,2:0:0:0:
56,220,24892,5,0,1:2:0:0:
80,64,25043,1,0,2:0:0:0:
152,232,25194,2,0,P|112:240|68:232,1,86.3999973632813,10|0,2:0|1:0,2:0:0:0:
56,384,25495,5,2,2:0:0:0:
224,304,25646,1,2,1:2:0:0:
128,316,25797,1,10,2:0:0:0:
300,356,25947,1,2,2:0:0:0:
240,221,26098,6,0,P|224:261|224:305,1,86.3999973632813,2|2,1:2|2:0,2:0:0:0:
328,196,26400,1,10,2:0:0:0:
184,152,26550,1,2,1:2:0:0:
256,56,26701,2,0,P|272:96|272:140,1,86.3999973632813,2|2,2:0|1:2,2:0:0:0:
412,168,27003,2,0,P|412:125|428:85,1,86.3999973632813,10|0,2:0|2:0,2:0:0:0:
464,316,27304,6,0,P|416:280|348:288,1,129.599996044922,0|0,1:0|2:0,2:0:0:0:
260,324,27606,2,0,P|308:324|340:296,1,86.3999973632813,10|0,2:0|1:0,2:0:0:0:
188,160,27907,5,2,2:0:0:0:
84,312,28058,1,2,1:2:0:0:
96,208,28209,1,10,2:0:0:0:
160,372,28359,1,2,2:0:0:0:
280,248,28510,6,0,L|268:160,1,86.3999973632813,2|2,1:2|1:2,2:0:0:0:
352,16,28812,1,10,2:0:0:0:
268,140,28962,1,2,1:2:0:0:
176,48,29113,2,0,L|88:56,1,86.3999973632813,2|0,2:0|1:0,2:0:0:0:
48,228,29415,2,0,L|136:236,1,86.3999973632813,10|0,2:0|2:0,2:0:0:0:
267,139,29716,6,0,L|354:147,1,86.3999973632813,0|0,1:2|2:0,2:0:0:0:
460,216,30018,2,0,L|373:223,1,86.3999973632813,10|0,2:0|1:0,2:0:0:0:
236,344,30319,5,2,2:0:0:0:
404,312,30470,1,2,1:2:0:0:
316,296,30621,1,10,2:0:0:0:
448,384,30771,1,2,2:0:0:0:
437,161,30922,6,0,B|401:154|401:154|398:150|398:150|396:157|396:157|393:153|393:153|354:146,1,96,6|0,1:2|2:0,2:0:0:0:
48,228,31224,2,0,B|113:214|113:214|119:207|119:207|123:220|123:220|128:213|128:213|201:199,1,172.799994726563,4|0,1:0|2:0,2:0:0:0:
256,256,31525,6,0,P|276:228|276:188,1,72.0000027465821,10|8,2:0|2:0,2:0:0:0:
168,52,31676,2,0,P|168:87|189:116,1,72.0000027465821,8|8,2:0|2:0,2:0:0:0:
388,40,31827,6,0,L|276:28,1,108.000004119873,2|0,1:2|1:0,2:0:0:0:
189,116,32128,6,0,B|228:116|248:140|248:140|308:148|328:84,1,172.799994726563,4|0,1:0|2:0,2:0:0:0:
304,168,32430,2,0,P|304:228|340:268,1,115.199996484375,8|0,2:0|2:0,2:0:0:0:
512,220,32731,1,0,1:0:0:0:
512,220,32882,1,0,1:0:0:0:
404,84,33033,2,0,L|384:204,1,115.199996484375,8|0,2:0|2:0,2:0:0:0:
248,364,33334,6,0,B|204:328|204:328|164:368|96:356,1,172.799994726563,0|0,1:0|2:0,2:0:0:0:
68,260,33636,2,0,B|96:280|96:280|120:316|96:356,1,115.199996484375,8|0,2:0|2:0,2:0:0:0:
0,208,33937,5,0,1:0:0:0:
188,188,34088,1,0,1:0:0:0:
84,12,34239,2,0,B|56:32|52:64|52:64|68:84|68:112,1,115.199996484375,12|0,2:0|2:0,2:0:0:0:
68,260,34540,6,0,B|112:248|112:248|156:304|232:280,1,172.799994726563,0|0,1:0|2:0,2:0:0:0:
280,236,34842,2,0,L|260:352,1,115.199996484375,8|0,2:0|2:0,2:0:0:0:
412,144,35143,5,0,1:0:0:0:
456,316,35294,1,0,1:0:0:0:
484,80,35445,1,12,2:0:0:0:
396,240,35596,1,0,1:0:0:0:
327,85,35746,6,0,B|299:57|259:69|259:69|247:85|223:85,1,115.199996484375,4|0,1:2|1:0,2:0:0:0:
68,112,36048,6,0,B|60:64|140:40|180:132|120:208,1,216.000008239746,12|0,2:1|2:0,2:0:0:0:
60,252,36349,6,0,P|48:228|48:204,1,48,8|0,1:3|1:0,2:0:0:0:
148,280,36500,2,0,L|140:328,1,48,0|0,1:0|1:0,2:0:0:0:
122,205,36651,2,0,B|202:189|176:240|260:224,1,144,8|0,2:0|2:0,2:0:0:0:
260,223,36952,6,0,P|252:276|248:320,1,96,4|0,1:0|2:0,2:0:0:0:
356,240,37254,2,0,P|351:287|343:335,1,96,10|0,2:0|1:0,2:0:0:0:
496,172,37555,5,2,2:0:0:0:
356,240,37706,1,2,1:2:0:0:
492,284,37857,1,10,2:0:0:0:
400,148,38008,1,2,2:0:0:0:
342,335,38158,6,0,L|242:343,1,96,2|2,1:2|1:2,2:0:0:0:
116,304,38460,1,10,2:0:0:0:
228,344,38611,1,2,1:2:0:0:
64,376,38761,2,0,P|36:337|36:288,1,96,2|0,2:0|1:0,2:0:0:0:
148,128,39063,2,0,L|132:224,1,96,14|0,2:0|2:0,2:0:0:0:
4,56,39364,6,0,P|48:68|100:60,1,96,0|0,1:0|2:0,2:0:0:0:
228,16,39666,2,0,L|324:28,1,96,10|0,2:0|1:0,2:0:0:0:
452,176,39967,5,2,2:0:0:0:
408,4,40118,1,2,1:2:0:0:
360,208,40269,1,10,2:0:0:0:
476,76,40420,1,2,2:0:0:0:
512,280,40570,6,0,L|416:296,1,96,2|2,1:2|1:2,2:0:0:0:
296,160,40872,1,10,2:0:0:0:
256,336,41023,1,2,1:2:0:0:
164,212,41174,2,0,P|112:192|80:260,1,144,2|0,2:0|2:0,2:0:0:0:
152,292,41475,2,0,B|160:328|140:356|140:356|108:368,1,96,10|0,2:0|1:0,2:0:0:0:
79,258,41701,1,0,1:0:0:0:
84,244,41777,6,0,B|100:196|100:196|92:152,1,96,4|0,1:2|2:0,2:0:0:0:
20,68,42078,2,0,L|116:48,1,96,10|0,2:0|1:0,2:0:0:0:
320,136,42380,1,2,2:0:0:0:
168,108,42530,1,2,1:2:0:0:
332,48,42681,1,14,2:0:0:0:
231,165,42831,1,2,1:2:0:0:
392,196,42983,6,0,P|412:124|404:100,1,96,2|2,1:2|1:2,2:0:0:0:
292,232,43284,2,0,L|304:376,1,144,14|0,2:0|2:0,2:0:0:0:
424,312,43586,6,0,P|380:292|332:304,1,96,6|0,2:0|1:0,2:0:0:0:
216,372,43887,2,0,L|120:360,1,96,14|0,2:0|2:0,2:0:0:0:
88,132,44189,6,0,B|64:220|120:184|96:272,1,144,4|8,1:0|2:3,2:0:0:0:
0,281,44942,2,0,L|95:269,1,96,8|2,2:3|2:0,2:0:0:0:
212,156,45395,5,2,1:2:0:0:
216,168,45696,5,2,1:2:0:0:
220,180,45998,5,6,1:2:0:0:
224,200,46299,6,0,B|212:68|212:68|228:96|256:96,1,187.199991430664,6|0,1:2|2:0,2:0:0:0:
376,75,46601,6,0,P|308:63|252:99,1,134.399995898438,4|0,1:0|2:0,2:0:0:0:
136,212,46902,2,0,L|124:76,1,134.399995898438,10|0,2:0|1:0,2:0:0:0:
112,316,47204,5,10,2:0:0:0:
312,264,47354,1,0,1:0:0:0:
224,200,47505,2,0,L|204:340,1,134.399995898438,8|0,2:0|1:0,2:0:0:0:
448,228,47807,6,0,L|428:88,1,134.399995898438,10|0,2:0|2:0,2:0:0:0:
312,264,48108,2,0,L|292:124,1,134.399995898438,10|0,2:0|1:0,2:0:0:0:
256,0,48410,5,10,2:0:0:0:
224,200,48560,1,2,1:2:0:0:
16,88,48711,1,10,2:0:0:0:
53,55,48786,1,2,2:0:0:0:
102,54,48861,1,2,1:2:0:0:
141,84,48937,1,2,2:0:0:0:
152,132,49013,6,0,L|20:152,1,134.399995898438,10|0,2:0|2:0,2:0:0:0:
204,333,49314,2,0,B|288:321|288:321|320:345|320:345|396:333,1,201.599993847656,10|0,2:0|2:0,2:0:0:0:
424,356,49616,5,10,2:0:0:0:
464,144,49766,1,2,1:2:0:0:
320,368,49917,1,10,2:0:0:0:
276,120,50068,1,2,1:2:0:0:
132,280,50219,5,10,2:0:0:0:
120,320,50294,1,2,2:0:0:0:
136,356,50369,1,2,2:0:0:0:
176,368,50445,1,2,2:0:0:0:
216,360,50520,2,0,L|228:292,3,67.1999979492188,10|2|2|2,2:0|2:0|1:2|2:0,2:0:0:0:
220,272,50822,6,0,B|320:232|320:308|416:272,1,201.599993847656,10|0,2:0|2:0,2:0:0:0:
456,344,51123,2,0,P|496:296|484:228,1,134.399995898438,10|0,2:0|1:0,2:0:0:0:
512,64,51425,6,0,B|464:64|436:44|436:44|408:72|408:72|380:48|328:48,1,201.599993847656,4|0,1:0|2:0,2:0:0:0:
256,136,51726,2,0,B|232:96|256:48|256:48|256:72|268:88,1,134.399995898438,10|0,2:0|1:0,2:0:0:0:
367,256,52028,2,0,P|367:320|319:368,1,134.399995898438,10|0,2:0|1:0,2:0:0:0:
88,312,52329,6,0,L|292:288,1,201.599993847656,8|0,2:0|2:0,2:0:0:0:
408,332,52631,2,0,P|348:344|292:300,1,134.399995898438,10|0,2:0|2:0,2:0:0:0:
390,123,52932,2,0,L|366:259,1,134.399995898438,10|0,2:0|1:0,2:0:0:0:
267,87,53234,5,10,2:0:0:0:
288,288,53385,1,2,1:2:0:0:
336,36,53535,1,10,2:0:0:0:
300,8,53611,1,2,2:0:0:0:
248,8,53686,1,2,1:2:0:0:
200,36,53761,1,2,2:0:0:0:
184,88,53837,6,0,L|48:76,1,134.399995898438,10|0,2:0|2:0,2:0:0:0:
0,312,54138,2,0,L|133:300,1,134.399995898438,10|0,2:0|2:0,2:0:0:0:
328,208,54440,1,10,2:0:0:0:
112,188,54591,1,2,1:2:0:0:
300,320,54741,1,10,2:0:0:0:
267,87,54892,1,2,1:2:0:0:
133,299,55043,5,10,2:0:0:0:
156,340,55118,1,2,2:0:0:0:
204,360,55194,1,2,2:0:0:0:
260,356,55269,1,2,2:0:0:0:
300,320,55344,6,0,B|380:288|468:340|424:376|380:356|416:292,1,201.599993847656,14|0,2:0|2:0,2:0:0:0:
452,212,55646,5,8,2:3:0:0:
440,176,55721,1,0,2:0:0:0:
400,152,55797,1,8,2:0:0:0:
360,148,55872,1,8,2:0:0:0:
324,168,55947,2,0,L|256:164,3,67.1999979492188,8|0|0|0,2:3|2:0|2:0|2:0,2:0:0:0:
244,172,56249,6,0,L|104:164,1,134.399995898438,4|0,1:0|2:0,2:0:0:0:
73,367,56550,2,0,L|213:359,1,134.399995898438,8|0,2:0|1:0,2:0:0:0:
228,152,56852,6,0,L|88:144,1,134.399995898438,8|0,2:0|1:0,2:0:0:0:
104,384,57153,2,0,L|244:376,1,134.399995898438,8|0,2:0|1:0,2:0:0:0:
344,136,57455,5,10,2:0:0:0:
368,344,57606,1,2,1:2:0:0:
484,168,57756,5,10,2:0:0:0:
460,376,57907,1,2,1:2:0:0:
320,260,58058,6,0,B|264:224|264:224|216:212|168:236|156:284,1,201.599993847656,10|0,2:0|2:0,2:0:0:0:
168,360,58359,2,0,P|220:336|232:264,1,134.399995898438,10|0,2:0|1:0,2:0:0:0:
176,40,58661,6,0,L|148:176,1,134.399995898438,10|0,2:0|2:0,2:0:0:0:
363,171,58962,2,0,L|336:40,1,134.399995898438,8|0,2:0|1:0,2:0:0:0:
156,56,59264,6,0,L|128:192,1,134.399995898438,8|0,2:0|1:0,2:0:0:0:
383,187,59565,2,0,L|356:56,1,134.399995898438,8|0,2:0|1:0,2:0:0:0:
68,256,59867,6,0,P|128:280|192:252,1,134.399995898438,10|2,2:0|1:2,2:0:0:0:
264,60,60168,1,10,2:0:0:0:
128,187,60319,1,2,1:2:0:0:
332,292,60470,6,0,P|356:232|328:168,1,134.399995898438,10|2,2:0|1:2,2:0:0:0:
136,96,60771,1,12,2:0:0:0:
263,232,60922,1,8,2:0:0:0:
397,75,61073,6,0,L|261:59,1,134.399995898438,4|0,1:0|2:0,2:0:0:0:
68,256,61375,5,8,2:0:0:0:
263,232,61525,1,8,2:0:0:0:
68,256,61676,1,8,2:0:0:0:
263,232,61827,1,8,2:0:0:0:
136,96,61978,5,8,2:0:0:0:
172,280,62128,1,8,2:0:0:0:
296,112,62279,6,0,B|180:124|244:176|128:192,1,192,8|0,2:0|2:0,2:0:0:0:
72,16,63033,5,2,2:0:0:0:
132,84,63184,1,2,2:0:0:0:
52,148,63334,1,2,2:0:0:0:
172,280,63485,5,4,1:0:0:0:
256,192,63560,12,8,65143,2:3:0:0:
44,296,65445,5,0,1:0:0:0:
44,296,65596,2,0,P|116:284|168:332,1,144,12|0,2:0|2:0,2:0:0:0:
236,368,65897,5,0,3:0:0:0:
240,352,65973,1,0,3:0:0:0:
244,340,66048,2,0,L|288:332,3,38.4,0|0|2|0,3:0|3:0|3:2|3:0,2:0:0:0:
336,276,66349,5,8,3:2:0:0:
332,264,66425,1,0,3:0:0:0:
328,248,66500,2,0,L|284:240,3,38.4,2|0|2|0,3:2|3:0|3:2|3:0,2:0:0:0:
240,180,66802,2,0,L|196:188,3,38.4,10|0|2|0,3:2|3:0|3:2|3:2,2:0:0:0:
120,248,67103,5,10,3:2:0:0:
92,161,67254,2,0,B|188:149|152:193|240:181,1,153.6,2|2,1:2|1:2,2:0:0:0:
356,128,67706,1,2,1:2:0:0:
340,137,68008,6,0,P|320:193|328:249,1,115.2,6|0,1:2|2:0,2:0:0:0:
380,352,68309,5,0,3:0:0:0:
376,340,68385,1,0,3:0:0:0:
372,332,68460,2,0,P|352:328|332:328,3,38.4,0|0|2|0,3:0|3:0|3:2|3:0,2:0:0:0:
248,272,68761,5,8,3:2:0:0:
244,284,68837,1,0,3:0:0:0:
240,292,68912,2,0,P|220:296|200:296,3,38.4,2|0|2|0,3:2|3:0|3:2|3:0,2:0:0:0:
160,364,69214,2,0,P|140:360|120:360,3,38.4,10|0|2|0,3:2|3:0|3:2|3:0,2:0:0:0:
64,308,69515,6,0,L|56:228,1,76.8,10|2,3:2|1:2,2:0:0:0:
172,12,69817,2,0,P|172:56|152:88,1,76.8,2|2,2:0|1:2,2:0:0:0:
56,144,70118,1,2,1:2:0:0:
56,144,70269,1,8,2:3:0:0:
208,192,70420,2,0,L|128:168,1,76.8,8|0,2:3|2:0,2:0:0:0:
241,10,70721,5,0,3:2:0:0:
245,26,70797,1,0,3:2:0:0:
249,38,70872,2,0,L|293:46,3,38.4,0|0|2|0,3:2|3:2|3:2|3:2,2:0:0:0:
341,102,71173,5,8,3:2:0:0:
337,114,71249,1,0,3:2:0:0:
333,130,71324,2,0,L|289:138,3,38.4,2|0|2|0,3:2|3:2|3:2|3:2,2:0:0:0:
245,198,71626,2,0,L|201:190,3,38.4,10|0|2|0,3:2|3:2|3:2|3:2,2:0:0:0:
180,204,71927,5,10,3:2:0:0:
92,148,72078,2,0,P|128:204|128:288,1,153.6,2|2,1:2|1:2,2:0:0:0:
0,364,72530,2,0,L|76:356,1,76.8,2|0,1:2|2:0,2:0:0:0:
180,204,72832,2,0,L|192:320,1,115.2,4|0,1:0|2:0,2:0:0:0:
184,332,73133,6,0,P|224:324|260:332,1,76.8,6|0,1:2|2:0,2:0:0:0:
420,288,73435,5,10,2:0:0:0:
352,352,73586,1,8,2:0:0:0:
376,144,73736,5,8,2:0:0:0:
420,288,73887,1,8,2:0:0:0:
388,56,74038,5,8,2:0:0:0:
360,228,74189,1,8,2:0:0:0:
232,120,74339,2,0,P|212:84|220:124,1,115.2,0|0,1:0|2:0,2:0:0:0:
288,32,74641,6,0,P|192:8|120:88,1,216.000008239746,4|0,1:2|2:0,2:0:0:0:
44,60,74942,2,0,P|68:104|68:148,1,96,2|0,1:2|1:0,2:0:0:0:
8,280,75244,6,0,B|36:240|88:240|88:240|108:272|156:272,1,172.799994726563,2|0,1:2|2:0,2:0:0:0:
243,256,75545,6,0,P|195:248|155:272,1,96,4|0,1:0|2:0,2:0:0:0:
308,312,75846,2,0,L|400:336,1,96,8|0,2:0|2:0,2:0:0:0:
472,220,76148,1,8,2:0:0:0:
472,220,76298,1,0,2:0:0:0:
472,4,76449,6,0,P|444:60|444:140,1,144,0|0,1:0|2:0,2:0:0:0:
472,220,76751,2,0,P|424:220|384:196,1,96,8|8,2:3|2:3,2:0:0:0:
344,44,77052,2,0,P|344:92|316:132,1,96,8|0,2:3|2:0,2:0:0:0:
124,44,77354,6,0,B|204:28|176:80|264:68,1,144,0|0,1:0|2:0,2:0:0:0:
256,56,77655,2,0,P|208:64|176:96,1,96,8|0,2:0|2:0,2:0:0:0:
144,252,77957,2,0,L|152:348,1,96,8|0,2:0|2:0,2:0:0:0:
48,196,78258,5,0,1:0:0:0:
156,240,78409,1,8,2:3:0:0:
244,136,78560,2,0,L|340:124,1,96,2|0,2:0|1:0,2:0:0:0:
476,256,78861,2,0,P|404:256|384:196,1,144,10|0,2:0|2:0,2:0:0:0:
400,184,79163,6,0,P|400:292|352:356,1,192,2|8,1:2|2:0,2:0:0:0:
144,252,79615,1,0,2:0:0:0:
144,252,79766,2,0,L|240:240,1,96,8|0,2:0|2:0,2:0:0:0:
112,172,80067,5,0,1:0:0:0:
64,288,80218,2,0,L|76:384,1,96,8|0,2:3|1:0,2:0:0:0:
120,148,80519,5,0,1:0:0:0:
164,332,80670,2,0,L|260:320,1,96,8|0,2:0|2:0,2:0:0:0:
492,252,80972,6,0,L|396:236,1,96,12|0,2:1|1:0,2:0:0:0:
328,288,81274,1,0,1:0:0:0:
280,48,81424,5,12,2:0:0:0:
144,252,81575,1,8,2:0:0:0:
344,124,81725,1,0,1:0:0:0:
104,0,81876,6,0,B|136:108|64:72|96:180,1,187.199991430664,12|0,2:0|2:0,2:0:0:0:
40,236,82178,6,0,P|88:228|132:244,1,96,4|0,1:0|2:0,2:0:0:0:
344,124,82479,2,0,L|248:116,1,96,10|0,2:0|2:0,2:0:0:0:
220,240,82780,5,2,1:2:0:0:
384,288,82931,1,2,1:2:0:0:
292,316,83082,1,10,2:0:0:0:
384,180,83232,1,2,2:0:0:0:
248,116,83383,6,0,L|152:128,1,96,2|0,1:2|2:0,2:0:0:0:
352,56,83685,1,10,2:0:0:0:
312,232,83836,1,2,2:0:0:0:
128,76,83987,6,0,P|196:67|248:116,1,144,2|0,1:2|2:0,2:0:0:0:
232,216,84288,2,0,P|220:168|236:124,1,96,14|0,2:0|2:0,2:0:0:0:
392,324,84590,6,0,P|336:292|256:304,1,144,0|0,1:0|2:0,2:0:0:0:
168,352,84891,2,0,P|216:352|252:324,1,96,10|0,2:0|2:0,2:0:0:0:
80,140,85193,5,2,1:2:0:0:
124,272,85343,1,2,1:2:0:0:
132,68,85494,1,10,2:0:0:0:
60,224,85645,1,2,2:0:0:0:
16,52,85796,6,0,L|112:44,1,96,2|2,1:2|2:0,2:0:0:0:
256,108,86097,1,10,2:0:0:0:
212,0,86248,1,2,2:0:0:0:
161,239,86399,6,0,L|305:219,1,144,2|0,1:2|2:0,2:0:0:0:
393,268,86700,2,0,P|345:268|313:236,1,96,14|0,2:0|2:0,2:0:0:0:
468,140,87002,6,0,L|372:120,1,96,4|0,1:0|2:0,2:0:0:0:
220,88,87303,1,10,2:0:0:0:
288,36,87454,2,0,P|320:128|304:220,1,192,2|0,2:0|1:0,2:0:0:0:
320,336,87906,2,0,P|276:316|228:316,1,96,10|0,2:0|2:0,2:0:0:0:
44,268,88208,6,0,L|36:172,1,96,2|0,1:2|1:0,2:0:0:0:
176,96,88509,1,10,2:0:0:0:
136,288,88660,1,2,1:2:0:0:
52,72,88811,6,0,L|100:64,1,48,8|0,2:0|2:0,2:0:0:0:
208,208,88961,2,0,L|160:200,1,48,8|0,2:0|2:0,2:0:0:0:
284,36,89112,1,10,2:0:0:0:
312,240,89263,1,8,2:0:0:0:
488,72,89414,6,0,B|404:60|428:104|348:88,1,144,4|0,1:0|2:0,2:0:0:0:
284,36,89715,2,0,P|264:88|276:132,1,96,10|0,2:0|1:0,2:0:0:0:
312,240,90017,6,0,B|204:256|264:308|148:328,1,192,2|8,2:0|2:0,2:0:0:0:
60,303,90469,1,0,1:0:0:0:
144,104,90620,6,0,L|124:248,1,144,10|0,2:0|2:0,2:0:0:0:
60,303,90921,2,0,P|100:327|148:327,1,96,14|0,2:0|1:0,2:0:0:0:
312,240,91223,5,6,1:2:0:0:
328,236,91298,1,0,1:0:0:0:
344,244,91374,1,0,1:0:0:0:
352,276,91449,1,0,1:0:0:0:
336,304,91524,1,0,1:0:0:0:
304,320,91600,1,0,1:0:0:0:
260,304,91675,1,0,1:0:0:0:
236,268,91750,1,0,1:0:0:0:
232,224,91826,6,0,B|240:192|264:176|264:176|292:136|264:96,1,144,4|0,1:0|2:0,2:0:0:0:
288,24,92127,2,0,P|252:44|208:44,1,86.3999973632813,2|0,1:2|2:0,2:0:0:0:
100,8,92429,1,2,1:2:0:0:
40,164,92580,1,0,2:0:0:0:
24,72,92730,1,2,1:2:0:0:
124,184,92881,1,2,2:0:0:0:
32,332,93032,6,0,L|16:248,1,86.3999973632813,2|2,1:2|2:0,2:0:0:0:
136,100,93333,1,2,1:2:0:0:
104,264,93484,1,6,2:0:0:0:
52,100,93635,2,0,P|95:91|136:100,1,86.3999973632813,2|0,1:2|2:0,2:0:0:0:
232,224,93936,2,0,L|248:140,1,86.3999973632813,2|0,1:2|1:0,2:0:0:0:
348,44,94238,6,0,P|416:44|456:88,1,129.599996044922,0|0,1:0|2:0,2:0:0:0:
504,160,94539,2,0,P|464:147|450:107,1,86.3999973632813,6|0,1:2|2:0,2:0:0:0:
348,44,94841,5,2,1:2:0:0:
376,152,94992,2,0,P|362:191|322:204,1,86.3999973632813,6|0,2:0|1:0,2:0:0:0:
204,128,95293,5,2,2:0:0:0:
216,24,95444,2,0,L|224:112,1,86.3999973632813,6|8,1:2|2:3,2:0:0:0:
108,212,95745,1,2,1:2:0:0:
135,99,95896,1,8,2:3:0:0:
184,336,96047,6,0,P|144:292|76:296,1,129.599996044922,2|0,1:2|2:0,2:0:0:0:
68,308,96348,6,0,B|160:324|132:260|232:280,1,172.799994726563,6|0,1:2|2:0,2:0:0:0:
304,348,96650,6,0,P|356:348|392:324,1,96,4|0,1:0|2:0,2:0:0:0:
448,220,96951,1,2,1:2:0:0:
444,208,97027,1,0,2:0:0:0:
440,196,97102,1,4,2:3:0:0:
436,184,97178,1,0,2:0:0:0:
432,172,97253,2,0,P|432:144|440:124,3,48,10|0|10|0,1:2|1:0|1:2|1:0,2:0:0:0:
396,56,97554,2,0,P|376:64|348:64,3,48,10|8|10|8,1:2|1:2|1:2|1:2,2:0:0:0:
240,72,97856,5,6,1:2:0:0:
244,60,98157,5,2,2:0:0:0:
248,48,98459,5,2,2:0:0:0:
252,36,98760,6,0,B|288:112|240:184|240:184|220:160|184:160,1,216.000008239746,4|0,2:0|2:0,2:0:0:0:
75,207,99062,6,0,P|139:207|187:159,1,134.399995898438,4|0,1:0|2:0,2:0:0:0:
328,0,99363,2,0,P|348:60|348:132,1,134.399995898438,10|0,2:0|1:0,2:0:0:0:
424,256,99665,1,10,2:0:0:0:
344,148,99816,1,0,1:0:0:0:
296,368,99966,1,8,2:0:0:0:
60,288,100117,1,0,1:0:0:0:
64,276,100193,1,0,2:0:0:0:
68,260,100268,6,0,B|148:276|124:228|196:240,1,134.399995898438,10|0,2:0|2:0,2:0:0:0:
296,368,100569,2,0,P|228:368|184:324,1,134.399995898438,10|0,2:0|1:0,2:0:0:0:
216,88,100871,1,10,2:0:0:0:
352,308,101022,1,2,1:2:0:0:
480,120,101173,1,10,2:0:0:0:
436,88,101248,1,2,2:0:0:0:
388,88,101323,1,2,1:2:0:0:
336,120,101399,1,2,2:0:0:0:
320,172,101474,6,0,L|184:160,1,134.399995898438,10|0,2:0|2:0,2:0:0:0:
74,325,101776,2,0,B|192:340|148:264|264:284,1,201.599993847656,10|0,2:0|2:0,2:0:0:0:
288,308,102077,5,10,2:0:0:0:
336,120,102228,1,2,1:2:0:0:
476,324,102379,1,10,2:0:0:0:
436,88,102529,1,2,1:2:0:0:
288,308,102680,5,10,2:0:0:0:
260,336,102755,1,2,2:0:0:0:
208,344,102831,1,2,2:0:0:0:
168,324,102906,1,2,2:0:0:0:
144,288,102982,2,0,L|136:220,3,67.1999979492188,10|2|2|2,2:0|2:0|1:2|2:0,2:0:0:0:
160,232,103283,6,0,P|92:248|92:144,1,201.599993847656,10|0,2:0|2:0,2:0:0:0:
168,108,103585,2,0,P|104:108|56:60,1,134.399995898438,10|0,2:0|1:0,2:0:0:0:
272,32,103886,6,0,L|252:236,1,201.599993847656,4|0,1:0|2:0,2:0:0:0:
288,308,104188,2,0,B|336:324|376:308|376:308|360:328|360:348,1,134.399995898438,10|0,2:0|1:0,2:0:0:0:
160,232,104489,2,0,P|96:232|48:280,1,134.399995898438,10|0,2:0|1:0,2:0:0:0:
29,22,104791,2,0,P|69:106|169:106,1,201.599993847656,8|0,2:0|2:0,2:0:0:0:
272,32,105092,6,0,B|356:20|356:20|308:40,1,134.399995898438,10|0,2:0|2:0,2:0:0:0:
173,231,105394,2,0,P|149:175|169:103,1,134.399995898438,10|0,2:0|1:0,2:0:0:0:
372,184,105695,6,0,L|240:164,1,134.399995898438,10|2,2:0|1:2,2:0:0:0:
80,340,105997,1,10,2:0:0:0:
112,320,106072,1,2,2:0:0:0:
152,320,106147,1,2,1:2:0:0:
184,340,106222,1,2,2:0:0:0:
196,372,106298,6,0,L|328:352,1,134.399995898438,10|0,2:0|2:0,2:0:0:0:
376,168,106600,2,0,L|244:148,1,134.399995898438,10|0,2:0|2:0,2:0:0:0:
112,320,106901,5,10,2:0:0:0:
296,240,107052,1,2,1:2:0:0:
160,172,107203,1,10,2:0:0:0:
296,240,107353,1,2,1:2:0:0:
375,55,107504,5,8,1:3:0:0:
331,31,107580,1,2,2:0:0:0:
271,43,107655,1,2,2:0:0:0:
239,91,107730,1,2,2:0:0:0:
243,147,107806,2,0,B|171:183|123:123|123:123|151:95|143:59,1,201.599993847656,14|0,2:0|2:0,2:0:0:0:
64,20,108107,5,8,2:3:0:0:
32,64,108183,1,0,2:0:0:0:
24,112,108258,1,8,2:0:0:0:
48,152,108333,1,8,2:0:0:0:
80,196,108409,2,0,P|80:232|68:260,3,67.1999979492188,8|0|0|0,2:3|2:0|2:0|2:0,2:0:0:0:
72,292,108710,6,0,P|144:292|192:328,1,134.399995898438,4|0,1:0|2:0,2:0:0:0:
416,203,109012,2,0,P|344:203|296:239,1,134.399995898438,8|0,2:0|1:0,2:0:0:0:
68,304,109313,2,0,P|140:304|188:340,1,134.399995898438,8|0,2:0|1:0,2:0:0:0:
420,212,109615,2,0,P|348:212|300:248,1,134.399995898438,8|0,2:0|1:0,2:0:0:0:
372,320,109916,5,10,2:0:0:0:
456,132,110067,1,2,1:2:0:0:
368,344,110218,5,10,2:0:0:0:
248,172,110368,1,2,1:2:0:0:
364,368,110519,6,0,B|408:328|408:328|392:184,1,201.599993847656,10|0,2:0|2:0,2:0:0:0:
456,132,110821,2,0,P|396:104|332:132,1,134.399995898438,10|0,2:0|1:0,2:0:0:0:
152,324,111122,6,0,L|128:192,1,134.399995898438,10|0,2:0|2:0,2:0:0:0:
336,127,111424,2,0,L|312:259,1,134.399995898438,8|0,2:0|1:0,2:0:0:0:
144,336,111725,6,0,L|120:204,1,134.399995898438,8|0,2:0|1:0,2:0:0:0:
348,120,112027,2,0,L|324:252,1,134.399995898438,8|0,2:0|1:0,2:0:0:0:
60,120,112328,6,0,P|128:100|184:124,1,134.399995898438,10|2,2:0|1:2,2:0:0:0:
320,264,112630,1,10,2:0:0:0:
119,203,112781,1,2,1:2:0:0:
266,64,112931,6,0,P|286:132|262:188,1,134.399995898438,10|2,2:0|1:2,2:0:0:0:
122,324,113233,1,12,2:0:0:0:
183,123,113384,1,0,2:0:0:0:
260,336,113534,6,0,B|308:360|308:360|388:344,1,134.399995898438,4|0,1:0|2:0,2:0:0:0:
372,100,113836,5,8,2:0:0:0:
320,264,113987,1,8,2:0:0:0:
372,100,114137,1,8,2:0:0:0:
320,264,114288,1,8,2:0:0:0:
276,112,114439,5,8,2:0:0:0:
444,200,114590,1,10,2:0:0:0:
196,272,114740,6,0,B|81:292|130:222|12:243,1,191.998085956581,4|0,2:1|2:0,2:0:0:0:
12,256,115946,6,0,P|64:216|64:132,1,153.6,4|2,1:2|1:2,2:0:0:0:
160,32,116399,2,0,P|156:106|212:154,1,153.6,8|2,2:3|1:2,2:0:0:0:
360,104,116851,2,0,P|328:84|288:84,1,76.8,10|2,2:0|2:0,2:0:0:0:
212,154,117152,5,2,1:2:0:0:
256,296,117303,2,0,L|264:220,1,76.8,8|2,2:3|2:0,2:0:0:0:
180,344,117605,1,8,2:3:0:0:
344,312,117755,2,0,B|420:280|420:340|496:312,1,153.6,2|12,2:0|2:0,2:0:0:0:
484,320,118358,6,0,B|464:264|464:264|508:204|484:136,1,192,4|8,1:0|2:0,2:0:0:0:
456,48,118811,1,0,2:0:0:0:
384,184,118961,2,0,P|344:160|292:160,1,96,0|0,1:0|1:0,2:0:0:0:
167,321,119263,2,0,P|214:320|255:295,1,96,8|0,2:0|2:0,2:0:0:0:
208,48,119564,6,0,B|172:96|172:96|188:228,1,192,2|8,1:2|2:0,2:0:0:0:
88,132,120017,1,0,2:0:0:0:
88,132,120167,2,0,L|100:228,1,96,0|0,1:0|1:0,2:0:0:0:
304,344,120469,2,0,L|316:248,1,96,8|0,2:0|2:0,2:0:0:0:
452,120,120770,6,0,B|352:148|364:92|264:120,1,192,6|8,1:2|2:0,2:0:0:0:
187,227,121223,1,0,2:0:0:0:
99,36,121374,2,0,L|87:132,1,96,0|0,1:0|1:0,2:0:0:0:
198,322,121675,2,0,L|186:226,1,96,8|0,2:0|2:0,2:0:0:0:
15,313,121977,6,0,B|87:305|87:305|115:329|115:329|199:321,1,192,2|12,1:2|2:0,2:0:0:0:
384,288,122429,1,0,2:0:0:0:
304,360,122580,2,0,L|296:308,3,48,8|0|0|0,3:0|2:0|1:0|1:0,2:0:0:0:
240,248,122881,1,0,1:0:0:0:
260,208,122956,1,0,2:0:0:0:
300,188,123032,1,0,1:0:0:0:
344,184,123107,1,0,2:0:0:0:
368,196,123183,6,0,P|368:128|400:72,1,134.399995898438,4|0,1:0|2:0,2:0:0:0:
188,16,123484,2,0,P|220:73|220:140,1,134.399995898438,8|0,2:0|1:0,2:0:0:0:
132,292,123786,2,0,L|0:312,1,134.399995898438,8|0,2:0|1:0,2:0:0:0:
0,72,124087,2,0,L|132:92,1,134.399995898438,8|0,2:0|1:0,2:0:0:0:
264,256,124389,6,0,B|364:216|364:296|460:256,1,201.599993847656,8|0,2:0|2:0,2:0:0:0:
458,256,124690,2,0,L|480:120,1,134.399995898438,8|0,2:0|1:0,2:0:0:0:
376,28,124992,1,8,2:0:0:0:
264,256,125142,1,0,1:0:0:0:
132,92,125293,2,0,P|196:72|260:92,1,134.399995898438,12|0,2:0|2:0,2:0:0:0:
360,344,125595,5,8,1:3:0:0:
132,292,125745,1,8,1:3:0:0:
128,308,126047,5,0,1:2:0:0:
388,228,126198,1,8,1:3:0:0:
392,244,126499,5,8,2:0:0:0:
175,83,126650,2,0,B|115:43|43:55|11:119|11:119|39:147|83:143,1,268.799991796875,4|8,1:0|1:3,2:0:0:0:
244,137,127102,2,0,P|256:72|223:16,1,134.399995898438,0|8,1:0|2:0,2:0:0:0:
40,236,127404,6,0,L|176:224,1,134.399995898438,8|0,2:0|2:0,2:0:0:0:
360,344,127705,2,0,L|224:332,1,134.399995898438,12|0,2:0|2:0,2:0:0:0:
208,144,128007,5,0,1:0:0:0:
212,128,128082,1,0,2:0:0:0:
216,112,128157,1,0,2:0:0:0:
220,100,128233,1,0,2:0:0:0:
224,84,128308,1,0,2:0:0:0:
308,148,128459,1,8,2:0:0:0:
316,20,128610,6,0,L|376:28,3,57.5999982421876,2|2|2|2,1:2|2:0|2:0|2:0,2:0:0:0:
404,100,128911,2,0,L|464:108,3,57.5999982421876,10|2|2|2,2:0|2:0|2:0|2:0,2:0:0:0:
500,192,129213,5,0,1:2:0:0:
496,208,129288,1,0,2:0:0:0:
492,228,129363,1,0,2:0:0:0:
488,248,129439,1,0,2:0:0:0:
484,272,129514,1,0,2:0:0:0:
460,376,129665,1,8,2:0:0:0:
364,288,129816,6,0,L|352:344,3,57.5999982421876,2|2|2|2,1:2|2:0|2:0|2:0,2:0:0:0:
272,320,130117,2,0,L|260:264,3,57.5999982421876,10|2|2|2,2:0|2:0|2:0|2:0,2:0:0:0:
188,228,130419,5,0,1:2:0:0:
168,232,130494,1,0,2:0:0:0:
148,236,130570,1,0,2:0:0:0:
124,240,130645,1,0,2:0:0:0:
104,244,130720,1,0,2:0:0:0:
32,180,130871,1,8,2:0:0:0:
80,28,131022,6,0,L|68:84,1,57.5999982421876,2|2,1:2|2:0,2:0:0:0:
148,236,131173,2,0,L|136:180,1,57.5999982421876,2|2,2:0|2:0,2:0:0:0:
172,96,131323,5,10,2:0:0:0:
192,92,131398,1,2,2:0:0:0:
212,88,131474,1,2,2:0:0:0:
236,84,131549,1,2,2:0:0:0:
256,104,131625,6,0,L|268:48,3,57.5999982421876,0|0|0|0,1:2|2:0|2:0|2:0,2:0:0:0:
336,8,131926,2,0,L|348:64,3,57.5999982421876,0|0|8|0,2:0|2:0|2:0|2:0,2:0:0:0:
448,108,132228,5,8,1:3:0:0:
424,116,132303,1,0,2:0:0:0:
408,132,132379,1,0,2:0:0:0:
400,156,132454,1,0,2:0:0:0:
408,180,132529,2,0,P|408:212|396:236,3,57.5999982421876,8|0|8|0,2:0|2:0|2:0|2:0,2:0:0:0:
460,320,132831,6,0,P|433:308|405:308,3,57.5999982421876,4|0|0|0,1:0|2:0|2:0|2:0,2:0:0:0:
336,352,133132,2,0,P|308:352|280:340,3,57.5999982421876,2|2|10|2,2:0|2:0|3:2|2:0,2:0:0:0:
292,260,133434,2,0,P|264:260|236:272,3,57.5999982421876,0|0|0|0,1:0|2:0|2:0|2:0,2:0:0:0:
172,320,133735,2,0,P|144:320|116:308,3,57.5999982421876,10|2|2|2,3:2|2:0|2:0|2:0,2:0:0:0:
160,236,134037,6,0,L|144:172,3,57.5999982421876,2|0|0|0,1:2|2:0|1:0|2:0,2:0:0:0:
204,116,134338,2,0,L|188:52,3,57.5999982421876,2|2|10|2,2:0|2:0|3:2|2:0,2:0:0:0:
300,4,134640,6,0,L|284:68,3,57.5999982421876,0|0|0|0,1:0|2:0|2:0|2:0,2:0:0:0:
320,132,134941,2,0,L|304:196,3,57.5999982421876,10|2|2|2,1:2|2:0|1:2|2:0,2:0:0:0:
312,248,135243,5,2,1:2:0:0:
332,224,135318,1,0,2:0:0:0:
364,216,135394,1,0,1:0:0:0:
400,228,135469,1,0,2:0:0:0:
416,260,135544,2,0,L|476:248,1,57.5999982421876,2|2,2:0|2:0,2:0:0:0:
424,344,135695,2,0,L|364:332,1,57.5999982421876,10|2,3:2|2:0,2:0:0:0:
312,248,135846,5,0,1:0:0:0:
292,272,135921,1,0,2:0:0:0:
260,280,135997,1,0,2:0:0:0:
224,268,136072,1,0,2:0:0:0:
208,236,136147,2,0,L|148:248,1,57.5999982421876,10|2,3:2|2:0,2:0:0:0:
200,152,136298,2,0,L|260:164,1,57.5999982421876,2|2,2:0|2:0,2:0:0:0:
336,120,136449,6,0,L|352:56,3,57.5999982421876,8|0|0|0,1:3|2:0|2:0|2:0,2:0:0:0:
228,12,136750,2,0,L|241:67,3,57.5999982421876,8|0|0|0,1:3|2:0|2:0|2:0,2:0:0:0:
256,163,137052,2,0,L|200:151,3,57.5999982421876,8|2|2|2,1:3|2:0|2:0|2:0,2:0:0:0:
116,80,137353,1,6,2:0:0:0:
75,74,137428,1,2,2:0:0:0:
36,88,137503,1,6,2:0:0:0:
16,124,137579,1,2,2:0:0:0:
12,164,137655,6,0,L|28:280,1,115.199996484375,4|0,1:0|2:0,2:0:0:0:
120,364,137956,1,2,2:0:0:0:
196,264,138107,1,8,2:0:0:0:
196,264,138183,1,0,2:0:0:0:
196,264,138258,2,0,P|256:256|304:280,1,115.199996484375,2|2,2:0|1:2,2:0:0:0:
480,300,138559,1,10,2:0:0:0:
404,368,138710,6,0,L|392:252,1,115.199996484375,2|0,2:0|1:0,2:0:0:0:
456,176,139012,1,0,2:0:0:0:
456,176,139087,1,0,2:0:0:0:
456,176,139162,1,0,2:0:0:0:
428,48,139313,1,10,2:0:0:0:
344,128,139464,2,0,P|288:144|236:124,1,115.199996484375,2|2,1:2|2:0,2:0:0:0:
160,16,139765,1,10,2:0:0:0:
48,120,139916,1,2,2:0:0:0:
60,132,139992,1,0,2:0:0:0:
76,144,140067,6,0,B|120:172|120:232|120:232|56:256|56:332,1,230.39999296875,0|0,1:0|2:0,2:0:0:0:
200,364,140519,1,8,2:0:0:0:
200,364,140595,1,0,2:0:0:0:
200,364,140670,2,0,L|212:308,1,57.5999982421876,2|2,1:2|2:0,2:0:0:0:
264,196,140821,2,0,L|276:252,1,57.5999982421876,2|2,2:0|2:0,2:0:0:0:
328,336,140971,1,10,2:0:0:0:
344,340,141047,1,2,2:0:0:0:
360,344,141122,1,2,2:0:0:0:
376,348,141198,1,2,2:0:0:0:
392,352,141273,6,0,B|456:308|456:308|500:228|424:176,1,230.39999296875,2|2,1:2|2:0,2:0:0:0:
408,56,141725,1,8,2:0:0:0:
404,64,141801,1,0,2:0:0:0:
400,72,141876,2,0,B|348:88|348:88|288:68,1,115.199996484375,8|2,1:3|2:0,2:0:0:0:
168,24,142178,1,10,2:0:0:0:
40,104,142328,1,10,2:0:0:0:
40,104,142404,1,2,2:0:0:0:
40,104,142479,6,0,P|116:172|104:292,1,230.39999296875,4|2,1:0|2:0,2:0:0:0:
20,328,142931,1,8,2:0:0:0:
152,192,143082,2,0,P|212:192|256:224,1,115.199996484375,2|2,1:2|2:0,2:0:0:0:
308,340,143384,1,10,2:0:0:0:
456,276,143534,1,2,2:0:0:0:
448,288,143610,1,2,2:0:0:0:
440,300,143685,6,0,B|404:168|484:204|440:76,1,230.39999296875,2|2,1:2|2:0,2:0:0:0:
376,12,144137,1,10,2:0:0:0:
336,136,144288,2,0,P|280:152|224:140,1,115.199996484375,2|2,1:2|2:0,2:0:0:0:
96,24,144590,1,8,2:0:0:0:
152,192,144740,1,2,2:0:0:0:
152,192,144816,1,2,2:0:0:0:
152,192,144891,6,0,B|224:228|228:300|228:300|192:332|192:384,1,230.39999296875,2|2,1:2|2:0,2:0:0:0:
112,304,145343,1,8,2:0:0:0:
284,376,145494,2,0,L|400:360,1,115.199996484375,2|0,1:2|2:0,2:0:0:0:
452,152,145796,2,0,L|336:136,1,115.199996484375,10|2,2:0|2:0,2:0:0:0:
112,60,146097,5,10,2:0:0:0:
120,92,146173,1,8,1:3:0:0:
132,124,146248,1,0,1:0:0:0:
144,156,146323,1,2,1:2:0:0:
152,192,146399,2,0,P|152:252|184:296,1,115.199996484375,4|0,2:0|2:0,2:0:0:0:
364,360,146700,5,2,1:2:0:0:
404,348,146776,1,2,2:0:0:0:
424,308,146851,1,2,2:0:0:0:
412,260,146926,1,2,2:0:0:0:
368,240,147002,2,0,L|304:232,3,57.5999982421876,10|2|2|2,1:2|1:2|1:2|1:2,2:0:0:0:
300,208,147303,6,0,B|352:176|384:116|356:28|284:44|284:88|308:100,1,230.39999296875,4|2,1:0|2:0,2:0:0:0:
404,208,147755,1,10,2:0:0:0:
412,196,147831,1,0,2:0:0:0:
420,180,147906,2,0,P|432:124|420:68,1,115.199996484375,2|0,1:2|2:0,2:0:0:0:
236,144,148208,1,10,2:0:0:0:
216,148,148283,1,0,2:0:0:0:
200,152,148358,1,2,1:2:0:0:
180,156,148434,1,2,1:2:0:0:
136,136,148509,6,0,B|168:172|156:220|156:220|124:256|124:256|108:304|140:344,1,230.39999296875,2|2,1:2|2:0,2:0:0:0:
272,380,148961,1,10,2:0:0:0:
320,304,149112,2,0,L|204:288,1,115.199996484375,2|2,1:2|2:0,2:0:0:0:
288,212,149414,1,10,2:0:0:0:
436,368,149564,1,10,2:0:0:0:
428,356,149640,1,0,2:0:0:0:
420,344,149715,6,0,B|408:288|456:248|456:248|516:216|496:144,1,230.39999296875,2|2,1:2|2:0,2:0:0:0:
388,20,150167,1,8,2:0:0:0:
432,96,150318,2,0,P|376:108|324:84,1,115.199996484375,2|2,1:2|2:0,2:0:0:0:
192,20,150620,1,10,2:0:0:0:
172,24,150695,1,2,2:0:0:0:
152,28,150770,1,2,2:0:0:0:
132,32,150846,1,2,2:0:0:0:
112,36,150921,6,0,B|76:36|52:4|52:4|4:80|52:156,1,230.39999296875,2|2,1:2|1:2,2:0:0:0:
160,340,151374,1,8,2:0:0:0:
84,288,151524,5,8,1:3:0:0:
120,260,151600,1,0,2:0:0:0:
164,252,151675,1,0,2:0:0:0:
208,264,151750,1,0,2:0:0:0:
240,308,151826,2,0,L|296:320,3,57.5999982421876,2|2|2|2,1:2|2:0|2:0|2:0,2:0:0:0:
308,308,152127,6,0,B|296:224|296:224|324:180|324:180|312:88,1,230.39999296875,4|2,1:0|2:0,2:0:0:0:
368,16,152580,1,8,2:0:0:0:
368,16,152655,1,0,2:0:0:0:
368,16,152730,2,0,P|312:32|256:16,1,115.199996484375,2|2,1:2|2:0,2:0:0:0:
77,143,153032,2,0,L|192:132,1,115.199996484375,10|2,2:0|2:0,2:0:0:0:
316,316,153333,6,0,P|212:340|152:248,1,230.39999296875,2|2,1:2|2:0,2:0:0:0:
192,132,153786,1,8,2:0:0:0:
192,132,153861,1,0,2:0:0:0:
192,132,153936,2,0,L|308:112,1,115.199996484375,2|2,1:2|2:0,2:0:0:0:
388,52,154238,1,10,2:0:0:0:
352,204,154389,1,2,2:0:0:0:
176,36,154539,6,0,B|12:12|12:12|60:60,1,230.39999296875,12|10,2:0|2:0,2:0:0:0:
160,204,154992,1,0,1:0:0:0:
289,16,155142,2,0,L|173:36,1,115.199996484375,10|0,2:0|1:0,2:0:0:0:
44,200,155444,2,0,L|160:220,1,115.199996484375,10|0,2:0|1:0,2:0:0:0:
304,356,155745,6,0,B|316:300|316:300|304:244,1,115.199996484375,10|2,1:2|2:0,2:0:0:0:
160,80,156047,2,0,B|148:136|148:136|160:192,1,115.199996484375,10|2,1:2|2:0,2:0:0:0:
368,188,156348,5,10,1:2:0:0:
324,168,156424,1,2,2:0:0:0:
280,168,156499,1,10,2:0:0:0:
244,192,156575,1,2,2:0:0:0:
228,224,156650,1,10,1:2:0:0:
208,252,156725,1,2,2:0:0:0:
172,268,156801,1,10,2:0:0:0:
140,268,156876,1,10,2:0:0:0:
120,260,156951,6,0,P|144:172|40:180,1,228,8|0,2:0|2:0,2:0:0:0:
48,192,159093,6,0,B|124:204|232:172|140:84|256:4|368:24|388:124|352:172|288:184|240:152,1,480,0|2,2:0|2:0,2:0:0:0:
152,28,174093,5,10,2:0:0:0:
368,200,174243,1,10,2:0:0:0:
184,196,174394,5,10,2:0:0:0:
384,108,174544,1,10,2:0:0:0:
428,320,174710,6,0,L|292:304,1,134.399995898438,4|0,1:0|2:0,2:0:0:0:
50,211,175011,2,0,L|186:195,1,134.399995898438,10|0,2:0|1:0,2:0:0:0:
272,100,175313,1,10,2:0:0:0:
208,328,175463,1,0,1:0:0:0:
40,128,175614,2,0,L|176:112,1,134.399995898438,10|2,2:0|1:2,2:0:0:0:
492,196,175916,6,0,P|424:212|372:180,1,134.399995898438,10|0,2:0|1:0,2:0:0:0:
460,0,176217,2,0,L|440:132,1,134.399995898438,10|0,2:0|1:0,2:0:0:0:
294,304,176519,2,0,L|274:172,1,134.399995898438,10|2,2:0|1:2,2:0:0:0:
184,24,176820,1,10,2:0:0:0:
136,8,176895,1,2,2:0:0:0:
84,24,176971,1,2,1:2:0:0:
56,76,177046,1,2,2:0:0:0:
64,128,177122,6,0,L|40:260,1,134.399995898438,8|0,2:0|2:0,2:0:0:0:
168,360,177423,2,0,B|244:344|244:344|288:364|288:364|364:348,1,201.599993847656,10|0,2:0|2:0,2:0:0:0:
444,360,177725,5,10,2:0:0:0:
488,136,177875,1,0,1:0:0:0:
272,100,178026,5,12,2:0:0:0:
468,264,178177,1,0,2:0:0:0:
220,344,178328,5,8,1:3:0:0:
208,312,178403,1,2,1:2:0:0:
212,284,178478,1,2,1:2:0:0:
224,256,178554,1,2,1:2:0:0:
240,232,178629,2,0,P|260:260|264:292,3,67.1999979492188,2|2|2|2,1:2|1:2|1:2|1:2,2:0:0:0:
276,312,178931,6,0,B|344:328|344:328|408:284|380:212,1,201.599993847656,8|0,2:0|2:0,2:0:0:0:
416,136,179232,2,0,P|372:176|300:176,1,134.399995898438,4|0,1:2|2:0,2:0:0:0:
76,25,179534,6,0,P|180:25|224:101,1,201.599993847656,4|0,1:0|2:0,2:0:0:0:
168,233,179835,2,0,P|168:161|212:121,1,134.399995898438,10|0,2:0|1:0,2:0:0:0:
380,213,180137,2,0,L|244:197,1,134.399995898438,10|0,2:0|1:0,2:0:0:0:
147,328,180438,6,0,B|247:288|247:364|343:328,1,201.599993847656,10|2,2:0|2:0,2:0:0:0:
363,340,180740,2,0,P|387:280|379:212,1,134.399995898438,10|0,2:0|2:0,2:0:0:0:
264,64,181041,2,0,L|246:197,1,134.399995898438,10|0,2:0|1:0,2:0:0:0:
72,368,181343,2,0,L|54:235,1,134.399995898438,10|2,2:0|1:2,2:0:0:0:
120,64,181644,1,10,2:0:0:0:
152,92,181720,1,2,2:0:0:0:
188,100,181795,1,2,1:2:0:0:
232,92,181870,1,2,2:0:0:0:
264,64,181946,6,0,B|336:8|424:16|424:16|440:68|412:112,1,268.799991796875,12|0,2:0|1:0,2:0:0:0:
272,244,182398,1,2,1:2:0:0:
328,120,182549,5,2,1:2:0:0:
364,296,182699,1,2,1:2:0:0:
328,120,182850,1,2,1:2:0:0:
240,328,183001,1,2,1:2:0:0:
56,176,183152,5,8,1:3:0:0:
83,137,183227,1,2,2:0:0:0:
132,121,183302,1,2,1:2:0:0:
176,128,183378,1,2,2:0:0:0:
212,156,183453,2,2,L|200:224,1,67.1999979492188,2|2,1:2|2:0,2:0:0:0:
128,324,183604,2,0,L|116:257,1,67.1999979492188,10|2,2:0|2:0,2:0:0:0:
212,156,183755,5,2,1:2:0:0:
240,196,183830,1,2,2:0:0:0:
288,208,183905,1,2,1:2:0:0:
344,196,183981,1,2,1:2:0:0:
380,160,184056,2,0,L|392:92,1,67.1999979492188,2|2,1:2|1:2,2:0:0:0:
468,0,184207,2,0,L|480:68,1,67.1999979492188,2|2,1:2|1:2,2:0:0:0:
500,148,184358,6,0,L|480:280,1,134.399995898438,4|0,1:0|2:0,2:0:0:0:
308,340,184659,2,0,L|288:208,1,134.399995898438,10|0,2:0|1:0,2:0:0:0:
368,32,184961,1,10,2:0:0:0:
284,216,185112,1,0,1:0:0:0:
196,16,185262,2,0,L|176:148,1,134.399995898438,8|0,2:0|1:0,2:0:0:0:
40,328,185564,6,0,P|104:308|164:332,1,134.399995898438,10|0,2:0|2:0,2:0:0:0:
408,220,185865,2,0,P|344:240|284:216,1,134.399995898438,10|0,2:0|1:0,2:0:0:0:
2,135,186167,2,0,P|81:185|176:147,1,201.599993847656,10|0,2:0|2:0,2:0:0:0:
192,112,186468,2,0,L|204:44,1,67.1999979492188,10|2,2:0|2:0,2:0:0:0:
328,8,186619,2,0,L|339:74,1,67.1999979492188,2|2,2:0|2:0,2:0:0:0:
408,220,186770,6,0,P|272:220|193:326,1,256,4|10,1:2|1:2,2:0:0:0:
204,380,187272,1,8,1:2:0:0:
204,380,187373,2,0,L|268:368,2,64,2|2|8,1:2|1:2|1:2,2:0:0:0:
124,352,187674,2,0,L|60:364,2,64,10|10|0,1:2|1:2|1:2,2:0:0:0:
56,281,187976,6,0,B|28:268|28:268|2:239|30:175|77:175,1,144,2|2,1:2|0:0,0:0:0:0:
132,144,188277,1,8,1:3:0:0:
116,108,188353,1,2,2:0:0:0:
92,76,188428,1,2,2:0:0:0:
60,56,188503,1,2,2:0:0:0:
20,56,188579,6,0,P|60:100|140:88,1,144,6|0,1:2|2:0,2:0:0:0:
316,64,188880,6,0,P|214:60|167:151,1,216.000008239746,6|0,1:2|2:0,2:0:0:0:
232,252,189182,6,0,L|368:268,1,134.399995898438,4|0,1:0|2:0,2:0:0:0:
449,48,189483,2,0,L|313:64,1,134.399995898438,10|0,2:0|1:0,2:0:0:0:
148,276,189785,5,10,2:0:0:0:
308,160,189936,1,0,1:0:0:0:
280,332,190086,1,10,2:0:0:0:
166,151,190237,1,0,1:0:0:0:
68,332,190388,6,0,L|64:264,1,67.1999979492188,10|2,2:0|2:0,2:0:0:0:
170,84,190539,2,0,L|166:152,1,67.1999979492188,10|2,2:0|2:0,2:0:0:0:
56,344,190689,6,0,L|52:276,1,67.1999979492188,10|2,2:0|2:0,2:0:0:0:
184,96,190840,2,0,L|180:164,1,67.1999979492188,10|2,2:0|2:0,2:0:0:0:
148,276,190991,6,0,B|200:292|200:292|224:244|280:228|324:256,1,201.599993847656,2|0,1:2|2:0,2:0:0:0:
440,304,191292,2,0,P|380:320|332:272,1,134.399995898438,12|0,1:2|2:0,2:0:0:0:
384,100,191594,6,0,P|340:148|272:148,1,134.399995898438,4|0,1:0|1:0,2:0:0:0:
104,24,191895,2,0,L|92:160,1,134.399995898438,2|8,1:2|2:0,2:0:0:0:
20,300,192197,5,8,1:0:0:0:
60,276,192272,1,8,2:0:0:0:
108,276,192348,1,8,2:0:0:0:
148,308,192423,1,8,2:0:0:0:
172,352,192498,1,8,1:0:0:0:
216,376,192574,1,8,2:0:0:0:
260,368,192649,1,8,2:0:0:0:
292,344,192725,1,8,2:0:0:0:
312,300,192800,6,0,L|320:228,1,67.1999979492188,2|2,1:2|2:0,2:0:0:0:
216,176,192951,2,0,L|223:242,1,67.1999979492188,2|2,1:2|2:0,2:0:0:0:
320,308,193101,6,0,L|328:236,1,67.1999979492188,2|2,1:2|2:0,2:0:0:0:
208,188,193252,2,0,L|215:254,1,67.1999979492188,2|2,1:2|2:0,2:0:0:0:
316,100,193403,5,2,1:2:0:0:
296,104,193478,1,2,2:0:0:0:
276,108,193554,1,2,2:0:0:0:
256,112,193629,1,2,2:0:0:0:
192,92,193704,6,0,B|240:43|240:43|216:175,1,201.599993847656,2|10,1:2|2:0,2:0:0:0:
208,188,194006,6,0,L|72:164,1,134.399995898438,4|0,1:0|2:0,2:0:0:0:
220,336,194307,2,0,L|356:312,1,134.399995898438,8|0,2:0|1:0,2:0:0:0:
204,172,194609,6,0,L|68:148,1,134.399995898438,8|0,2:0|1:0,2:0:0:0:
224,352,194911,2,0,L|360:328,1,134.399995898438,8|0,2:0|1:0,2:0:0:0:
440,132,195212,5,10,2:0:0:0:
376,324,195363,1,2,1:2:0:0:
444,112,195514,1,10,2:0:0:0:
488,292,195664,1,2,1:2:0:0:
336,147,195815,6,0,L|204:171,1,134.399995898438,10|0,2:0|1:2,2:0:0:0:
91,327,196117,2,0,L|223:351,1,134.399995898438,10|0,2:0|1:2,2:0:0:0:
132,104,196418,6,0,P|108:164|124:232,1,134.399995898438,4|0,1:0|2:0,2:0:0:0:
326,273,196720,2,0,P|350:213|334:145,1,134.399995898438,8|0,2:0|1:0,2:0:0:0:
120,104,197021,2,0,P|96:164|112:232,1,134.399995898438,8|0,2:0|1:0,2:0:0:0:
336,272,197323,2,0,P|360:212|344:144,1,134.399995898438,8|0,2:0|1:0,2:0:0:0:
120,104,197624,6,0,L|256:88,1,134.399995898438,4|0,1:0|2:0,2:0:0:0:
456,228,197926,1,10,2:0:0:0:
244,204,198076,1,4,1:3:0:0:
368,72,198227,6,0,L|376:140,3,67.1999979492188,8|8|8|8,1:3|1:3|1:3|1:3,2:0:0:0:
456,228,198529,1,8,1:3:0:0:
408,204,198605,1,8,1:3:0:0:
356,212,198680,1,8,1:3:0:0:
316,248,198755,1,8,1:3:0:0:
308,300,198831,5,4,1:0:0:0:
100,328,198981,1,8,2:0:0:0:
96,344,199282,5,0,1:0:0:0:
100,328,199358,1,0,2:0:0:0:
104,316,199433,2,0,P|128:260|120:204,1,115.199996484375,8|0,2:0|2:0,2:0:0:0:
12,72,199735,1,0,2:0:0:0:
12,72,199810,1,0,2:0:0:0:
12,72,199885,2,0,L|72:68,1,57.5999982421876,8|0,2:0|2:0,2:0:0:0:
136,8,200036,5,2,1:2:0:0:
121,207,200187,2,0,B|81:275|21:259|21:259|9:195|49:159,1,230.39999296875,8|0,2:0|1:0,2:0:0:0:
196,152,200639,2,0,P|216:208|200:264,1,115.199996484375,8|0,2:0|2:0,2:0:0:0:
20,368,200941,2,0,P|100:336|184:352,1,172.799994726563,2|2,2:0|2:0,2:0:0:0:
212,372,201242,5,4,1:2:0:0:
416,296,201393,1,0,1:0:0:0:
202,260,201544,1,0,1:0:0:0:
416,296,201694,1,8,2:0:0:0:
368,176,201845,5,8,2:0:0:0:
332,200,201920,1,8,2:0:0:0:
312,240,201995,1,8,2:0:0:0:
312,280,202071,1,8,2:0:0:0:
328,313,202147,2,0,L|263:303,1,57.5999982421876,8|8,2:0|2:0,2:0:0:0:
116,280,202297,5,4,1:2:0:0:
116,280,203051,5,2,2:3:0:0:
112,248,203127,1,2,2:0:0:0:
108,216,203202,1,2,2:0:0:0:
104,188,203277,1,2,2:0:0:0:
100,160,203353,2,0,L|108:120,6,28.7999991210938,14|2|2|2|2|2|2,2:0|2:0|2:0|2:0|2:0|2:0|2:0,2:0:0:0:
100,112,203654,6,0,P|176:152|252:120,1,172.799994726563,4|0,1:0|2:0,2:0:0:0:
276,8,203956,2,0,P|244:44|244:112,1,115.199996484375,8|0,2:0|2:0,2:0:0:0:
364,224,204257,1,0,1:0:0:0:
328,76,204408,1,0,1:0:0:0:
232,236,204559,2,0,B|288:248|288:248|344:232,1,115.199996484375,8|0,2:0|2:0,2:0:0:0:
216,368,204860,6,0,P|156:324|60:332,1,172.799994726563,0|0,1:0|2:0,2:0:0:0:
128,284,205162,2,0,P|148:232|136:176,1,115.199996484375,8|0,2:0|2:0,2:0:0:0:
8,44,205463,1,0,1:0:0:0:
64,224,205614,1,0,1:0:0:0:
180,80,205765,2,0,L|296:64,1,115.199996484375,8|0,2:0|2:0,2:0:0:0:
500,224,206066,6,0,B|448:248|448:248|412:252|384:216|396:164,1,172.799994726563,2|0,1:3|2:0,2:0:0:0:
404,268,206368,2,0,P|348:288|292:268,1,115.199996484375,8|0,2:0|2:0,2:0:0:0:
188,144,206669,1,0,1:0:0:0:
128,340,206820,1,0,1:0:0:0:
192,128,206971,1,8,2:0:0:0:
248,380,207122,1,0,1:0:0:0:
24,236,207272,6,0,L|84:228,1,57.5999982421876,2|2,1:2|2:0,2:0:0:0:
192,128,207423,2,0,L|252:136,1,57.5999982421876,2|2,2:0|2:0,2:0:0:0:
296,271,207574,2,0,L|416:255,1,115.199996484375,12|0,2:1|2:0,2:0:0:0:
444,80,207875,5,8,1:3:0:0:
410,255,208026,1,2,2:0:0:0:
328,24,208177,1,10,2:0:0:0:
296,271,208328,1,2,1:2:0:0:
252,132,208478,6,0,B|224:100|224:100|176:84|136:100|116:144,1,172.799994726563,4|0,1:2|2:0,2:0:0:0:
81,244,208780,2,0,P|117:200|115:144,1,115.199996484375,12|0,2:0|2:0,2:0:0:0:
8,304,209081,1,0,1:0:0:0:
104,384,209232,1,0,1:0:0:0:
181,286,209383,2,0,L|297:270,1,115.199996484375,8|0,2:0|2:0,2:0:0:0:
504,344,209684,6,0,P|428:368|372:304,1,172.799994726563,2|0,1:3|2:0,2:0:0:0:
452,272,209986,2,0,P|472:224|464:160,1,115.199996484375,8|0,2:0|2:0,2:0:0:0:
344,40,210287,1,0,1:0:0:0:
380,208,210438,1,0,2:0:0:0:
344,28,210589,2,0,L|228:44,1,115.199996484375,10|0,2:3|2:0,2:0:0:0:
44,144,210890,6,0,B|144:136|108:200|208:188,1,172.799994726563,0|0,1:0|2:0,2:0:0:0:
330,115,211192,2,0,P|297:121|275:145,1,67.1999979492188,12|0,2:1|2:0,2:0:0:0:
256,260,211343,2,0,P|272:304|288:316,1,67.1999979492188,0|0,2:0|2:0,2:0:0:0:
440,228,211493,5,8,2:3:0:0:
304,328,211644,1,0,2:3:0:0:
204,188,211795,2,0,L|72:216,1,134.399995898438,8|0,1:3|1:3,2:0:0:0:
24,64,212096,5,10,2:0:0:0:
232,180,212247,1,10,2:0:0:0:
260,96,212549,5,10,2:0:0:0:
72,215,212699,2,0,L|80:283,3,67.1999979492188,10|0|0|0,2:0|2:0|1:2|2:0,2:0:0:0:
24,336,213001,1,14,2:0:0:0:
57,339,213076,1,2,2:0:0:0:
90,343,213151,1,6,2:0:0:0:
124,347,213227,1,2,2:0:0:0:
157,351,213302,5,4,1:0:0:0:
