osu file format v14

[General]
AudioFilename: audio.mp3
AudioLeadIn: 0
PreviewTime: 161236
Countdown: 0
SampleSet: Soft
StackLeniency: 0.5
Mode: 0
LetterboxInBreaks: 0
WidescreenStoryboard: 1

[Editor]
DistanceSpacing: 1.3
BeatDivisor: 8
GridSize: 4
TimelineZoom: 1.850002

[Metadata]
Title:Dramatic Hizakurige
TitleUnicode:ドラマティック膝栗毛
Artist:ShinRa-Bansho
ArtistUnicode:森羅万象
Creator:-Mikan
Version:Hikan's Hard
Source:東方Project
Tags:Journey AtHeoN Athy Shizuku- kazato asa adioni Ducky- Karia lolia RepL4y Lemaire Hikan touhou video game 卯酉東海道 ~ Retrospective 53 minutes あやぽんず* Ayaponzu* ヒロシゲ36号 ~ Neo Super-Express Hiroshige No.36 シンクロ2 Synchro 2 j-rock jrock japanese
BeatmapID:2314264
BeatmapSetID:942284

[Difficulty]
HPDrainRate:5
CircleSize:3.6
OverallDifficulty:5
ApproachRate:7.5
SliderMultiplier:1.2
SliderTickRate:1

[Events]
//Background and Video events
0,0,"OrangeMagicanGirl.png",0,0
//Break Periods
2,92026,95825
2,161236,173236
//Storyboard Layer 0 (Background)
//Storyboard Layer 1 (Fail)
//Storyboard Layer 2 (Pass)
//Storyboard Layer 3 (Foreground)
//Storyboard Layer 4 (Overlay)
//Storyboard Sound Samples

[TimingPoints]
772,301.507537688442,4,2,1,50,1,0
3184,-100,4,2,1,60,0,0
3485,-100,4,2,1,30,0,0
3636,-100,4,2,1,40,0,0
3787,-100,4,2,1,50,0,0
3937,-100,4,2,1,60,0,0
4088,-100,4,2,1,70,0,0
4238,-100,4,2,1,80,0,0
5444,-100,4,2,1,60,0,0
8007,-100,4,2,1,50,0,0
10118,-100,4,2,1,60,0,0
10419,-100,4,2,1,50,0,0
11324,-100,4,2,1,60,0,0
11626,-100,4,2,1,60,0,0
12832,-100,4,2,1,70,0,1
21274,-100,4,2,1,60,0,1
22179,-100,4,2,1,70,0,1
22480,-100,4,2,1,60,0,0
30922,-100,4,2,1,70,0,0
31827,-100,4,2,1,60,0,0
32128,-100,4,2,1,70,0,0
36952,-100,4,2,1,60,0,0
39062,-100,4,2,1,70,0,0
39364,-100,4,2,1,60,0,0
41777,-100,4,2,1,70,0,0
42078,-100,4,2,1,60,0,0
43284,-100,4,2,1,50,0,0
43887,-100,4,2,1,60,0,0
44189,-100,4,2,1,50,0,0
45998,-100,4,2,1,40,0,0
46299,-100,4,2,1,60,0,0
46601,-100,4,2,1,80,0,1
50822,-100,4,2,1,60,0,1
51425,-100,4,2,1,80,0,1
55646,-100,4,2,1,60,0,1
56249,-100,4,2,1,80,0,1
61073,-100,4,2,1,80,0,0
61375,-100,4,2,1,30,0,0
61525,-100,4,2,1,40,0,0
61676,-100,4,2,1,50,0,0
61826,-100,4,2,1,60,0,0
61978,-100,4,2,1,70,0,0
62129,-100,4,2,1,80,0,0
62279,-100,4,2,1,60,0,0
63485,-100,4,2,1,50,0,0
65897,-100,4,2,1,60,0,0
73435,-100,4,2,1,50,0,0
73736,-100,4,2,1,60,0,0
73886,-100,4,2,1,70,0,0
74038,-100,4,2,1,80,0,0
74188,-100,4,2,1,90,0,0
74339,-100,4,2,1,60,0,0
75545,301.507537688442,3,2,1,60,1,0
75545,-133.333333333333,3,2,1,60,0,0
80972,301.507537688442,4,2,1,70,1,0
81575,-100,4,2,1,60,0,0
81876,-100,4,2,1,70,0,0
82178,-100,4,2,1,60,0,0
84288,-100,4,2,1,70,0,0
84590,-100,4,2,1,60,0,0
85494,-100,4,2,1,70,0,0
86700,-100,4,2,1,60,0,0
88509,-100,4,2,1,45,0,0
88961,-100,4,2,1,60,0,0
89112,-100,4,2,1,70,0,0
89262,-100,4,2,1,80,0,0
89414,-100,4,2,1,60,0,0
91826,-100,4,2,1,50,0,0
96951,-100,4,2,1,60,0,0
97856,-100,4,2,1,50,0,0
98760,-100,4,2,1,60,0,0
99062,-100,4,2,1,80,0,1
103283,-100,4,2,1,60,0,1
103886,-100,4,2,1,80,0,1
108107,-100,4,2,1,60,0,1
108710,-100,4,2,1,80,0,1
112478,-100,4,2,1,70,0,1
112630,-100,4,2,1,60,0,1
112780,-100,4,2,1,50,0,1
112931,-100,4,2,1,40,0,1
113534,-100,4,2,1,80,0,0
113836,-100,4,2,1,30,0,0
113986,-100,4,2,1,40,0,0
114137,-100,4,2,1,50,0,0
114287,-100,4,2,1,60,0,0
114439,-100,4,2,1,70,0,0
114590,-100,4,2,1,80,0,0
114740,-100,4,2,1,60,0,0
115946,-100,4,2,1,50,0,0
118057,-100,4,2,1,70,0,0
118358,-100,4,2,1,60,0,0
123183,-100,4,2,1,70,0,0
126047,-100,4,2,1,70,0,0
126499,-100,4,2,1,70,0,0
127705,-100,4,2,1,80,0,0
128007,-100,4,2,1,60,0,1
128610,-100,4,2,1,70,0,1
128760,-100,4,2,1,60,0,1
128911,-100,4,2,1,50,0,1
129213,-100,4,2,1,60,0,1
129816,-100,4,2,1,70,0,1
129966,-100,4,2,1,60,0,1
130117,-100,4,2,1,50,0,1
130419,-100,4,2,1,60,0,1
131022,-100,4,2,1,80,0,1
131172,-100,4,2,1,70,0,1
131323,-100,4,2,1,60,0,1
131473,-100,4,2,1,50,0,1
131625,-100,4,2,1,40,0,1
132228,-100,4,2,1,60,0,1
133132,-100,4,2,1,40,0,1
133283,-100,4,2,1,60,0,1
133735,-100,4,2,1,40,0,1
134037,-100,4,2,1,60,0,1
134338,-100,4,2,1,40,0,1
134489,-100,4,2,1,60,0,1
134941,-100,4,2,1,40,0,1
135243,-100,4,2,1,60,0,1
135544,-100,4,2,1,40,0,1
135695,-100,4,2,1,60,0,1
136147,-100,4,2,1,40,0,1
136449,-100,4,2,1,60,0,1
137052,-100,4,2,1,40,0,1
137202,-100,4,2,1,50,0,1
137353,-100,4,2,1,60,0,1
137503,-100,4,2,1,70,0,1
137655,-100,4,2,1,60,0,0
140670,-100,4,2,1,80,0,0
140971,-100,4,2,1,60,0,0
146700,-100,4,2,1,70,0,0
147001,-100,4,2,1,50,0,0
147152,-100,4,2,1,40,0,0
147303,-100,4,2,1,60,0,0
150619,-100,4,2,1,70,0,0
150921,-100,4,2,1,60,0,0
156348,-100,4,2,1,70,0,0
156649,-100,4,2,1,90,0,0
156801,-100,4,2,1,100,0,0
156951,428.571428571429,4,2,1,60,1,0
161236,428.571428571429,4,2,1,60,1,0
174093,301.507537688442,4,2,1,70,1,0
174710,301.507537688442,4,2,1,80,1,1
178629,-100,4,2,1,60,0,1
178931,-100,4,2,1,80,0,1
179232,-100,4,2,1,90,0,1
179534,-100,4,2,1,80,0,1
183755,-100,4,2,1,70,0,1
184358,-100,4,2,1,80,0,1
186317,-100,4,2,1,50,0,1
186468,-100,4,2,1,60,0,1
186770,-100,4,2,1,70,0,0
188277,-100,4,2,1,70,0,0
189182,-100,4,2,1,80,0,0
190991,-100,4,2,1,60,0,0
191594,-100,4,2,1,80,0,0
192196,-100,4,2,1,40,0,0
192348,-100,4,2,1,50,0,0
192498,-100,4,2,1,60,0,0
192648,-100,4,2,1,70,0,0
192800,-100,4,2,1,80,0,0
193403,-100,4,2,1,60,0,0
194006,-100,4,2,1,80,0,1
198377,-100,4,2,1,70,0,1
198529,-100,4,2,1,60,0,1
198679,-100,4,2,1,50,0,1
198830,-100,4,2,1,60,0,1
201242,-100,4,2,1,80,0,1
201694,-100,4,2,1,50,0,1
201845,-100,4,2,1,60,0,1
201995,-100,4,2,1,70,0,1
202147,-100,4,2,1,80,0,1
202297,-100,4,2,1,60,0,0
203051,-100,4,2,4,60,0,0
203353,-100,4,2,1,70,0,0
206066,-100,4,2,2,70,0,0
206368,-100,4,2,1,70,0,0
209684,-100,4,2,2,70,0,0
209986,-100,4,2,1,70,0,0
210589,-100,4,2,2,70,0,0
211192,-100,4,2,1,60,0,0
212096,-100,4,2,1,80,0,0
212246,-100,4,2,1,70,0,0
212398,-100,4,2,1,60,0,0
212548,-100,4,2,1,50,0,0
212699,-100,4,2,1,40,0,0
213001,-100,4,2,1,60,0,0
213302,-100,4,2,1,80,0,0

[Colours]
Combo1 : 226,217,92
Combo2 : 249,164,70
Combo3 : 159,0,0

[HitObjects]
84,42,772,6,0,B|155:81|157:150|113:209|113:209|73:265|73:324|135:366,1,360,4|2,1:0|2:0,2:0:0:0:
199,276,1978,2,0,P|325:282|349:329,1,180,6|8,1:0|2:3,2:0:0:0:
450,372,2731,1,8,2:3:0:0:
512,327,2882,2,0,L|505:265,1,60,8|0,2:3|2:0,2:0:0:0:
491,180,3184,6,0,P|398:174|400:117,1,120,6|8,1:0|2:0,2:0:0:0:
422,92,3636,1,8,2:0:0:0:
422,92,3787,2,0,L|488:98,1,60,8|8,2:0|2:0,2:0:0:0:
371,23,4088,2,0,L|312:29,1,60,8|8,2:0|2:0,2:0:0:0:
264,101,4390,6,0,L|270:167,1,60,6|0,1:2|2:0,2:0:0:0:
189,68,4691,2,0,B|123:53|145:112|54:92,1,120,4|8,1:0|2:3,2:0:0:0:
15,46,5143,1,0,1:0:0:0:
15,46,5219,1,0,1:0:0:0:
15,46,5294,2,0,P|-2:90|2:112,1,60,0|2,1:0|2:3,2:0:0:0:
41,168,5596,5,4,2:3:0:0:
41,168,7405,2,0,L|45:197,3,30,0|0|0|0,2:0|2:0|2:0|2:0,2:0:0:0:
28,232,7706,2,0,L|153:239,1,120,4|6,2:0|1:0,2:0:0:0:
225,334,8761,6,0,L|286:327,1,60,0|0,1:0|2:0,2:0:0:0:
347,280,9063,2,0,L|473:293,2,120,0|0|0,1:0|2:0|1:0,2:0:0:0:
282,235,9817,2,0,L|291:166,1,60,0|0,2:0|1:0,2:0:0:0:
346,121,10118,2,0,L|333:-7,1,120,4|2,1:2|1:0,2:0:0:0:
214,102,10721,1,0,2:0:0:0:
164,41,10872,2,0,L|95:35,2,60,0|0|0,1:0|2:0|1:0,2:0:0:0:
136,114,11324,2,0,L|143:223,1,90,4|0,1:2|2:0,2:0:0:0:
115,232,11626,5,0,1:0:0:0:
56,331,12229,2,0,L|51:283,4,30,8|8|8|8|12,2:3|2:3|2:3|2:3|2:0,2:0:0:0:
208,296,12832,6,0,P|247:300|282:328,1,60,4|0,1:0|2:0,2:0:0:0:
328,355,13133,2,0,P|350:323|392:306,1,60,8|0,2:0|2:0,2:0:0:0:
439,280,13435,2,0,P|422:244|429:199,1,60,0|0,1:0|1:0,2:0:0:0:
500,226,13736,1,8,2:0:0:0:
431,131,14038,6,0,P|392:127|357:99,1,60,0|0,1:0|2:0,2:0:0:0:
311,72,14339,2,0,P|288:103|246:120,1,60,8|0,2:0|2:0,2:0:0:0:
200,147,14641,2,0,P|216:182|209:227,1,60,0|0,1:0|1:0,2:0:0:0:
138,199,14942,1,8,3:2:0:0:
28,332,15244,6,0,P|14:294|22:259,1,60,0|0,1:0|2:0,2:0:0:0:
48,204,15545,2,0,P|62:166|54:131,1,60,8|0,2:0|2:0,2:0:0:0:
80,65,15847,2,0,L|2:74,2,60,0|0|8,1:0|1:0|2:0,2:0:0:0:
151,32,16299,1,0,2:0:0:0:
151,32,16450,6,0,L|286:48,2,120,0|8|0,1:0|2:0|1:0,2:0:0:0:
144,109,17204,1,0,1:0:0:0:
144,109,17354,2,0,L|153:170,1,60,12|0,2:0|2:0,2:0:0:0:
94,221,17656,6,0,P|134:247|166:244,1,60,4|0,1:0|2:0,2:0:0:0:
164,323,17957,2,0,P|206:301|219:272,1,60,8|0,2:0|2:0,2:0:0:0:
287,315,18259,2,0,P|289:267|270:241,1,60,0|0,1:0|1:0,2:0:0:0:
221,210,18560,1,8,2:0:0:0:
348,199,18862,6,0,P|308:173|276:176,1,60,0|0,1:0|2:0,2:0:0:0:
278,97,19163,2,0,P|235:118|222:147,1,60,8|0,2:0|1:0,2:0:0:0:
155,105,19465,2,0,P|152:152|171:178,1,60,0|0,1:0|1:0,2:0:0:0:
94,221,19766,2,0,P|134:247|166:244,1,60,8|8,2:0|2:0,2:0:0:0:
215,298,20068,6,0,L|358:287,1,120,4|12,1:2|2:1,2:0:0:0:
484,243,20671,2,0,P|499:292|492:310,2,60,8|8|8,2:3|2:3|2:0,2:0:0:0:
417,202,21123,1,0,1:0:0:0:
455,133,21274,5,8,2:0:0:0:
455,133,21425,2,0,L|449:70,1,60,8|0,2:0|1:0,2:0:0:0:
373,56,21726,1,8,2:0:0:0:
373,56,21877,2,0,L|367:119,1,60,8|0,2:0|1:0,2:0:0:0:
291,137,22179,1,12,2:0:0:0:
291,137,22329,1,0,2:0:0:0:
256,67,22480,6,0,P|218:41|125:64,1,120,4|10,1:0|2:0,2:0:0:0:
67,85,22932,1,0,1:0:0:0:
102,160,23083,2,0,L|111:227,1,60,2|2,2:0|1:2,2:0:0:0:
133,304,23385,2,0,P|86:307|62:283,1,60,10|2,2:0|2:0,2:0:0:0:
190,243,23686,2,0,P|290:252|332:258,1,120,2|10,1:2|2:0,2:0:0:0:
372,301,24138,1,2,1:2:0:0:
381,223,24289,2,0,P|373:115|373:88,2,120,2|10|0,2:0|2:0|1:2,2:0:0:0:
291,350,25194,5,10,2:0:0:0:
234,297,25344,2,0,P|154:284|106:284,1,120,0|2,1:0|1:2,2:0:0:0:
57,336,25797,2,0,P|37:281|42:258,1,60,10|2,2:0|2:0,2:0:0:0:
79,215,26098,2,0,P|87:175|81:145,2,60,2|2|10,1:2|2:0|2:0,2:0:0:0:
115,283,26550,2,0,P|179:275|214:227,1,120,2|2,1:2|1:2,2:0:0:0:
209,155,27003,2,0,P|202:112|200:85,1,60,10|0,2:0|2:0,2:0:0:0:
281,191,27304,6,0,P|335:193|408:202,1,120,0|10,1:0|2:0,2:0:0:0:
457,254,27756,2,0,P|477:186|449:140,1,120,0|2,1:0|1:2,2:0:0:0:
380,123,28209,2,0,P|375:72|374:45,1,60,10|2,2:0|2:0,2:0:0:0:
428,6,28510,2,0,P|467:11|494:17,2,60,2|2|10,1:2|1:2|2:0,2:0:0:0:
303,18,28962,2,0,B|239:17|261:54|188:61,1,120,2|0,1:2|1:0,2:0:0:0:
135,113,29415,2,0,P|115:70|116:49,1,60,10|0,2:0|2:0,2:0:0:0:
211,137,29716,6,0,P|203:207|198:270,1,120,0|10,1:2|2:0,2:0:0:0:
136,303,30168,2,0,P|187:335|253:310,1,120,0|2,1:0|1:2,2:0:0:0:
276,250,30621,2,0,P|281:207|283:170,1,60,10|2,2:0|2:0,2:0:0:0:
253,117,30922,5,6,1:2:0:0:
102,74,31224,1,4,1:0:0:0:
14,204,31525,1,10,2:0:0:0:
111,328,31827,1,2,1:2:0:0:
258,274,32128,6,0,L|250:192,1,60,4|0,1:0|2:0,2:0:0:0:
345,246,32430,2,0,L|337:328,1,60,8|0,2:0|2:0,2:0:0:0:
429,274,32731,2,0,L|421:192,1,60,0|0,1:0|1:0,2:0:0:0:
496,183,33033,1,8,2:0:0:0:
340,168,33334,6,0,L|258:176,1,60,0|0,1:0|2:0,2:0:0:0:
227,87,33636,2,0,L|309:95,1,60,8|0,2:0|2:0,2:0:0:0:
328,7,33937,2,0,L|246:15,1,60,0|0,1:0|1:0,2:0:0:0:
189,17,34239,1,12,2:0:0:0:
59,102,34540,6,0,P|73:140|65:175,1,60,0|0,1:0|2:0,2:0:0:0:
52,234,34842,2,0,P|38:272|46:307,1,60,8|0,2:0|2:0,2:0:0:0:
71,362,35143,2,0,L|-7:371,2,60,0|0|12,1:0|1:0|2:0,2:0:0:0:
118,299,35595,1,0,1:0:0:0:
118,299,35746,6,0,L|253:315,2,120,4|12|8,1:2|2:1|1:3,2:0:0:0:
134,222,36500,1,0,1:0:0:0:
134,222,36651,2,0,L|141:160,1,60,8|0,2:0|2:0,2:0:0:0:
111,89,36952,6,0,P|163:84|217:142,1,120,4|10,1:0|2:0,2:0:0:0:
288,110,37405,2,0,P|292:57|358:14,1,120,0|2,1:0|1:2,2:0:0:0:
409,55,37857,2,0,P|455:62|478:65,1,60,10|2,2:0|2:0,2:0:0:0:
500,134,38158,2,0,P|482:228|476:276,1,120,2|10,1:2|2:0,2:0:0:0:
407,284,38611,1,2,1:2:0:0:
348,232,38761,2,0,P|338:172|326:113,2,120,2|14|0,2:0|2:0|1:0,2:0:0:0:
259,360,39666,5,10,2:0:0:0:
210,299,39816,2,0,P|130:312|82:312,1,120,0|2,1:0|1:2,2:0:0:0:
21,276,40269,2,0,P|11:326|23:359,1,60,10|2,2:0|2:0,2:0:0:0:
90,234,40570,2,0,P|100:184|88:151,2,60,2|2|10,1:2|1:2|2:0,2:0:0:0:
17,190,41023,2,0,P|27:133|95:96,1,120,2|0,1:2|1:0,2:0:0:0:
151,114,41475,2,0,P|159:73|168:50,1,60,10|0,2:0|1:0,2:0:0:0:
242,41,41777,6,0,P|296:74|351:52,1,120,4|10,1:2|2:0,2:0:0:0:
420,33,42229,2,0,P|432:123|437:175,1,120,0|2,1:0|1:2,2:0:0:0:
473,220,42681,2,0,P|432:232|396:218,1,60,14|2,2:0|1:2,2:0:0:0:
350,185,42983,2,0,P|338:144|352:108,2,60,2|2|14,1:2|1:2|2:0,2:0:0:0:
346,263,43435,2,0,B|325:306|324:357|324:357|299:386,1,120,0|0,1:0|1:0,2:0:0:0:
241,320,43887,2,0,P|198:307|172:310,1,60,14|0,2:0|2:0,2:0:0:0:
140,242,44189,6,0,P|121:123|115:99,1,120,4|0,1:0|2:0,2:0:0:0:
91,46,44641,2,0,P|141:42|199:107,1,120,8|8,2:3|2:3,2:0:0:0:
254,37,45093,2,0,P|269:73|259:113,1,60,8|2,2:3|2:0,2:0:0:0:
225,158,45394,5,2,1:2:0:0:
229,162,45998,1,6,1:2:0:0:
229,162,46299,1,6,1:2:0:0:
364,31,46601,6,0,P|380:73|370:114,1,60,4|0,1:0|2:0,2:0:0:0:
407,176,46902,2,0,P|435:141|475:129,1,60,10|0,2:0|1:0,2:0:0:0:
512,67,47204,2,0,P|467:59|437:30,1,60,10|0,2:0|1:0,2:0:0:0:
364,31,47505,1,8,2:0:0:0:
283,164,47807,6,0,P|311:189|326:223,1,60,10|0,2:0|2:0,2:0:0:0:
297,281,48108,2,0,P|260:293|223:289,1,60,10|0,2:0|1:0,2:0:0:0:
188,234,48410,2,0,P|195:196|217:166,1,60,10|2,2:0|1:2,2:0:0:0:
233,104,48711,1,10,2:0:0:0:
110,7,49013,6,0,P|54:1|32:2,1,60,10|0,2:0|2:0,2:0:0:0:
23,89,49314,2,0,P|79:83|101:84,1,60,10|0,2:0|2:0,2:0:0:0:
132,143,49616,2,0,P|123:194|121:225,2,60,10|2|10,2:0|1:2|2:0,2:0:0:0:
196,98,50068,1,2,1:2:0:0:
196,98,50219,6,0,P|236:101|263:97,2,60,10|2|10,2:0|2:0|2:0,2:0:0:0:
146,33,50671,1,2,1:2:0:0:
82,83,50822,1,10,2:0:0:0:
88,210,51123,2,0,P|107:260|107:283,1,60,10|0,2:0|1:0,2:0:0:0:
50,320,51425,6,0,P|85:342|118:341,1,60,4|0,1:0|2:0,2:0:0:0:
178,324,51726,2,0,P|214:304|230:275,1,60,10|0,2:0|1:0,2:0:0:0:
264,221,52028,2,0,P|265:179|248:151,1,60,10|0,2:0|1:0,2:0:0:0:
200,110,52329,1,8,2:0:0:0:
31,154,52631,6,0,P|29:195|46:223,1,60,10|0,2:0|2:0,2:0:0:0:
92,267,52932,2,0,P|127:289|160:288,1,60,10|0,2:0|1:0,2:0:0:0:
224,290,53234,2,0,P|260:270|276:241,1,60,10|2,2:0|1:2,2:0:0:0:
288,179,53535,1,10,2:0:0:0:
224,36,53837,6,0,L|288:30,1,60,10|0,2:0|2:0,2:0:0:0:
352,68,54138,2,0,L|416:74,1,60,10|0,2:0|2:0,2:0:0:0:
483,105,54440,2,0,P|490:58|476:31,1,60,10|2,2:0|1:2,2:0:0:0:
418,153,54741,2,0,P|411:200|425:227,1,60,10|2,2:0|1:2,2:0:0:0:
466,270,55043,6,0,L|458:336,2,60,10|2|14,2:0|2:0|2:0,2:0:0:0:
388,281,55495,1,2,2:0:0:0:
388,281,55646,2,0,P|290:269|250:265,1,120,8|8,2:3|2:3,2:0:0:0:
132,190,56249,6,0,L|6:201,2,120,4|8|8,1:0|2:0|2:0,2:0:0:0:
191,333,57153,1,8,2:0:0:0:
300,221,57455,2,0,P|291:170|291:154,1,60,10|2,2:0|1:2,2:0:0:0:
348,109,57756,2,0,P|357:58|357:42,1,60,10|2,2:0|1:2,2:0:0:0:
291,6,58058,2,0,L|165:17,1,120,10|10,2:0|2:0,2:0:0:0:
143,170,58661,6,0,P|176:224|163:290,2,120,10|8|8,2:0|2:0|2:0,2:0:0:0:
20,73,59565,1,8,2:0:0:0:
171,16,59867,2,0,L|236:23,1,60,10|2,2:0|1:2,2:0:0:0:
283,80,60168,2,0,L|348:73,1,60,10|2,2:0|1:2,2:0:0:0:
215,151,60470,2,0,L|280:158,1,60,10|2,2:0|1:2,2:0:0:0:
327,215,60771,2,0,L|392:208,1,60,12|8,2:0|2:0,2:0:0:0:
442,152,61073,6,0,P|464:203|458:229,1,60,4|0,1:0|2:0,2:0:0:0:
482,282,61375,2,0,P|448:326|423:334,1,60,8|8,2:0|2:0,2:0:0:0:
380,372,61676,2,0,P|324:365|305:347,1,60,8|8,2:0|2:0,2:0:0:0:
286,295,61978,1,8,2:0:0:0:
216,329,62129,1,8,2:0:0:0:
180,253,62279,5,8,2:0:0:0:
180,253,63485,5,4,1:0:0:0:
256,192,63636,12,8,65143,2:3:0:0:
118,43,65897,6,0,L|125:85,5,30,0|0|0|0|2|0,3:0|3:0|3:0|3:0|3:2|3:0,2:0:0:0:
149,119,66349,2,0,L|142:161,5,30,8|0|2|0|2|0,3:2|3:0|3:2|3:0|3:2|3:0,2:0:0:0:
128,185,66802,2,0,L|135:227,3,30,10|0|2|0,3:2|3:0|3:2|3:2,2:0:0:0:
162,239,67103,5,10,3:2:0:0:
162,239,67254,2,0,P|247:232|300:306,1,180,2|2,1:2|1:2,2:0:0:0:
446,354,68008,2,0,P|408:343|387:310,1,60,6|0,1:2|2:0,2:0:0:0:
408,251,68309,6,0,L|412:201,5,30,0|0|0|0|2|0,3:0|3:0|3:0|3:0|3:2|3:0,2:0:0:0:
429,169,68761,2,0,L|425:119,5,30,8|0|2|0|2|0,3:2|3:0|3:2|3:0|3:2|3:0,2:0:0:0:
404,105,69214,2,0,L|408:55,3,30,10|0|2|0,3:2|3:0|3:2|3:0,2:0:0:0:
431,25,69515,5,10,3:2:0:0:
431,25,69666,2,0,P|345:85|261:47,1,180,2|2,1:2|1:2,2:0:0:0:
229,2,70269,1,8,2:3:0:0:
229,2,70420,1,8,2:3:0:0:
119,112,70721,6,0,L|131:166,5,30,0|0|0|0|2|0,3:2|3:2|3:2|3:2|3:2|3:2,2:0:0:0:
152,184,71174,2,0,L|140:238,5,30,8|0|2|0|2|0,3:2|3:2|3:2|3:2|3:2|3:2,2:0:0:0:
127,248,71626,2,0,L|139:302,3,30,10|0|2|0,3:2|3:2|3:2|3:2,2:0:0:0:
164,301,71927,5,10,3:2:0:0:
164,301,72078,2,0,P|275:294|304:297,1,120,2|2,1:2|1:2,2:0:0:0:
356,343,72530,1,2,1:2:0:0:
356,343,72832,1,4,1:0:0:0:
356,343,73133,6,0,P|369:304|359:272,1,60,6|0,1:2|2:0,2:0:0:0:
326,207,73435,2,0,P|366:198|388:174,1,60,10|8,2:0|2:0,2:0:0:0:
395,110,73736,2,0,P|367:79|335:71,1,60,8|8,2:0|2:0,2:0:0:0:
298,14,74038,2,0,P|257:22|235:46,1,60,8|8,2:0|2:0,2:0:0:0:
245,111,74339,6,0,P|181:84|166:30,1,120,0|4,1:0|1:2,2:0:0:0:
89,18,74792,1,2,1:2:0:0:
89,18,74942,2,0,B|30:27|13:32|13:32|22:77|20:82,1,120,2|2,1:2|1:2,2:0:0:0:
85,171,75545,6,0,P|72:223|59:278,1,90.0000034332277,4|8,1:0|2:0,2:0:0:0:
63,258,76148,1,8,2:0:0:0:
142,343,76449,6,0,P|185:330|228:317,1,90.0000034332277,0|8,1:0|2:3,2:0:0:0:
228,317,77052,1,8,2:3:0:0:
310,233,77354,6,0,P|353:245|396:258,1,90.0000034332277,0|8,1:0|2:0,2:0:0:0:
396,259,77957,1,8,2:0:0:0:
475,173,78258,6,0,P|468:140|463:123,2,45.0000017166138,0|8|2,1:0|2:3|2:0,2:0:0:0:
512,60,78861,1,10,2:0:0:0:
339,60,79163,6,0,P|306:90|274:122,1,90.0000034332277,2|8,1:2|2:0,2:0:0:0:
273,122,79766,1,8,2:0:0:0:
159,149,80067,6,0,P|136:139|112:132,2,45.0000017166138,0|8|0,1:0|2:3|1:0,2:0:0:0:
71,65,80670,1,8,2:0:0:0:
6,264,80972,6,0,P|44:325|61:383,1,120,12|0,2:1|1:0,2:0:0:0:
133,332,81424,1,12,2:0:0:0:
133,332,81575,2,0,P|187:329|213:334,1,60,8|0,2:0|1:0,2:0:0:0:
249,276,81876,2,0,P|246:222|251:196,1,60,12|0,2:0|2:0,2:0:0:0:
218,143,82178,6,0,P|265:139|290:153,1,60,4|0,1:0|2:0,2:0:0:0:
350,167,82479,2,0,P|403:211|458:197,1,120,10|2,2:0|1:2,2:0:0:0:
503,146,82931,1,2,1:2:0:0:
503,146,83082,2,0,P|494:95|490:73,1,60,10|2,2:0|2:0,2:0:0:0:
441,26,83384,2,0,P|473:8|508:14,2,60,2|0|10,1:2|2:0|2:0,2:0:0:0:
383,78,83836,1,2,2:0:0:0:
383,78,83987,2,0,P|314:80|277:44,1,120,2|14,1:2|2:0,2:0:0:0:
133,104,84590,6,0,P|151:195|158:249,1,120,0|10,1:0|2:0,2:0:0:0:
139,298,85042,1,0,2:0:0:0:
82,242,85193,2,0,P|49:249|15:258,1,60,2|2,1:2|1:2,2:0:0:0:
11,332,85494,2,0,P|54:328|77:309,1,60,10|2,2:0|2:0,2:0:0:0:
127,369,85796,2,0,P|157:338|162:308,1,60,2|2,1:2|2:0,2:0:0:0:
240,323,86097,2,0,P|243:279|228:254,1,60,10|2,2:0|2:0,2:0:0:0:
297,215,86399,2,0,P|290:163|287:136,1,60,2|0,1:2|2:0,2:0:0:0:
253,86,86700,6,0,P|307:78|366:138,2,120,14|4|10,2:0|1:0|2:0,2:0:0:0:
202,145,87454,2,0,P|155:180|97:173,1,120,2|0,2:0|1:0,2:0:0:0:
43,117,87906,2,0,P|48:79|50:35,1,60,10|0,2:0|2:0,2:0:0:0:
24,196,88208,6,0,P|45:281|51:326,1,120,2|10,1:2|2:0,2:0:0:0:
122,340,88660,2,0,B|194:329|174:386|257:368,1,120,2|8,1:2|2:0,2:0:0:0:
236,293,89112,2,0,P|226:246|230:212,1,60,10|8,2:0|2:0,2:0:0:0:
306,333,89414,6,0,P|374:340|442:356,2,120,4|10|2,1:0|2:0|2:0,2:0:0:0:
328,178,90318,1,8,2:0:0:0:
184,240,90620,2,0,P|116:247|48:263,2,120,10|14|6,2:0|2:0|1:2,2:0:0:0:
163,85,91524,1,0,1:0:0:0:
316,55,91826,5,4,1:0:0:0:
218,141,96650,6,0,P|201:207|194:274,1,120,4|2,1:0|1:2,2:0:0:0:
247,322,97102,1,4,2:3:0:0:
247,322,97253,2,0,P|292:316|315:314,1,60,10|10,1:2|1:2,2:0:0:0:
368,266,97554,2,0,P|413:272|436:274,1,60,10|10,1:2|1:2,2:0:0:0:
485,220,97856,5,6,1:2:0:0:
485,220,98760,1,4,2:0:0:0:
347,146,99062,6,0,P|356:96|366:75,1,60,4|0,1:0|2:0,2:0:0:0:
320,20,99363,2,0,P|270:11|249:1,1,60,10|0,2:0|1:0,2:0:0:0:
204,61,99665,2,0,P|195:111|185:132,1,60,10|0,2:0|1:0,2:0:0:0:
231,186,99966,1,8,2:0:0:0:
141,313,100268,6,0,P|91:322|70:332,1,60,10|0,2:0|2:0,2:0:0:0:
15,286,100569,2,0,P|6:236|-4:215,1,60,10|0,2:0|1:0,2:0:0:0:
56,170,100871,2,0,P|106:161|127:151,1,60,10|2,2:0|1:2,2:0:0:0:
181,197,101172,1,10,2:0:0:0:
306,289,101474,6,0,P|356:298|377:308,1,60,10|0,2:0|2:0,2:0:0:0:
417,244,101776,2,0,P|399:196|397:173,1,60,10|0,2:0|2:0,2:0:0:0:
322,171,102077,2,0,P|289:209|270:222,2,60,10|2|10,2:0|1:2|2:0,2:0:0:0:
377,115,102529,1,2,1:2:0:0:
377,115,102680,6,0,P|362:82|354:46,2,60,10|2|10,2:0|2:0|2:0,2:0:0:0:
322,171,103132,1,2,1:2:0:0:
266,115,103283,1,10,2:0:0:0:
410,193,103585,1,10,2:0:0:0:
376,325,103886,6,0,P|330:314|299:315,1,60,4|0,1:0|2:0,2:0:0:0:
266,254,104188,2,0,P|277:208|276:177,1,60,10|0,2:0|1:0,2:0:0:0:
242,329,104489,2,0,P|196:340|165:339,1,60,10|0,2:0|1:0,2:0:0:0:
127,285,104791,1,8,2:0:0:0:
168,134,105092,6,0,P|178:185|181:208,1,60,10|0,2:0|2:0,2:0:0:0:
214,64,105394,2,0,P|265:54|288:51,1,60,10|0,2:0|1:0,2:0:0:0:
150,20,105695,2,0,P|99:10|76:7,1,60,10|2,2:0|1:2,2:0:0:0:
38,67,105997,1,10,2:0:0:0:
118,200,106298,6,0,P|134:224|134:269,1,60,10|0,2:0|2:0,2:0:0:0:
45,224,106600,2,0,P|48:253|64:278,1,60,10|0,2:0|2:0,2:0:0:0:
121,331,106901,2,0,L|203:341,1,60,10|2,2:0|1:2,2:0:0:0:
247,296,107203,2,0,L|329:286,1,60,10|2,2:0|1:2,2:0:0:0:
370,243,107504,6,0,P|385:275|381:307,2,60,8|2|14,1:3|2:0|2:0,2:0:0:0:
312,190,107956,1,2,2:0:0:0:
312,190,108107,2,0,L|319:57,1,120,8|8,2:3|2:3,2:0:0:0:
163,88,108710,6,0,L|169:207,2,120,4|8|8,1:0|2:0|2:0,2:0:0:0:
23,18,109614,1,8,2:0:0:0:
26,174,109916,2,0,L|95:169,1,60,10|2,2:0|1:2,2:0:0:0:
126,256,110218,2,0,L|57:251,1,60,10|2,2:0|1:2,2:0:0:0:
24,352,110519,2,0,L|162:340,1,120,10|10,2:0|2:0,2:0:0:0:
244,222,111122,6,0,P|230:147|261:91,2,120,10|8|8,2:0|2:0|2:0,2:0:0:0:
305,365,112027,1,8,2:0:0:0:
143,341,112328,2,0,L|73:333,1,60,10|2,2:0|1:2,2:0:0:0:
41,267,112630,2,0,L|47:207,1,60,10|2,2:0|1:2,2:0:0:0:
106,156,112931,2,0,P|117:112|107:79,1,60,10|2,2:0|1:2,2:0:0:0:
171,44,113233,2,0,P|215:55|248:45,1,60,12|0,2:0|2:0,2:0:0:0:
298,18,113534,6,0,P|302:42|304:77,1,60,4|0,1:0|2:0,2:0:0:0:
379,53,113836,2,0,P|383:77|385:112,1,60,8|8,2:0|2:0,2:0:0:0:
460,88,114137,2,0,P|464:112|466:147,1,60,8|8,2:0|2:0,2:0:0:0:
492,221,114439,1,8,2:0:0:0:
415,204,114590,1,10,2:0:0:0:
342,262,114740,5,4,2:1:0:0:
342,262,115946,6,0,P|280:254|204:247,1,120,4|2,1:2|1:2,2:0:0:0:
161,297,116399,2,0,P|88:334|49:322,1,120,8|2,2:3|1:2,2:0:0:0:
92,256,116851,2,0,P|84:202|82:181,1,60,10|2,2:0|2:0,2:0:0:0:
13,162,117152,1,2,1:2:0:0:
78,119,117303,2,0,P|143:124|204:135,1,120,8|8,2:3|2:3,2:0:0:0:
264,93,117755,2,0,P|259:57|251:16,1,60,2|0,2:0|1:0,2:0:0:0:
329,140,118057,2,0,P|323:169|319:199,1,60,12|0,2:0|2:0,2:0:0:0:
392,86,118358,6,0,P|443:59|514:77,2,120,4|8|0,1:0|2:0|1:0,2:0:0:0:
329,140,119112,1,0,1:0:0:0:
329,140,119263,2,0,P|296:159|258:159,1,60,8|0,2:0|2:0,2:0:0:0:
198,142,119564,6,0,P|211:24|214:-1,2,120,2|8|0,1:2|2:0|1:0,2:0:0:0:
148,203,120318,1,0,1:0:0:0:
148,203,120469,2,0,P|156:255|158:276,1,60,8|0,2:0|2:0,2:0:0:0:
204,324,120770,6,0,P|161:342|91:304,2,120,6|8|0,1:2|2:0|1:0,2:0:0:0:
265,275,121524,1,0,1:0:0:0:
265,275,121675,2,0,P|314:280|350:291,1,60,8|0,2:0|2:0,2:0:0:0:
385,233,121977,6,0,B|403:243|414:254|414:254|397:354,2,120,2|12|8,1:2|2:0|3:0,2:0:0:0:
312,204,122730,1,0,1:0:0:0:
312,204,122881,2,0,P|305:158|321:133,1,60,0|0,1:0|1:0,2:0:0:0:
377,106,123183,6,0,P|420:112|445:117,1,60,4|0,1:0|2:0,2:0:0:0:
309,51,123484,2,0,P|335:16|352:-2,1,60,8|0,2:0|1:0,2:0:0:0:
227,82,123786,2,0,P|210:41|202:17,1,60,8|0,2:0|1:0,2:0:0:0:
212,168,124087,2,0,P|168:161|143:156,1,60,8|0,2:0|1:0,2:0:0:0:
277,223,124389,6,0,P|250:257|233:276,1,60,8|0,2:0|1:0,2:0:0:0:
192,331,124690,2,0,P|151:313|129:302,1,60,8|0,2:0|1:0,2:0:0:0:
65,275,124992,2,0,P|71:231|76:206,1,60,8|0,2:0|1:0,2:0:0:0:
86,137,125293,2,0,P|129:131|154:130,1,60,12|0,2:0|2:0,2:0:0:0:
212,89,125595,6,0,P|249:93|265:97,5,30,8|0|8|0|0|0,1:3|2:0|1:3|2:0|1:0|2:0,2:0:0:0:
287,117,126047,2,0,P|324:113|340:109,5,30,0|0|8|0|0|0,1:2|2:0|1:3|2:0|2:0|2:0,2:0:0:0:
375,95,126499,1,8,2:0:0:0:
437,151,126650,6,0,P|417:221|410:285,1,120,4|8,1:0|1:3,2:0:0:0:
473,314,127102,2,0,P|441:339|411:342,1,60,0|8,1:0|2:0,2:0:0:0:
383,339,127328,1,8,2:0:0:0:
383,339,127404,1,8,2:0:0:0:
315,198,127705,1,12,2:0:0:0:
206,310,128007,6,0,P|163:277|89:298,1,120,0|0,1:0|2:0,2:0:0:0:
42,235,128459,1,8,2:0:0:0:
42,235,128610,2,0,P|37:182|36:166,1,60,2|2,1:2|2:0,2:0:0:0:
108,146,128911,2,0,P|113:93|114:77,1,60,10|2,2:0|2:0,2:0:0:0:
48,41,129213,6,0,P|91:8|165:29,1,120,0|0,1:2|2:0,2:0:0:0:
203,77,129665,1,8,2:0:0:0:
203,77,129816,2,0,L|271:67,1,60,2|2,1:2|2:0,2:0:0:0:
327,25,130117,2,0,L|395:35,1,60,10|2,2:0|2:0,2:0:0:0:
449,80,130419,6,0,B|424:140|475:139|451:205,1,120,0|0,1:2|2:0,2:0:0:0:
473,273,130871,1,8,2:0:0:0:
473,273,131022,2,0,P|433:275|405:257,1,60,2|2,1:2|2:0,2:0:0:0:
360,211,131323,2,0,P|320:209|292:227,1,60,10|2,2:0|2:0,2:0:0:0:
253,278,131625,6,0,P|258:328|174:297,1,180,0|8,1:2|2:0,2:0:0:0:
195,224,132228,2,0,P|197:188|202:158,1,60,8|0,1:3|2:0,2:0:0:0:
122,157,132529,2,0,P|119:192|115:223,1,60,8|8,2:0|2:0,2:0:0:0:
86,289,132831,6,0,P|40:242|48:177,1,120,4|2,1:0|2:0,2:0:0:0:
38,112,133283,1,10,3:2:0:0:
106,149,133434,2,0,P|144:95|209:92,1,120,0|10,1:0|3:2,2:0:0:0:
346,50,134037,6,0,P|403:62|434:111,1,120,2|2,1:2|2:0,2:0:0:0:
489,166,134489,1,10,3:2:0:0:
413,186,134640,2,0,P|411:244|367:284,1,120,0|10,1:0|1:2,2:0:0:0:
221,338,135243,6,0,P|159:316|101:321,1,120,2|2,1:2|2:0,2:0:0:0:
65,252,135695,1,10,3:2:0:0:
122,199,135846,2,0,P|184:221|242:216,1,120,0|10,1:0|3:2,2:0:0:0:
354,113,136449,6,0,P|350:90|344:65,3,30,8|0|0|0,1:3|2:0|2:0|2:0,2:0:0:0:
321,38,136750,2,0,P|299:29|274:22,3,30,8|0|0|0,1:3|2:0|2:0|2:0,2:0:0:0:
239,29,137052,2,0,P|221:43|202:61,3,30,8|2|2|2,1:3|2:0|2:0|2:0,2:0:0:0:
185,95,137353,2,0,P|189:117|195:143,3,30,6|2|6|2,2:0|2:0|2:0|2:0,2:0:0:0:
218,170,137655,5,4,1:0:0:0:
87,255,137956,2,0,P|95:299|102:339,1,60,2|8,2:0|2:0,2:0:0:0:
164,355,138258,2,0,P|219:333|283:340,1,120,2|10,2:0|2:0,2:0:0:0:
355,351,138710,2,0,P|410:373|474:366,1,120,2|0,2:0|2:0,2:0:0:0:
502,296,139162,2,0,P|507:266|512:236,1,60,0|10,2:0|2:0,2:0:0:0:
506,158,139464,2,0,P|462:170|445:201,1,60,2|2,1:2|2:0,2:0:0:0:
392,130,139765,2,0,P|403:85|385:55,1,60,10|2,2:0|2:0,2:0:0:0:
336,26,140067,6,0,P|252:33|192:42,1,120,0|0,1:0|2:0,2:0:0:0:
150,78,140519,1,8,2:0:0:0:
150,78,140670,2,0,P|157:162|166:222,1,120,2|10,1:2|2:0,2:0:0:0:
40,291,141273,2,0,P|97:278|146:310,1,120,2|2,1:2|2:0,2:0:0:0:
214,355,141725,1,8,2:0:0:0:
214,355,141876,2,0,P|263:323|320:335,1,120,8|10,1:3|2:0,2:0:0:0:
472,369,142479,6,0,P|461:273|458:228,1,120,4|2,1:0|2:0,2:0:0:0:
495,180,142931,1,8,2:0:0:0:
495,180,143082,2,0,P|506:84|509:39,1,120,2|10,1:2|2:0,2:0:0:0:
441,18,143534,2,0,B|336:29|387:95|281:100,1,180,2|2,2:0|2:0,2:0:0:0:
243,35,144137,1,10,2:0:0:0:
176,75,144288,2,0,P|187:117|194:153,1,60,2|2,1:2|2:0,2:0:0:0:
141,195,144590,2,0,P|99:206|63:213,1,60,8|2,2:0|2:0,2:0:0:0:
24,156,144891,6,0,P|1:217|41:279,1,120,2|2,1:2|2:0,2:0:0:0:
95,289,145343,1,8,2:0:0:0:
95,289,145494,2,0,P|160:288|204:347,1,120,2|10,1:2|2:0,2:0:0:0:
351,351,146097,2,0,P|396:345|421:345,1,60,10|0,2:0|1:0,2:0:0:0:
437,270,146399,2,0,P|392:264|367:264,1,60,4|0,2:0|2:0,2:0:0:0:
298,179,146700,2,0,P|364:181|403:128,1,120,2|10,1:2|1:2,2:0:0:0:
387,67,147152,1,2,1:2:0:0:
387,67,147303,5,4,1:0:0:0:
230,64,147605,2,0,P|188:71|161:76,1,60,2|10,2:0|2:0,2:0:0:0:
110,24,147906,2,0,P|88:75|130:140,1,120,2|10,1:2|2:0,2:0:0:0:
188,153,148358,2,0,P|210:204|168:269,1,120,2|0,1:2|2:0,2:0:0:0:
109,234,148811,2,0,P|59:213|27:206,1,60,2|10,2:0|2:0,2:0:0:0:
2,272,149112,2,0,P|8:324|18:356,1,60,2|2,1:2|2:0,2:0:0:0:
85,352,149414,2,0,P|127:319|149:295,1,60,10|10,2:0|2:0,2:0:0:0:
183,259,149715,6,0,P|255:298|311:276,1,120,2|2,1:2|2:0,2:0:0:0:
350,242,150167,1,8,2:0:0:0:
350,242,150318,2,0,P|408:245|455:210,1,120,2|10,1:2|2:0,2:0:0:0:
400,42,150921,2,0,P|388:112|381:174,1,120,2|2,1:2|1:2,2:0:0:0:
306,127,151374,1,8,2:0:0:0:
306,127,151524,2,0,P|236:115|174:108,1,120,8|2,1:3|1:2,2:0:0:0:
45,43,152127,6,0,P|23:98|54:169,1,120,4|2,1:0|2:0,2:0:0:0:
112,183,152580,1,8,2:0:0:0:
112,183,152730,2,0,P|127:298|130:324,1,120,2|10,1:2|2:0,2:0:0:0:
84,367,153183,2,0,P|175:308|255:337,1,180,2|2,2:0|2:0,2:0:0:0:
308,370,153786,1,8,2:0:0:0:
308,370,153936,2,0,P|317:315|315:290,1,60,2|2,1:2|2:0,2:0:0:0:
393,272,154238,2,0,P|394:301|401:331,1,60,10|2,2:0|2:0,2:0:0:0:
469,238,154539,6,0,P|431:197|348:203,1,120,12|10,2:0|2:0,2:0:0:0:
372,112,154992,1,0,1:0:0:0:
372,112,155142,2,0,P|426:99|462:24,1,120,10|10,2:0|2:0,2:0:0:0:
308,15,155745,6,0,P|253:20|225:30,1,60,10|2,1:2|2:0,2:0:0:0:
210,90,156047,2,0,P|155:85|127:75,1,60,10|2,1:2|2:0,2:0:0:0:
96,27,156348,2,0,P|71:60|92:139,1,120,10|10,1:2|1:2,2:0:0:0:
156,166,156801,1,10,2:0:0:0:
131,257,156952,5,8,2:0:0:0:
289,262,174093,6,0,P|294:298|296:330,2,60,10|10|10,2:0|2:0|2:0,2:0:0:0:
341,204,174545,1,10,2:0:0:0:
341,204,174710,6,0,P|426:216|471:228,2,120,4|10|10,1:0|2:0|2:0,2:0:0:0:
211,116,175614,1,10,2:0:0:0:
201,271,175916,2,0,P|148:338|115:371,2,120,10|10|10,2:0|2:0|2:0,2:0:0:0:
65,194,176820,1,10,2:0:0:0:
152,64,177122,6,0,P|144:21|135:-2,1,60,8|0,2:0|2:0,2:0:0:0:
226,101,177423,2,0,P|254:91|284:87,1,60,10|0,2:0|1:0,2:0:0:0:
352,126,177725,2,0,P|362:80|355:59,2,60,10|0|12,2:0|1:0|2:0,2:0:0:0:
305,188,178177,1,0,2:0:0:0:
305,188,178328,2,0,P|286:240|315:308,2,120,8|2|8,1:3|1:2|2:0,2:0:0:0:
420,299,179232,1,4,1:2:0:0:
260,366,179534,6,0,P|214:358|190:360,1,60,4|0,1:0|2:0,2:0:0:0:
172,284,179835,2,0,P|180:238|178:214,1,60,10|0,2:0|1:0,2:0:0:0:
132,161,180137,2,0,P|102:160|72:153,1,60,10|0,2:0|1:0,2:0:0:0:
36,84,180438,1,10,2:0:0:0:
176,15,180740,6,0,P|185:60|189:100,1,60,10|0,2:0|2:0,2:0:0:0:
253,115,181041,2,0,P|298:106|338:102,1,60,10|0,2:0|1:0,2:0:0:0:
375,150,181343,2,0,P|384:195|388:235,1,60,10|2,2:0|1:2,2:0:0:0:
461,190,181644,1,10,2:0:0:0:
401,334,181946,6,0,P|347:299|283:307,1,120,12|0,2:0|1:0,2:0:0:0:
248,238,182398,1,2,1:2:0:0:
248,238,182549,2,0,P|200:255|187:274,1,60,2|2,1:2|1:2,2:0:0:0:
131,215,182850,2,0,P|97:253|96:276,1,60,2|2,1:2|1:2,2:0:0:0:
22,288,183152,6,0,P|36:329|42:337,7,30,8|2|2|2|2|2|10|2,1:3|2:0|1:2|2:0|1:2|2:0|2:0|2:0,2:0:0:0:
56,345,183755,2,0,P|100:348|123:353,1,60,2|2,1:2|1:2,2:0:0:0:
193,357,184056,2,0,P|237:354|260:349,1,60,2|2,1:2|1:2,2:0:0:0:
365,381,184358,6,0,L|370:314,1,60,4|0,1:0|2:0,2:0:0:0:
378,243,184659,2,0,L|383:176,1,60,10|0,2:0|1:0,2:0:0:0:
391,105,184961,2,0,L|396:38,1,60,10|0,2:0|1:0,2:0:0:0:
473,50,185262,1,8,2:0:0:0:
382,183,185564,6,0,L|315:178,1,60,10|0,2:0|2:0,2:0:0:0:
244,170,185865,2,0,L|177:165,1,60,10|0,2:0|1:0,2:0:0:0:
106,157,186167,2,0,L|39:152,1,60,10|2,2:0|1:2,2:0:0:0:
38,230,186468,1,10,2:0:0:0:
143,345,186770,6,0,P|183:320|182:233,1,120,4|2,1:2|1:2,2:0:0:0:
230,100,187373,2,0,P|233:158|280:193,1,120,2|10,1:2|1:2,2:0:0:0:
362,206,187825,1,0,2:0:0:0:
362,206,187976,6,0,P|391:202|410:200,3,30,2|0|0|0,1:2|2:0|2:0|2:0,2:0:0:0:
444,223,188277,2,0,P|458:224|473:227,3,30,8|2|2|2,1:3|2:0|2:0|2:0,2:0:0:0:
508,264,188579,2,0,P|499:315|499:333,1,60,6|0,1:2|2:0,2:0:0:0:
419,366,188880,2,0,P|410:315|410:297,1,60,6|0,1:2|2:0,2:0:0:0:
328,276,189182,5,4,1:0:0:0:
192,352,189483,2,0,P|128:330|63:333,1,120,10|10,2:0|2:0,2:0:0:0:
38,261,189936,1,0,1:0:0:0:
38,261,190086,2,0,P|51:209|52:188,1,60,10|0,2:0|1:0,2:0:0:0:
115,157,190388,2,0,P|110:127|101:98,1,60,10|10,2:0|2:0,2:0:0:0:
156,42,190689,2,0,P|137:18|115:-1,1,60,10|10,2:0|2:0,2:0:0:0:
43,30,190991,1,2,1:2:0:0:
190,123,191292,1,12,1:2:0:0:
344,42,191594,5,4,1:0:0:0:
432,93,191895,2,0,P|399:196|395:232,1,120,2|8,1:2|1:0,2:0:0:0:
401,289,192348,1,8,2:0:0:0:
401,289,192498,2,0,P|451:269|464:245,1,60,8|8,1:0|2:0,2:0:0:0:
325,320,192800,2,0,P|317:373|331:396,1,60,2|2,1:2|1:2,2:0:0:0:
328,241,193101,2,0,P|285:207|258:208,1,60,2|2,1:2|1:2,2:0:0:0:
206,229,193403,1,2,1:2:0:0:
56,184,193704,1,2,1:2:0:0:
19,31,194006,6,0,P|91:25|145:59,1,120,4|8,1:0|2:0,2:0:0:0:
222,173,194609,2,0,P|228:245|194:299,1,120,8|8,2:0|2:0,2:0:0:0:
51,302,195212,2,0,L|112:295,1,60,10|2,2:0|1:2,2:0:0:0:
156,359,195514,2,0,L|217:366,1,60,10|2,2:0|1:2,2:0:0:0:
285,331,195815,2,0,B|318:334|347:346|347:346|369:327|401:317,1,120,10|10,2:0|2:0,2:0:0:0:
465,178,196418,6,0,P|441:83|407:62,1,120,4|8,1:0|2:0,2:0:0:0:
282,15,197021,2,0,P|187:39|166:73,1,120,8|8,2:0|2:0,2:0:0:0:
134,202,197624,2,0,P|147:265|150:282,1,60,4|0,1:0|2:0,2:0:0:0:
224,271,197926,2,0,P|218:300|211:329,1,60,10|4,2:0|1:3,2:0:0:0:
299,218,198227,2,0,P|312:281|315:298,1,60,8|8,1:3|1:3,2:0:0:0:
389,287,198529,2,0,P|383:316|376:345,1,60,8|8,1:3|1:3,2:0:0:0:
408,203,198830,6,0,P|423:123|434:60,1,120,4|0,1:0|2:0,2:0:0:0:
374,29,199282,1,0,1:0:0:0:
317,82,199433,2,0,P|234:65|182:58,1,120,8|0,2:0|2:0,2:0:0:0:
96,177,200036,2,0,P|145:181|160:196,1,60,2|8,1:2|2:0,2:0:0:0:
226,162,200338,2,0,P|257:199|257:220,1,60,0|0,2:0|1:0,2:0:0:0:
332,285,200639,2,0,P|261:295|228:337,1,120,8|2,2:0|2:0,2:0:0:0:
80,368,201242,6,0,P|83:333|85:317,3,30,4|0|0|0,1:2|2:0|1:0|2:0,2:0:0:0:
114,288,201544,2,0,P|111:253|109:237,3,30,0|0|8|8,1:0|2:0|2:0|2:0,2:0:0:0:
87,206,201845,2,0,P|90:171|92:155,3,30,8|8|8|8,2:0|2:0|2:0|2:0,2:0:0:0:
69,142,202147,1,8,2:0:0:0:
141,113,202297,5,4,1:2:0:0:
141,113,203051,2,0,P|136:93|131:76,3,30,2|2|2|2,2:3|2:0|2:0|2:0,2:0:0:0:
159,31,203353,1,14,2:0:0:0:
313,52,203654,6,0,L|384:62,1,60,4|0,1:0|2:0,2:0:0:0:
449,74,203956,2,0,L|439:145,1,60,8|0,2:0|2:0,2:0:0:0:
427,210,204257,2,0,L|356:200,1,60,0|0,1:0|1:0,2:0:0:0:
290,185,204559,1,8,2:0:0:0:
149,252,204860,6,0,L|141:180,1,60,0|0,1:0|2:0,2:0:0:0:
64,200,205162,2,0,L|-8:208,1,60,8|0,2:0|2:0,2:0:0:0:
12,285,205463,2,0,L|20:357,1,60,0|0,1:0|1:0,2:0:0:0:
96,337,205765,1,8,2:0:0:0:
247,301,206066,6,0,P|287:307|314:325,1,60,2|0,1:3|2:0,2:0:0:0:
374,350,206368,2,0,P|414:344|441:326,1,60,8|0,2:0|2:0,2:0:0:0:
481,275,206669,2,0,L|486:211,2,60,0|0|8,1:0|1:0|2:0,2:0:0:0:
403,259,207122,1,0,1:0:0:0:
403,259,207272,2,0,L|418:124,1,120,2|12,1:2|2:1,2:0:0:0:
298,37,207875,6,0,P|272:59|231:65,1,60,8|2,1:3|2:0,2:0:0:0:
249,144,208177,2,0,P|215:138|184:110,1,60,10|2,2:0|1:2,2:0:0:0:
146,62,208478,6,0,P|150:25|156:-8,1,60,4|0,1:2|2:0,2:0:0:0:
59,41,208780,2,0,P|63:70|66:100,1,60,12|0,2:0|2:0,2:0:0:0:
127,167,209081,2,0,P|122:196|119:226,1,60,0|0,1:0|1:0,2:0:0:0:
60,291,209383,1,8,2:0:0:0:
196,366,209684,6,0,P|166:367|136:372,1,60,2|0,1:3|2:0,2:0:0:0:
191,283,209986,2,0,P|220:287|250:289,1,60,8|0,2:0|2:0,2:0:0:0:
301,348,210287,2,0,P|330:343|360:341,1,60,0|0,1:0|2:0,2:0:0:0:
435,365,210589,1,10,2:3:0:0:
511,234,210890,6,0,P|504:181|496:163,1,60,0|0,1:0|2:0,2:0:0:0:
430,142,211192,2,0,P|437:89|445:71,1,60,12|0,2:1|2:0,2:0:0:0:
431,8,211493,1,8,2:3:0:0:
431,8,211644,2,0,P|473:13|492:30,2,60,0|8|0,2:3|1:3|1:3,2:0:0:0:
360,83,212096,6,0,P|327:97|310:100,3,30,10|2|10|2,2:0|2:0|2:0|2:0,2:0:0:0:
282,116,212398,2,0,P|250:99|236:88,3,30,2|2|10|2,1:2|2:0|2:0|2:0,2:0:0:0:
206,77,212699,2,0,P|197:42|197:24,3,30,10|0|0|0,2:0|2:0|1:2|2:0,2:0:0:0:
221,3,213001,1,12,2:0:0:0:
191,155,213302,5,4,1:0:0:0:
