osu file format v14

[General]
AudioFilename: audio.mp3
AudioLeadIn: 0
PreviewTime: 161236
Countdown: 0
SampleSet: Soft
StackLeniency: 0.4
Mode: 0
LetterboxInBreaks: 0
WidescreenStoryboard: 1

[Editor]
Bookmarks: 5596,12832,20520,22480,32128,36952,46601,62279,65897,75545,82178,91826,99062,114740,128007,137655,156951,174093,194006,203654,213302,221745
DistanceSpacing: 1.3
BeatDivisor: 4
GridSize: 8
TimelineZoom: 1.950002

[Metadata]
Title:Dramatic Hizakurige
TitleUnicode:ドラマティック膝栗毛
Artist:ShinRa-Bansho
ArtistUnicode:森羅万象
Creator:-Mikan
Version:Extreme
Source:東方Project
Tags:Journey AtHeoN Athy Shizuku- kazato asa adioni Ducky- Karia lolia RepL4y Lemaire Hikan touhou video game 卯酉東海道 ~ Retrospective 53 minutes あやぽんず* Ayaponzu* ヒロシゲ36号 ~ Neo Super-Express Hiroshige No.36 シンクロ2 Synchro 2 j-rock jrock japanese
BeatmapID:1967558
BeatmapSetID:942284

[Difficulty]
HPDrainRate:5
CircleSize:4
OverallDifficulty:9
ApproachRate:9.5
SliderMultiplier:1.99
SliderTickRate:1

[Events]
//Background and Video events
0,0,"OrangeMagicanGirl.png",0,0
//Break Periods
//Storyboard Layer 0 (Background)
//Storyboard Layer 1 (Fail)
//Storyboard Layer 2 (Pass)
//Storyboard Layer 3 (Foreground)
//Storyboard Layer 4 (Overlay)
//Storyboard Sound Samples

[TimingPoints]
772,301.507537688442,4,2,1,50,1,0
772,-125,4,2,1,50,0,0
1375,-181.818181818181,4,2,1,50,0,0
1978,-142.857142857143,4,2,1,50,0,0
3184,-142.857142857143,4,2,1,60,0,0
3485,-142.857142857143,4,2,1,30,0,0
3636,-142.857142857143,4,2,1,40,0,0
3787,-142.857142857143,4,2,1,50,0,0
3937,-142.857142857143,4,2,1,60,0,0
4088,-83.3333333333333,4,2,1,70,0,0
4239,-83.3333333333333,4,2,1,80,0,0
4616,-83.3333333333333,4,2,1,5,0,0
4691,-71.4285714285714,4,2,1,80,0,0
4917,-71.4285714285714,4,2,1,5,0,0
4993,-71.4285714285714,4,2,1,80,0,0
5445,-71.4285714285714,4,2,1,60,0,0
7405,-285.714285714284,4,2,1,60,0,0
7706,-83.3333333333333,4,2,1,60,0,0
7932,-83.3333333333333,4,2,1,5,0,0
8008,-133.333333333333,4,2,1,50,0,0
10118,-181.818181818181,4,2,1,60,0,0
10344,-181.818181818181,4,2,1,5,0,0
10420,-133.333333333333,4,2,1,50,0,0
11324,-100,4,2,1,60,0,0
11550,-100,4,2,1,5,0,0
11626,-200,4,2,1,60,0,0
12153,-200,4,2,1,5,0,0
12229,-200,4,2,1,60,0,0
12530,-66.6666666666667,4,2,1,60,0,0
12756,-66.6666666666667,4,2,1,5,0,0
12832,-100,4,2,1,70,0,0
13058,-100,4,2,1,5,0,0
13133,-100,4,2,1,70,0,0
13962,-100,4,2,1,5,0,0
14038,-100,4,2,1,70,0,0
14565,-100,4,2,1,5,0,0
14641,-100,4,2,1,70,0,0
14942,-83.3333333333333,4,2,1,70,0,0
15168,-83.3333333333333,4,2,1,5,0,0
15244,-71.4285714285714,4,2,1,70,0,0
15470,-71.4285714285714,4,2,1,5,0,0
15545,-100,4,2,1,70,0,0
15771,-100,4,2,1,5,0,0
15847,-100,4,2,1,70,0,0
16676,-100,4,2,1,5,0,0
16751,-100,4,2,1,70,0,0
17354,-250,4,2,1,70,0,0
17580,-250,4,2,1,5,0,0
17656,-80,4,2,1,70,0,0
17882,-80,4,2,1,5,0,0
17957,-100,4,2,1,70,0,0
18560,-83.3333333333333,4,2,1,70,0,0
18786,-83.3333333333333,4,2,1,5,0,0
18862,-100,4,2,1,70,0,0
19766,-71.4285714285714,4,2,1,70,0,0
19992,-71.4285714285714,4,2,1,5,0,0
20068,-62.5,4,2,1,70,0,0
20294,-62.5,4,2,1,5,0,0
20369,-83.3333333333333,4,2,1,70,0,0
21274,-100,4,2,1,60,0,0
21425,-250,4,2,1,60,0,0
21651,-250,4,2,1,5,0,0
21726,-100,4,2,1,60,0,0
21877,-142.857142857143,4,2,1,60,0,0
22103,-142.857142857143,4,2,1,5,0,0
22179,-57.1428571428571,4,2,1,70,0,0
22405,-57.1428571428571,4,2,1,5,0,0
22480,-57.1428571428571,4,2,1,60,0,0
22782,-111.111111111111,4,2,1,60,0,0
24591,-181.818181818181,4,2,1,60,0,0
24817,-181.818181818181,4,2,1,5,0,0
24892,-181.818181818181,4,2,1,60,0,0
25194,-111.111111111111,4,2,1,60,0,0
25420,-111.111111111111,4,2,1,5,0,0
25495,-111.111111111111,4,2,1,60,0,0
27003,-166.666666666666,4,2,1,60,0,0
27229,-166.666666666666,4,2,1,5,0,0
27304,-166.666666666666,4,2,1,60,0,0
27606,-100,4,2,1,60,0,0
27832,-100,4,2,1,5,0,0
27907,-100,4,2,1,60,0,0
29641,-100,4,2,1,5,0,0
29716,-100,4,2,1,60,0,0
30244,-100,4,2,1,5,0,0
30319,-100,4,2,1,60,0,0
30922,-66.6666666666667,4,2,1,70,0,0
31148,-66.6666666666667,4,2,1,5,0,0
31224,-66.6666666666667,4,2,1,70,0,0
31450,-66.6666666666667,4,2,1,5,0,0
31525,-66.6666666666667,4,2,1,70,0,0
31827,-66.6666666666667,4,2,1,60,0,0
32128,-80,4,2,1,70,0,0
32354,-80,4,2,1,5,0,0
32430,-80,4,2,1,70,0,0
33259,-80,4,2,1,5,0,0
33334,-80,4,2,1,70,0,0
33560,-80,4,2,1,5,0,0
33636,-80,4,2,1,70,0,0
34465,-80,4,2,1,5,0,0
34540,-71.4285714285714,4,2,1,70,0,0
34766,-71.4285714285714,4,2,1,5,0,0
34842,-80,4,2,1,70,0,0
35068,-80,4,2,1,5,0,0
35143,-80,4,2,1,70,0,0
36274,-80,4,2,1,5,0,0
36349,-80,4,2,1,70,0,0
36651,-133.333333333333,4,2,1,70,0,0
36877,-133.333333333333,4,2,1,5,0,0
36952,-133.333333333333,4,2,1,60,0,0
37254,-111.111111111111,4,2,1,60,0,0
37480,-111.111111111111,4,2,1,5,0,0
37555,-111.111111111111,4,2,1,60,0,0
38987,-111.111111111111,4,2,1,5,0,0
39063,-100,4,2,1,70,0,0
39289,-100,4,2,1,5,0,0
39364,-100,4,2,1,60,0,0
39666,-111.111111111111,4,2,1,60,0,0
39892,-111.111111111111,4,2,1,5,0,0
39967,-111.111111111111,4,2,1,60,0,0
41174,-90.9090909090908,4,2,1,60,0,0
41400,-90.9090909090908,4,2,1,5,0,0
41475,-83.3333333333333,4,2,1,60,0,0
41701,-83.3333333333333,4,2,1,5,0,0
41777,-83.3333333333333,4,2,1,70,0,0
42078,-111.111111111111,4,2,1,60,0,0
42304,-111.111111111111,4,2,1,5,0,0
42380,-111.111111111111,4,2,1,60,0,0
43284,-111.111111111111,4,2,1,50,0,0
43887,-90.9090909090908,4,2,1,60,0,0
44113,-90.9090909090908,4,2,1,5,0,0
44189,-153.846153846153,4,2,1,50,0,0
44565,-153.846153846153,4,2,1,5,0,0
44641,-111.111111111111,4,2,1,50,0,0
45696,-111.111111111111,4,2,1,40,0,0
46299,-66.6666666666667,4,2,1,60,0,0
46525,-66.6666666666667,4,2,1,5,0,0
46601,-66.6666666666667,4,2,1,80,0,1
47204,-80,4,2,1,80,0,1
49239,-80,4,2,1,5,0,1
49314,-80,4,2,1,80,0,1
50822,-80,4,2,1,60,0,1
51123,-62.5,4,2,1,60,0,1
51349,-62.5,4,2,1,5,0,1
51425,-62.5,4,2,1,80,0,1
52028,-80,4,2,1,80,0,1
53686,-66.6666666666667,4,2,1,80,0,1
53837,-71.4285714285714,4,2,1,80,0,1
54063,-71.4285714285714,4,2,1,5,0,1
54138,-71.4285714285714,4,2,1,80,0,1
54364,-71.4285714285714,4,2,1,5,0,1
54440,-80,4,2,1,80,0,1
54741,-100,4,2,1,80,0,1
55646,-80,4,2,1,60,0,1
55947,-111.111111111111,4,2,1,60,0,1
56173,-111.111111111111,4,2,1,5,0,1
56249,-111.111111111111,4,2,1,80,0,1
58058,-90.9090909090909,4,2,1,80,0,1
60771,-200,4,2,1,80,0,1
60997,-200,4,2,1,5,0,1
61073,-200,4,2,1,80,0,1
61375,-200,4,2,1,30,0,1
61525,-200,4,2,1,40,0,1
61676,-200,4,2,1,50,0,1
61827,-200,4,2,1,60,0,1
61978,-200,4,2,1,70,0,1
62128,-200,4,2,1,80,0,1
62279,-200,4,2,1,60,0,0
63485,-285.714285714284,4,2,1,50,0,0
65596,-66.6666666666667,4,2,1,50,0,0
65822,-66.6666666666667,4,2,1,5,0,0
65897,-66.6666666666667,4,2,1,60,0,0
66349,-100,4,2,1,60,0,0
67706,-133.333333333333,4,2,1,60,0,0
68008,-66.6666666666667,4,2,1,60,0,0
68234,-66.6666666666667,4,2,1,5,0,0
68309,-66.6666666666667,4,2,1,60,0,0
68761,-100,4,2,1,60,0,0
69666,-133.333333333333,4,2,1,60,0,0
70721,-100,4,2,1,60,0,0
72756,-100,4,2,1,5,0,0
72832,-66.6666666666667,4,2,1,60,0,0
73058,-66.6666666666667,4,2,1,5,0,0
73133,-500,4,2,1,60,0,0
73660,-500,4,2,1,5,0,0
73736,-500,4,2,1,60,0,0
73887,-500,4,2,1,70,0,0
74038,-500,4,2,1,80,0,0
74189,-500,4,2,1,90,0,0
74339,-80,4,2,1,60,0,0
74565,-80,4,2,1,5,0,0
74641,-100,4,2,1,60,0,0
75244,-133.333333333333,4,2,1,60,0,0
75545,301.507537688442,3,2,1,60,1,0
75771,-100,3,2,1,5,0,0
75846,-100,3,2,1,60,0,0
76072,-100,3,2,1,5,0,0
76148,-100,3,2,1,60,0,0
77881,-100,3,2,1,5,0,0
77957,-100,3,2,1,60,0,0
78183,-100,3,2,1,5,0,0
78258,-100,3,2,1,60,0,0
79690,-100,3,2,1,5,0,0
79766,-100,3,2,1,60,0,0
79992,-100,3,2,1,5,0,0
80067,-100,3,2,1,60,0,0
80670,-80,3,2,1,60,0,0
80896,-80,3,2,1,5,0,0
80972,301.507537688442,4,2,1,70,1,0
81575,-100,4,2,1,60,0,0
81876,-66.6666666666667,4,2,1,70,0,0
82102,-66.6666666666667,4,2,1,5,0,0
82178,-66.6666666666667,4,2,1,60,0,0
82479,-111.111111111111,4,2,1,60,0,0
82705,-111.111111111111,4,2,1,5,0,0
82781,-111.111111111111,4,2,1,60,0,0
84288,-111.111111111111,4,2,1,70,0,0
84514,-111.111111111111,4,2,1,5,0,0
84590,-111.111111111111,4,2,1,60,0,0
84891,-90.9090909090909,4,2,1,60,0,0
85117,-90.9090909090909,4,2,1,5,0,0
85193,-90.9090909090909,4,2,1,60,0,0
85494,-90.9090909090909,4,2,1,70,0,0
86700,-80,4,2,1,60,0,0
86926,-80,4,2,1,5,0,0
87002,-133.333333333333,4,2,1,60,0,0
87228,-133.333333333333,4,2,1,5,0,0
87303,-133.333333333333,4,2,1,60,0,0
88132,-133.333333333333,4,2,1,5,0,0
88208,-111.111111111111,4,2,1,60,0,0
88509,-111.111111111111,4,2,1,45,0,0
88735,-111.111111111111,4,2,1,5,0,0
88811,-111.111111111111,4,2,1,50,0,0
88961,-111.111111111111,4,2,1,60,0,0
89112,-111.111111111111,4,2,1,70,0,0
89263,-111.111111111111,4,2,1,80,0,0
89414,-133.333333333333,4,2,1,60,0,0
90620,-100,4,2,1,60,0,0
91826,-100,4,2,1,50,0,0
92127,-133.333333333333,4,2,1,50,0,0
92353,-133.333333333333,4,2,1,5,0,0
92429,-133.333333333333,4,2,1,50,0,0
93861,-133.333333333333,4,2,1,5,0,0
93936,-133.333333333333,4,2,1,50,0,0
94765,-133.333333333333,4,2,1,5,0,0
94841,-133.333333333333,4,2,1,50,0,0
96273,-133.333333333333,4,2,1,5,0,0
96348,-100,4,2,1,50,0,0
96574,-100,4,2,1,5,0,0
96650,-80,4,2,1,50,0,0
96876,-80,4,2,1,5,0,0
96951,-80,4,2,1,60,0,0
97177,-80,4,2,1,5,0,0
97253,-80,4,2,1,60,0,0
97856,-80,4,2,1,50,0,0
98760,-58.8235294117647,4,2,1,60,0,0
98986,-58.8235294117647,4,2,1,5,0,0
99062,-58.8235294117647,4,2,1,80,0,1
99665,-80,4,2,1,80,0,1
101700,-80,4,2,1,5,0,1
101776,-80,4,2,1,80,0,1
103283,-80,4,2,1,60,0,1
103585,-66.6666666666667,4,2,1,60,0,1
103886,-66.6666666666667,4,2,1,80,0,1
104489,-80,4,2,1,80,0,1
106298,-66.6666666666667,4,2,1,80,0,1
106524,-66.6666666666667,4,2,1,5,0,1
106600,-66.6666666666667,4,2,1,80,0,1
106826,-66.6666666666667,4,2,1,5,0,1
106901,-66.6666666666667,4,2,1,80,0,1
107203,-83.3333333333333,4,2,1,80,0,1
108107,-83.3333333333333,4,2,1,60,0,1
108409,-58.8235294117647,4,2,1,60,0,1
108635,-58.8235294117647,4,2,1,5,0,1
108710,-58.8235294117647,4,2,1,80,0,1
110519,-133.333333333333,4,2,1,80,0,1
112479,-133.333333333333,4,2,1,70,0,1
112630,-133.333333333333,4,2,1,60,0,1
112781,-133.333333333333,4,2,1,50,0,1
112931,-133.333333333333,4,2,1,40,0,1
113534,-133.333333333333,4,2,1,80,0,1
113760,-133.333333333333,4,2,1,5,0,1
113836,-133.333333333333,4,2,1,30,0,1
113987,-133.333333333333,4,2,1,40,0,1
114137,-133.333333333333,4,2,1,50,0,1
114288,-133.333333333333,4,2,1,60,0,1
114439,-133.333333333333,4,2,1,70,0,1
114590,-83.3333333333333,4,2,1,80,0,1
114740,-666.666666666667,4,2,1,60,0,0
115870,-666.666666666667,4,2,1,5,0,0
115946,-111.111111111111,4,2,1,50,0,0
116172,-111.111111111111,4,2,1,5,0,0
116248,-111.111111111111,4,2,1,50,0,0
117981,-111.111111111111,4,2,1,5,0,0
118057,-66.6666666666667,4,2,1,70,0,0
118283,-66.6666666666667,4,2,1,5,0,0
118358,-100,4,2,1,60,0,0
118584,-100,4,2,1,5,0,0
118660,-100,4,2,1,60,0,0
119790,-100,4,2,1,5,0,0
119866,-100,4,2,1,60,0,0
120695,-100,4,2,1,5,0,0
120770,-100,4,2,1,60,0,0
120996,-100,4,2,1,5,0,0
121072,-100,4,2,1,60,0,0
121901,-100,4,2,1,5,0,0
121977,-90.9090909090909,4,2,1,60,0,0
122203,-90.9090909090909,4,2,1,5,0,0
122278,-90.9090909090909,4,2,1,60,0,0
122504,-90.9090909090909,4,2,1,5,0,0
122580,-90.9090909090909,4,2,1,60,0,0
123183,-74.0740740740741,4,2,1,70,0,0
123409,-74.0740740740741,4,2,1,5,0,0
123484,-74.0740740740741,4,2,1,70,0,0
124615,-74.0740740740741,4,2,1,5,0,0
124690,-74.0740740740741,4,2,1,70,0,0
125519,-74.0740740740741,4,2,1,5,0,0
125595,-74.0740740740741,4,2,1,70,0,0
125971,-74.0740740740741,4,2,1,5,0,0
126047,-74.0740740740741,4,2,1,70,0,0
126424,-74.0740740740741,4,2,1,5,0,0
126499,-74.0740740740741,4,2,1,70,0,0
126650,-58.8235294117647,4,2,1,70,0,0
126876,-58.8235294117647,4,2,1,5,0,0
126951,-58.8235294117647,4,2,1,70,0,0
127404,-76.9230769230769,4,2,1,70,0,0
127630,-76.9230769230769,4,2,1,5,0,0
127705,-63.6942675159236,4,2,1,80,0,0
127931,-63.6942675159236,4,2,1,5,0,0
128007,-63.6942675159236,4,2,1,60,0,0
128610,-63.6942675159236,4,2,1,70,0,0
128760,-63.6942675159236,4,2,1,60,0,0
128911,-63.6942675159236,4,2,1,50,0,0
129213,-63.6942675159236,4,2,1,60,0,0
129816,-63.6942675159236,4,2,1,70,0,0
129966,-63.6942675159236,4,2,1,60,0,0
130117,-63.6942675159236,4,2,1,50,0,0
130419,-63.6942675159236,4,2,1,60,0,0
131022,-100,4,2,1,80,0,0
131173,-100,4,2,1,70,0,0
131323,-100,4,2,1,60,0,0
131474,-100,4,2,1,50,0,0
131625,-100,4,2,1,40,0,0
132228,-100,4,2,1,60,0,0
133132,-100,4,2,1,40,0,0
133283,-100,4,2,1,60,0,0
133735,-100,4,2,1,40,0,0
133886,-100,4,2,1,60,0,0
134338,-100,4,2,1,40,0,0
134489,-100,4,2,1,60,0,0
134941,-100,4,2,1,40,0,0
135092,-100,4,2,1,60,0,0
135544,-100,4,2,1,40,0,0
135695,-100,4,2,1,60,0,0
136147,-100,4,2,1,40,0,0
136298,-100,4,2,1,60,0,0
137052,-100,4,2,1,40,0,0
137203,-100,4,2,1,50,0,0
137353,-100,4,2,1,60,0,0
137504,-100,4,2,1,70,0,0
137655,-83.3333333333333,4,2,1,60,0,0
137881,-83.3333333333333,4,2,1,5,0,0
137956,-83.3333333333333,4,2,1,60,0,0
138861,-111.111111111111,4,2,1,60,0,0
140067,-100,4,2,1,60,0,0
140293,-100,4,2,1,5,0,0
140368,-100,4,2,1,60,0,0
140670,-100,4,2,1,80,0,0
140821,-100,4,2,1,70,0,0
140971,-100,4,2,1,60,0,0
141122,-100,4,2,1,50,0,0
141273,-100,4,2,1,60,0,0
142479,-83.3333333333333,4,2,1,60,0,0
142705,-83.3333333333333,4,2,1,5,0,0
142781,-83.3333333333333,4,2,1,60,0,0
143911,-83.3333333333333,4,2,1,5,0,0
143987,-83.3333333333333,4,2,1,60,0,0
146399,-71.4285714285714,4,2,1,60,0,0
146625,-71.4285714285714,4,2,1,5,0,0
146700,-71.4285714285714,4,2,1,70,0,0
146851,-71.4285714285714,4,2,1,60,0,0
147002,-71.4285714285714,4,2,1,50,0,0
147152,-71.4285714285714,4,2,1,40,0,0
147303,-90.9090909090909,4,2,1,60,0,0
149715,-83.3333333333333,4,2,1,60,0,0
149941,-83.3333333333333,4,2,1,5,0,0
150017,-83.3333333333333,4,2,1,60,0,0
150620,-83.3333333333333,4,2,1,70,0,0
150770,-83.3333333333333,4,2,1,80,0,0
150921,-90.9090909090909,4,2,1,60,0,0
152127,-83.3333333333333,4,2,1,60,0,0
152353,-83.3333333333333,4,2,1,5,0,0
152429,-100,4,2,1,60,0,0
154765,-100,4,2,1,5,0,0
154841,-100,4,2,1,60,0,0
156348,-100,4,2,1,70,0,0
156499,-100,4,2,1,80,0,0
156650,-100,4,2,1,90,0,0
156801,-100,4,2,1,100,0,0
156951,428.571428571429,4,2,1,60,1,0
156951,-333.333333333333,4,2,1,60,0,0
161129,-333.333333333333,4,2,1,5,0,0
161236,428.571428571429,4,2,1,40,1,0
171093,-333.333333333333,4,2,1,40,0,0
173236,-1000,4,2,1,40,0,0
173986,-1000,4,2,1,5,0,0
174093,301.507537688442,4,2,1,70,1,1
174710,301.507537688442,4,2,1,80,1,1
174710,-76.9230769230769,4,2,1,80,0,1
178478,-76.9230769230769,4,2,1,70,0,1
178629,-76.9230769230769,4,2,1,60,0,1
178780,-76.9230769230769,4,2,1,50,0,1
178931,-66.6666666666667,4,2,1,80,0,1
179157,-66.6666666666667,4,2,1,5,0,1
179232,-58.8235294117647,4,2,1,90,0,1
179458,-58.8235294117647,4,2,1,5,0,1
179534,-58.8235294117647,4,2,1,80,0,1
180740,-76.9230769230769,4,2,1,80,0,1
182172,-76.9230769230769,4,2,1,5,0,1
182247,-76.9230769230769,4,2,1,80,0,1
183755,-76.9230769230769,4,2,1,70,0,1
184358,-76.9230769230769,4,2,1,80,0,1
186318,-76.9230769230769,4,2,1,50,0,1
186468,-76.9230769230769,4,2,1,60,0,1
186619,-76.9230769230769,4,2,1,70,0,1
186770,-100,4,2,1,70,0,1
187976,-83.3333333333333,4,2,1,70,0,1
188579,-76.9230769230769,4,2,1,70,0,1
188805,-76.9230769230769,4,2,1,5,0,1
188880,-76.9230769230769,4,2,1,70,0,1
189106,-76.9230769230769,4,2,1,5,0,1
189182,-76.9230769230769,4,2,1,80,0,1
190991,-76.9230769230769,4,2,1,60,0,1
191292,-66.6666666666667,4,2,1,60,0,1
191518,-66.6666666666667,4,2,1,5,0,1
191594,-66.6666666666667,4,2,1,80,0,1
192197,-66.6666666666667,4,2,1,40,0,1
192348,-66.6666666666667,4,2,1,50,0,1
192498,-66.6666666666667,4,2,1,60,0,1
192649,-66.6666666666667,4,2,1,70,0,1
192800,-83.3333333333333,4,2,1,80,0,1
193403,-83.3333333333333,4,2,1,60,0,1
193629,-83.3333333333333,4,2,1,5,0,1
193704,-83.3333333333333,4,2,1,60,0,1
194006,-83.3333333333333,4,2,1,80,0,1
195815,-76.9230769230769,4,2,1,80,0,1
198378,-76.9230769230769,4,2,1,70,0,1
198529,-76.9230769230769,4,2,1,60,0,1
198679,-76.9230769230769,4,2,1,50,0,1
198830,-76.9230769230769,4,2,1,60,0,1
198981,-111.111111111111,4,2,1,60,0,1
199207,-111.111111111111,4,2,1,5,0,1
199282,-111.111111111111,4,2,1,60,0,1
200413,-111.111111111111,4,2,1,5,0,1
200488,-111.111111111111,4,2,1,60,0,1
200865,-111.111111111111,4,2,1,5,0,1
200941,-111.111111111111,4,2,1,60,0,1
201242,-111.111111111111,4,2,1,80,0,1
201694,-111.111111111111,4,2,1,50,0,1
201845,-111.111111111111,4,2,1,60,0,1
201996,-111.111111111111,4,2,1,70,0,1
202147,-111.111111111111,4,2,1,80,0,1
202297,-66.6666666666667,4,2,1,60,0,0
202372,-66.6666666666667,4,2,1,5,0,0
203051,-50,4,2,4,60,0,0
203277,-50,4,2,4,5,0,0
203353,-50,4,2,1,70,0,0
203654,-86.9565217391304,4,2,1,70,0,1
204785,-86.9565217391304,4,2,1,5,0,1
204860,-86.9565217391304,4,2,1,70,0,1
205991,-86.9565217391304,4,2,1,5,0,1
206066,-86.9565217391304,4,2,2,70,0,1
206368,-86.9565217391304,4,2,1,70,0,1
206594,-86.9565217391304,4,2,1,5,0,1
206669,-86.9565217391304,4,2,1,70,0,1
207800,-86.9565217391304,4,2,1,60,0,1
207875,-86.9565217391304,4,2,1,70,0,1
209609,-86.9565217391304,4,2,1,5,0,1
209684,-86.9565217391304,4,2,2,70,0,1
209986,-86.9565217391304,4,2,1,70,0,1
210589,-76.9230769230769,4,2,2,70,0,1
210815,-76.9230769230769,4,2,2,5,0,1
210890,-76.9230769230769,4,2,2,70,0,1
211116,-76.9230769230769,4,2,2,5,0,1
211192,-76.9230769230769,4,2,1,60,0,1
212096,-76.9230769230769,4,2,1,80,0,1
212247,-76.9230769230769,4,2,1,70,0,1
212398,-76.9230769230769,4,2,1,60,0,1
212549,-76.9230769230769,4,2,1,50,0,1
212699,-76.9230769230769,4,2,1,40,0,1
213001,-100,4,2,1,60,0,1
213302,-100,4,2,1,80,0,0

[Colours]
Combo1 : 226,217,92
Combo2 : 249,164,70
Combo3 : 159,0,0

[HitObjects]
211,104,772,6,0,B|286:83|345:112|299:142|377:169|444:149,1,238.8,4|0,1:0|2:0,2:0:0:0:
485,68,1375,2,0,P|448:39|392:74,1,109.450003340149,2|2,2:0|2:0,2:0:0:0:
394,78,1827,1,0,2:0:0:0:
260,202,1978,6,0,P|223:231|151:183,1,139.299995748901,6|2,1:0|2:0,2:0:0:0:
119,72,2430,2,0,P|108:113|79:146,1,69.6499978744507,8|2,2:3|2:0,2:0:0:0:
15,207,2731,1,8,2:3:0:0:
121,301,2882,6,0,P|100:274|86:236,1,69.6499978744507,8|0,2:3|2:0,2:0:0:0:
39,75,3184,1,6,1:0:0:0:
38,87,3485,5,8,2:0:0:0:
279,31,3636,1,8,2:0:0:0:
139,292,3787,1,8,2:0:0:0:
127,15,3937,1,8,2:0:0:0:
127,15,4013,1,8,2:0:0:0:
127,15,4088,2,0,P|143:46|152:84,1,59.6999981781006,8|0,2:0|2:0,2:0:0:0:
29,275,4239,1,8,2:0:0:0:
9,244,4314,1,8,2:0:0:0:
14,208,4390,6,0,B|60:174|124:192|83:215|146:235|192:208,1,179.099994534302,6|0,1:2|2:0,2:0:0:0:
324,116,4691,2,0,B|301:91|299:53|299:53|256:217,1,208.949993623352,4|0,1:0|2:0,2:0:0:0:
259,338,4993,2,0,P|252:289|234:249,1,69.6499978744507,8|0,2:3|2:0,2:0:0:0:
398,56,5143,5,0,1:0:0:0:
443,63,5219,1,0,1:0:0:0:
470,100,5294,1,0,1:0:0:0:
480,145,5369,1,0,1:0:0:0:
457,185,5445,2,0,L|368:174,1,69.6499978744507,2|0,2:3|2:0,2:0:0:0:
151,147,5596,5,4,2:3:0:0:
148,123,7405,6,0,L|157:91,3,17.4124994686127,0|0|0|0,2:0|2:0|2:0|2:0,2:0:0:0:
162,141,7706,2,0,B|220:139|220:139|266:173|266:173|333:168,1,179.099994534302,4|0,2:0|2:0,2:0:0:0:
400,115,8008,6,0,P|419:75|421:31,1,74.6250028467179,6|0,1:0|2:0,2:0:0:0:
315,15,8309,2,0,P|296:55|294:99,1,74.6250028467179,0|0,2:0|2:0,2:0:0:0:
434,277,8611,2,0,P|423:226|399:195,1,74.6250028467179,0|0,2:0|1:0,2:0:0:0:
288,247,8912,2,0,P|299:298|323:329,1,74.6250028467179,0|0,2:0|1:0,2:0:0:0:
329,168,9214,5,0,1:0:0:0:
199,269,9364,1,0,2:0:0:0:
169,147,9515,1,0,2:0:0:0:
361,261,9666,1,0,1:0:0:0:
148,346,9817,6,0,L|49:339,1,74.6250028467179,0|0,2:0|1:0,2:0:0:0:
17,226,10118,2,0,L|114:216,1,82.0875025051118,4|0,1:2|2:0,2:0:0:0:
169,147,10420,6,0,P|177:103|167:52,1,74.6250028467179,2|0,1:0|2:0,2:0:0:0:
338,180,10721,2,0,P|282:197|261:223,1,74.6250028467179,0|0,2:0|1:0,2:0:0:0:
276,15,11023,2,0,P|302:41|337:52,1,74.6250028467179,0|0,2:0|1:0,2:0:0:0:
496,40,11324,6,0,P|485:109|481:228,1,149.25,4|0,1:2|2:0,2:0:0:0:
512,273,11626,6,0,B|476:291|410:270|460:262|402:228|332:262,1,174.125,0|0,1:0|2:0,2:0:0:0:
189,322,12229,5,8,2:3:0:0:
227,322,12304,1,8,2:3:0:0:
259,297,12380,1,8,2:3:0:0:
273,261,12455,1,8,2:3:0:0:
231,155,12530,6,0,B|200:141|177:101|177:101|195:184|201:259,1,223.875008540154,12|0,2:0|2:0,2:0:0:0:
311,192,12832,6,0,P|321:118|359:42,1,149.25,4|0,1:0|2:0,2:0:0:0:
270,9,13133,2,0,P|244:48|291:94,1,99.5,8|0,2:0|2:0,2:0:0:0:
440,112,13435,1,0,1:0:0:0:
231,155,13586,1,0,1:0:0:0:
482,31,13736,2,0,P|510:107|446:131,1,149.25,8|0,2:0|2:0,2:0:0:0:
393,282,14038,6,0,P|409:229|470:223,1,99.5,0|0,1:0|2:0,2:0:0:0:
478,340,14339,2,0,P|392:327|300:324,1,149.25,8|0,2:0|2:0,2:0:0:0:
213,358,14641,5,0,1:0:0:0:
268,89,14792,1,0,1:0:0:0:
74,237,14942,2,0,B|128:210|188:238|130:253|214:286|269:244,1,179.099994534302,8|0,3:2|2:0,2:0:0:0:
367,157,15244,6,0,P|299:106|220:193,1,208.949993623352,0|0,1:0|2:0,2:0:0:0:
111,315,15545,2,0,P|99:252|65:155,1,149.25,8|0,2:0|2:0,2:0:0:0:
107,100,15847,5,0,1:0:0:0:
294,184,15998,2,0,P|283:226|281:248,1,49.75,0|0,1:0|2:0,2:0:0:0:
196,23,16148,1,8,2:0:0:0:
195,281,16299,1,0,2:0:0:0:
492,44,16450,6,0,P|386:37|301:25,1,149.25,0|0,1:0|2:0,2:0:0:0:
219,177,16751,1,8,2:0:0:0:
427,216,16902,1,0,2:0:0:0:
196,23,17053,1,0,1:0:0:0:
196,23,17128,1,0,1:0:0:0:
196,23,17204,1,0,1:0:0:0:
44,252,17354,6,0,B|51:278|51:278|59:288|59:288|66:316,1,59.7,12|0,2:0|2:0,2:0:0:0:
83,344,17656,6,0,P|102:258|152:157,1,186.5625,4|0,1:0|2:0,2:0:0:0:
50,74,17957,2,0,P|34:138|82:156,1,99.5,8|0,2:0|2:0,2:0:0:0:
292,108,18259,1,0,1:0:0:0:
150,51,18410,1,0,1:0:0:0:
228,244,18560,2,0,B|295:237|295:237|333:264|333:264|410:254,1,179.099994534302,8|0,2:0|2:0,2:0:0:0:
474,384,18862,6,0,P|413:367|384:317,1,99.5,0|0,1:0|2:0,2:0:0:0:
395,144,19163,2,0,B|411:117|449:111|449:111|430:130|417:163,1,99.5,8|0,2:0|1:0,2:0:0:0:
154,306,19465,6,0,P|143:284|134:244,1,49.75,0|0,1:0|2:0,2:0:0:0:
302,187,19616,2,0,P|320:229|322:261,1,49.75,0|0,1:0|1:0,2:0:0:0:
38,184,19766,2,0,B|93:172|166:199|109:233|177:258|244:240,1,208.949993623352,8|0,2:0|2:0,2:0:0:0:
263,80,20068,6,0,B|220:46|204:15|204:15|237:109|195:204,1,238.8,4|0,1:2|2:0,2:0:0:0:
48,322,20369,2,0,P|36:291|31:245,1,59.6999981781006,12|0,2:1|2:0,2:0:0:0:
136,84,20520,2,0,P|134:127|123:158,1,59.6999981781006,0|0,2:0|2:0,2:0:0:0:
38,184,20671,5,8,2:3:0:0:
320,232,20822,1,8,2:3:0:0:
368,224,20897,1,0,1:0:0:0:
402,186,20973,1,8,2:0:0:0:
154,306,21123,1,0,1:0:0:0:
263,80,21274,6,0,L|277:145,1,49.75,8|0,2:0|2:0,2:0:0:0:
48,322,21425,2,0,L|61:246,1,59.7,8|0,2:0|2:0,2:0:0:0:
136,83,21726,6,0,L|128:141,1,49.75,8|0,2:0|2:0,2:0:0:0:
360,316,21877,2,0,L|339:195,1,104.474996811676,8|0,2:0|2:0,2:0:0:0:
129,132,22179,6,0,B|112:159|74:170|74:170|128:195|191:182|170:164|221:134|284:167,1,261.187502490878,12|0,2:0|2:0,2:0:0:0:
475,284,22480,5,4,1:0:0:0:
475,284,22782,6,0,B|486:280|508:282|508:282|496:259|430:245|390:278,1,134.324995900726,10|0,2:0|2:0,2:0:0:0:
359,316,23083,1,2,2:0:0:0:
414,102,23234,1,2,1:2:0:0:
259,157,23385,2,0,P|308:175|349:175,1,89.549997267151,10|2,2:0|2:0,2:0:0:0:
136,83,23686,6,0,P|91:84|50:101,1,89.549997267151,2|2,1:2|1:0,2:0:0:0:
143,249,23988,1,10,2:0:0:0:
241,64,24138,1,2,1:2:0:0:
111,173,24289,1,2,2:0:0:0:
260,159,24440,1,0,1:0:0:0:
125,3,24591,2,0,B|127:40|127:40|134:51|134:51|136:98,1,82.0875025051118,10|0,2:0|2:0,2:0:0:0:
185,140,24892,5,0,1:2:0:0:
281,351,25194,6,0,B|306:308|289:258|289:258|282:285|247:315,1,134.324995900726,10|0,2:0|2:0,2:0:0:0:
365,343,25495,2,0,B|395:339|395:339|417:352|417:352|460:346,1,89.549997267151,2|2,2:0|1:2,2:0:0:0:
303,186,25797,2,0,B|273:182|273:182|251:195|251:195|208:189,1,89.549997267151,10|2,2:0|2:0,2:0:0:0:
448,125,26098,5,2,1:2:0:0:
403,261,26249,1,2,2:0:0:0:
326,98,26400,1,10,2:0:0:0:
270,290,26550,1,2,1:2:0:0:
256,56,26701,6,0,P|298:22|337:19,1,89.549997267151,2|2,2:0|1:2,2:0:0:0:
460,195,27003,2,0,B|428:204|404:189|419:182|385:173|355:180,1,89.549997267151,10|0,2:0|2:0,2:0:0:0:
302,209,27304,5,0,1:0:0:0:
17,319,27606,6,0,B|122:304|58:353|171:339,1,149.25,10|0,2:0|2:0,2:0:0:0:
225,289,27907,1,2,2:0:0:0:
136,210,28058,1,2,1:2:0:0:
153,353,28209,1,10,2:0:0:0:
221,177,28359,1,2,2:0:0:0:
283,348,28510,6,0,P|334:332|386:347,1,99.5,2|2,1:2|1:2,2:0:0:0:
460,195,28812,1,10,2:0:0:0:
507,271,28962,2,0,P|458:281|412:265,1,99.5,2|2,1:2|2:0,2:0:0:0:
316,151,29264,1,0,1:0:0:0:
380,52,29415,2,0,B|411:18|411:18|392:124,1,149.25,10|0,2:0|2:0,2:0:0:0:
380,200,29716,5,0,1:2:0:0:
63,183,30018,6,0,B|108:150|169:169|169:169|137:175|109:194,1,149.25,10|0,2:0|2:0,2:0:0:0:
101,266,30319,1,2,2:0:0:0:
26,96,30470,1,2,1:2:0:0:
114,63,30621,1,10,2:0:0:0:
35,325,30771,1,2,2:0:0:0:
243,110,30922,6,0,B|285:160|261:243|222:185|192:292|246:327,1,223.875008540154,6|0,1:2|2:0,2:0:0:0:
383,335,31224,2,0,B|416:316|452:308|452:308|370:304|296:272,1,223.875008540154,4|0,1:0|2:0,2:0:0:0:
171,163,31525,5,10,2:0:0:0:
148,114,31601,1,8,2:0:0:0:
162,61,31676,1,8,2:0:0:0:
226,24,31751,1,8,2:0:0:0:
303,43,31827,2,0,B|330:84|422:93|448:44|448:44|414:69|371:53,1,223.875008540154,2|0,1:2|1:0,2:0:0:0:
370,158,32128,6,0,B|359:210|359:210|389:256|389:256|382:345,1,186.5625,4|0,1:0|2:0,2:0:0:0:
264,383,32430,2,0,P|224:345|230:276,1,124.375,8|0,2:0|2:0,2:0:0:0:
450,178,32731,1,0,1:0:0:0:
302,311,32882,1,0,1:0:0:0:
204,109,33033,2,0,B|182:93|162:58|162:58|186:148|178:190,1,186.5625,8|0,2:0|2:0,2:0:0:0:
52,283,33334,6,0,B|91:248|166:261|106:303|218:315|257:251,1,186.5625,0|0,1:0|2:0,2:0:0:0:
404,344,33636,2,0,P|327:344|299:301,1,124.375,8|0,2:0|2:0,2:0:0:0:
246,33,33937,1,0,1:0:0:0:
370,158,34088,1,0,1:0:0:0:
226,279,34239,2,0,B|257:235|259:153|259:153|258:193|288:231,1,186.5625,12|0,2:0|2:0,2:0:0:0:
450,200,34540,6,0,P|460:143|329:79,1,208.949993623352,0|0,1:0|2:0,2:0:0:0:
194,133,34842,2,0,B|243:147|306:117|238:107|317:76|380:92,1,186.5625,8|0,2:0|2:0,2:0:0:0:
485,37,35143,6,0,P|449:8|410:2,1,62.1875,0|0,1:0|2:0,2:0:0:0:
440,238,35294,2,0,P|467:223|486:199,1,62.1875,0|0,1:0|2:0,2:0:0:0:
262,87,35445,2,0,P|261:117|272:146,1,62.1875,12|0,2:0|2:0,2:0:0:0:
455,122,35596,1,0,1:0:0:0:
346,289,35746,6,0,B|253:306|311:259|202:283,1,124.375,4|0,1:2|1:0,2:0:0:0:
45,366,36048,2,0,B|74:344|109:347|109:347|134:195,1,186.5625,12|0,2:1|2:0,2:0:0:0:
193,35,36349,5,8,1:3:0:0:
248,43,36425,1,0,1:0:0:0:
277,90,36500,1,0,1:0:0:0:
272,146,36576,1,0,1:0:0:0:
225,177,36651,2,0,B|183:169|183:169|164:151|164:151|115:142,1,111.937504270077,8|0,2:0|2:0,2:0:0:0:
346,289,36952,5,4,1:0:0:0:
346,289,37254,6,0,B|399:282|399:282|421:261|421:261|485:252,1,134.324995900726,10|0,2:0|2:0,2:0:0:0:
501,326,37555,1,2,2:0:0:0:
354,180,37706,1,2,1:2:0:0:
341,377,37857,1,10,2:0:0:0:
463,152,38008,1,2,2:0:0:0:
248,43,38158,6,0,B|190:35|219:67|130:52,1,89.549997267151,2|2,1:2|1:2,2:0:0:0:
259,158,38460,1,10,2:0:0:0:
81,18,38611,1,2,1:2:0:0:
0,238,38761,2,0,P|90:205|118:250,1,134.324995900726,2|0,2:0|2:0,2:0:0:0:
210,279,39063,2,0,B|168:287|168:287|197:245|196:202|166:160,1,149.25,14|0,2:0|2:0,2:0:0:0:
116,125,39364,5,0,1:0:0:0:
255,358,39666,6,0,B|341:362|296:317|387:323,1,134.324995900726,10|0,2:0|2:0,2:0:0:0:
463,380,39967,1,2,2:0:0:0:
427,169,40118,1,2,1:2:0:0:
261,279,40269,1,10,2:0:0:0:
491,221,40420,1,2,2:0:0:0:
318,114,40570,5,2,1:2:0:0:
372,330,40721,1,2,1:2:0:0:
437,29,40872,1,10,2:0:0:0:
491,245,41023,1,2,1:2:0:0:
273,244,41174,6,0,B|168:204|210:294|78:229,1,164.175005010224,2|0,2:0|2:0,2:0:0:0:
25,148,41475,2,0,B|6:105|30:52|68:39|68:39|114:52|119:101,1,179.099994534302,10|0,2:0|1:0,2:0:0:0:
147,171,41777,5,4,1:2:0:0:
470,40,42078,6,0,B|428:49|428:49|415:166,1,134.324995900726,10|0,2:0|2:0,2:0:0:0:
446,220,42380,1,2,2:0:0:0:
260,109,42530,1,2,1:2:0:0:
201,288,42681,1,14,2:0:0:0:
412,135,42832,1,2,1:2:0:0:
471,361,42983,6,0,P|382:337|357:349,1,89.549997267151,2|2,1:2|1:2,2:0:0:0:
109,207,43284,2,0,P|153:204|190:181,1,89.549997267151,14|0,2:0|1:0,2:0:0:0:
288,27,43586,5,6,2:0:0:0:
212,308,43736,1,0,1:0:0:0:
21,123,43887,2,0,B|14:74|60:48|60:48|112:57|115:127,1,164.175005010224,14|0,2:0|2:0,2:0:0:0:
190,180,44189,6,0,B|226:197|292:176|251:159|305:139|351:157,1,161.687492598534,4|0,1:0|2:0,2:0:0:0:
401,218,44641,6,0,B|411:256|411:256|381:323,1,89.549997267151,8|2,2:3|2:0,2:0:0:0:
291,347,44942,1,8,2:3:0:0:
291,347,45093,2,0,B|281:309|281:309|311:242,1,89.549997267151,8|2,2:3|2:0,2:0:0:0:
426,15,45395,5,2,1:2:0:0:
435,23,45696,5,2,1:2:0:0:
399,104,45847,1,0,2:0:0:0:
510,240,45998,5,6,1:2:0:0:
474,159,46148,1,0,2:0:0:0:
200,274,46299,6,0,B|263:292|337:239|262:232|331:170|409:196,1,223.875008540154,6|0,1:2|2:0,2:0:0:0:
510,240,46601,5,4,1:0:0:0:
339,34,46751,1,0,2:0:0:0:
274,308,46902,5,10,2:0:0:0:
482,39,47053,1,0,1:0:0:0:
411,294,47204,6,0,B|371:262|371:262|399:154,1,124.375,10|0,2:0|1:0,2:0:0:0:
200,28,47505,2,0,B|240:60|240:60|212:168,1,124.375,8|0,2:0|1:0,2:0:0:0:
52,273,47807,5,10,2:0:0:0:
322,147,47957,1,0,2:0:0:0:
72,118,48108,5,10,2:0:0:0:
307,309,48259,1,0,1:0:0:0:
410,40,48410,5,10,2:0:0:0:
378,19,48485,1,2,2:0:0:0:
334,18,48560,1,2,1:2:0:0:
289,40,48636,1,2,2:0:0:0:
264,82,48711,1,10,2:0:0:0:
223,121,48787,1,2,2:0:0:0:
161,128,48862,1,2,1:2:0:0:
111,91,48937,1,2,2:0:0:0:
71,27,49013,6,0,P|88:144|99:244,1,186.5625,10|0,2:0|2:0,2:0:0:0:
289,323,49314,2,0,P|257:257|199:259,1,124.375,10|0,2:0|2:0,2:0:0:0:
48,356,49616,5,10,2:0:0:0:
238,141,49766,1,2,1:2:0:0:
0,222,49917,5,10,2:0:0:0:
209,338,50068,1,2,1:2:0:0:
470,27,50219,5,10,2:0:0:0:
399,24,50294,1,2,2:0:0:0:
343,65,50369,1,2,2:0:0:0:
337,126,50445,1,2,2:0:0:0:
373,168,50520,5,10,2:0:0:0:
384,143,50596,1,2,2:0:0:0:
381,113,50671,1,2,1:2:0:0:
366,85,50746,1,2,2:0:0:0:
343,65,50822,1,10,2:0:0:0:
314,55,50897,1,0,2:0:0:0:
288,55,50973,1,2,1:2:0:0:
270,62,51048,1,0,2:0:0:0:
224,128,51123,6,0,B|247:197|237:297|237:297|264:272|268:222,1,238.8,10|0,2:0|1:0,2:0:0:0:
104,163,51425,5,4,1:0:0:0:
375,294,51576,1,0,2:0:0:0:
92,317,51726,5,10,2:0:0:0:
384,143,51877,1,0,1:0:0:0:
148,61,52028,6,0,P|86:20|34:61,1,124.375,10|0,2:0|1:0,2:0:0:0:
146,260,52329,2,0,P|213:240|277:236,1,124.375,8|0,2:0|1:0,2:0:0:0:
81,132,52631,5,10,2:0:0:0:
241,366,52782,1,0,2:0:0:0:
276,94,52932,5,10,2:0:0:0:
92,317,53083,1,0,1:0:0:0:
12,33,53234,5,10,2:0:0:0:
36,26,53309,1,2,2:0:0:0:
64,35,53385,1,2,1:2:0:0:
84,13,53460,1,2,2:0:0:0:
109,26,53535,6,0,P|125:90|115:120,1,62.1875,10|2,2:0|2:0,2:0:0:0:
206,177,53686,2,0,P|179:224|170:271,1,74.6250028467179,2|2,1:2|2:0,2:0:0:0:
32,380,53837,6,0,B|21:354|-9:334|-9:334|70:357|180:348,1,208.949993623352,10|0,2:0|2:0,2:0:0:0:
278,274,54138,2,0,B|289:248|319:228|319:228|240:251|130:242,1,208.949993623352,10|0,2:0|2:0,2:0:0:0:
20,213,54440,6,0,P|56:193|95:187,1,62.1875,10|0,2:0|2:0,2:0:0:0:
214,341,54591,2,0,P|250:361|289:367,1,62.1875,2|0,1:2|2:0,2:0:0:0:
275,158,54741,6,0,P|247:163|201:163,1,49.75,10|0,2:0|2:0,2:0:0:0:
112,342,54892,2,0,P|77:334|21:334,1,49.75,2|0,1:2|2:0,2:0:0:0:
302,81,55043,5,10,2:0:0:0:
374,85,55118,1,2,2:0:0:0:
421,127,55194,1,2,2:0:0:0:
437,172,55269,1,2,2:0:0:0:
436,214,55344,1,14,2:0:0:0:
419,249,55420,1,0,2:0:0:0:
390,281,55495,1,2,2:0:0:0:
360,293,55570,1,0,2:0:0:0:
332,294,55646,2,0,L|317:221,1,62.1875,8|0,2:3|2:0,2:0:0:0:
512,0,55797,5,8,2:0:0:0:
508,43,55872,1,8,2:0:0:0:
503,89,55947,2,0,B|424:60|457:123|357:78,1,134.324995900726,8|0,2:3|2:0,2:0:0:0:
146,43,56249,5,4,1:0:0:0:
133,32,56550,5,8,2:0:0:0:
177,257,56701,1,0,1:0:0:0:
301,75,56852,5,8,2:0:0:0:
45,157,57003,1,0,1:0:0:0:
296,272,57153,5,8,2:0:0:0:
238,13,57304,1,0,1:0:0:0:
37,288,57455,5,10,2:0:0:0:
333,172,57606,1,2,1:2:0:0:
22,146,57756,1,10,2:0:0:0:
303,300,57907,1,2,1:2:0:0:
146,43,58058,6,0,B|159:172,1,109.450003340149,10|0,2:0|1:0,2:0:0:0:
405,358,58359,2,0,B|392:229,1,109.450003340149,10|0,2:0|1:0,2:0:0:0:
29,373,58661,5,10,2:0:0:0:
19,384,58962,5,8,2:0:0:0:
285,332,59113,1,0,1:0:0:0:
45,157,59264,5,8,2:0:0:0:
133,384,59415,1,0,1:0:0:0:
249,32,59565,5,8,2:0:0:0:
162,272,59716,1,0,1:0:0:0:
497,110,59867,5,10,2:0:0:0:
474,51,59942,1,2,2:0:0:0:
420,26,60018,1,2,1:2:0:0:
367,33,60093,1,2,2:0:0:0:
327,69,60168,1,10,2:0:0:0:
314,122,60244,1,2,2:0:0:0:
332,172,60319,1,2,1:2:0:0:
377,200,60395,1,2,2:0:0:0:
404,217,60470,1,10,2:0:0:0:
420,245,60545,1,2,2:0:0:0:
420,278,60621,1,2,1:2:0:0:
407,305,60696,1,2,2:0:0:0:
339,332,60771,6,0,L|248:323,1,74.625,12|0,2:0|2:0,2:0:0:0:
168,226,61073,5,4,1:0:0:0:
155,216,61375,1,8,2:0:0:0:
78,383,61525,1,8,2:0:0:0:
282,231,61676,1,8,2:0:0:0:
43,78,61827,1,8,2:0:0:0:
264,324,61978,1,8,2:0:0:0:
474,51,62128,1,8,2:0:0:0:
346,178,62279,5,8,2:0:0:0:
346,178,63485,2,0,B|386:129|274:81|228:146|228:251|339:267,1,278.599991497803,4|0,1:0|2:0,2:0:0:0:
397,232,65143,5,8,2:3:0:0:
94,71,65445,5,0,1:0:0:0:
94,71,65596,2,0,B|71:40|157:-15|215:60|178:139|97:154,1,223.875008540154,12|0,2:0|2:0,2:0:0:0:
36,238,65897,5,0,3:0:0:0:
80,228,65973,1,0,3:0:0:0:
121,243,66048,1,0,3:0:0:0:
150,276,66123,1,0,3:0:0:0:
173,314,66199,1,2,3:2:0:0:
205,344,66274,1,0,3:0:0:0:
249,350,66349,2,0,P|304:343|311:343,1,49.75,8|0,3:2|3:0,2:0:0:0:
467,265,66500,5,2,3:2:0:0:
485,305,66576,1,0,3:0:0:0:
474,347,66651,1,2,3:2:0:0:
434,367,66726,1,0,3:0:0:0:
390,355,66802,2,0,P|395:320|398:293,1,49.75,10|0,3:2|3:0,2:0:0:0:
303,62,66952,5,2,3:2:0:0:
303,62,67028,1,0,3:2:0:0:
303,62,67103,1,10,3:2:0:0:
440,114,67254,1,2,1:2:0:0:
430,122,67555,5,2,1:2:0:0:
303,62,67706,2,0,B|336:42|336:42|378:52,1,74.6250028467179,2|0,1:2|2:0,2:0:0:0:
472,174,68008,6,0,B|463:143|440:113|440:113|446:200|389:280,1,223.875008540154,6|0,1:2|2:0,2:0:0:0:
405,357,68309,5,0,3:0:0:0:
359,357,68385,1,0,3:0:0:0:
318,339,68460,1,0,3:0:0:0:
293,301,68535,1,0,3:0:0:0:
259,270,68611,1,2,3:2:0:0:
215,261,68686,1,0,3:0:0:0:
170,266,68761,2,0,P|177:315|179:331,1,49.75,8|0,3:2|3:0,2:0:0:0:
343,200,68912,5,2,3:2:0:0:
355,156,68987,1,0,3:0:0:0:
389,125,69063,1,2,3:2:0:0:
433,115,69138,1,0,3:0:0:0:
479,124,69213,2,0,P|472:173|470:189,1,49.75,10|0,3:2|3:0,2:0:0:0:
156,30,69364,5,2,3:2:0:0:
156,30,69440,1,0,3:0:0:0:
156,30,69515,1,10,3:2:0:0:
191,160,69666,6,0,P|254:135|284:133,1,74.6250028467179,2|2,1:2|2:0,2:0:0:0:
390,128,69967,1,2,1:2:0:0:
350,53,70118,5,2,1:2:0:0:
344,203,70269,1,8,2:3:0:0:
470,148,70420,1,8,2:3:0:0:
465,139,70721,6,0,L|458:199,1,49.75,0|0,3:2|3:2,2:0:0:0:
504,307,70872,5,0,3:2:0:0:
459,310,70947,1,0,3:2:0:0:
428,343,71023,1,2,3:2:0:0:
395,373,71098,1,0,3:2:0:0:
349,373,71174,2,0,P|318:361|293:357,1,49.75,8|0,3:2|3:2,2:0:0:0:
192,196,71324,5,2,3:2:0:0:
212,148,71400,1,0,3:2:0:0:
257,126,71475,1,2,3:2:0:0:
306,124,71550,1,0,3:2:0:0:
348,150,71626,2,0,L|341:213,1,49.75,10|0,3:2|3:2,2:0:0:0:
50,371,71777,5,2,3:2:0:0:
50,371,71852,1,0,3:2:0:0:
50,371,71927,1,10,3:2:0:0:
62,249,72078,1,2,1:2:0:0:
56,256,72380,5,2,1:2:0:0:
200,239,72530,2,0,B|216:202|206:146|166:188|159:113|168:86,1,149.25,2|0,1:2|2:0,2:0:0:0:
81,30,72832,6,0,B|44:1|-4:38|35:81|86:83|106:48|123:44|112:11|201:26,1,223.875008540154,4|0,1:0|2:0,2:0:0:0:
290,64,73133,6,0,P|281:106|278:141,1,69.65,6|0,1:2|2:0,2:0:0:0:
284,146,73736,5,8,2:0:0:0:
404,75,73887,1,8,2:0:0:0:
165,101,74038,1,8,2:0:0:0:
445,247,74189,1,8,2:0:0:0:
102,315,74339,6,0,B|75:258|125:209|166:214|166:214|215:250,1,186.5625,0|0,1:0|2:0,2:0:0:0:
311,288,74641,2,0,B|245:276|281:325|189:319,1,99.5,4|2,1:2|1:2,2:0:0:0:
25,211,74942,5,2,1:2:0:0:
25,211,75093,1,0,1:0:0:0:
154,35,75244,2,0,L|143:124,1,74.6250028467179,2|0,1:2|2:0,2:0:0:0:
196,239,75545,6,0,B|231:258|305:237|233:214|321:181|366:208,1,149.25,4|0,1:0|2:0,2:0:0:0:
435,169,75846,2,0,P|377:199|373:286,1,149.25,8|0,2:0|2:0,2:0:0:0:
413,347,76148,1,8,2:0:0:0:
413,347,76449,1,0,1:0:0:0:
413,347,76751,5,8,2:3:0:0:
268,329,76901,1,8,2:3:0:0:
127,303,77052,1,8,2:3:0:0:
118,130,77354,5,0,1:0:0:0:
154,210,77655,2,0,P|205:143|184:70,1,149.25,8|0,2:0|2:0,2:0:0:0:
47,180,77957,2,0,P|38:107|86:53,1,149.25,8|0,2:0|2:0,2:0:0:0:
102,59,78258,5,0,1:0:0:0:
181,88,78409,1,8,2:3:0:0:
310,14,78560,1,2,2:0:0:0:
227,17,78710,1,0,1:0:0:0:
360,85,78861,1,10,2:0:0:0:
439,56,79012,1,0,2:0:0:0:
269,218,79163,5,2,1:2:0:0:
415,240,79464,2,0,B|353:235|320:276|364:282|295:312|256:304,1,149.25,8|0,2:0|2:0,2:0:0:0:
202,258,79766,2,0,P|196:189|262:138,1,149.25,8|0,2:0|2:0,2:0:0:0:
269,218,80067,5,0,1:0:0:0:
93,291,80218,1,8,2:3:0:0:
218,340,80369,1,0,1:0:0:0:
147,169,80519,1,0,1:0:0:0:
437,57,80670,6,0,B|417:94|361:123|316:91|316:91|346:100|383:73,1,186.5625,8|0,2:0|2:0,2:0:0:0:
343,12,80972,5,12,2:1:0:0:
283,302,81122,1,0,1:0:0:0:
283,302,81273,1,0,1:0:0:0:
241,62,81424,5,12,2:0:0:0:
319,380,81575,1,8,2:0:0:0:
375,246,81725,1,0,1:0:0:0:
3,182,81876,6,0,B|-11:139|-11:139|49:116|98:136|58:172|129:174|184:157,1,223.875008540154,12|0,2:0|2:0,2:0:0:0:
241,62,82178,5,4,1:0:0:0:
241,62,82479,6,0,B|252:58|274:60|274:60|262:37|196:23|156:56,1,134.324995900726,10|0,2:0|2:0,2:0:0:0:
126,90,82781,1,2,1:2:0:0:
245,255,82931,1,2,1:2:0:0:
264,140,83082,1,10,2:0:0:0:
124,310,83233,1,2,2:0:0:0:
66,196,83384,6,0,B|122:182|105:224|181:208,1,89.549997267151,2|0,1:2|2:0,2:0:0:0:
228,338,83685,1,10,2:0:0:0:
275,131,83836,1,2,2:0:0:0:
76,272,83987,2,0,P|89:345|89:373,1,89.549997267151,2|0,1:2|1:0,2:0:0:0:
327,193,84288,2,0,P|359:133|301:58,1,134.324995900726,14|0,2:0|2:0,2:0:0:0:
241,55,84590,5,0,1:0:0:0:
241,55,84891,6,0,B|348:71|292:0|420:22,1,164.175005010224,10|0,2:0|2:0,2:0:0:0:
497,186,85193,1,2,1:2:0:0:
382,107,85343,1,2,1:2:0:0:
494,57,85494,5,10,2:0:0:0:
403,299,85645,1,2,2:0:0:0:
305,25,85796,5,2,1:2:0:0:
302,283,85946,1,2,2:0:0:0:
123,59,86097,5,10,2:0:0:0:
208,302,86248,1,2,2:0:0:0:
245,154,86399,5,2,1:2:0:0:
83,224,86549,1,0,2:0:0:0:
352,351,86700,2,0,B|412:302|381:225|316:221|268:277|321:326,1,186.5625,14|0,2:0|2:0,2:0:0:0:
403,299,87002,6,0,B|443:295|443:295|457:274|457:274|513:267,1,111.937504270077,4|0,1:0|2:0,2:0:0:0:
503,268,87303,1,10,2:0:0:0:
382,107,87454,2,0,P|353:164|315:182,1,74.6250028467179,2|0,2:0|1:0,2:0:0:0:
486,54,87755,1,0,1:0:0:0:
290,106,87906,6,0,B|250:102|250:102|236:81|236:81|180:74,1,111.937504270077,10|0,2:0|2:0,2:0:0:0:
115,91,88208,6,0,P|159:107|160:181,1,89.549997267151,2|0,1:2|1:0,2:0:0:0:
301,282,88509,2,0,B|209:261|261:315|160:295,1,134.324995900726,10|0,2:0|2:0,2:0:0:0:
81,331,88811,5,8,2:0:0:0:
116,332,88886,1,8,2:0:0:0:
143,308,88961,1,8,2:0:0:0:
156,274,89037,1,8,2:0:0:0:
145,240,89112,1,10,2:0:0:0:
287,363,89263,1,8,2:0:0:0:
482,128,89414,6,0,L|486:31,1,74.6250028467179,4|0,1:0|2:0,2:0:0:0:
393,51,89715,2,0,L|389:148,1,74.6250028467179,10|0,2:0|1:0,2:0:0:0:
434,347,90017,5,2,2:0:0:0:
362,275,90167,1,0,1:0:0:0:
434,204,90318,1,8,2:0:0:0:
505,275,90469,1,0,1:0:0:0:
214,343,90620,6,0,L|96:329,1,99.5,10|0,2:0|1:0,2:0:0:0:
131,218,90921,2,0,L|249:232,1,99.5,14|0,2:0|1:0,2:0:0:0:
393,51,91223,5,6,1:2:0:0:
351,45,91298,1,0,1:0:0:0:
305,58,91374,1,0,1:0:0:0:
277,97,91449,1,0,1:0:0:0:
228,124,91524,1,0,1:0:0:0:
172,124,91600,1,0,1:0:0:0:
133,85,91675,1,0,1:0:0:0:
131,30,91750,1,0,1:0:0:0:
180,0,91826,1,4,1:0:0:0:
189,13,92127,6,0,P|175:89|171:155,1,111.937504270077,2|0,1:2|2:0,2:0:0:0:
139,194,92429,2,0,P|88:212|66:203,1,74.6250028467179,2|0,1:2|2:0,2:0:0:0:
229,229,92730,2,0,P|258:211|309:216,1,74.6250028467179,2|2,1:2|2:0,2:0:0:0:
160,357,93032,5,2,1:2:0:0:
142,277,93183,1,2,2:0:0:0:
279,289,93333,1,2,1:2:0:0:
257,370,93484,1,6,2:0:0:0:
462,328,93635,6,0,P|390:328|363:368,1,111.937504270077,2|0,1:2|2:0,2:0:0:0:
372,372,93936,2,0,P|384:305|385:264,1,74.6250028467179,2|0,1:2|1:0,2:0:0:0:
357,218,94162,1,0,2:0:0:0:
357,218,94238,1,0,1:0:0:0:
461,68,94389,1,0,2:0:0:0:
465,147,94539,6,0,B|396:153|428:112|338:122,1,111.937504270077,6|0,1:2|2:0,2:0:0:0:
287,155,94841,1,2,1:2:0:0:
357,218,94992,1,6,2:0:0:0:
334,37,95142,2,0,P|288:59|256:68,1,74.6250028467179,0|2,1:0|2:0,2:0:0:0:
137,31,95444,5,6,1:2:0:0:
164,109,95595,1,8,2:3:0:0:
32,220,95745,1,2,1:2:0:0:
68,79,95896,1,8,2:3:0:0:
190,194,96047,6,0,B|152:191|152:191|113:222|127:272,1,111.937504270077,2|0,1:2|2:0,2:0:0:0:
181,317,96348,2,0,B|273:315|214:264|328:267,1,149.25,6|0,1:2|2:0,2:0:0:0:
364,333,96650,6,0,P|373:253|400:91,1,186.5625,4|0,1:0|2:0,2:0:0:0:
263,33,96951,2,0,P|234:110|331:126,1,186.5625,2|0,1:2|2:0,2:0:0:0:
422,48,97253,5,10,1:2:0:0:
181,317,97404,1,10,1:2:0:0:
157,39,97554,5,10,1:2:0:0:
210,22,97630,1,8,1:2:0:0:
263,33,97705,1,10,1:2:0:0:
297,66,97781,1,8,1:2:0:0:
314,138,97856,5,6,1:2:0:0:
314,138,98157,1,2,2:0:0:0:
314,138,98459,1,2,2:0:0:0:
314,138,98760,6,0,B|200:129|200:129|185:121|185:121|35:107,1,253.72500483942,4|0,2:0|2:0,2:0:0:0:
0,178,99062,5,4,1:0:0:0:
275,35,99213,1,0,2:0:0:0:
180,316,99363,5,10,2:0:0:0:
199,0,99514,1,0,1:0:0:0:
433,277,99665,6,0,P|396:224|303:248,1,124.375,10|0,2:0|1:0,2:0:0:0:
161,333,99966,1,8,2:0:0:0:
110,329,100042,1,0,2:0:0:0:
71,288,100117,1,0,1:0:0:0:
73,231,100193,1,0,2:0:0:0:
113,192,100268,5,10,2:0:0:0:
354,312,100419,1,0,2:0:0:0:
34,373,100569,5,10,2:0:0:0:
335,168,100720,1,0,1:0:0:0:
35,36,100871,5,10,2:0:0:0:
59,79,100946,1,2,2:0:0:0:
113,98,101022,1,2,1:2:0:0:
167,87,101097,1,2,2:0:0:0:
204,43,101173,1,10,2:0:0:0:
264,30,101248,1,2,2:0:0:0:
323,48,101323,1,2,1:2:0:0:
356,99,101399,1,2,2:0:0:0:
335,168,101474,6,0,B|315:60|380:105|366:-20,1,186.5625,10|0,2:0|2:0,2:0:0:0:
503,149,101776,2,0,P|494:214|488:285,1,124.375,10|0,2:0|2:0,2:0:0:0:
434,329,102002,5,0,2:0:0:0:
434,329,102077,2,0,P|383:349|352:345,1,62.1875,10|0,2:0|2:0,2:0:0:0:
245,233,102228,2,0,P|239:198|232:165,1,62.1875,2|0,1:2|2:0,2:0:0:0:
129,328,102379,6,0,P|180:348|211:344,1,62.1875,10|0,2:0|2:0,2:0:0:0:
323,229,102529,2,0,P|329:194|336:161,1,62.1875,2|0,1:2|2:0,2:0:0:0:
119,19,102680,5,10,2:0:0:0:
56,59,102755,1,2,2:0:0:0:
46,127,102831,1,2,2:0:0:0:
80,178,102906,1,2,2:0:0:0:
140,193,102982,1,10,2:0:0:0:
194,163,103057,1,2,2:0:0:0:
214,104,103132,1,2,1:2:0:0:
192,58,103208,1,2,2:0:0:0:
152,45,103283,1,10,2:0:0:0:
110,59,103358,1,0,2:0:0:0:
98,94,103434,1,2,1:2:0:0:
117,118,103509,1,0,2:0:0:0:
194,163,103585,6,0,B|221:104|298:98|338:131|338:131|317:169|318:205,1,223.875008540154,10|0,2:0|1:0,2:0:0:0:
381,274,103886,5,4,1:0:0:0:
192,58,104037,1,0,2:0:0:0:
207,312,104188,5,10,2:0:0:0:
368,36,104338,1,0,1:0:0:0:
485,324,104489,6,0,B|407:309|457:381|311:338,1,124.375,10|0,2:0|1:0,2:0:0:0:
77,136,104791,2,0,B|155:121|105:193|251:150,1,124.375,8|0,2:0|1:0,2:0:0:0:
285,54,105017,1,0,2:0:0:0:
270,33,105092,5,10,2:0:0:0:
105,290,105243,1,0,2:0:0:0:
86,36,105394,5,10,2:0:0:0:
291,269,105544,1,0,1:0:0:0:
474,55,105695,5,10,2:0:0:0:
431,35,105770,1,2,2:0:0:0:
380,45,105846,1,2,1:2:0:0:
349,83,105921,1,2,2:0:0:0:
334,137,105997,1,10,2:0:0:0:
293,175,106072,1,2,2:0:0:0:
230,184,106147,1,2,1:2:0:0:
171,147,106223,1,2,2:0:0:0:
200,76,106298,6,0,P|186:194|179:323,1,223.875008540154,10|0,2:0|2:0,2:0:0:0:
372,328,106600,2,0,B|398:305|434:284|434:284|346:308|261:251,1,223.875008540154,10|0,2:0|2:0,2:0:0:0:
349,83,106901,6,0,P|423:92|444:118,1,74.6250028467179,10|0,2:0|2:0,2:0:0:0:
406,206,107052,2,0,P|332:197|311:171,1,74.6250028467179,2|0,1:2|2:0,2:0:0:0:
200,76,107203,6,0,P|148:53|112:70,1,59.6999981781006,10|0,2:0|2:0,2:0:0:0:
17,222,107353,1,2,1:2:0:0:
24,244,107429,1,0,2:0:0:0:
31,266,107504,5,8,1:3:0:0:
96,296,107580,1,2,2:0:0:0:
164,273,107655,1,2,2:0:0:0:
196,223,107730,1,2,2:0:0:0:
198,169,107806,1,14,2:0:0:0:
156,135,107881,1,0,2:0:0:0:
133,93,107956,1,2,2:0:0:0:
147,53,108032,1,0,2:0:0:0:
186,41,108107,2,0,L|172:120,1,59.6999981781006,8|0,2:3|2:0,2:0:0:0:
248,332,108258,5,8,2:0:0:0:
299,371,108333,1,8,2:0:0:0:
363,357,108409,2,0,B|425:351|435:246|350:231|312:265|312:265|344:266|361:289,1,253.72500483942,8|0,2:3|2:0,2:0:0:0:
463,205,108710,5,4,1:0:0:0:
475,214,109012,5,8,2:0:0:0:
201,159,109162,1,0,1:0:0:0:
510,99,109313,5,8,2:0:0:0:
236,44,109464,1,0,1:0:0:0:
438,328,109615,5,8,2:0:0:0:
164,273,109765,1,0,1:0:0:0:
349,83,109916,5,10,2:0:0:0:
256,341,110067,1,2,1:2:0:0:
201,159,110218,1,10,2:0:0:0:
438,328,110368,1,2,1:2:0:0:
510,99,110519,6,0,L|490:46,3,37.312501423359,10|0|0|0,2:0|2:0|1:0|2:0,2:0:0:0:
471,181,110821,1,10,2:0:0:0:
431,212,110896,1,0,2:0:0:0:
375,209,110971,1,0,1:0:0:0:
330,168,111047,1,0,1:0:0:0:
338,95,111122,5,10,2:0:0:0:
350,81,111424,5,8,2:0:0:0:
276,344,111575,1,0,1:0:0:0:
172,49,111725,5,8,2:0:0:0:
177,320,111876,1,0,1:0:0:0:
0,90,112027,5,8,2:0:0:0:
74,353,112178,1,0,1:0:0:0:
428,92,112328,5,10,2:0:0:0:
391,23,112404,1,2,2:0:0:0:
317,10,112479,1,2,1:2:0:0:
261,52,112554,1,2,2:0:0:0:
256,122,112630,1,10,2:0:0:0:
299,171,112705,1,2,2:0:0:0:
361,173,112781,1,2,1:2:0:0:
408,138,112856,1,2,2:0:0:0:
402,78,112931,1,10,2:0:0:0:
363,37,113007,1,2,2:0:0:0:
309,43,113082,1,2,1:2:0:0:
292,90,113157,1,2,2:0:0:0:
317,125,113233,1,12,2:0:0:0:
352,124,113308,1,0,2:0:0:0:
371,103,113384,1,0,2:0:0:0:
366,80,113459,1,0,2:0:0:0:
347,80,113534,6,0,L|359:201,1,111.937504270077,4|0,1:0|2:0,2:0:0:0:
373,302,113836,1,8,2:0:0:0:
214,184,113987,1,8,2:0:0:0:
438,122,114137,1,8,2:0:0:0:
209,333,114288,1,8,2:0:0:0:
347,80,114439,1,8,2:0:0:0:
504,365,114590,2,0,B|470:368|470:368|432:337,1,59.6999981781006,10|10,2:0|2:0,2:0:0:0:
358,191,114740,6,0,L|347:80,1,111.937504270077,4|0,2:1|2:0,2:0:0:0:
336,2,115946,6,0,B|256:4|299:48|201:49,1,134.324995900726,4|0,1:2|2:0,2:0:0:0:
143,8,116248,2,0,P|190:54|185:100,1,89.549997267151,2|8,1:2|2:3,2:0:0:0:
257,224,116549,2,0,P|262:164|271:122,1,89.549997267151,2|2,2:0|1:2,2:0:0:0:
101,87,116851,1,10,2:0:0:0:
163,176,117002,1,2,2:0:0:0:
346,79,117152,5,2,1:2:0:0:
346,79,117303,1,8,2:3:0:0:
257,224,117454,1,2,2:0:0:0:
257,224,117605,1,8,2:3:0:0:
366,365,117755,2,0,B|408:333|391:276|391:276|353:266,1,134.324995900726,2|0,2:0|2:0,2:0:0:0:
356,267,118057,6,0,P|412:300|463:169,1,223.875008540154,12|0,2:0|2:0,2:0:0:0:
404,111,118358,6,0,B|339:116|308:69|308:69|351:90|371:66,1,149.25,4|0,1:0|2:0,2:0:0:0:
348,0,118660,1,8,2:0:0:0:
235,122,118811,2,0,P|250:171|258:230,1,99.5,0|0,2:0|1:0,2:0:0:0:
366,365,119112,1,0,1:0:0:0:
482,192,119263,2,0,B|446:195|446:195|428:210|428:210|378:214,1,99.5,8|0,2:0|2:0,2:0:0:0:
126,245,119564,6,0,B|222:246|153:304|287:303,1,149.25,2|0,1:2|2:0,2:0:0:0:
257,218,119866,1,8,2:0:0:0:
130,327,120017,1,0,2:0:0:0:
24,198,120167,2,0,P|34:148|39:92,1,99.5,0|0,1:0|1:0,2:0:0:0:
257,63,120469,2,0,B|239:40|217:28|217:28|238:103|234:152,1,149.25,8|0,2:0|2:0,2:0:0:0:
131,239,120770,6,0,P|189:195|270:236,1,149.25,6|0,1:2|2:0,2:0:0:0:
257,302,121072,1,8,2:0:0:0:
482,192,121223,2,0,B|441:190|441:190|419:204|419:204|369:203,1,99.5,0|0,2:0|1:0,2:0:0:0:
234,121,121524,1,0,1:0:0:0:
338,339,121675,2,0,B|354:361|359:382|359:382|365:324|383:268,1,149.25,8|0,2:0|2:0,2:0:0:0:
464,227,121977,6,0,P|481:159|393:138,1,164.175005010224,2|0,1:2|2:0,2:0:0:0:
283,145,122278,2,0,B|256:117|260:69|260:69|277:111|328:129,1,164.175005010224,12|0,2:0|2:0,2:0:0:0:
368,46,122580,2,0,P|365:28|350:50,1,54.7250016700745,8|0,3:0|2:0,2:0:0:0:
363,197,122730,5,0,1:0:0:0:
370,240,122806,1,0,1:0:0:0:
378,282,122881,1,0,1:0:0:0:
110,178,123032,1,0,1:0:0:0:
117,135,123107,1,0,2:0:0:0:
125,93,123183,2,0,B|250:74|184:154|332:121,1,201.487500768614,4|0,1:0|2:0,2:0:0:0:
368,46,123484,5,8,2:0:0:0:
196,298,123635,1,0,1:0:0:0:
172,10,123786,5,8,2:0:0:0:
361,315,123936,1,0,1:0:0:0:
383,22,124087,5,8,2:0:0:0:
176,315,124238,1,0,1:0:0:0:
42,92,124389,6,0,P|93:191|178:135,1,201.487500768614,8|0,2:0|2:0,2:0:0:0:
127,89,124690,5,8,2:0:0:0:
274,346,124841,1,0,1:0:0:0:
255,64,124992,5,8,2:0:0:0:
90,357,125142,1,0,1:0:0:0:
512,384,125293,6,0,B|425:378|368:331|368:331|382:366|382:389,1,201.487500768614,12|0,2:0|2:0,2:0:0:0:
472,293,125595,6,0,P|494:219|475:183,1,67.1625002562046,8|0,1:3|2:0,2:0:0:0:
284,98,125745,2,0,B|306:228|306:228|386:216,1,201.487500768614,8|0,1:3|2:0,2:0:0:0:
473,119,126047,6,0,L|394:129,1,67.1625002562046,0|0,1:2|2:0,2:0:0:0:
262,328,126198,2,0,B|209:339|149:309|204:275|120:248|57:277,1,201.487500768614,8|0,1:3|2:0,2:0:0:0:
37,348,126499,2,0,B|52:368|56:382|56:382|67:348|59:326,1,67.1625002562046,8|0,2:0|2:0,2:0:0:0:
82,165,126650,6,0,B|127:113|131:36|105:29|105:29|78:16|73:88|153:90,1,253.72500483942,4|0,1:0|2:0,2:0:0:0:
213,54,126951,1,8,1:3:0:0:
374,217,127102,1,0,1:0:0:0:
262,328,127253,5,8,2:0:0:0:
219,267,127328,1,8,2:0:0:0:
242,197,127404,2,0,B|317:205|317:205|352:187|352:187|447:197,1,194.024991118241,8|0,2:0|2:0,2:0:0:0:
473,116,127705,6,0,B|504:94|494:42|494:42|388:24|364:121,1,234.322500893869,12|0,2:0|2:0,2:0:0:0:
296,38,128007,5,0,1:0:0:0:
270,19,128082,1,0,2:0:0:0:
239,16,128157,1,0,2:0:0:0:
209,26,128233,1,0,2:0:0:0:
187,58,128308,1,0,2:0:0:0:
146,81,128384,1,0,2:0:0:0:
99,74,128459,1,8,2:0:0:0:
66,30,128534,1,0,2:0:0:0:
120,19,128610,1,2,1:2:0:0:
166,47,128685,1,2,2:0:0:0:
187,97,128760,1,2,2:0:0:0:
175,142,128836,1,2,2:0:0:0:
148,170,128911,1,10,2:0:0:0:
119,183,128987,1,2,2:0:0:0:
95,186,129062,1,2,2:0:0:0:
72,181,129137,1,2,2:0:0:0:
45,163,129213,5,0,1:2:0:0:
82,135,129288,1,0,2:0:0:0:
128,133,129363,1,0,2:0:0:0:
169,155,129439,1,0,2:0:0:0:
194,202,129514,1,0,2:0:0:0:
238,234,129590,1,0,2:0:0:0:
292,238,129665,1,8,2:0:0:0:
347,209,129740,1,0,2:0:0:0:
374,143,129816,1,2,1:2:0:0:
345,79,129891,1,2,2:0:0:0:
271,53,129966,1,2,2:0:0:0:
198,84,130042,1,2,2:0:0:0:
169,155,130117,1,10,2:0:0:0:
169,218,130193,1,2,2:0:0:0:
150,269,130268,1,2,2:0:0:0:
111,295,130343,1,2,2:0:0:0:
63,299,130419,5,0,1:2:0:0:
104,320,130494,1,0,2:0:0:0:
131,357,130569,1,0,2:0:0:0:
174,374,130645,1,0,2:0:0:0:
227,366,130720,1,0,2:0:0:0:
258,321,130796,1,0,2:0:0:0:
297,272,130871,1,8,2:0:0:0:
366,267,130946,1,0,2:0:0:0:
431,310,131022,6,0,L|419:365,1,49.75,2|2,1:2|2:0,2:0:0:0:
420,175,131173,1,2,2:0:0:0:
355,218,131248,2,0,L|367:273,1,49.75,2|10,2:0|2:0,2:0:0:0:
365,83,131399,1,2,2:0:0:0:
430,126,131474,2,0,L|418:181,1,49.75,2|2,2:0|2:0,2:0:0:0:
274,198,131625,5,0,1:2:0:0:
220,210,131700,1,0,2:0:0:0:
174,188,131776,1,0,2:0:0:0:
158,146,131851,1,0,2:0:0:0:
170,103,131926,1,0,2:0:0:0:
149,62,132002,1,0,2:0:0:0:
112,47,132077,1,8,2:0:0:0:
78,53,132152,1,0,2:0:0:0:
58,75,132228,1,8,1:3:0:0:
53,99,132303,1,0,2:0:0:0:
61,117,132379,1,0,2:0:0:0:
71,127,132454,1,0,2:0:0:0:
80,130,132529,1,8,2:0:0:0:
89,127,132605,1,0,2:0:0:0:
96,120,132680,1,8,2:0:0:0:
97,110,132755,1,0,2:0:0:0:
91,101,132831,5,4,1:0:0:0:
42,113,132906,1,0,2:0:0:0:
23,159,132982,1,0,2:0:0:0:
40,205,133057,1,0,2:0:0:0:
87,220,133132,1,2,2:0:0:0:
123,254,133208,1,2,2:0:0:0:
122,303,133283,1,10,3:2:0:0:
93,343,133358,1,2,2:0:0:0:
42,342,133434,5,0,1:0:0:0:
64,286,133509,1,0,2:0:0:0:
123,275,133585,1,0,2:0:0:0:
177,298,133660,1,0,2:0:0:0:
217,341,133735,1,10,3:2:0:0:
276,346,133811,1,2,2:0:0:0:
328,318,133886,1,2,2:0:0:0:
349,262,133961,1,2,2:0:0:0:
321,202,134037,5,2,1:2:0:0:
265,168,134112,1,0,2:0:0:0:
251,104,134188,1,0,1:0:0:0:
281,47,134263,1,0,2:0:0:0:
341,24,134338,1,2,2:0:0:0:
405,36,134414,1,2,2:0:0:0:
439,90,134489,1,10,3:2:0:0:
433,153,134564,1,2,2:0:0:0:
383,182,134640,5,0,1:0:0:0:
354,153,134715,1,0,2:0:0:0:
309,145,134791,1,0,2:0:0:0:
265,168,134866,1,0,2:0:0:0:
238,221,134941,1,10,1:2:0:0:
178,248,135017,1,2,2:0:0:0:
114,237,135092,1,2,1:2:0:0:
75,185,135167,1,2,2:0:0:0:
93,122,135243,5,2,1:2:0:0:
130,154,135318,1,0,2:0:0:0:
128,204,135394,1,0,1:0:0:0:
100,251,135469,1,0,2:0:0:0:
105,310,135544,1,2,2:0:0:0:
160,343,135620,1,2,2:0:0:0:
228,329,135695,1,10,3:2:0:0:
245,261,135770,1,2,2:0:0:0:
217,209,135846,5,0,1:0:0:0:
269,237,135921,1,0,2:0:0:0:
328,225,135997,1,0,2:0:0:0:
353,165,136072,1,0,2:0:0:0:
411,137,136147,1,10,3:2:0:0:
473,154,136223,1,2,2:0:0:0:
509,213,136298,1,2,2:0:0:0:
489,285,136374,1,2,2:0:0:0:
420,312,136449,5,8,1:3:0:0:
396,273,136524,1,0,2:0:0:0:
405,228,136600,1,0,2:0:0:0:
443,197,136675,1,0,2:0:0:0:
473,154,136750,1,8,1:3:0:0:
471,93,136826,1,0,2:0:0:0:
409,52,136901,1,0,2:0:0:0:
337,74,136977,1,0,2:0:0:0:
325,147,137052,1,8,1:3:0:0:
269,203,137127,1,2,2:0:0:0:
190,188,137203,1,2,2:0:0:0:
153,117,137278,1,2,2:0:0:0:
195,39,137353,5,6,2:0:0:0:
223,48,137429,1,2,2:0:0:0:
243,69,137504,1,6,2:0:0:0:
250,98,137580,1,2,2:0:0:0:
243,127,137655,6,0,B|193:105|140:135|179:156|104:181|58:133,1,179.099994534302,4|0,1:0|2:0,2:0:0:0:
15,51,137956,2,0,B|19:21|40:-8|40:-8|45:27|72:55,1,119.399996356201,2|8,2:0|2:0,2:0:0:0:
217,214,138258,5,2,2:0:0:0:
265,236,138333,1,0,2:0:0:0:
311,225,138409,1,2,1:2:0:0:
342,189,138484,1,0,2:0:0:0:
371,159,138559,1,10,2:0:0:0:
412,155,138635,1,0,2:0:0:0:
445,167,138710,1,2,2:0:0:0:
465,196,138786,1,0,2:0:0:0:
462,231,138861,6,0,P|443:286|443:298,3,44.7749986335755,0|0|0|0,1:0|2:0|2:0|2:0,2:0:0:0:
311,225,139162,2,0,P|300:185|291:167,1,44.7749986335755,0|0,2:0|2:0,2:0:0:0:
435,56,139313,5,10,2:0:0:0:
341,302,139464,1,2,1:2:0:0:
243,127,139615,1,2,2:0:0:0:
465,357,139765,5,10,2:0:0:0:
433,355,139841,1,0,2:0:0:0:
401,352,139916,1,2,2:0:0:0:
369,349,139992,1,0,2:0:0:0:
334,344,140067,2,0,P|286:290|326:215,1,149.25,0|0,1:0|2:0,2:0:0:0:
402,202,140368,5,0,2:0:0:0:
174,297,140519,1,8,2:0:0:0:
27,88,140670,5,2,1:2:0:0:
67,26,140745,1,2,2:0:0:0:
136,16,140821,1,2,2:0:0:0:
195,39,140896,1,2,2:0:0:0:
224,96,140971,1,10,2:0:0:0:
275,115,141047,1,2,2:0:0:0:
318,107,141122,1,2,2:0:0:0:
353,78,141198,1,2,2:0:0:0:
357,43,141273,5,2,1:2:0:0:
332,38,141348,1,0,2:0:0:0:
308,47,141424,1,0,2:0:0:0:
294,67,141499,1,0,2:0:0:0:
294,92,141575,1,2,2:0:0:0:
310,110,141650,1,0,2:0:0:0:
332,119,141725,1,8,2:0:0:0:
356,114,141801,1,0,2:0:0:0:
374,97,141876,1,8,1:3:0:0:
195,39,142027,5,2,2:0:0:0:
76,187,142178,1,10,2:0:0:0:
105,213,142253,1,2,2:0:0:0:
114,251,142328,1,10,2:0:0:0:
110,290,142404,1,2,2:0:0:0:
82,328,142479,6,0,B|196:304|138:378|269:354,1,179.099994534302,4|0,1:0|2:0,2:0:0:0:
361,215,142781,2,0,L|376:77,1,119.399996356201,2|8,2:0|2:0,2:0:0:0:
203,138,143082,1,2,1:2:0:0:
209,173,143157,1,0,2:0:0:0:
214,208,143233,1,2,2:0:0:0:
219,243,143308,1,0,2:0:0:0:
225,278,143384,1,10,2:0:0:0:
455,346,143534,5,2,2:0:0:0:
469,311,143610,1,2,2:0:0:0:
481,278,143685,2,0,B|431:248|386:294|386:294|342:333|293:295,1,179.099994534302,2|0,1:2|2:0,2:0:0:0:
219,243,143987,1,2,2:0:0:0:
195,208,144062,1,0,2:0:0:0:
154,198,144137,1,10,2:0:0:0:
112,202,144213,1,0,2:0:0:0:
84,233,144288,5,2,1:2:0:0:
172,378,144439,1,2,2:0:0:0:
270,97,144590,1,8,2:0:0:0:
77,353,144740,1,2,2:0:0:0:
42,353,144816,1,2,2:0:0:0:
17,333,144891,6,0,L|-1:194,1,119.399996356201,2|0,1:2|2:0,2:0:0:0:
239,13,145193,2,0,L|257:156,1,119.399996356201,2|8,2:0|2:0,2:0:0:0:
67,100,145494,1,2,1:2:0:0:
225,278,145645,1,0,2:0:0:0:
419,80,145796,5,10,2:0:0:0:
461,100,145871,1,2,2:0:0:0:
476,144,145946,1,2,2:0:0:0:
467,191,146022,1,2,2:0:0:0:
428,219,146097,2,0,B|359:203|359:203|320:220|320:220|226:203,1,179.099994534302,10|2,2:0|1:2,2:0:0:0:
154,122,146399,6,0,B|184:118|217:106|217:106|260:214|125:232,1,208.949993623352,4|0,2:0|2:0,2:0:0:0:
4,357,146700,1,2,1:2:0:0:
40,285,146776,1,2,2:0:0:0:
114,269,146851,1,2,2:0:0:0:
179,307,146926,1,2,2:0:0:0:
207,363,147002,1,10,1:2:0:0:
266,382,147077,1,2,1:2:0:0:
324,360,147152,1,2,1:2:0:0:
350,310,147228,1,2,1:2:0:0:
341,272,147303,6,0,L|355:141,1,109.450003340149,4|0,1:0|2:0,2:0:0:0:
214,19,147605,1,2,2:0:0:0:
162,0,147680,1,0,2:0:0:0:
110,18,147755,1,10,2:0:0:0:
89,69,147831,1,0,2:0:0:0:
111,118,147906,2,0,L|236:126,1,109.450003340149,2|0,1:2|2:0,2:0:0:0:
428,219,148208,5,10,2:0:0:0:
379,26,148358,1,2,1:2:0:0:
220,124,148509,2,0,B|196:166|196:166|233:250,1,109.450003340149,2|0,1:2|2:0,2:0:0:0:
456,297,148811,5,2,2:0:0:0:
422,269,148886,1,2,2:0:0:0:
378,262,148961,1,10,2:0:0:0:
328,285,149037,1,2,2:0:0:0:
309,336,149112,5,2,1:2:0:0:
380,339,149188,1,2,2:0:0:0:
431,290,149263,1,2,2:0:0:0:
428,219,149338,1,2,2:0:0:0:
371,174,149414,1,10,2:0:0:0:
334,126,149489,1,0,2:0:0:0:
348,73,149564,1,10,2:0:0:0:
393,52,149640,1,0,2:0:0:0:
439,120,149715,6,0,B|397:145|329:127|376:105|323:73|228:106,1,179.099994534302,2|0,1:2|2:0,2:0:0:0:
128,233,150017,1,2,2:0:0:0:
47,32,150167,1,8,2:0:0:0:
271,95,150318,5,2,1:2:0:0:
317,149,150394,1,2,2:0:0:0:
303,212,150469,1,2,2:0:0:0:
248,247,150544,1,2,2:0:0:0:
219,292,150620,1,10,2:0:0:0:
224,339,150695,1,2,2:0:0:0:
252,368,150770,1,2,2:0:0:0:
294,368,150846,1,2,2:0:0:0:
325,340,150921,6,0,L|435:331,1,109.450003340149,2|0,1:2|2:0,2:0:0:0:
219,163,151223,2,0,L|109:154,1,109.450003340149,2|8,1:2|2:0,2:0:0:0:
446,17,151524,5,8,1:3:0:0:
469,39,151600,1,2,2:0:0:0:
477,70,151675,1,2,2:0:0:0:
468,102,151750,1,2,2:0:0:0:
438,123,151826,1,2,1:2:0:0:
418,141,151901,1,2,2:0:0:0:
408,166,151977,1,2,2:0:0:0:
409,193,152052,1,2,2:0:0:0:
420,209,152127,6,0,B|483:189|483:189|540:233|499:305,1,179.099994534302,4|0,1:0|2:0,2:0:0:0:
423,353,152429,2,0,L|299:336,1,99.5,2|8,2:0|2:0,2:0:0:0:
129,154,152730,1,2,1:2:0:0:
112,106,152806,1,0,2:0:0:0:
135,62,152881,1,2,2:0:0:0:
182,48,152956,1,0,2:0:0:0:
229,64,153032,2,0,L|216:192,1,99.5,10|2,2:0|2:0,2:0:0:0:
94,329,153333,5,2,1:2:0:0:
70,347,153409,1,0,2:0:0:0:
40,343,153484,1,0,2:0:0:0:
17,316,153559,1,0,2:0:0:0:
23,276,153635,1,2,2:0:0:0:
61,253,153710,1,0,2:0:0:0:
110,248,153786,1,8,2:0:0:0:
139,208,153861,1,0,2:0:0:0:
129,154,153936,2,0,L|63:163,1,49.75,2|0,1:2|2:0,2:0:0:0:
213,285,154087,2,0,L|262:278,1,49.75,2|0,2:0|2:0,2:0:0:0:
477,70,154238,5,10,2:0:0:0:
447,24,154313,1,0,2:0:0:0:
391,19,154389,1,2,2:0:0:0:
344,47,154464,1,2,2:0:0:0:
340,101,154539,2,0,B|347:155|347:155|374:186|374:186|381:244,1,149.25,12|0,2:0|2:0,2:0:0:0:
335,318,154841,5,10,2:0:0:0:
447,24,154992,1,0,1:0:0:0:
175,181,155142,5,10,2:0:0:0:
493,304,155293,1,0,1:0:0:0:
346,5,155444,5,10,2:0:0:0:
234,299,155595,1,0,1:0:0:0:
502,171,155745,5,10,1:2:0:0:
470,125,155821,1,2,2:0:0:0:
416,113,155896,1,2,2:0:0:0:
361,136,155971,1,2,2:0:0:0:
330,187,156047,1,10,1:2:0:0:
270,210,156122,1,2,2:0:0:0:
203,186,156198,1,2,2:0:0:0:
175,122,156273,1,2,2:0:0:0:
201,57,156348,5,10,1:2:0:0:
125,61,156424,1,2,2:0:0:0:
84,123,156499,1,10,2:0:0:0:
103,197,156575,1,2,2:0:0:0:
174,227,156650,1,10,1:2:0:0:
244,180,156725,1,2,2:0:0:0:
330,187,156801,1,10,2:0:0:0:
383,258,156876,1,10,2:0:0:0:
348,337,156951,6,0,B|304:282|317:152|395:247|392:95|356:64|339:54|339:54|332:125|386:164|447:155|478:141|516:91|501:45,1,582.074982236481,8|0,2:0|2:0,2:0:0:0:
441,2,161236,5,2,2:0:0:0:
441,2,161664,1,2,2:0:0:0:
441,2,162093,1,2,2:0:0:0:
92,364,162950,5,2,2:0:0:0:
92,364,163378,1,2,2:0:0:0:
92,364,163807,1,2,2:0:0:0:
134,93,164664,5,2,2:0:0:0:
227,86,165093,1,2,2:0:0:0:
323,78,165521,1,2,2:0:0:0:
338,102,165736,5,0,2:0:0:0:
260,176,165950,1,2,2:0:0:0:
270,149,166164,5,0,2:0:0:0:
377,173,166378,1,2,2:0:0:0:
345,189,166593,5,0,2:0:0:0:
270,149,166807,1,2,2:0:0:0:
338,102,167021,1,2,2:0:0:0:
469,256,167236,5,2,2:0:0:0:
469,256,167664,1,2,2:0:0:0:
92,364,168093,5,2,2:0:0:0:
104,274,168521,1,2,2:0:0:0:
114,184,168950,1,2,2:0:0:0:
441,2,169807,5,2,2:0:0:0:
453,92,170236,1,2,2:0:0:0:
463,182,170664,1,2,2:0:0:0:
408,245,171093,6,0,L|344:234,1,59.6999981781006,0|2,2:0|2:0,2:0:0:0:
97,339,172164,5,0,2:0:0:0:
118,250,172378,1,2,2:0:0:0:
187,305,172593,1,2,2:0:0:0:
256,246,172807,1,2,2:0:0:0:
276,342,173021,1,2,2:0:0:0:
186,191,173236,6,0,L|189:156,1,34.825,2|0,2:0|2:0,2:0:0:0:
195,77,174093,5,10,2:0:0:0:
450,354,174243,1,10,2:0:0:0:
419,56,174394,5,10,2:0:0:0:
223,373,174545,1,10,2:0:0:0:
79,92,174710,6,0,B|118:59|118:59|212:81,1,129.349994078827,4|0,1:0|2:0,2:0:0:0:
492,220,175011,2,0,L|339:240,1,129.349994078827,10|0,2:0|1:0,2:0:0:0:
108,353,175313,5,10,2:0:0:0:
282,86,175463,1,0,1:0:0:0:
303,347,175614,6,0,P|354:317|361:302,1,64.6749970394136,10|0,2:0|1:0,2:0:0:0:
79,92,175765,2,0,P|65:142|79:176,1,64.6749970394136,2|2,1:2|1:2,2:0:0:0:
418,52,175916,6,0,B|338:37|370:91|278:73,1,129.349994078827,10|0,2:0|1:0,2:0:0:0:
79,258,176217,5,10,2:0:0:0:
391,159,176368,1,0,1:0:0:0:
143,134,176519,5,10,2:0:0:0:
456,282,176669,1,2,1:2:0:0:
210,359,176820,5,10,2:0:0:0:
181,319,176895,1,2,2:0:0:0:
194,266,176971,1,2,1:2:0:0:
233,233,177046,1,2,2:0:0:0:
230,178,177122,2,0,L|216:40,1,129.349994078827,8|0,2:0|2:0,2:0:0:0:
480,227,177423,2,0,L|492:364,1,129.349994078827,10|0,2:0|1:0,2:0:0:0:
131,163,177725,5,10,2:0:0:0:
430,76,177875,1,0,1:0:0:0:
260,303,178026,1,12,2:0:0:0:
295,22,178177,1,0,2:0:0:0:
480,227,178328,6,0,L|388:213,1,64.6749970394136,8|2,1:3|1:2,2:0:0:0:
153,59,178478,2,0,L|216:49,1,64.6749970394136,2|2,1:2|1:2,2:0:0:0:
289,319,178629,5,2,1:2:0:0:
233,334,178704,1,2,1:2:0:0:
172,307,178780,1,2,1:2:0:0:
164,234,178855,1,2,1:2:0:0:
217,180,178931,6,0,B|284:171|311:104|304:65|304:65|289:116|240:133,1,223.875008540154,8|0,2:0|2:0,2:0:0:0:
113,174,179232,2,0,B|58:158|19:92|57:28|57:28|51:94|119:124,1,253.72500483942,4|0,1:2|2:0,2:0:0:0:
174,81,179534,5,4,1:0:0:0:
22,323,179684,1,0,2:0:0:0:
269,117,179835,5,10,2:0:0:0:
233,384,179986,1,0,1:0:0:0:
366,84,180137,5,10,2:0:0:0:
509,331,180287,1,0,1:0:0:0:
113,174,180438,5,10,2:0:0:0:
106,225,180514,1,2,2:0:0:0:
139,265,180589,1,2,1:2:0:0:
191,271,180664,1,2,2:0:0:0:
236,245,180740,2,0,B|208:100,1,129.349994078827,10|0,2:0|2:0,2:0:0:0:
452,236,181041,2,0,L|419:383,1,129.349994078827,10|0,2:0|1:0,2:0:0:0:
360,90,181343,5,10,2:0:0:0:
249,339,181493,1,2,1:2:0:0:
1,75,181644,5,10,2:0:0:0:
58,61,181720,1,2,2:0:0:0:
115,48,181795,1,2,1:2:0:0:
172,35,181870,1,2,2:0:0:0:
229,23,181946,2,0,B|257:65|245:140|197:97|181:173|211:240,1,194.024991118241,12|0,2:0|2:0,2:0:0:0:
249,339,182247,5,0,1:0:0:0:
348,206,182398,1,2,1:2:0:0:
110,215,182549,5,2,1:2:0:0:
395,325,182699,1,2,1:2:0:0:
76,337,182850,5,2,1:2:0:0:
226,107,183001,2,0,L|235:195,1,64.6749970394136,2|0,1:2|2:0,2:0:0:0:
243,369,183152,5,8,1:3:0:0:
253,318,183227,1,2,2:0:0:0:
287,279,183302,1,2,1:2:0:0:
343,264,183378,1,2,2:0:0:0:
402,240,183453,1,2,1:2:0:0:
428,173,183529,1,2,2:0:0:0:
398,108,183604,1,10,2:0:0:0:
330,87,183679,1,2,2:0:0:0:
262,127,183755,1,2,1:2:0:0:
230,204,183830,1,2,2:0:0:0:
149,232,183905,1,2,1:2:0:0:
78,195,183981,1,2,1:2:0:0:
61,126,184056,1,2,1:2:0:0:
84,72,184132,1,2,1:2:0:0:
130,50,184207,1,2,1:2:0:0:
175,50,184282,1,2,1:2:0:0:
202,67,184358,6,0,B|192:121|192:121|202:142|202:142|191:207,1,129.349994078827,4|0,1:0|2:0,2:0:0:0:
413,367,184659,2,0,B|403:313|403:313|413:292|413:292|402:227,1,129.349994078827,10|0,2:0|1:0,2:0:0:0:
166,310,184961,5,10,2:0:0:0:
398,108,185112,1,0,1:0:0:0:
61,129,185262,6,0,L|145:148,1,64.6749970394136,8|0,2:0|2:0,2:0:0:0:
467,255,185413,2,0,L|383:236,1,64.6749970394136,0|0,1:0|2:0,2:0:0:0:
97,366,185564,6,0,B|65:323|65:323|104:225,1,129.349994078827,10|0,2:0|2:0,2:0:0:0:
281,26,185865,2,0,B|313:69|313:69|274:167,1,129.349994078827,10|0,2:0|1:0,2:0:0:0:
216,194,186091,1,0,2:0:0:0:
194,186,186167,5,10,2:0:0:0:
447,114,186318,1,2,1:2:0:0:
36,41,186468,5,10,2:0:0:0:
33,86,186544,1,2,2:0:0:0:
61,129,186619,1,2,2:0:0:0:
55,174,186694,1,2,2:0:0:0:
73,221,186770,6,0,B|138:184|208:191|208:191|172:187|143:148,1,199,4|2,1:2|1:2,2:0:0:0:
223,113,187172,5,10,1:2:0:0:
287,159,187272,5,8,1:2:0:0:
285,247,187373,6,0,P|307:169|348:112,1,132.666666666667,2|8,1:2|1:2,2:0:0:0:
479,131,187674,5,10,1:2:0:0:
504,54,187775,5,10,1:2:0:0:
438,13,187875,5,0,1:0:0:0:
367,46,187976,6,0,P|376:154|423:288,1,238.799992712403,2|8,1:2|1:3,2:0:0:0:
482,328,188353,5,2,2:0:0:0:
448,354,188428,1,2,2:0:0:0:
391,353,188503,1,2,2:0:0:0:
343,309,188579,2,0,B|303:273|208:309|276:316|198:363|125:320,1,194.024991118241,6|0,1:2|2:0,2:0:0:0:
93,238,188880,6,0,B|44:187|112:98|190:194|121:246,1,194.024991118241,6|0,1:2|2:0,2:0:0:0:
35,346,189182,5,4,1:0:0:0:
23,354,189483,5,10,2:0:0:0:
94,57,189634,1,0,1:0:0:0:
224,364,189785,5,10,2:0:0:0:
218,58,189936,1,0,1:0:0:0:
406,345,190086,5,10,2:0:0:0:
335,48,190237,1,0,1:0:0:0:
498,192,190388,5,10,2:0:0:0:
471,243,190463,1,2,2:0:0:0:
420,261,190539,1,10,2:0:0:0:
369,250,190614,1,2,2:0:0:0:
337,209,190689,2,0,L|357:142,1,64.6749970394136,10|2,2:0|2:0,2:0:0:0:
213,300,190840,2,0,L|224:368,1,64.6749970394136,10|2,2:0|2:0,2:0:0:0:
30,159,190991,5,2,1:2:0:0:
16,138,191292,6,0,B|46:71|149:93|158:139|158:139|129:162|114:201,1,223.875008540154,12|0,1:2|2:0,2:0:0:0:
97,253,191594,5,4,1:0:0:0:
119,223,191669,1,0,2:0:0:0:
155,214,191745,1,0,1:0:0:0:
191,220,191820,1,0,2:0:0:0:
218,244,191895,1,2,1:2:0:0:
231,279,191971,1,0,2:0:0:0:
224,315,192046,1,8,2:0:0:0:
199,343,192122,1,8,2:0:0:0:
162,349,192197,5,8,1:0:0:0:
153,290,192272,1,8,2:0:0:0:
192,244,192348,1,8,2:0:0:0:
258,237,192423,1,8,2:0:0:0:
303,188,192498,1,8,1:0:0:0:
300,120,192574,1,8,2:0:0:0:
246,80,192649,1,8,2:0:0:0:
174,102,192725,1,8,2:0:0:0:
155,173,192800,6,0,L|231:162,1,59.6999981781006,2|2,1:2|2:0,2:0:0:0:
476,23,192951,2,0,L|394:19,1,59.6999981781006,2|2,1:2|2:0,2:0:0:0:
145,8,193101,2,0,L|227:13,1,59.6999981781006,2|2,1:2|2:0,2:0:0:0:
463,185,193252,1,2,1:2:0:0:
454,203,193328,1,2,2:0:0:0:
445,220,193403,6,0,B|369:210|369:210|346:222|346:222|239:210,1,179.099994534302,2|0,1:2|2:0,2:0:0:0:
76,308,193704,6,0,B|118:300|144:266|144:266|153:332|219:349,1,179.099994534302,2|8,1:2|2:0,2:0:0:0:
174,102,194006,5,4,1:0:0:0:
158,84,194307,5,8,2:0:0:0:
480,51,194458,1,0,1:0:0:0:
177,215,194609,5,8,2:0:0:0:
499,182,194760,1,0,1:0:0:0:
190,350,194911,5,8,2:0:0:0:
512,317,195061,1,0,1:0:0:0:
290,142,195212,5,10,2:0:0:0:
290,142,195287,1,0,2:0:0:0:
290,142,195363,1,2,1:2:0:0:
425,371,195514,1,10,2:0:0:0:
480,51,195664,1,2,1:2:0:0:
288,281,195815,6,0,L|194:266,3,64.6749970394136,10|0|0|0,2:0|2:0|1:2|2:0,2:0:0:0:
393,295,196117,1,10,2:0:0:0:
387,237,196192,1,0,2:0:0:0:
380,173,196267,1,0,1:2:0:0:
373,101,196343,1,0,2:0:0:0:
363,23,196418,5,4,1:0:0:0:
381,12,196720,5,8,2:0:0:0:
119,286,196870,1,0,1:0:0:0:
131,21,197021,5,8,2:0:0:0:
393,295,197172,1,0,1:0:0:0:
49,150,197323,5,8,2:0:0:0:
462,151,197473,1,0,1:0:0:0:
222,359,197624,6,0,B|236:288|179:309|198:214,1,129.349994078827,4|0,1:0|2:0,2:0:0:0:
288,60,197926,1,10,2:0:0:0:
393,295,198076,1,4,1:3:0:0:
49,150,198227,5,8,1:3:0:0:
108,100,198302,1,8,1:3:0:0:
179,107,198378,1,8,1:3:0:0:
223,153,198453,1,8,1:3:0:0:
276,177,198529,1,8,1:3:0:0:
327,170,198604,1,8,1:3:0:0:
365,146,198679,1,8,1:3:0:0:
380,110,198755,1,8,1:3:0:0:
372,78,198830,5,4,1:0:0:0:
158,320,198981,2,0,L|134:174,1,134.324995900726,8|0,2:0|2:0,2:0:0:0:
119,104,199282,5,0,1:0:0:0:
319,257,199433,1,8,2:0:0:0:
272,0,199584,2,0,L|250:189,1,179.099994534302,0|8,2:0|2:0,2:0:0:0:
238,284,199961,1,0,2:0:0:0:
238,284,200036,5,2,1:2:0:0:
39,97,200187,2,0,P|67:39|143:27,1,134.324995900726,8|0,2:0|2:0,2:0:0:0:
195,69,200488,5,0,1:0:0:0:
456,219,200639,2,0,P|428:161|352:149,1,134.324995900726,8|0,2:0|2:0,2:0:0:0:
238,284,200941,5,2,2:0:0:0:
241,305,201016,1,2,2:0:0:0:
245,326,201091,1,2,2:0:0:0:
249,348,201167,1,2,2:0:0:0:
253,369,201242,5,4,1:2:0:0:
369,229,201393,1,0,1:0:0:0:
57,150,201544,1,0,1:0:0:0:
426,1,201694,5,8,2:0:0:0:
473,24,201770,1,8,2:0:0:0:
487,74,201845,1,8,2:0:0:0:
467,125,201921,1,8,2:0:0:0:
394,146,201996,1,8,2:0:0:0:
340,206,202071,1,8,2:0:0:0:
351,292,202147,1,8,2:0:0:0:
434,328,202222,1,8,2:0:0:0:
512,277,202297,6,0,L|492:176,1,74.6250028467179,4|0,1:2|2:0,2:0:0:0:
497,203,203051,6,0,B|416:160|368:220|368:220|310:297|224:243,1,298.5,2|0,2:3|2:0,2:0:0:0:
209,177,203353,1,14,2:0:0:0:
207,158,203428,1,2,2:0:0:0:
218,140,203503,1,2,2:0:0:0:
217,120,203579,1,2,2:0:0:0:
227,105,203654,6,0,L|361:127,1,114.425002182484,4|0,1:0|2:0,2:0:0:0:
512,351,203956,2,0,L|377:328,1,114.425002182484,8|0,2:0|2:0,2:0:0:0:
455,74,204257,5,0,1:0:0:0:
306,245,204408,1,0,1:0:0:0:
130,23,204559,2,0,B|84:74|112:132|112:132|137:101|164:92,1,171.637503273726,8|0,2:0|2:0,2:0:0:0:
305,143,204860,6,0,B|237:133|266:175|184:172,1,114.425002182484,0|0,1:0|2:0,2:0:0:0:
4,303,205162,2,0,B|72:300|43:342|111:332,1,114.425002182484,8|0,2:0|2:0,2:0:0:0:
32,168,205463,5,0,1:0:0:0:
211,338,205614,1,0,1:0:0:0:
396,202,205765,2,0,P|414:111|449:10,1,171.637503273726,8|0,2:0|2:0,2:0:0:0:
240,76,206066,6,0,P|267:140|325:130,1,114.425002182484,2|0,1:3|2:0,2:0:0:0:
492,239,206368,2,0,P|395:247|387:336,1,171.637503273726,8|0,2:0|2:0,2:0:0:0:
430,369,206669,5,0,1:0:0:0:
242,217,206820,2,0,L|157:206,1,57.2125010912419,0|0,1:0|2:0,2:0:0:0:
411,121,206971,1,8,2:0:0:0:
268,326,207122,1,0,1:0:0:0:
42,128,207272,5,2,1:2:0:0:
50,55,207348,1,2,2:0:0:0:
112,27,207423,1,2,2:0:0:0:
173,38,207498,1,2,2:0:0:0:
201,88,207574,1,12,2:1:0:0:
195,138,207649,1,0,2:0:0:0:
159,177,207725,1,0,2:0:0:0:
119,183,207800,1,0,2:0:0:0:
86,160,207875,6,0,L|105:97,1,57.2125010912419,8|0,1:3|2:0,2:0:0:0:
251,271,208026,2,0,L|270:334,1,57.2125010912419,2|0,2:0|2:0,2:0:0:0:
55,364,208177,6,0,L|79:287,1,57.2125010912419,10|0,2:0|2:0,2:0:0:0:
288,87,208328,2,0,L|307:152,1,57.2125010912419,2|2,1:2|1:2,2:0:0:0:
483,347,208478,6,0,B|432:343|432:343|416:357|416:357|360:354,1,114.425002182484,4|0,1:2|2:0,2:0:0:0:
119,183,208780,2,0,B|169:179|169:179|185:193|185:193|241:190,1,114.425002182484,12|0,2:0|2:0,2:0:0:0:
458,86,209081,5,0,1:0:0:0:
286,0,209232,1,0,1:0:0:0:
393,221,209383,2,0,B|340:205|305:237|305:237|270:282|195:270,1,171.637503273726,8|0,2:0|2:0,2:0:0:0:
119,183,209684,6,0,P|174:133|205:151,1,114.425002182484,2|0,1:3|2:0,2:0:0:0:
457,340,209986,2,0,P|404:349|376:303,1,114.425002182484,8|0,2:0|2:0,2:0:0:0:
350,140,210287,5,0,1:0:0:0:
190,335,210438,1,0,2:0:0:0:
33,189,210589,2,0,B|-15:140|33:68|80:69|80:69|133:93,1,194.024991118241,10|0,2:3|2:0,2:0:0:0:
183,26,210890,6,0,P|147:129|141:265,1,194.024991118241,0|0,1:0|2:0,2:0:0:0:
101,289,211192,6,0,P|64:312|34:310,1,64.6749970394136,12|0,2:1|2:0,2:0:0:0:
263,191,211343,2,0,P|308:210|330:238,1,64.6749970394136,0|0,2:0|2:0,2:0:0:0:
109,82,211493,5,8,2:3:0:0:
238,291,211644,1,0,2:3:0:0:
402,79,211795,1,8,1:3:0:0:
393,47,211870,1,8,1:3:0:0:
384,15,211946,1,0,1:3:0:0:
35,260,212096,5,10,2:0:0:0:
87,319,212172,1,2,2:0:0:0:
163,323,212247,1,10,2:0:0:0:
227,279,212323,1,2,2:0:0:0:
245,204,212398,1,2,1:2:0:0:
287,155,212473,1,2,2:0:0:0:
350,140,212549,1,10,2:0:0:0:
408,168,212624,1,2,2:0:0:0:
433,228,212699,1,10,2:0:0:0:
411,283,212775,1,0,2:0:0:0:
364,305,212850,1,0,1:2:0:0:
316,290,212926,1,0,2:0:0:0:
300,254,213001,6,0,P|348:243|361:237,1,49.75,12|0,2:0|2:0,2:0:0:0:
512,124,213152,2,0,P|464:113|451:107,1,49.75,4|0,2:0|2:0,2:0:0:0:
384,15,213302,5,4,1:0:0:0:
