osu file format v14

[General]
AudioFilename: audio.mp3
AudioLeadIn: 0
PreviewTime: 161236
Countdown: 0
SampleSet: Soft
StackLeniency: 0.4
Mode: 0
LetterboxInBreaks: 0
WidescreenStoryboard: 1

[Editor]
Bookmarks: 12832,22480,46601,62279,75545,82178,99062,128007,156951,174710,194006
DistanceSpacing: 1.2
BeatDivisor: 4
GridSize: 8
TimelineZoom: 2.650001

[Metadata]
Title:Dramatic Hizakurige
TitleUnicode:ドラマティック膝栗毛
Artist:ShinRa-Bansho
ArtistUnicode:森羅万象
Creator:-Mikan
Version:Ducky-'s Normal
Source:東方Project
Tags:Journey AtHeoN Athy Shizuku- kazato asa adioni Ducky- Karia lolia RepL4y Lemaire Hikan touhou video game 卯酉東海道 ~ Retrospective 53 minutes あやぽんず* Ayaponzu* ヒロシゲ36号 ~ Neo Super-Express Hiroshige No.36 シンクロ2 Synchro 2 j-rock jrock japanese
BeatmapID:2297338
BeatmapSetID:942284

[Difficulty]
HPDrainRate:4
CircleSize:3
OverallDifficulty:5
ApproachRate:6
SliderMultiplier:0.799999999999999
SliderTickRate:1

[Events]
//Background and Video events
0,0,"OrangeMagicanGirl.png",0,0
//Break Periods
2,5495,6958
2,63485,64847
2,157151,160186
//Storyboard Layer 0 (Background)
//Storyboard Layer 1 (Fail)
//Storyboard Layer 2 (Pass)
//Storyboard Layer 3 (Foreground)
//Storyboard Layer 4 (Overlay)
//Storyboard Sound Samples

[TimingPoints]
772,301.507537688442,4,2,1,50,1,0
3184,-100,4,2,1,60,0,0
4390,-100,4,2,1,80,0,0
8008,-100,4,2,1,50,0,0
10118,-100,4,2,1,60,0,0
10420,-100,4,2,1,50,0,0
11325,-100,4,2,1,60,0,0
12832,-100,4,2,1,70,0,1
21274,-100,4,2,1,60,0,1
22179,-100,4,2,1,70,0,1
22480,-100,4,2,1,60,0,0
30922,-100,4,2,1,70,0,0
31827,-100,4,2,1,60,0,0
32128,-100,4,2,1,70,0,0
36952,-100,4,2,1,60,0,0
39063,-100,4,2,1,70,0,0
39364,-100,4,2,1,60,0,0
41777,-100,4,2,1,70,0,0
42078,-100,4,2,1,60,0,0
43284,-100,4,2,1,50,0,0
43888,-100,4,2,1,60,0,0
44189,-100,4,2,1,50,0,0
45696,-100,4,2,1,40,0,0
46299,-100,4,2,1,60,0,0
46601,-100,4,2,1,80,0,1
50822,-100,4,2,1,60,0,1
51425,-100,4,2,1,80,0,1
55646,-100,4,2,1,60,0,1
56249,-100,4,2,1,80,0,1
61073,-100,4,2,1,80,0,0
61375,-100,4,2,1,30,0,0
61676,-100,4,2,1,50,0,0
61978,-100,4,2,1,70,0,0
62279,-100,4,2,1,60,0,0
73435,-100,4,2,1,50,0,0
73737,-100,4,2,1,60,0,0
74038,-100,4,2,1,80,0,0
74339,-100,4,2,1,60,0,0
75545,301.507537688442,3,2,1,60,1,0
80972,301.507537688442,4,2,1,70,1,0
81575,-100,4,2,1,60,0,0
81876,-100,4,2,1,70,0,0
82178,-100,4,2,1,60,0,0
84289,-100,4,2,1,70,0,0
84590,-100,4,2,1,60,0,0
85494,-100,4,2,1,70,0,0
86700,-100,4,2,1,60,0,0
88509,-100,4,2,1,45,0,0
88962,-100,4,2,1,60,0,0
89112,-100,4,2,1,70,0,0
89414,-100,4,2,1,60,0,0
91826,-100,4,2,1,50,0,0
96951,-100,4,2,1,60,0,0
97856,-100,4,2,1,50,0,0
98760,-100,4,2,1,60,0,0
99062,-100,4,2,1,80,0,1
103284,-100,4,2,1,60,0,1
103886,-100,4,2,1,80,0,1
108107,-100,4,2,1,60,0,1
108710,-100,4,2,1,80,0,1
112479,-100,4,2,1,70,0,1
112630,-100,4,2,1,60,0,1
112781,-100,4,2,1,50,0,1
112931,-100,4,2,1,40,0,1
113534,-100,4,2,1,80,0,0
113836,-100,4,2,1,30,0,0
113987,-100,4,2,1,40,0,0
114137,-100,4,2,1,50,0,0
114288,-100,4,2,1,60,0,0
114439,-100,4,2,1,70,0,0
114590,-100,4,2,1,80,0,0
114740,-100,4,2,1,60,0,0
115946,-100,4,2,1,50,0,0
118057,-100,4,2,1,70,0,0
118358,-100,4,2,1,60,0,0
123183,-100,4,2,1,70,0,0
127705,-100,4,2,1,80,0,0
128007,-100,4,2,1,60,0,1
128610,-100,4,2,1,70,0,1
128911,-100,4,2,1,50,0,1
129213,-100,4,2,1,60,0,1
129816,-100,4,2,1,70,0,1
130118,-100,4,2,1,50,0,1
130419,-100,4,2,1,60,0,1
131022,-100,4,2,1,80,0,1
131474,-100,4,2,1,50,0,1
131625,-100,4,2,1,40,0,1
132228,-100,4,2,1,60,0,1
137052,-100,4,2,1,40,0,1
137353,-100,4,2,1,60,0,1
137655,-100,4,2,1,60,0,0
140670,-100,4,2,1,80,0,0
140971,-100,4,2,1,60,0,0
146700,-100,4,2,1,70,0,0
147002,-100,4,2,1,50,0,0
147303,-100,4,2,1,60,0,0
150620,-100,4,2,1,70,0,0
150921,-100,4,2,1,60,0,0
156951,428.571428571429,4,2,1,60,1,0
161236,428.571428571429,4,2,1,40,1,0
174093,301.507537688442,4,2,1,70,1,0
174710,301.507537688442,4,2,1,80,1,1
178479,-100,4,2,1,70,0,1
178630,-100,4,2,1,60,0,1
178931,-100,4,2,1,80,0,1
179233,-100,4,2,1,90,0,1
179534,-100,4,2,1,80,0,1
183755,-100,4,2,1,70,0,1
184358,-100,4,2,1,80,0,1
186318,-100,4,2,1,50,0,1
186468,-100,4,2,1,60,0,1
186619,-100,4,2,1,70,0,1
186770,-100,4,2,1,70,0,0
189181,-100,4,2,1,80,0,0
190991,-100,4,2,1,60,0,0
191594,-100,4,2,1,80,0,0
192197,-100,4,2,1,40,0,0
192499,-100,4,2,1,60,0,0
192800,-100,4,2,1,80,0,0
193403,-100,4,2,1,60,0,0
194006,-100,4,2,1,80,0,1
198529,-100,4,2,1,60,0,1
201242,-100,4,2,1,80,0,1
201694,-100,4,2,1,50,0,1
201845,-100,4,2,1,60,0,1
202147,-100,4,2,1,80,0,1
202297,-100,4,2,1,60,0,0
203051,-100,4,2,4,60,0,0
203353,-100,4,2,1,70,0,0
206066,-100,4,2,2,70,0,0
206368,-100,4,2,1,70,0,0
209684,-100,4,2,2,70,0,0
209986,-100,4,2,1,70,0,0
210589,-100,4,2,2,70,0,0
211192,-100,4,2,1,60,0,0
212096,-100,4,2,1,80,0,0
212247,-100,4,2,1,70,0,0
212549,-100,4,2,1,50,0,0
212700,-100,4,2,1,40,0,0
213001,-100,4,2,1,60,0,0
213302,-100,4,2,1,80,0,0

[Colours]
Combo1 : 226,217,92
Combo2 : 249,164,70
Combo3 : 159,0,0

[HitObjects]
18,89,772,6,0,P|106:71|192:67,1,160.004,4|2,1:0|2:0,2:0:0:0:
298,214,1978,2,0,P|219:197|140:191,1,160.004,6|2,1:0|2:0,2:0:0:0:
33,351,3184,1,6,1:0:0:0:
33,351,4390,6,0,L|43:261,1,80.1346666666665,6|4,1:2|1:0,2:0:0:0:
101,196,4993,2,0,L|91:106,1,80.1346666666665,8|0,2:3|1:0,2:0:0:0:
355,92,8008,6,0,P|389:51|427:35,2,80.0019999999999,6|0|0,1:0|2:0|2:0,2:0:0:0:
392,180,8912,1,0,2:0:0:0:
297,161,9214,2,0,P|243:156|205:171,2,80.0019999999999,0|0|0,1:0|2:0|2:0,2:0:0:0:
314,255,10118,1,4,1:2:0:0:
249,326,10420,6,0,P|211:345|161:347,1,80.1346666666665,2|0,1:0|2:0,2:0:0:0:
124,266,11023,2,0,P|88:247|49:243,1,80.1346666666665,0|4,2:0|1:2,2:0:0:0:
7,329,11626,1,0,1:0:0:0:
12,137,12229,2,0,P|63:93|124:95,1,120.069333333333,8|0,2:3|0:0,0:0:0:0:
147,124,12832,5,4,1:0:0:0:
232,80,13133,2,0,L|298:67,1,40,8|0,2:0|2:0,2:0:0:0:
308,102,13435,2,0,P|300:163|298:193,1,80.1346666666665,0|8,1:0|2:0,0:0:0:0:
348,263,14038,1,0,1:0:0:0:
295,343,14339,2,0,L|249:326,1,40,8|0,2:0|2:0,2:0:0:0:
215,305,14641,2,0,P|178:294|135:293,1,79.9999999999999,0|8,1:0|3:2,0:0:0:0:
41,304,15244,5,0,1:0:0:0:
17,210,15545,2,0,L|77:193,1,40,8|0,2:0|2:0,2:0:0:0:
86,161,15847,2,0,P|106:112|116:83,2,80.0019999999999,0|8|0,1:0|2:0|1:0,0:0:0:0:
159,222,16751,1,8,2:0:0:0:
253,206,17053,2,0,P|293:186|345:181,1,79.9999999999999,0|12,1:0|2:0,2:0:0:0:
423,170,17656,5,4,1:0:0:0:
379,84,17957,2,0,L|323:88,1,40,8|0,2:0|2:0,2:0:0:0:
292,100,18259,2,0,P|245:87|199:81,1,80.1346666666665,0|8,1:0|2:0,0:0:0:0:
132,32,18862,1,0,1:0:0:0:
47,76,19163,2,0,L|63:127,1,40,8|0,2:0|0:0,2:0:0:0:
68,161,19465,2,0,P|39:198|23:236,1,80.1346666666665,0|8,1:0|2:0,2:0:0:0:
75,309,20068,5,4,1:2:0:0:
160,265,20369,2,0,L|252:276,2,80.0019999999999,12|8|8,2:1|2:3|2:0,2:0:0:0:
137,171,21274,2,0,L|145:123,1,40.2,8|8,2:0|2:0,0:0:0:0:
222,77,21726,2,0,L|230:29,1,40.2,8|8,2:0|2:0,0:0:0:0:
322,14,22179,1,12,2:0:0:0:
407,57,22480,5,4,1:0:0:0:
352,136,22782,1,10,2:0:0:0:
361,231,23083,2,0,L|370:281,1,40.2,2|2,2:0|1:2,0:0:0:0:
343,311,23385,2,0,L|334:361,1,40.2,10|2,2:0|2:0,0:0:0:0:
292,371,23686,5,2,1:2:0:0:
196,357,23988,1,10,2:0:0:0:
216,270,24289,2,0,P|176:269|136:264,1,80.1346666666665,2|10,2:0|2:0,2:0:0:0:
48,271,24892,5,0,1:2:0:0:
19,179,25194,1,10,2:0:0:0:
84,108,25495,2,0,L|122:119,1,40.2,2|2,2:0|1:2,0:0:0:0:
162,93,25797,2,0,L|200:81,1,40.2,10|0,2:0|0:0,2:0:0:0:
243,101,26098,5,2,1:2:0:0:
333,67,26400,1,10,2:0:0:0:
337,162,26701,2,0,P|339:201|340:249,1,80.1346666666665,0|10,0:0|2:0,0:0:0:0:
279,316,27304,5,0,1:0:0:0:
361,365,27606,1,10,2:0:0:0:
450,330,27907,2,0,L|457:284,1,40.2,2|2,2:0|1:2,0:0:0:0:
427,251,28209,2,0,L|420:205,1,40.2,10|2,2:0|2:0,0:0:0:0:
461,185,28510,5,2,1:2:0:0:
503,98,28812,1,10,2:0:0:0:
438,26,29113,2,0,P|400:38|378:70,1,80.1346666666665,2|10,2:0|2:0,2:0:0:0:
320,146,29716,5,0,1:2:0:0:
254,75,30018,1,10,2:0:0:0:
201,155,30319,1,2,2:0:0:0:
133,86,30621,1,10,2:0:0:0:
77,163,30922,2,0,P|44:200|37:241,1,80.1346666666665,6|4,1:2|1:0,2:0:0:0:
133,231,31525,2,0,P|167:258|183:297,1,80.1346666666665,10|2,2:0|1:2,2:0:0:0:
129,364,32128,5,4,1:0:0:0:
224,377,32430,1,8,2:0:0:0:
290,308,32731,2,0,P|329:299|373:292,1,80.1346666666665,0|8,1:0|2:0,0:0:0:0:
458,326,33334,1,0,1:0:0:0:
476,231,33636,1,8,2:0:0:0:
394,180,33937,2,0,P|385:136|376:91,1,80.1346666666665,0|12,1:0|2:0,0:0:0:0:
290,62,34540,5,0,1:0:0:0:
238,143,34842,1,8,2:0:0:0:
166,79,35143,2,0,P|145:30|127:2,2,80.0019999999999,0|12|4,1:0|2:0|1:2,0:0:0:0:
114,160,36048,1,12,2:1:0:0:
177,231,36349,2,0,P|193:276|200:310,1,80.1346666666665,8|8,1:3|2:0,2:0:0:0:
272,370,36952,5,4,1:0:0:0:
359,330,37254,1,10,2:0:0:0:
319,242,37555,2,0,L|314:196,1,40.2,2|2,2:0|1:2,0:0:0:0:
353,173,37857,2,0,L|358:127,1,40.2,10|2,2:0|2:0,0:0:0:0:
324,97,38158,5,2,1:2:0:0:
378,17,38460,1,10,2:0:0:0:
282,19,38761,2,0,P|235:10|200:18,1,80.1346666666665,2|14,2:0|2:0,2:0:0:0:
155,99,39364,5,0,1:0:0:0:
59,94,39666,1,10,2:0:0:0:
3,172,39967,2,0,L|16:217,1,40.2,2|2,2:0|1:2,0:0:0:0:
51,240,40269,2,0,L|38:285,1,40.2,10|2,2:0|2:0,2:0:0:0:
46,326,40570,1,2,1:2:0:0:
128,375,40872,1,10,2:0:0:0:
190,302,41174,2,0,L|285:287,1,80.1346666666665,2|10,2:0|2:0,2:0:0:0:
319,371,41777,5,4,1:2:0:0:
413,355,42078,1,10,2:0:0:0:
379,272,42380,2,0,P|383:245|393:226,1,40.2,2|2,2:0|1:2,0:0:0:0:
418,196,42681,2,0,P|413:169|403:150,1,40.2,14|2,2:0|1:2,2:0:0:0:
366,132,42983,1,2,1:2:0:0:
438,69,43284,1,14,2:0:0:0:
365,5,43586,2,0,P|326:15|290:32,1,80.1346666666665,6|14,2:0|2:0,2:0:0:0:
217,95,44189,6,0,L|139:79,1,80.1346666666665,4|0,1:0|0:0,2:0:0:0:
100,109,44641,1,8,2:3:0:0:
100,109,44792,2,0,P|78:147|117:215,1,120.069333333333,2|0,2:0|0:0,0:0:0:0:
156,207,45395,1,2,1:2:0:0:
156,302,45696,1,2,1:2:0:0:
248,276,45998,1,6,1:2:0:0:
314,345,46299,1,6,1:2:0:0:
379,296,46601,6,0,L|392:249,1,40.2,4|0,1:0|2:0,2:0:0:0:
373,212,46902,2,0,L|360:165,1,40.2,10|0,2:0|1:0,0:0:0:0:
391,135,47204,1,10,2:0:0:0:
324,66,47505,1,8,2:0:0:0:
267,144,47807,6,0,L|222:156,1,40.2,10|0,2:0|2:0,2:0:0:0:
187,128,48108,2,0,L|148:117,1,40.2,10|0,2:0|1:0,2:0:0:0:
106,141,48410,1,10,2:0:0:0:
49,63,48711,1,10,2:0:0:0:
5,148,49013,6,0,P|2:193|12:232,1,80.1346666666665,10|10,2:0|2:0,2:0:0:0:
76,303,49616,1,10,2:0:0:0:
76,303,49766,1,2,1:2:0:0:
76,303,49917,2,0,L|125:295,1,40.2,10|2,2:0|1:2,2:0:0:0:
157,271,50219,2,0,L|204:276,2,40.0673333333333,10|2|10,2:0|2:0|2:0,0:0:0:0:
121,175,50822,2,0,L|138:88,1,80.1346666666665,10|10,2:0|2:0,2:0:0:0:
223,55,51425,6,0,P|242:49|264:50,1,40.2,4|0,1:0|2:0,2:0:0:0:
298,80,51726,2,0,P|317:80|336:74,1,40.2,10|0,2:0|1:0,0:0:0:0:
369,38,52028,1,10,2:0:0:0:
430,111,52329,1,8,2:0:0:0:
388,197,52631,6,0,P|378:224|377:247,1,40.2,10|0,2:0|2:0,2:0:0:0:
412,267,52932,2,0,P|422:294|423:317,1,40.2,10|0,2:0|1:0,2:0:0:0:
392,342,53234,1,10,2:0:0:0:
306,384,53535,1,10,2:0:0:0:
245,309,53837,6,0,P|223:298|203:301,1,40.2,10|0,2:0|0:0,2:0:0:0:
175,334,54138,2,0,P|159:347|129:347,1,40.2,10|0,2:0|0:0,2:0:0:0:
99,323,54440,2,0,L|46:309,2,40.0673333333333,10|2|10,2:0|1:2|2:0,2:0:0:0:
146,239,55043,2,0,L|155:192,1,40.2,10|2,2:0|2:0,0:0:0:0:
130,157,55344,2,0,L|121:110,1,40.2,14|0,2:0|0:0,2:0:0:0:
150,78,55646,1,8,2:3:0:0:
239,112,55947,1,8,2:3:0:0:
316,55,56249,6,0,P|365:39|408:31,1,80.1346666666665,4|8,1:0|2:0,2:0:0:0:
445,113,56852,2,0,P|405:121|368:134,1,80.1346666666665,8|8,2:0|2:0,0:0:0:0:
306,208,57455,2,0,L|296:255,1,40.2,10|2,2:0|1:2,0:0:0:0:
329,283,57756,2,0,L|339:330,1,40.2,10|2,2:0|1:2,0:0:0:0:
307,360,58058,1,10,2:0:0:0:
214,335,58359,1,10,2:0:0:0:
128,378,58661,6,0,L|39:362,1,80.1346666666665,10|8,2:0|2:0,2:0:0:0:
29,269,59264,2,0,L|107:283,1,80.1346666666665,8|8,2:0|2:0,0:0:0:0:
163,204,59867,2,0,L|155:154,1,40.2,10|2,2:0|1:2,0:0:0:0:
168,117,60168,2,0,L|215:99,2,40.0673333333333,10|2|10,2:0|1:2|2:0,0:0:0:0:
73,97,60771,2,0,L|65:57,1,40.2,12|8,2:0|0:0,2:0:0:0:
95,20,61073,6,0,P|133:13|189:22,1,80.1346666666665,4|8,1:0|2:0,0:0:0:0:
266,41,61676,2,0,P|304:48|360:39,1,80.1346666666665,8|8,2:0|2:0,2:0:0:0:
404,118,62279,1,8,2:0:0:0:
93,129,65897,6,0,P|140:114|213:102,2,120,0|8|10,3:0|3:2|3:2,0:0:0:0:
160,197,67103,1,10,3:2:0:0:
312,79,67706,2,0,L|329:162,1,80.1346666666665,2|6,1:2|1:2,0:0:0:0:
408,211,68309,6,0,P|376:274|388:329,2,120.069333333333,0|8|10,3:0|3:2|3:2,0:0:0:0:
336,147,69515,1,10,3:2:0:0:
238,312,70118,2,0,L|246:351,2,40.0673333333333,2|8|8,1:2|2:3|2:3,0:0:0:0:
164,249,70721,6,0,P|74:233|18:234,2,120,0|8|10,3:2|3:2|3:2,0:0:0:0:
190,156,71927,1,10,3:2:0:0:
362,40,72530,2,0,P|405:59|436:99,1,80.1346666666665,2|4,1:2|1:0,0:0:0:0:
438,178,73133,5,6,1:2:0:0:
342,193,73435,2,0,P|335:245|324:284,1,80.1346666666665,10|8,2:0|2:0,0:0:0:0:
373,356,74038,1,8,2:0:0:0:
280,381,74339,1,0,1:0:0:0:
190,346,74641,2,0,L|143:360,2,40.0673333333333,4|2|2,1:2|1:2|1:2,0:0:0:0:
187,249,75244,1,2,1:2:0:0:
96,218,75545,6,0,P|69:174|45:157,1,80.1346666666665,4|8,1:0|2:0,2:0:0:0:
92,73,76148,1,8,2:0:0:0:
174,122,76449,2,0,L|252:103,1,80.1346666666665,0|8,1:0|2:3,0:0:0:0:
328,160,77052,1,8,2:3:0:0:
388,85,77354,6,0,P|431:88|477:113,1,80.1346666666665,0|8,1:0|2:0,2:0:0:0:
494,194,77957,1,8,2:0:0:0:
402,222,78258,1,0,1:0:0:0:
467,292,78560,1,0,0:0:0:0:
396,356,78861,1,10,2:0:0:0:
335,281,79163,6,0,P|295:268|241:266,1,80.1346666666665,2|8,1:2|2:0,2:0:0:0:
194,336,79766,1,8,2:0:0:0:
136,258,80067,2,0,L|114:173,1,80.1346666666665,0|0,1:0|1:0,0:0:0:0:
169,101,80670,1,8,2:0:0:0:
260,132,80972,5,12,2:1:0:0:
326,63,81273,2,0,L|320:14,2,40.0673333333333,0|12|8,1:0|2:0|2:0,0:0:0:0:
404,118,81876,1,12,2:0:0:0:
347,195,82178,5,4,1:0:0:0:
415,261,82479,1,10,2:0:0:0:
352,334,82781,2,0,L|305:345,1,40.2,2|2,1:2|1:2,0:0:0:0:
275,312,83082,2,0,L|236:302,1,40.2,10|2,2:0|2:0,0:0:0:0:
197,272,83384,5,2,1:2:0:0:
146,353,83685,1,10,2:0:0:0:
82,280,83987,2,0,P|79:231|76:188,1,80.1346666666665,2|14,1:2|2:0,2:0:0:0:
162,155,84590,5,0,1:0:0:0:
111,75,84891,1,10,2:0:0:0:
207,52,85193,2,0,L|261:45,2,40,2|2|10,1:2|1:2|2:0,0:0:0:0:
253,135,85796,2,0,L|307:128,1,40.2,2|2,1:2|2:0,0:0:0:0:
334,106,86097,2,0,L|373:111,1,40.2,10|2,2:0|2:0,0:0:0:0:
421,119,86399,1,2,1:2:0:0:
502,168,86700,1,14,2:0:0:0:
509,263,87002,6,0,L|476:359,1,79.9999999999999,4|10,1:0|2:0,2:0:0:0:
437,352,87454,2,0,P|402:337|344:341,1,79.9999999999999,2|0,2:0|1:0,2:0:0:0:
317,358,87906,1,10,2:0:0:0:
282,268,88208,6,0,L|312:183,1,79.9999999999999,2|10,1:2|2:0,2:0:0:0:
324,147,88660,2,0,P|302:137|238:136,1,80.1346666666665,2|8,1:2|2:0,0:0:0:0:
213,100,89112,1,10,2:0:0:0:
146,169,89414,6,0,L|47:175,1,79.9999999999999,4|10,1:0|2:0,2:0:0:0:
22,88,90017,1,2,2:0:0:0:
88,19,90318,1,8,2:0:0:0:
175,58,90620,2,0,L|256:47,1,79.9999999999999,10|14,2:0|2:0,2:0:0:0:
327,110,91223,1,6,1:2:0:0:
356,201,91524,1,0,1:0:0:0:
447,169,91826,5,4,1:0:0:0:
452,264,92127,1,2,1:2:0:0:
403,346,92429,2,0,L|352:342,1,40.2,2|0,1:2|2:0,0:0:0:0:
322,316,92730,2,0,L|274:326,1,40.4653333333333,2|2,1:2|2:0,0:0:0:0:
235,334,93032,1,2,1:2:0:0:
145,367,93333,1,2,1:2:0:0:
93,285,93635,2,0,L|104:200,1,79.9999999999999,2|2,1:2|1:2,2:0:0:0:
160,128,94238,5,0,1:0:0:0:
106,55,94539,1,6,1:2:0:0:
46,130,94841,2,0,L|40:178,1,40.2,2|6,1:2|2:0,0:0:0:0:
12,207,95142,2,0,L|17:246,1,40.2,0|2,1:0|2:0,0:0:0:0:
59,272,95444,1,6,1:2:0:0:
151,296,95745,1,2,1:2:0:0:
243,321,96047,2,0,P|277:288|283:244,1,80.1346666666665,2|6,1:2|1:2,2:0:0:0:
269,162,96650,5,4,1:0:0:0:
356,122,96951,1,2,1:2:0:0:
420,193,97253,2,0,L|415:240,1,40.2,10|10,1:2|1:2,0:0:0:0:
445,271,97554,2,0,L|440:318,1,40.2,10|10,1:2|1:2,0:0:0:0:
403,342,97856,5,6,1:2:0:0:
341,268,98157,1,2,2:0:0:0:
272,335,98459,1,2,2:0:0:0:
215,258,98760,1,4,2:0:0:0:
126,296,99062,6,0,L|116:243,1,40.2,4|0,1:0|2:0,2:0:0:0:
87,220,99363,2,0,L|97:167,1,40.2,10|0,2:0|1:0,0:0:0:0:
126,143,99665,1,10,2:0:0:0:
63,70,99966,1,8,2:0:0:0:
158,59,100268,6,0,L|199:63,1,40.2,10|0,2:0|2:0,2:0:0:0:
225,23,100569,2,0,L|264:19,1,40.2,10|0,2:0|1:0,2:0:0:0:
299,53,100871,1,10,2:0:0:0:
388,17,101173,1,10,2:0:0:0:
474,88,101474,5,10,2:0:0:0:
413,162,101776,1,10,2:0:0:0:
319,142,102077,2,0,L|277:151,1,40.2,10|2,2:0|1:2,2:0:0:0:
256,192,102379,2,0,L|214:201,1,40.2,10|2,2:0|1:2,2:0:0:0:
184,241,102680,6,0,P|185:288|210:329,2,80.1346666666665,10|10|10,2:0|2:0|2:0,0:0:0:0:
145,144,103585,1,10,2:0:0:0:
55,196,103886,5,4,1:0:0:0:
9,102,104188,1,10,2:0:0:0:
87,33,104489,2,0,L|136:21,1,40,10|0,2:0|1:0,0:0:0:0:
169,53,104791,2,0,L|218:65,1,40.2,8|0,2:0|1:0,0:0:0:0:
243,100,105092,5,10,2:0:0:0:
341,66,105394,1,10,2:0:0:0:
419,133,105695,2,0,L|422:180,1,40.2,10|2,2:0|1:2,0:0:0:0:
383,208,105997,2,0,L|380:247,1,40.2,10|2,2:0|1:2,0:0:0:0:
411,289,106298,5,10,2:0:0:0:
353,375,106600,1,10,2:0:0:0:
260,327,106901,2,0,L|210:332,1,40.1999999999999,10|2,2:0|1:2,2:0:0:0:
187,290,107203,2,0,L|137:285,1,40.1999999999999,10|2,2:0|1:2,2:0:0:0:
128,237,107504,2,0,L|124:148,1,80.1346666666665,8|14,1:3|2:0,0:0:0:0:
167,62,108107,1,8,2:3:0:0:
65,36,108409,1,8,2:3:0:0:
22,130,108710,6,0,L|32:209,1,80.1346666666665,4|8,1:0|2:0,2:0:0:0:
128,237,109313,2,0,L|139:317,1,80.1346666666665,8|8,2:0|2:0,0:0:0:0:
234,356,109916,6,0,L|286:346,1,40,10|2,2:0|1:2,0:0:0:0:
306,307,110218,2,0,L|371:317,1,40,10|2,2:0|1:2,0:0:0:0:
383,348,110519,1,10,2:0:0:0:
476,301,110821,1,10,2:0:0:0:
501,200,111122,6,0,P|473:158|481:113,1,79.9999999999999,10|8,2:0|2:0,2:0:0:0:
385,75,111725,2,0,P|368:117|373:158,1,80.1346666666665,8|8,2:0|2:0,0:0:0:0:
298,225,112328,2,0,P|291:244|293:276,1,40.2,10|2,2:0|1:2,0:0:0:0:
318,301,112630,2,0,P|325:320|323:352,1,40.2,10|2,2:0|1:2,0:0:0:0:
292,374,112931,1,10,2:0:0:0:
209,324,113233,2,0,P|187:311|157:308,1,40.2,12|0,2:0|2:0,0:0:0:0:
128,326,113534,5,4,1:0:0:0:
59,258,113836,2,0,L|64:217,1,40.2,8|8,2:0|2:0,2:0:0:0:
83,174,114137,2,0,L|78:133,1,40.2,8|8,2:0|2:0,2:0:0:0:
62,88,114439,2,0,L|67:47,1,40.2,8|10,2:0|2:0,2:0:0:0:
103,17,114740,5,4,2:1:0:0:
326,329,115946,5,4,1:2:0:0:
415,292,116248,2,0,P|426:248|418:202,1,79.9999999999999,2|2,1:2|2:0,0:0:0:0:
407,169,116700,1,2,1:2:0:0:
436,132,116851,1,10,2:0:0:0:
405,42,117152,6,0,L|351:31,1,40.2,2|8,1:2|2:3,0:0:0:0:
331,69,117454,2,0,L|291:77,1,40.2,2|8,2:0|2:3,0:0:0:0:
260,41,117755,1,2,2:0:0:0:
179,92,118057,1,12,2:0:0:0:
89,56,118358,6,0,L|108:142,1,79.9999999999999,4|8,1:0|2:0,2:0:0:0:
168,207,118961,2,0,L|148:265,1,40,0|0,1:0|1:0,0:0:0:0:
117,275,119263,2,0,P|133:303|156:319,1,40,8|0,2:0|0:0,2:0:0:0:
171,342,119564,2,0,P|227:328|268:322,1,79.9999999999999,2|8,1:2|2:0,2:0:0:0:
333,279,120167,2,0,L|385:295,1,40,0|0,1:0|1:0,0:0:0:0:
406,324,120469,2,0,L|467:308,1,40,8|0,2:0|0:0,2:0:0:0:
484,287,120770,2,0,P|500:213|497:186,1,79.9999999999999,6|8,1:2|2:0,2:0:0:0:
467,118,121374,2,0,L|414:127,1,40,0|0,1:0|1:0,0:0:0:0:
391,155,121675,2,0,L|326:139,1,40,8|0,2:0|0:0,2:0:0:0:
322,107,121977,2,0,L|227:120,1,79.9999999999999,2|12,1:2|2:0,2:0:0:0:
203,30,122580,2,0,L|162:34,1,40,8|0,3:0|1:0,2:0:0:0:
122,59,122881,2,0,L|59:50,1,40,0|0,1:0|1:0,2:0:0:0:
40,29,123183,5,4,1:0:0:0:
45,124,123484,1,8,2:0:0:0:
125,177,123786,2,0,L|116:225,1,40,8|0,2:0|1:0,0:0:0:0:
133,261,124087,2,0,L|124:309,1,40,8|0,2:0|1:0,0:0:0:0:
141,346,124389,5,8,2:0:0:0:
232,374,124690,1,8,2:0:0:0:
304,311,124992,2,0,L|365:322,1,40,8|0,2:0|1:0,0:0:0:0:
373,355,125293,2,0,L|431:365,1,40,12|0,2:0|0:0,2:0:0:0:
450,332,125595,6,0,P|493:291|507:229,1,120.069333333333,8|0,1:3|1:2,2:0:0:0:
465,209,126198,2,0,P|443:173|434:131,1,80.1346666666665,8|8,1:3|2:0,2:0:0:0:
455,93,126650,1,4,1:0:0:0:
374,52,126951,1,8,1:3:0:0:
374,52,127102,2,0,L|321:64,1,40.2,0|8,1:0|2:0,0:0:0:0:
303,98,127404,1,8,2:0:0:0:
214,60,127705,1,12,2:0:0:0:
125,98,128007,6,0,B|157:142|157:142|133:258,1,160,0|2,1:0|1:2,0:0:0:0:
46,280,128911,1,10,2:0:0:0:
103,355,129213,2,0,L|185:361,1,80.1346666666665,0|0,1:2|2:0,0:0:0:0:
253,296,129816,2,0,L|332:291,1,80.1346666666665,2|10,1:2|2:0,0:0:0:0:
426,336,130419,6,0,P|467:306|476:271,1,80.1346666666665,0|0,1:2|2:0,0:0:0:0:
402,208,131022,2,0,P|390:160|430:95,1,120.069333333333,2|2,1:2|2:0,0:0:0:0:
406,54,131625,6,0,B|367:70|326:42|349:21|305:-16|258:3,1,160,0|8,1:2|1:3,0:0:0:0:
214,79,132529,1,8,2:0:0:0:
125,35,132831,2,0,P|84:45|29:111,1,120.069333333333,4|10,1:0|3:2,0:0:0:0:
55,143,133434,2,0,P|90:178|102:248,1,120.069333333333,0|2,1:0|2:0,0:0:0:0:
74,285,134037,6,0,P|102:325|176:316,1,120.069333333333,2|10,1:2|3:2,0:0:0:0:
202,289,134640,1,0,1:0:0:0:
378,364,135243,2,0,P|437:361|502:348,1,120.069333333333,2|10,1:2|3:2,0:0:0:0:
485,299,135846,2,0,P|463:270|447:185,1,120.069333333333,0|2,1:0|2:0,0:0:0:0:
471,144,136449,5,8,1:3:0:0:
424,61,136750,1,8,1:3:0:0:
336,101,137052,1,8,1:3:0:0:
270,31,137353,1,6,2:0:0:0:
205,103,137655,5,4,1:0:0:0:
166,190,137956,2,0,L|94:166,1,40,2|8,2:0|2:0,2:0:0:0:
79,174,138258,2,0,P|63:120|52:99,1,80.1346666666665,2|10,2:0|2:0,2:0:0:0:
9,77,138710,2,0,P|30:23|97:3,1,120,2|0,2:0|2:0,0:0:0:0:
146,74,139464,2,0,L|240:59,1,79.9999999999999,2|10,1:2|2:0,0:0:0:0:
302,4,140067,5,0,1:0:0:0:
368,73,140368,1,0,2:0:0:0:
441,11,140670,1,2,1:2:0:0:
501,85,140971,1,10,2:0:0:0:
433,153,141273,2,0,L|422:200,1,40.2,2|0,1:2|2:0,2:0:0:0:
444,235,141575,2,0,L|455:282,1,40,2|8,2:0|2:0,2:0:0:0:
430,316,141876,1,8,1:3:0:0:
338,286,142178,1,10,2:0:0:0:
261,343,142479,5,4,1:0:0:0:
174,300,142781,2,0,L|134:304,1,40.2,2|8,2:0|2:0,2:0:0:0:
95,332,143082,2,0,P|55:294|36:270,1,80.1346666666665,2|10,1:2|2:0,2:0:0:0:
61,232,143534,2,0,P|87:186|102:107,1,120.069333333333,2|2,2:0|2:0,0:0:0:0:
165,49,144288,2,0,L|215:37,1,40.2,2|2,1:2|2:0,0:0:0:0:
239,72,144590,2,0,L|277:81,1,40.2,8|2,2:0|2:0,0:0:0:0:
324,69,144891,6,0,L|405:59,1,79.9999999999999,2|2,1:2|2:0,2:0:0:0:
451,142,145494,2,0,L|369:153,1,79.9999999999999,2|10,1:2|2:0,0:0:0:0:
284,192,146097,1,10,2:0:0:0:
303,286,146399,1,4,2:0:0:0:
209,307,146700,2,0,L|114:321,1,80.1346666666665,2|10,1:2|1:2,0:0:0:0:
45,364,147303,5,4,1:0:0:0:
34,268,147605,2,0,L|49:220,1,40,2|10,2:0|2:0,2:0:0:0:
85,202,147906,2,0,L|74:109,1,79.9999999999999,2|10,1:2|2:0,2:0:0:0:
76,74,148358,2,0,P|126:43|202:53,1,120.069333333333,2|2,1:2|2:0,0:0:0:0:
229,131,149112,2,0,L|283:141,1,40.2,2|2,1:2|2:0,0:0:0:0:
307,109,149414,2,0,L|346:101,1,40.2,10|10,2:0|2:0,2:0:0:0:
393,91,149715,6,0,P|417:142|416:178,1,80.1346666666665,2|2,1:2|2:0,2:0:0:0:
482,236,150318,2,0,P|448:265|433:308,1,80.1346666666665,2|10,1:2|2:0,0:0:0:0:
371,369,150921,1,2,1:2:0:0:
302,302,151223,1,2,1:2:0:0:
231,367,151524,2,0,L|152:379,1,80.1346666666665,8|2,1:3|1:2,0:0:0:0:
58,362,152127,5,4,1:0:0:0:
115,285,152429,2,0,L|100:237,1,40,2|8,2:0|2:0,2:0:0:0:
73,208,152730,2,0,L|84:115,1,79.9999999999999,2|10,1:2|2:0,2:0:0:0:
70,82,153182,2,0,P|120:51|196:61,1,120.069333333333,2|2,2:0|2:0,0:0:0:0:
266,93,153936,2,0,L|320:103,1,40.2,2|2,1:2|2:0,0:0:0:0:
336,63,154238,2,0,L|375:55,1,40.2,10|2,2:0|2:0,0:0:0:0:
412,84,154539,5,12,2:0:0:0:
367,169,154841,1,10,2:0:0:0:
422,247,155142,1,10,2:0:0:0:
362,321,155444,1,10,2:0:0:0:
281,255,155745,2,0,B|241:204|169:223|169:223|201:139|160:69|85:67,1,320,10|8,1:2|2:0,0:0:0:0:
24,96,161236,6,0,P|78:84|195:61,1,160,2|2,2:0|2:0,0:0:0:0:
367,19,162950,2,0,B|395:40|395:40|362:164,1,160,2|2,2:0|2:0,0:0:0:0:
293,339,164664,6,0,L|200:314,1,80.1066666666667,2|2,2:0|2:0,0:0:0:0:
190,225,165521,2,0,L|137:232,1,40.0533333333334,2|0,2:0|2:0,0:0:0:0:
110,256,165950,2,0,L|57:249,1,40.0533333333334,2|0,2:0|2:0,0:0:0:0:
37,215,166378,2,0,P|31:193|31:162,2,40.0533333333334,2|0|2,2:0|2:0|2:0,0:0:0:0:
114,158,167236,2,0,P|163:145|203:139,1,80.1066666666667,2|2,2:0|2:0,2:0:0:0:
246,61,168093,6,0,B|351:85|351:85|365:109|344:138,1,160.026666666667,2|2,2:0|2:0,0:0:0:0:
246,298,169807,2,0,P|289:261|394:257,1,160.026666666667,2|2,2:0|2:0,0:0:0:0:
461,318,171093,1,0,2:0:0:0:
388,254,171521,6,0,L|373:174,1,80.1066666666667,2|0,2:0|0:0,0:0:0:0:
405,140,172164,1,0,2:0:0:0:
405,140,172378,2,0,P|400:101|388:46,1,79.9999999999999,2|2,2:0|2:0,0:0:0:0:
312,5,173236,1,2,2:0:0:0:
76,59,174093,6,0,L|96:9,2,40.0673333333333,10|10|10,2:0|2:0|2:0,0:0:0:0:
41,153,174710,6,0,L|55:202,1,40.2,4|0,1:0|2:0,2:0:0:0:
88,222,175011,2,0,L|74:271,1,40.2,10|0,2:0|1:0,0:0:0:0:
95,305,175313,1,10,2:0:0:0:
174,358,175614,1,10,2:0:0:0:
250,299,175916,2,0,L|298:291,1,40.2,10|0,2:0|1:0,0:0:0:0:
333,312,176217,2,0,L|372:318,1,40.2,10|0,2:0|1:0,0:0:0:0:
417,301,176519,1,10,2:0:0:0:
369,217,176820,1,10,2:0:0:0:
305,144,177122,6,0,P|300:98|323:62,1,80.1346666666665,8|10,2:0|2:0,2:0:0:0:
411,40,177725,1,10,2:0:0:0:
411,40,177875,1,0,1:0:0:0:
411,40,178026,2,0,P|432:48|451:63,1,40.2,12|0,2:0|0:0,2:0:0:0:
463,104,178328,2,0,L|489:139,2,40,8|2|2,1:3|1:2|1:2,0:0:0:0:
383,158,178931,2,0,L|288:140,1,80.1346666666665,8|4,2:0|1:2,2:0:0:0:
226,86,179534,5,4,1:0:0:0:
130,73,179835,1,10,2:0:0:0:
98,160,180137,2,0,P|107:179|107:205,1,40.2,10|0,2:0|1:0,0:0:0:0:
78,235,180438,2,0,P|69:254|69:280,1,40.2,10|2,2:0|1:2,2:0:0:0:
94,313,180740,5,10,2:0:0:0:
181,352,181041,1,10,2:0:0:0:
273,325,181343,2,0,P|300:306|311:293,1,40.2,10|2,2:0|1:2,0:0:0:0:
351,311,181644,2,0,P|378:330|389:343,1,40.2,10|2,2:0|1:2,0:0:0:0:
431,333,181946,6,0,P|469:291|487:263,1,80.1346666666665,12|0,2:0|1:0,2:0:0:0:
402,217,182549,2,0,L|389:167,1,40.2,2|2,1:2|1:2,0:0:0:0:
427,146,182850,2,0,L|440:96,1,40.2,2|2,1:2|1:2,0:0:0:0:
416,64,183152,2,0,P|375:48|329:50,1,80.1346666666665,8|2,1:3|1:2,2:0:0:0:
270,114,183755,2,0,L|224:120,1,40.2,2|2,1:2|1:2,0:0:0:0:
186,99,184056,2,0,L|146:93,1,40.2,2|2,1:2|1:2,0:0:0:0:
99,105,184358,5,4,1:0:0:0:
128,196,184659,1,10,2:0:0:0:
47,248,184961,2,0,P|38:269|31:284,1,40.2,10|0,2:0|1:0,0:0:0:0:
66,316,185262,2,0,P|73:334|82:352,1,40.2,8|0,2:0|1:0,0:0:0:0:
131,379,185564,5,10,2:0:0:0:
225,360,185865,1,10,2:0:0:0:
263,271,186167,2,0,P|269:252|265:221,1,40.2,10|2,2:0|1:2,0:0:0:0:
239,193,186468,2,0,P|238:172|244:153,1,40.2,10|2,2:0|2:0,0:0:0:0:
280,121,186770,6,0,L|263:10,1,80.1346666666665,4|0,1:2|0:0,2:0:0:0:
362,0,187373,1,2,1:2:0:0:
446,46,187674,1,10,1:2:0:0:
405,133,187976,2,0,P|418:170|427:209,1,80.1346666666665,2|8,1:2|1:3,2:0:0:0:
336,240,188579,1,6,1:2:0:0:
382,324,188880,1,6,1:2:0:0:
296,367,189181,6,0,L|217:357,1,80.1346666666665,4|10,1:0|2:0,2:0:0:0:
192,263,189785,1,10,2:0:0:0:
113,318,190086,1,10,2:0:0:0:
53,242,190388,2,0,L|73:128,1,79.9999999999999,10|10,2:0|2:0,2:0:0:0:
161,148,190991,1,2,1:2:0:0:
150,52,191292,1,12,1:2:0:0:
55,68,191594,5,4,1:0:0:0:
66,163,191895,1,2,1:2:0:0:
161,148,192197,2,0,P|216:141|249:124,1,80.1346666666665,8|8,1:0|1:0,0:0:0:0:
307,64,192800,2,0,P|361:64|395:80,2,80.0019999999999,2|2|2,1:2|1:2|1:2,2:0:0:0:
238,130,193704,1,2,1:2:0:0:
173,201,194006,6,0,L|153:298,1,80.1346666666665,4|8,1:0|2:0,2:0:0:0:
251,296,194609,2,0,L|267:218,1,80.1346666666665,8|8,2:0|2:0,0:0:0:0:
238,130,195212,1,10,2:0:0:0:
307,64,195514,1,10,2:0:0:0:
384,120,195815,1,10,2:0:0:0:
461,63,196117,1,10,2:0:0:0:
495,152,196418,6,0,P|504:208|518:243,1,80.1346666666665,4|8,1:0|2:0,2:0:0:0:
466,314,197021,2,0,P|426:318|388:330,1,80.1346666666665,8|8,2:0|2:0,0:0:0:0:
300,369,197624,1,4,1:0:0:0:
219,317,197926,2,0,L|228:251,1,40.2,10|4,2:0|1:3,0:0:0:0:
258,243,198227,1,8,1:3:0:0:
222,153,198529,1,8,1:3:0:0:
304,104,198830,6,0,P|382:99|443:148,1,160.004,4|8,1:0|2:0,0:0:0:0:
436,244,199735,1,0,2:0:0:0:
346,277,200036,2,0,L|356:195,1,80.1346666666665,2|0,1:2|0:0,0:0:0:0:
316,183,200488,1,0,1:0:0:0:
316,183,200639,2,0,L|303:99,1,80.1346666666665,8|2,2:0|2:0,2:0:0:0:
235,36,201242,6,0,P|199:18|160:23,1,80.1346666666665,4|0,1:2|1:0,0:0:0:0:
132,62,201694,1,8,2:0:0:0:
132,62,201845,2,0,L|26:69,1,80.1346666666665,8|8,2:0|2:0,0:0:0:0:
12,93,202297,1,4,1:2:0:0:
12,93,203051,1,2,2:3:0:0:
37,185,203353,1,14,2:0:0:0:
132,179,203654,5,4,1:0:0:0:
102,270,203956,1,8,2:0:0:0:
167,339,204257,2,0,L|273:318,1,80.1346666666665,0|8,1:0|2:0,0:0:0:0:
331,366,204860,1,0,1:0:0:0:
359,274,205162,1,8,2:0:0:0:
274,229,205463,2,0,L|256:150,1,80.1346666666665,0|8,1:0|2:0,0:0:0:0:
282,60,206066,5,2,1:3:0:0:
363,8,206368,1,8,2:0:0:0:
433,72,206669,2,0,L|521:85,2,79.9999999999999,0|8|2,1:0|2:0|1:2,0:0:0:0:
364,139,207574,1,12,2:1:0:0:
419,217,207875,2,0,L|424:256,2,40.0673333333333,8|2|10,1:3|2:0|2:0,2:0:0:0:
364,139,208478,5,4,1:2:0:0:
292,74,208780,1,12,2:0:0:0:
208,120,209081,2,0,P|140:101|95:89,1,80.1346666666665,0|8,1:0|2:0,0:0:0:0:
53,154,209684,1,2,1:3:0:0:
97,239,209986,1,8,2:0:0:0:
67,329,210287,2,0,L|116:362,1,40.2,0|0,1:0|0:0,2:0:0:0:
146,337,210589,2,0,L|205:324,1,40.2,10|0,2:3|2:0,2:0:0:0:
227,351,210890,5,0,1:0:0:0:
317,319,211192,2,0,L|337:257,1,40.2,12|0,2:1|2:0,0:0:0:0:
355,240,211493,2,0,L|335:178,1,40.2,8|0,2:3|2:3,0:0:0:0:
361,157,211795,1,8,1:3:0:0:
326,67,212096,2,0,L|267:45,1,40.2,10|10,2:0|2:0,0:0:0:0:
199,89,212549,2,0,L|153:92,1,40.2,10|10,2:0|2:0,0:0:0:0:
83,31,213001,1,12,2:0:0:0:
45,119,213302,5,4,1:0:0:0:
