osu file format v14

[General]
AudioFilename: audio.mp3
AudioLeadIn: 0
PreviewTime: 161236
Countdown: 0
SampleSet: Soft
StackLeniency: 0.4
Mode: 0
LetterboxInBreaks: 0
WidescreenStoryboard: 1

[Editor]
DistanceSpacing: 1.3
BeatDivisor: 4
GridSize: 8
TimelineZoom: 1.950002

[Metadata]
Title:Dramatic Hizakurige
TitleUnicode:ドラマティック膝栗毛
Artist:ShinRa-Bansho
ArtistUnicode:森羅万象
Creator:-Mikan
Version:Athy's Endless Dream
Source:東方Project
Tags:Journey AtHeoN Athy Shizuku- kazato asa adioni Ducky- Karia lolia RepL4y Lemaire Hikan touhou video game 卯酉東海道 ~ Retrospective 53 minutes あやぽんず* Ayaponzu* ヒロシゲ36号 ~ Neo Super-Express Hiroshige No.36 シンクロ2 Synchro 2 j-rock jrock japanese
BeatmapID:1967557
BeatmapSetID:942284

[Difficulty]
HPDrainRate:5
CircleSize:4
OverallDifficulty:9.2
ApproachRate:9.6
SliderMultiplier:2
SliderTickRate:1

[Events]
//Background and Video events
0,0,"OrangeMagicanGirl.png",0,0
//Break Periods
//Storyboard Layer 0 (Background)
//Storyboard Layer 1 (Fail)
//Storyboard Layer 2 (Pass)
//Storyboard Layer 3 (Foreground)
//Storyboard Layer 4 (Overlay)
//Storyboard Sound Samples

[TimingPoints]
772,301.507537688442,4,2,1,50,1,0
772,-133.333333333333,4,2,1,50,0,0
1299,-133.333333333333,4,2,1,5,0,0
1375,-133.333333333333,4,2,1,50,0,0
2355,-133.333333333333,4,2,1,5,0,0
2430,-133.333333333333,4,2,1,50,0,0
3108,-133.333333333333,4,2,1,5,0,0
3184,-133.333333333333,4,2,1,60,0,0
3485,-133.333333333333,4,2,1,30,0,0
3636,-133.333333333333,4,2,1,40,0,0
3787,-133.333333333333,4,2,1,50,0,0
3937,-133.333333333333,4,2,1,60,0,0
4088,-133.333333333333,4,2,1,70,0,0
4239,-133.333333333333,4,2,1,80,0,0
4390,-66.6666666666667,4,2,1,80,0,0
4616,-66.6666666666667,4,2,1,5,0,0
4691,-66.6666666666667,4,2,1,80,0,0
4917,-66.6666666666667,4,2,1,5,0,0
4993,-66.6666666666667,4,2,1,80,0,0
5445,-100,4,2,1,60,0,0
7706,-79.9999999999999,4,2,1,60,0,0
7932,-79.9999999999999,4,2,1,5,0,0
8008,-133.333333333333,4,2,1,50,0,0
10118,-79.9999999999999,4,2,1,60,0,0
10344,-79.9999999999999,4,2,1,5,0,0
10420,-133.333333333333,4,2,1,50,0,0
11324,-79.9999999999999,4,2,1,60,0,0
11550,-79.9999999999999,4,2,1,5,0,0
11626,-200,4,2,1,60,0,0
12153,-200,4,2,1,5,0,0
12229,-200,4,2,1,60,0,0
12530,-66.6666666666667,4,2,1,60,0,0
12756,-66.6666666666667,4,2,1,5,0,0
12832,-79.9999999999999,4,2,1,70,0,0
13058,-79.9999999999999,4,2,1,5,0,0
13133,-79.9999999999999,4,2,1,70,0,0
14264,-79.9999999999999,4,2,1,5,0,0
14339,-79.9999999999999,4,2,1,70,0,0
15470,-79.9999999999999,4,2,1,5,0,0
15545,-79.9999999999999,4,2,1,70,0,0
16676,-79.9999999999999,4,2,1,5,0,0
16751,-79.9999999999999,4,2,1,70,0,0
17354,-240,4,2,1,70,0,0
17580,-240,4,2,1,5,0,0
17656,-79.9999999999999,4,2,1,70,0,0
17882,-79.9999999999999,4,2,1,5,0,0
17957,-79.9999999999999,4,2,1,70,0,0
19088,-79.9999999999999,4,2,1,5,0,0
19163,-79.9999999999999,4,2,1,70,0,0
19389,-79.9999999999999,4,2,1,5,0,0
19465,-66.6666666666667,4,2,1,70,0,0
19766,-57.1428571428571,4,2,1,70,0,0
19993,-57.1428571428571,4,2,1,5,0,0
20068,-80,4,2,1,70,0,0
20294,-80,4,2,1,5,0,0
20369,-66.6666666666667,4,2,1,70,0,0
21274,-66.6666666666667,4,2,1,60,0,0
21425,-100,4,2,1,60,0,0
22179,-66.6666666666667,4,2,1,70,0,0
22405,-66.6666666666667,4,2,1,5,0,0
22480,-66.6666666666667,4,2,1,60,0,0
22782,-100,4,2,1,60,0,0
24817,-100,4,2,1,5,0,0
24892,-133.333333333333,4,2,1,60,0,0
25118,-133.333333333333,4,2,1,5,0,0
25194,-133.333333333333,4,2,1,60,0,0
25344,-100,4,2,1,60,0,0
25797,-200,4,2,1,60,0,0
26023,-200,4,2,1,5,0,0
26098,-100,4,2,1,60,0,0
26550,-133.333333333333,4,2,1,60,0,0
26776,-133.333333333333,4,2,1,5,0,0
26852,-133.333333333333,4,2,1,60,0,0
27003,-100,4,2,1,60,0,0
29641,-100,4,2,1,5,0,0
29716,-133.333333333333,4,2,1,60,0,0
29942,-133.333333333333,4,2,1,5,0,0
30018,-133.333333333333,4,2,1,60,0,0
30168,-100,4,2,1,60,0,0
30621,-200,4,2,1,60,0,0
30847,-200,4,2,1,5,0,0
30922,-79.9999999999999,4,2,1,70,0,0
31148,-79.9999999999999,4,2,1,5,0,0
31224,-66.6666666666667,4,2,1,70,0,0
31450,-66.6666666666667,4,2,1,5,0,0
31525,-100,4,2,1,70,0,0
31827,-300,4,2,1,60,0,0
32128,-79.9999999999999,4,2,1,70,0,0
32354,-79.9999999999999,4,2,1,5,0,0
32430,-79.9999999999999,4,2,1,70,0,0
33560,-79.9999999999999,4,2,1,5,0,0
33636,-79.9999999999999,4,2,1,70,0,0
34766,-79.9999999999999,4,2,1,5,0,0
34842,-79.9999999999999,4,2,1,70,0,0
35671,-79.9999999999999,4,2,1,5,0,0
35746,-100,4,2,1,70,0,0
35972,-100,4,2,1,5,0,0
36048,-66.6666666666667,4,2,1,70,0,0
36274,-66.6666666666667,4,2,1,5,0,0
36349,-100,4,2,1,70,0,0
36651,-300,4,2,1,70,0,0
36877,-300,4,2,1,5,0,0
36952,-300,4,2,1,60,0,0
37254,-100,4,2,1,60,0,0
39063,-79.9999999999999,4,2,1,70,0,0
39289,-79.9999999999999,4,2,1,5,0,0
39364,-100,4,2,1,60,0,0
41777,-79.9999999999999,4,2,1,70,0,0
42003,-79.9999999999999,4,2,1,5,0,0
42078,-100,4,2,1,60,0,0
43284,-100,4,2,1,50,0,0
43887,-79.9999999999999,4,2,1,60,0,0
44113,-79.9999999999999,4,2,1,5,0,0
44189,-133.333333333333,4,2,1,50,0,0
44566,-133.333333333333,4,2,1,5,0,0
44641,-133.333333333333,4,2,1,50,0,0
45093,-200,4,2,1,50,0,0
45319,-200,4,2,1,5,0,0
45395,-100,4,2,1,50,0,0
45471,-100,4,2,1,5,0,0
45696,-100,4,2,1,40,0,0
46299,-66.6666666666667,4,2,1,60,0,0
46525,-66.6666666666667,4,2,1,5,0,0
46601,-79.9999999999999,4,2,1,80,0,1
49239,-79.9999999999999,4,2,1,5,0,1
49314,-79.9999999999999,4,2,1,80,0,1
50822,-133.333333333333,4,2,1,60,0,0
51425,-66.6666666666667,4,2,1,80,0,1
52631,-79.9999999999999,4,2,1,80,0,1
54063,-79.9999999999999,4,2,1,5,0,1
54138,-66.6666666666667,4,2,1,80,0,1
54364,-66.6666666666667,4,2,1,5,0,1
54440,-79.9999999999999,4,2,1,80,0,1
55344,-66.6666666666667,4,2,1,80,0,1
55646,-133.333333333333,4,2,1,60,0,0
56249,-66.6666666666667,4,2,1,80,0,1
58058,-79.9999999999999,4,2,1,80,0,1
60771,-66.6666666666667,4,2,1,80,0,1
60997,-66.6666666666667,4,2,1,5,0,1
61073,-66.6666666666667,4,2,1,80,0,1
61375,-100,4,2,1,30,0,1
61451,-100,4,2,1,5,0,1
61525,-90.9090909090909,4,2,1,40,0,1
61601,-90.9090909090909,4,2,1,5,0,1
61676,-83.3333333333333,4,2,1,50,0,1
61752,-83.3333333333333,4,2,1,5,0,1
61827,-76.9230769230769,4,2,1,60,0,1
61903,-76.9230769230769,4,2,1,5,0,1
61978,-71.4285714285714,4,2,1,70,0,1
62054,-71.4285714285714,4,2,1,5,0,1
62128,-66.6666666666667,4,2,1,80,0,1
62204,-66.6666666666667,4,2,1,5,0,1
62279,-133.333333333333,4,2,1,60,0,0
63485,-133.333333333333,4,2,1,50,0,0
65897,-133.333333333333,4,2,1,60,0,0
68008,-66.6666666666667,4,2,1,60,0,0
68234,-66.6666666666667,4,2,1,5,0,0
68309,-66.6666666666667,4,2,1,60,0,0
68611,-133.333333333333,4,2,1,60,0,0
72832,-66.6666666666667,4,2,1,60,0,0
73058,-66.6666666666667,4,2,1,5,0,0
73133,-66.6666666666667,4,2,1,60,0,0
73435,-66.6666666666667,4,2,1,50,0,0
73736,-66.6666666666667,4,2,1,60,0,0
73887,-66.6666666666667,4,2,1,70,0,0
74038,-66.6666666666667,4,2,1,80,0,0
74189,-66.6666666666667,4,2,1,90,0,0
74339,-100,4,2,1,60,0,0
74565,-100,4,2,1,5,0,0
74641,-100,4,2,1,60,0,0
75545,301.507537688442,3,2,1,60,1,0
75545,-133.333333333333,3,2,1,60,0,0
75771,-133.333333333333,3,2,1,5,0,0
75846,-133.333333333333,3,2,1,60,0,0
76072,-133.333333333333,3,2,1,5,0,0
76148,-133.333333333333,3,2,1,60,0,0
77580,-133.333333333333,3,2,1,5,0,0
77655,-133.333333333333,3,2,1,60,0,0
77881,-133.333333333333,3,2,1,5,0,0
77957,-133.333333333333,3,2,1,60,0,0
78635,-133.333333333333,3,2,1,5,0,0
78710,-133.333333333333,3,2,1,60,0,0
79389,-133.333333333333,3,2,1,5,0,0
79464,-133.333333333333,3,2,1,60,0,0
79690,-133.333333333333,3,2,1,5,0,0
79766,-133.333333333333,3,2,1,60,0,0
80896,-133.333333333333,3,2,1,5,0,0
80972,301.507537688442,4,2,1,70,1,0
80972,-79.9999999999999,4,2,1,70,0,0
81575,-133.333333333333,4,2,1,60,0,0
81801,-133.333333333333,4,2,1,5,0,0
81876,-66.6666666666667,4,2,1,70,0,0
82102,-66.6666666666667,4,2,1,5,0,0
82178,-66.6666666666667,4,2,1,60,0,0
82479,-100,4,2,1,60,0,0
84288,-79.9999999999999,4,2,1,70,0,0
84514,-79.9999999999999,4,2,1,5,0,0
84590,-79.9999999999999,4,2,1,60,0,0
84891,-100,4,2,1,60,0,0
85494,-100,4,2,1,70,0,0
86625,-100,4,2,1,5,0,0
86700,-79.9999999999999,4,2,1,60,0,0
86926,-79.9999999999999,4,2,1,5,0,0
87002,-100,4,2,1,60,0,0
88132,-100,4,2,1,5,0,0
88208,-100,4,2,1,60,0,0
88509,-100,4,2,1,45,0,0
88811,-100,4,2,1,50,0,0
88961,-100,4,2,1,60,0,0
89112,-100,4,2,1,70,0,0
89263,-100,4,2,1,80,0,0
89414,-100,4,2,1,60,0,0
90921,-80,4,2,1,60,0,0
91826,-80,4,2,1,50,0,0
92127,-133.333333333333,4,2,1,50,0,0
96348,-79.9999999999999,4,2,1,50,0,0
96574,-79.9999999999999,4,2,1,5,0,0
96650,-100,4,2,1,50,0,0
96951,-100,4,2,1,60,0,0
97856,-100,4,2,1,50,0,0
98760,-66.6666666666667,4,2,1,60,0,0
98986,-66.6666666666667,4,2,1,5,0,0
99062,-80,4,2,1,80,0,1
101700,-80,4,2,1,5,0,1
101776,-80,4,2,1,80,0,1
103283,-133.333333333333,4,2,1,60,0,0
103886,-66.6666666666667,4,2,1,80,0,1
105092,-79.9999999999999,4,2,1,80,0,1
106524,-79.9999999999999,4,2,1,5,0,1
106600,-66.6666666666667,4,2,1,80,0,1
106826,-66.6666666666667,4,2,1,5,0,1
106901,-79.9999999999999,4,2,1,80,0,1
107806,-66.6666666666667,4,2,1,80,0,1
108107,-133.333333333333,4,2,1,60,0,0
108710,-66.6666666666667,4,2,1,80,0,1
112479,-66.6666666666667,4,2,1,70,0,1
112630,-66.6666666666667,4,2,1,60,0,1
112781,-66.6666666666667,4,2,1,50,0,1
112931,-79.9999999999999,4,2,1,40,0,1
113534,-79.9999999999999,4,2,1,80,0,1
113836,-100,4,2,1,30,0,1
113912,-100,4,2,1,5,0,1
113987,-90.9090909090909,4,2,1,40,0,1
114063,-90.9090909090909,4,2,1,5,0,1
114137,-83.3333333333333,4,2,1,50,0,1
114213,-83.3333333333333,4,2,1,5,0,1
114288,-76.9230769230769,4,2,1,60,0,1
114364,-76.9230769230769,4,2,1,5,0,1
114439,-71.4285714285714,4,2,1,70,0,1
114515,-71.4285714285714,4,2,1,5,0,1
114590,-71.4285714285714,4,2,1,80,0,1
114740,-200,4,2,1,60,0,0
115870,-200,4,2,1,5,0,0
115946,-133.333333333333,4,2,1,50,0,0
118057,-66.6666666666667,4,2,1,70,0,0
118283,-66.6666666666667,4,2,1,5,0,0
118358,-100,4,2,1,60,0,0
119489,-100,4,2,1,5,0,0
119564,-100,4,2,1,60,0,0
120695,-100,4,2,1,5,0,0
120770,-100,4,2,1,60,0,0
121901,-100,4,2,1,5,0,0
121977,-100,4,2,1,60,0,0
122278,-79.9999999999999,4,2,1,60,0,0
122504,-79.9999999999999,4,2,1,5,0,0
122580,-100,4,2,1,60,0,0
123183,-66.6666666666667,4,2,1,70,0,0
125519,-66.6666666666667,4,2,1,5,0,0
125595,-100,4,2,1,70,0,0
125972,-100,4,2,1,5,0,0
126047,-100,4,2,1,70,0,0
126424,-100,4,2,1,5,0,0
126499,-100,4,2,1,70,0,0
126650,-66.6666666666667,4,2,1,70,0,0
126876,-66.6666666666667,4,2,1,5,0,0
126951,-100,4,2,1,70,0,0
127630,-100,4,2,1,5,0,0
127705,-66.6666666666667,4,2,1,80,0,0
127931,-66.6666666666667,4,2,1,5,0,0
128007,-66.6666666666667,4,2,1,60,0,0
128610,-66.6666666666667,4,2,1,70,0,0
128760,-66.6666666666667,4,2,1,60,0,0
128911,-66.6666666666667,4,2,1,50,0,0
129213,-66.6666666666667,4,2,1,60,0,0
129816,-66.6666666666667,4,2,1,70,0,0
129966,-66.6666666666667,4,2,1,60,0,0
130117,-66.6666666666667,4,2,1,50,0,0
130419,-66.6666666666667,4,2,1,60,0,0
131022,-66.6666666666667,4,2,1,80,0,0
131173,-66.6666666666667,4,2,1,70,0,0
131323,-66.6666666666667,4,2,1,60,0,0
131474,-66.6666666666667,4,2,1,50,0,0
131625,-66.6666666666667,4,2,1,40,0,0
132077,-100,4,2,1,40,0,0
132228,-100,4,2,1,60,0,0
133132,-100,4,2,1,40,0,0
133283,-100,4,2,1,60,0,0
133735,-100,4,2,1,40,0,0
133886,-100,4,2,1,60,0,0
134338,-100,4,2,1,40,0,0
134489,-100,4,2,1,60,0,0
134941,-100,4,2,1,40,0,0
135092,-100,4,2,1,60,0,0
135544,-100,4,2,1,40,0,0
135695,-100,4,2,1,60,0,0
136147,-100,4,2,1,40,0,0
136298,-100,4,2,1,60,0,0
137052,-100,4,2,1,40,0,0
137203,-100,4,2,1,50,0,0
137353,-66.6666666666667,4,2,1,60,0,0
137504,-66.6666666666667,4,2,1,70,0,0
137655,-80,4,2,1,60,0,0
137881,-80,4,2,1,5,0,0
137956,-80,4,2,1,60,0,0
140670,-80,4,2,1,80,0,0
140821,-80,4,2,1,70,0,0
140971,-80,4,2,1,60,0,0
141122,-80,4,2,1,50,0,0
141273,-80,4,2,1,60,0,0
142705,-80,4,2,1,5,0,0
142781,-80,4,2,1,60,0,0
146399,-66.6666666666667,4,2,1,60,0,0
146625,-66.6666666666667,4,2,1,5,0,0
146700,-66.6666666666667,4,2,1,70,0,0
146851,-66.6666666666667,4,2,1,60,0,0
147002,-66.6666666666667,4,2,1,50,0,0
147152,-66.6666666666667,4,2,1,40,0,0
147303,-79.9999999999999,4,2,1,60,0,0
147529,-79.9999999999999,4,2,1,5,0,0
147605,-79.9999999999999,4,2,1,60,0,0
150620,-79.9999999999999,4,2,1,70,0,0
150770,-79.9999999999999,4,2,1,80,0,0
150921,-79.9999999999999,4,2,1,60,0,0
152353,-79.9999999999999,4,2,1,5,0,0
152429,-79.9999999999999,4,2,1,60,0,0
154539,-66.6666666666667,4,2,1,60,0,0
156348,-66.6666666666667,4,2,1,70,0,0
156499,-66.6666666666667,4,2,1,80,0,0
156650,-66.6666666666667,4,2,1,90,0,0
156801,-66.6666666666667,4,2,1,100,0,0
156951,428.571428571429,4,2,1,60,1,0
156951,-399.999999999997,4,2,1,60,0,0
161129,-399.999999999997,4,2,1,5,0,0
161236,428.571428571429,4,2,1,40,1,0
162093,-200,4,2,1,40,0,0
174093,301.507537688442,4,2,1,70,1,0
174710,301.507537688442,4,2,1,80,1,1
174710,-79.9999999999999,4,2,1,80,0,1
178026,-66.6666666666667,4,2,1,80,0,1
178252,-66.6666666666667,4,2,1,5,0,1
178328,-66.6666666666667,4,2,1,80,0,1
178478,-66.6666666666667,4,2,1,70,0,1
178629,-66.6666666666667,4,2,1,60,0,1
178780,-66.6666666666667,4,2,1,50,0,1
178931,-100,4,2,1,80,0,0
179157,-100,4,2,1,5,0,0
179232,-66.6666666666667,4,2,1,90,0,0
179458,-66.6666666666667,4,2,1,5,0,0
179534,-66.6666666666667,4,2,1,80,0,1
180438,-79.9999999999999,4,2,1,80,0,1
183755,-79.9999999999999,4,2,1,70,0,0
184358,-79.9999999999999,4,2,1,80,0,1
186318,-79.9999999999999,4,2,1,50,0,1
186468,-79.9999999999999,4,2,1,60,0,1
186619,-79.9999999999999,4,2,1,70,0,1
186770,-100,4,2,1,70,0,0
188202,-100,4,2,1,5,0,0
188277,-100,4,2,1,70,0,0
188579,-66.6666666666667,4,2,1,70,0,0
188805,-66.6666666666667,4,2,1,5,0,0
188880,-66.6666666666667,4,2,1,70,0,0
189106,-66.6666666666667,4,2,1,5,0,0
189182,-79.9999999999999,4,2,1,80,0,1
190991,-79.9999999999999,4,2,1,60,0,0
191217,-79.9999999999999,4,2,1,5,0,0
191292,-66.6666666666667,4,2,1,60,0,0
191518,-66.6666666666667,4,2,1,5,0,0
191594,-79.9999999999999,4,2,1,80,0,1
192197,-79.9999999999999,4,2,1,40,0,1
192348,-79.9999999999999,4,2,1,50,0,1
192498,-79.9999999999999,4,2,1,60,0,1
192649,-79.9999999999999,4,2,1,70,0,1
192800,-79.9999999999999,4,2,1,80,0,1
193403,-100,4,2,1,60,0,0
194006,-66.6666666666667,4,2,1,80,0,1
198378,-66.6666666666667,4,2,1,70,0,1
198529,-66.6666666666667,4,2,1,60,0,1
198679,-66.6666666666667,4,2,1,50,0,1
198830,-66.6666666666667,4,2,1,60,0,0
199433,-100,4,2,1,60,0,0
199659,-100,4,2,1,5,0,0
199735,-100,4,2,1,60,0,0
200865,-100,4,2,1,5,0,0
200941,-100,4,2,1,60,0,0
201242,-100,4,2,1,80,0,1
201694,-100,4,2,1,50,0,1
201845,-100,4,2,1,60,0,1
201996,-100,4,2,1,70,0,1
202147,-100,4,2,1,80,0,1
202297,-50,4,2,1,60,0,0
202373,-50,4,2,1,5,0,0
203051,-66.6666666666667,4,2,4,60,0,0
203277,-66.6666666666667,4,2,4,5,0,0
203353,-66.6666666666667,4,2,1,70,0,0
203654,-79.9999999999999,4,2,1,70,0,0
203880,-79.9999999999999,4,2,1,5,0,0
203956,-79.9999999999999,4,2,1,70,0,0
205086,-79.9999999999999,4,2,1,5,0,0
205162,-79.9999999999999,4,2,1,70,0,0
206066,-79.9999999999999,4,2,2,70,0,0
206292,-79.9999999999999,4,2,2,5,0,0
206368,-79.9999999999999,4,2,1,70,0,0
207574,-66.6666666666667,4,2,1,70,0,0
207800,-66.6666666666667,4,2,1,60,0,0
207875,-79.9999999999999,4,2,1,70,0,0
208704,-79.9999999999999,4,2,1,5,0,0
208780,-79.9999999999999,4,2,1,70,0,0
209684,-79.9999999999999,4,2,2,70,0,0
209910,-79.9999999999999,4,2,2,5,0,0
209986,-79.9999999999999,4,2,1,70,0,0
210212,-79.9999999999999,4,2,1,5,0,0
210287,-79.9999999999999,4,2,1,70,0,0
210513,-79.9999999999999,4,2,1,5,0,0
210589,-66.6666666666667,4,2,2,70,0,0
210816,-66.6666666666667,4,2,2,5,0,0
210890,-79.9999999999999,4,2,2,70,0,0
211116,-79.9999999999999,4,2,2,5,0,0
211192,-79.9999999999999,4,2,1,60,0,0
212096,-79.9999999999999,4,2,1,80,0,0
212247,-79.9999999999999,4,2,1,70,0,0
212398,-79.9999999999999,4,2,1,60,0,0
212549,-79.9999999999999,4,2,1,50,0,0
212699,-79.9999999999999,4,2,1,40,0,0
213001,-66.6666666666667,4,2,1,60,0,0
213302,-66.6666666666667,4,2,1,80,0,0

[Colours]
Combo1 : 226,217,92
Combo2 : 249,164,70
Combo3 : 159,0,0

[HitObjects]
50,176,772,6,0,P|3:265|114:247,1,262.637510013581,4|0,1:0|2:0,2:0:0:0:
144,156,1375,2,0,B|229:131|208:187|299:153,1,150.007505722046,2|2,2:0|2:0,2:0:0:0:
378,368,1978,6,0,P|370:275|277:305,1,187.882507152558,6|0,1:0|2:0,2:0:0:0:
219,323,2430,2,0,P|183:337|144:332,1,75.2525028610231,8|2,2:3|2:0,2:0:0:0:
114,251,2731,1,8,2:3:0:0:
113,251,2882,2,0,P|163:226|218:235,1,112.630004291535,8|0,2:3|2:0,2:0:0:0:
295,279,3184,5,6,1:0:0:0:
295,279,3485,1,8,2:0:0:0:
228,107,3636,1,8,2:0:0:0:
113,251,3787,1,8,2:0:0:0:
404,195,3937,1,8,2:0:0:0:
101,42,4088,1,8,2:0:0:0:
120,381,4239,1,8,2:0:0:0:
348,53,4390,6,0,B|288:29|243:47|243:47|231:96|270:162,1,225.260008583069,6|0,1:2|2:0,2:0:0:0:
407,349,4691,2,0,B|457:309|464:261|464:261|428:226|351:226,1,225.260008583069,4|0,1:0|2:0,2:0:0:0:
109,280,4993,2,0,B|185:241|170:307|252:267,1,150.505005722046,8|0,2:3|1:0,2:0:0:0:
354,226,5219,1,0,1:0:0:0:
359,230,5294,1,0,1:0:0:0:
30,211,5445,6,0,P|26:186|30:161,1,50.5,2|0,2:3|2:0,2:0:0:0:
51,82,5596,1,4,2:3:0:0:
482,211,7405,6,0,P|486:186|482:161,1,50.5,0|0,2:0|2:0,2:0:0:0:
461,82,7555,1,0,2:0:0:0:
461,82,7631,1,0,2:0:0:0:
461,82,7706,6,0,B|349:53|394:138|266:80,1,187.716666666666,4|0,2:0|2:0,2:0:0:0:
112,49,8008,6,0,P|151:49|197:32,1,75.2525028610231,6|0,1:0|2:0,2:0:0:0:
116,243,8309,2,0,P|135:208|143:160,1,75.2525028610231,0|0,2:0|2:0,2:0:0:0:
286,336,8611,2,0,P|265:301|228:270,1,75.2525028610231,0|0,2:0|1:0,2:0:0:0:
451,235,8912,2,0,P|411:234|365:251,1,75.2525028610231,0|0,2:0|1:0,2:0:0:0:
176,161,9214,6,0,P|215:161|261:144,1,75.2525028610231,0|0,1:0|2:0,2:0:0:0:
337,15,9515,1,0,2:0:0:0:
377,244,9666,1,0,1:0:0:0:
250,151,9817,1,0,2:0:0:0:
483,121,9967,1,0,1:0:0:0:
175,68,10118,6,0,B|146:130|146:130|194:278,1,187.716666666666,4|0,1:2|2:0,2:0:0:0:
118,328,10420,6,0,L|95:257,1,75.2525028610231,2|0,1:0|2:0,2:0:0:0:
233,188,10721,2,0,L|182:243,1,75.2525028610231,0|0,2:0|1:0,2:0:0:0:
54,160,11023,2,0,L|128:176,1,75.2525028610231,0|0,2:0|1:0,2:0:0:0:
405,322,11324,6,0,P|333:343|324:244,1,187.716666666666,4|0,1:2|2:0,2:0:0:0:
442,162,11626,6,0,B|371:213|345:134|275:171,1,175.091666666667,0|0,1:0|2:0,2:0:0:0:
181,242,12229,1,8,2:3:0:0:
156,244,12304,1,8,2:3:0:0:
131,239,12380,1,8,2:3:0:0:
109,226,12455,1,8,2:3:0:0:
160,163,12530,6,0,P|261:187|251:74,1,225.260008583069,12|0,2:0|2:0,2:0:0:0:
95,56,12832,6,0,B|31:79|31:79|4:227,1,187.716666666666,4|0,1:0|2:0,2:0:0:0:
166,330,13133,2,0,L|44:301,1,125.420833333333,8|0,2:0|2:0,2:0:0:0:
182,150,13435,1,0,1:0:0:0:
325,360,13586,1,0,1:0:0:0:
451,208,13736,2,0,L|329:237,1,125.420833333333,8|0,2:0|2:0,2:0:0:0:
44,301,14038,6,0,B|158:335|158:335|222:291,1,187.716666666666,0|0,1:0|2:0,2:0:0:0:
167,96,14339,2,0,B|138:245,1,125.420833333333,8|0,2:0|2:0,2:0:0:0:
307,355,14641,1,0,1:0:0:0:
42,154,14792,1,0,1:0:0:0:
329,8,14942,2,0,B|352:130,1,125.420833333333,8|0,3:2|2:0,2:0:0:0:
457,316,15244,6,0,B|364:341|388:240|272:272,1,187.716666666666,0|0,1:0|2:0,2:0:0:0:
86,358,15545,2,0,P|150:351|203:286,1,125.420833333333,8|0,2:0|2:0,2:0:0:0:
352,130,15847,1,0,1:0:0:0:
307,355,15998,1,0,1:0:0:0:
468,132,16148,1,8,2:0:0:0:
194,68,16299,1,0,2:0:0:0:
457,316,16450,6,0,P|446:227|346:246,1,187.716666666666,0|0,1:0|2:0,2:0:0:0:
173,264,16751,2,0,P|228:289|285:268,1,125.420833333333,8|0,2:0|2:0,2:0:0:0:
427,69,17053,2,0,P|409:94|400:124,1,63.125,0|0,1:0|1:0,2:0:0:0:
202,142,17204,2,0,P|221:166|233:194,1,63.125,0|0,1:0|1:0,2:0:0:0:
358,316,17354,6,0,P|341:342|333:372,1,62.5722222222222,12|0,2:0|2:0,2:0:0:0:
333,372,17656,6,0,B|356:269|279:298|331:176,1,187.716666666666,4|0,1:0|2:0,2:0:0:0:
427,69,17957,2,0,B|288:93,1,125.420833333333,8|0,2:0|2:0,2:0:0:0:
54,279,18259,1,0,1:0:0:0:
183,81,18410,1,0,1:0:0:0:
208,311,18560,1,8,2:0:0:0:
37,131,18711,1,0,2:0:0:0:
326,140,18862,6,0,B|356:198|333:269|333:269|325:239|298:210,1,187.716666666666,0|0,1:0|2:0,2:0:0:0:
129,220,19163,2,0,B|165:165|238:149|238:149|216:171|204:209,1,187.716666666666,8|0,2:0|2:0,2:0:0:0:
260,343,19465,2,0,B|232:346|182:291|182:291|212:299|237:293,1,150.505005722046,0|0,1:0|1:0,2:0:0:0:
308,221,19691,1,0,1:0:0:0:
327,242,19766,6,0,B|421:233,1,88.3750008344648,8|0,2:0|2:0,2:0:0:0:
270,60,19917,2,0,B|183:68,1,88.3750008344648,8|0,2:0|2:0,2:0:0:0:
107,191,20068,6,0,B|61:239|73:317|73:317|115:351,1,187.716666666666,4|0,1:2|2:0,2:0:0:0:
209,195,20369,6,0,B|236:146|223:102|223:102|181:68,1,150.505005722046,12|0,2:1|2:0,2:0:0:0:
23,281,20671,1,8,2:3:0:0:
23,281,20746,1,8,2:3:0:0:
23,281,20822,1,8,2:3:0:0:
215,185,20973,1,8,2:0:0:0:
262,384,21123,1,0,1:0:0:0:
221,175,21274,5,8,2:0:0:0:
401,212,21425,2,0,L|302:193,1,100.336666666667,8|0,2:0|1:0,2:0:0:0:
235,31,21726,5,8,2:0:0:0:
55,68,21877,2,0,L|153:49,1,100.336666666667,8|0,2:0|1:0,2:0:0:0:
293,282,22179,6,0,B|203:305|203:305|225:132,1,225.260008583069,12|0,2:0|2:0,2:0:0:0:
235,31,22480,5,4,1:0:0:0:
235,31,22782,2,0,P|187:12|132:20,1,100.336666666667,10|0,2:0|1:0,2:0:0:0:
41,175,23083,1,2,2:0:0:0:
220,211,23234,1,2,1:2:0:0:
148,103,23385,1,10,2:0:0:0:
112,282,23535,1,2,2:0:0:0:
344,45,23686,5,2,1:2:0:0:
393,287,23837,1,2,1:0:0:0:
491,143,23988,1,10,2:0:0:0:
247,191,24138,1,2,1:2:0:0:
454,341,24289,2,0,P|474:291|449:227,1,100.336666666667,2|0,2:0|1:0,2:0:0:0:
199,257,24591,2,0,P|273:269|323:220,1,150.173333333334,10|0,2:0|2:0,2:0:0:0:
322,220,24892,6,0,L|297:348,1,112.630004291535,0|0,1:2|2:0,2:0:0:0:
300,330,25194,1,10,2:0:0:0:
255,120,25344,6,0,L|378:77,1,100.336666666667,0|2,1:0|2:0,2:0:0:0:
349,86,25646,1,2,1:2:0:0:
202,229,25797,6,0,L|133:169,1,75.0866666666666,10|0,2:0|2:0,2:0:0:0:
47,137,26098,6,0,P|63:184|57:234,1,100.336666666667,2|2,1:2|2:0,2:0:0:0:
57,233,26400,1,10,2:0:0:0:
315,106,26550,6,0,P|260:96|215:65,1,112.630004291535,2|0,1:2|2:0,2:0:0:0:
214,64,26852,1,2,1:2:0:0:
208,354,27003,6,0,P|239:315|283:291,1,100.336666666667,10|0,2:0|2:0,2:0:0:0:
461,212,27304,5,0,1:0:0:0:
461,212,27606,2,0,L|358:202,1,100.336666666667,10|0,2:0|1:0,2:0:0:0:
113,199,27907,1,2,2:0:0:0:
295,148,28058,1,2,1:2:0:0:
136,106,28209,1,10,2:0:0:0:
271,240,28359,1,2,2:0:0:0:
159,13,28510,5,2,1:2:0:0:
247,332,28661,1,2,1:2:0:0:
319,56,28812,1,10,2:0:0:0:
90,292,28962,1,2,1:2:0:0:
384,369,29113,6,0,P|395:317|368:261,1,100.336666666667,2|0,2:0|1:0,2:0:0:0:
429,32,29415,2,0,P|414:99|449:172,1,150.173333333334,10|0,2:0|2:0,2:0:0:0:
447,170,29716,6,0,P|395:149|335:150,1,112.630004291535,0|0,1:2|2:0,2:0:0:0:
339,149,30018,1,10,2:0:0:0:
120,53,30168,6,0,P|172:74|232:73,1,100.336666666667,0|2,1:0|2:0,2:0:0:0:
215,75,30470,1,2,1:2:0:0:
188,283,30621,6,0,P|207:251|219:216,1,75.0866666666666,10|0,2:0|2:0,2:0:0:0:
219,216,30922,6,0,P|275:306|340:241,1,187.716666666666,6|0,1:2|2:0,2:0:0:0:
490,145,31224,6,0,P|434:55|369:120,1,225.260008583069,4|0,1:0|2:0,2:0:0:0:
457,298,31525,6,0,L|468:229,1,50.5,10|8,2:0|2:0,2:0:0:0:
369,116,31676,2,0,L|380:185,1,50.5,8|8,2:0|2:0,2:0:0:0:
319,328,31827,6,0,L|328:278,1,50.0577777777778,2|0,1:2|1:0,2:0:0:0:
327,278,32128,6,0,P|250:320|156:262,1,187.716666666666,4|0,1:0|2:0,2:0:0:0:
79,189,32430,2,0,L|68:316,1,125.420833333333,8|0,2:0|2:0,2:0:0:0:
265,92,32731,1,0,1:0:0:0:
79,189,32882,1,0,1:0:0:0:
105,45,33033,1,8,2:0:0:0:
166,279,33184,1,0,2:0:0:0:
353,118,33334,6,0,B|306:75|306:75|257:114|287:209,1,187.716666666666,0|0,1:0|2:0,2:0:0:0:
390,352,33636,2,0,L|407:199,1,125.420833333333,8|0,2:0|2:0,2:0:0:0:
482,55,33937,1,0,1:0:0:0:
281,189,34088,1,0,1:0:0:0:
511,282,34239,1,12,2:0:0:0:
358,66,34390,1,0,2:0:0:0:
205,279,34540,6,0,B|75:315|75:315|97:295|107:264,1,187.716666666666,0|0,1:0|2:0,2:0:0:0:
30,128,34842,2,0,P|0:181|12:242,1,125.420833333333,8|0,2:0|2:0,2:0:0:0:
237,364,35143,1,0,1:0:0:0:
79,195,35294,1,0,1:0:0:0:
333,133,35445,6,0,B|377:175|377:175|225:151,1,187.716666666666,12|0,2:0|2:0,2:0:0:0:
93,58,35746,6,0,B|58:90|58:90|176:72,1,150.173333333334,4|0,1:2|2:0,2:0:0:0:
362,84,36048,6,0,P|277:51|297:178,1,225.260008583069,12|0,2:1|2:0,2:0:0:0:
400,251,36349,6,0,P|410:227|411:179,1,50.5,8|0,1:3|1:0,2:0:0:0:
251,154,36500,2,0,P|266:175|307:200,1,50.5,0|0,1:0|1:0,2:0:0:0:
410,73,36651,6,0,P|383:75|341:98,1,50.0577777777778,8|0,2:0|2:0,2:0:0:0:
254,41,36952,5,4,1:0:0:0:
254,41,37254,2,0,P|209:61|136:50,1,100.336666666667,10|0,2:0|1:0,2:0:0:0:
51,187,37555,1,2,2:0:0:0:
212,270,37706,1,2,1:2:0:0:
173,147,37857,1,10,2:0:0:0:
89,308,38008,1,2,2:0:0:0:
254,121,38158,5,2,1:2:0:0:
7,334,38309,1,2,1:2:0:0:
24,105,38460,1,10,2:0:0:0:
237,351,38611,1,2,1:2:0:0:
322,59,38761,2,0,P|281:32|231:30,1,100.336666666667,2|0,2:0|1:0,2:0:0:0:
116,197,39063,6,0,B|233:165|190:243|311:202,1,187.716666666666,14|0,2:0|2:0,2:0:0:0:
450,245,39364,6,0,P|412:246|351:301,1,100.336666666667,0|0,1:0|2:0,2:0:0:0:
297,206,39666,1,10,2:0:0:0:
255,54,39817,2,0,P|274:85|352:110,1,100.336666666667,0|2,1:0|2:0,2:0:0:0:
297,206,40118,1,2,1:2:0:0:
187,319,40269,2,0,P|204:285|187:205,1,100.336666666667,10|2,2:0|2:0,2:0:0:0:
69,55,40570,5,2,1:2:0:0:
93,192,40721,1,2,1:2:0:0:
316,35,40872,1,10,2:0:0:0:
280,241,41023,1,2,1:2:0:0:
512,123,41174,2,0,P|471:82|396:74,1,100.336666666667,2|0,2:0|1:0,2:0:0:0:
330,355,41475,2,0,P|330:297|282:238,1,100.336666666667,10|0,2:0|1:0,2:0:0:0:
141,167,41701,1,0,1:0:0:0:
129,189,41777,6,0,P|194:220|284:143,1,187.716666666666,4|0,1:2|2:0,2:0:0:0:
377,95,42078,2,0,P|360:142|364:206,1,100.336666666667,10|0,2:0|1:0,2:0:0:0:
476,322,42380,1,2,2:0:0:0:
476,322,42530,1,2,1:2:0:0:
230,295,42681,6,0,P|262:333|319:361,1,100.336666666667,14|2,2:0|1:2,2:0:0:0:
476,322,42983,1,2,1:2:0:0:
476,322,43133,1,2,1:2:0:0:
360,191,43284,6,0,P|360:141|377:95,1,100.336666666667,14|0,2:0|1:0,2:0:0:0:
305,357,43586,2,0,P|262:333|230:295,1,100.336666666667,6|0,2:0|1:0,2:0:0:0:
144,117,43887,6,0,B|169:183|108:217|108:217|59:192|72:159,1,187.716666666666,14|0,2:0|2:0,2:0:0:0:
0,58,44189,6,0,B|94:81|75:4|192:37,1,187.882507152558,4|0,1:0|2:0,2:0:0:0:
333,65,44641,2,0,P|296:64|261:79,1,75.2525028610231,8|2,2:3|2:0,2:0:0:0:
149,194,44942,1,8,2:3:0:0:
70,165,45093,6,0,P|107:164|142:179,1,75.0866695276897,8|0,2:3|2:0,2:0:0:0:
149,194,45395,6,0,L|161:126,1,50.5,2|0,1:2|2:0,2:0:0:0:
305,66,45696,5,2,1:2:0:0:
309,75,45847,1,0,2:0:0:0:
398,143,45998,5,6,1:2:0:0:
394,152,46148,1,0,2:0:0:0:
238,205,46299,6,0,B|313:222|313:222|342:266|342:266|453:287,1,225.260008583069,6|0,1:2|2:0,2:0:0:0:
504,123,46601,6,0,B|432:115|432:115|384:160,1,125.420833333333,4|0,1:0|2:0,2:0:0:0:
219,341,46902,5,10,2:0:0:0:
29,114,47053,1,0,1:0:0:0:
11,298,47204,5,10,2:0:0:0:
234,110,47354,1,0,1:0:0:0:
0,203,47505,5,8,2:0:0:0:
280,235,47656,1,0,1:0:0:0:
158,14,47807,6,0,B|136:53|136:53|140:91|140:91|111:156,1,125.420833333333,10|0,2:0|2:0,2:0:0:0:
392,309,48108,2,0,B|370:269|370:269|374:231|374:231|345:166,1,125.420833333333,10|0,2:0|1:0,2:0:0:0:
65,239,48410,5,10,2:0:0:0:
64,201,48485,1,2,2:0:0:0:
87,163,48560,1,2,1:2:0:0:
132,141,48636,1,2,2:0:0:0:
185,155,48711,1,10,2:0:0:0:
217,209,48787,1,2,2:0:0:0:
280,235,48862,1,2,1:2:0:0:
350,209,48937,1,2,2:0:0:0:
414,139,49013,6,0,L|376:342,1,187.716666666666,10|0,2:0|2:0,2:0:0:0:
281,378,49314,2,0,B|247:341|247:341|272:256,1,125.420833333333,10|0,2:0|2:0,2:0:0:0:
424,129,49616,6,0,L|344:144,1,63.125,10|0,2:0|2:0,2:0:0:0:
498,268,49766,2,0,L|418:253,1,63.125,2|0,1:2|2:0,2:0:0:0:
203,37,49917,6,0,L|283:52,1,63.125,10|0,2:0|2:0,2:0:0:0:
129,176,50068,2,0,L|209:161,1,63.1249999999999,2|0,1:2|2:0,2:0:0:0:
374,7,50219,5,10,2:0:0:0:
443,59,50294,1,2,2:0:0:0:
451,139,50369,1,2,2:0:0:0:
407,200,50445,1,2,2:0:0:0:
345,229,50520,1,10,2:0:0:0:
328,289,50596,1,2,2:0:0:0:
350,340,50671,1,2,1:2:0:0:
393,363,50746,1,2,2:0:0:0:
412,345,50822,6,0,L|486:335,1,75.2525028610231,10|2,2:0|1:2,2:0:0:0:
512,248,51123,2,0,L|437:257,1,75.2525028610231,10|0,2:0|1:0,2:0:0:0:
219,360,51349,1,0,1:0:0:0:
187,330,51425,6,0,B|180:272|180:272|165:255|165:255|157:187,1,150.505005722046,4|0,1:0|2:0,2:0:0:0:
347,27,51726,5,10,2:0:0:0:
58,175,51877,1,0,1:0:0:0:
403,168,52028,5,10,2:0:0:0:
57,83,52179,1,0,1:0:0:0:
309,281,52329,5,8,2:0:0:0:
129,34,52480,1,0,1:0:0:0:
29,337,52631,6,0,B|88:357|88:357|142:326,1,125.420833333333,10|0,2:0|2:0,2:0:0:0:
403,168,52932,2,0,B|344:188|344:188|289:157,1,125.420833333333,10|0,2:0|1:0,2:0:0:0:
52,22,53234,5,10,2:0:0:0:
24,46,53309,1,2,2:0:0:0:
5,85,53385,1,2,1:2:0:0:
6,134,53460,1,2,2:0:0:0:
36,180,53535,1,10,2:0:0:0:
94,203,53611,1,2,2:0:0:0:
159,182,53686,1,2,1:2:0:0:
196,117,53761,1,2,2:0:0:0:
169,39,53837,6,0,L|189:244,1,187.716666666666,10|0,2:0|2:0,2:0:0:0:
365,282,54138,2,0,B|243:237|262:345|148:312,1,225.260008583069,10|0,2:0|2:0,2:0:0:0:
20,317,54440,6,0,L|36:244,1,63.125,10|0,2:0|2:0,2:0:0:0:
36,180,54591,2,0,L|49:241,1,63.125,2|0,1:2|2:0,2:0:0:0:
113,384,54741,6,0,L|129:311,1,63.125,10|0,2:0|2:0,2:0:0:0:
122,110,54892,2,0,L|135:171,1,63.125,2|0,1:2|2:0,2:0:0:0:
360,366,55043,5,10,2:0:0:0:
422,364,55118,1,2,2:0:0:0:
461,314,55194,1,2,2:0:0:0:
456,251,55269,1,2,2:0:0:0:
394,189,55344,6,0,B|313:196|313:196|274:244|274:244|173:251,1,225.260008583069,14|0,2:0|2:0,2:0:0:0:
61,158,55646,6,0,L|141:172,1,75.2525028610231,8|8,2:3|2:0,2:0:0:0:
185,96,55872,1,8,2:0:0:0:
185,96,55947,2,0,L|111:83,1,75.2525028610231,8|0,2:3|2:0,2:0:0:0:
114,297,56249,6,0,B|165:350|165:350|261:323,1,150.505005722046,4|0,1:0|2:0,2:0:0:0:
502,124,56550,5,8,2:0:0:0:
237,229,56701,1,0,1:0:0:0:
482,264,56852,5,8,2:0:0:0:
258,89,57003,1,0,1:0:0:0:
351,318,57153,5,8,2:0:0:0:
391,36,57304,1,0,1:0:0:0:
506,283,57455,5,10,2:0:0:0:
235,71,57606,1,2,1:2:0:0:
346,346,57756,1,10,2:0:0:0:
396,8,57907,1,2,1:2:0:0:
77,240,58058,6,0,B|126:200|126:200|197:214,1,125.420833333333,10|0,2:0|1:0,2:0:0:0:
507,123,58359,2,0,B|458:83|458:83|387:97,1,125.420833333333,10|0,2:0|1:0,2:0:0:0:
316,309,58586,1,0,1:0:0:0:
346,346,58661,6,0,L|326:215,1,125.420833333333,10|0,2:0|2:0,2:0:0:0:
133,18,58962,5,8,2:0:0:0:
0,266,59113,1,0,1:0:0:0:
219,62,59264,5,8,2:0:0:0:
183,349,59415,1,0,1:0:0:0:
317,59,59565,5,8,2:0:0:0:
399,285,59716,1,0,1:0:0:0:
103,108,59867,5,10,2:0:0:0:
67,195,59942,1,2,2:0:0:0:
111,271,60018,1,2,1:2:0:0:
190,288,60093,1,2,2:0:0:0:
253,249,60168,1,10,2:0:0:0:
276,184,60244,1,2,2:0:0:0:
326,145,60319,1,2,1:2:0:0:
382,150,60395,1,2,2:0:0:0:
418,183,60470,1,10,2:0:0:0:
429,225,60545,1,2,2:0:0:0:
418,261,60621,1,2,1:2:0:0:
399,285,60696,1,2,2:0:0:0:
347,223,60771,6,0,B|371:147|371:147|356:83|356:83|380:1,1,225.260008583069,12|0,2:0|2:0,2:0:0:0:
311,325,61073,1,4,1:0:0:0:
302,335,61375,6,0,P|288:307|281:267,1,50.5,8|0,2:0|2:0,2:0:0:0:
234,330,61525,2,0,P|257:307|275:272,1,55.5500016784668,8|0,2:0|2:0,2:0:0:0:
409,296,61676,2,0,P|382:279|359:256,1,60.5999981689454,8|0,2:0|2:0,2:0:0:0:
136,275,61827,2,0,P|168:267|198:252,1,65.6499970245363,8|0,2:0|2:0,2:0:0:0:
481,175,61978,2,0,P|449:180|409:175,1,70.6999978637695,8|0,2:0|2:0,2:0:0:0:
112,143,62128,2,0,P|142:159|186:167,1,75.7500028610231,8|0,2:0|2:0,2:0:0:0:
311,25,62279,6,0,B|333:108|279:92|299:171,1,150.007505722046,8|0,2:0|2:0,2:0:0:0:
298,170,63485,5,4,1:0:0:0:
256,192,63560,12,8,65143,2:3:0:0:
207,7,65897,5,0,3:0:0:0:
199,11,65973,1,0,3:0:0:0:
190,17,66048,1,0,3:0:0:0:
184,23,66123,1,0,3:0:0:0:
177,29,66199,2,0,L|222:60,1,37.5000014305115,2|0,3:2|3:0,2:0:0:0:
70,109,66349,5,8,3:2:0:0:
69,117,66425,1,0,3:0:0:0:
67,128,66500,1,2,3:2:0:0:
66,138,66575,1,0,3:0:0:0:
65,147,66651,2,0,L|119:137,1,37.5000014305115,2|0,3:2|3:0,2:0:0:0:
137,278,66802,5,10,3:2:0:0:
143,286,66877,1,0,3:0:0:0:
149,293,66953,2,0,L|180:247,1,37.5000014305115,2|0,3:2|3:2,2:0:0:0:
399,78,67103,5,10,3:2:0:0:
318,278,67254,1,2,1:2:0:0:
465,163,67555,5,2,1:2:0:0:
251,192,67706,1,2,1:2:0:0:
424,263,68008,6,0,B|458:338|391:385|391:385|330:376|329:315,1,225.260008583069,6|0,1:2|2:0,2:0:0:0:
251,192,68309,5,0,3:0:0:0:
243,189,68385,1,0,3:0:0:0:
234,186,68460,1,0,3:0:0:0:
224,185,68535,1,0,3:0:0:0:
215,185,68611,2,0,P|221:212|243:233,1,37.5000014305115,2|0,3:2|3:0,2:0:0:0:
325,98,68761,5,8,3:2:0:0:
331,92,68837,1,0,3:0:0:0:
338,86,68912,1,2,3:2:0:0:
344,78,68987,1,0,3:0:0:0:
349,70,69063,2,0,P|322:61|293:70,1,37.5000014305115,2|0,3:2|3:0,2:0:0:0:
353,200,69214,5,10,3:2:0:0:
356,209,69289,1,0,3:0:0:0:
361,217,69365,2,0,P|381:198|388:168,1,37.5000014305115,2|0,3:2|3:0,2:0:0:0:
57,117,69515,5,10,3:2:0:0:
251,192,69666,1,2,1:2:0:0:
73,219,69967,5,2,1:2:0:0:
234,89,70118,1,2,1:2:0:0:
170,257,70269,1,8,2:3:0:0:
137,51,70420,1,8,2:3:0:0:
170,257,70721,5,0,3:2:0:0:
179,258,70797,1,0,3:2:0:0:
188,259,70872,1,0,3:2:0:0:
197,260,70947,1,0,3:2:0:0:
207,261,71023,2,0,L|196:212,1,37.5000014305115,2|0,3:2|3:2,2:0:0:0:
29,109,71174,5,8,3:2:0:0:
38,108,71250,1,0,3:2:0:0:
47,107,71325,1,2,3:2:0:0:
56,106,71400,1,0,3:2:0:0:
66,105,71476,2,0,L|55:154,1,37.5000014305115,2|0,3:2|3:2,2:0:0:0:
45,364,71626,5,10,3:2:0:0:
36,365,71701,1,0,3:2:0:0:
26,366,71777,2,0,L|37:317,1,37.5000014305115,2|0,3:2|3:2,2:0:0:0:
367,269,71927,5,10,3:2:0:0:
170,257,72078,1,2,1:2:0:0:
322,180,72380,5,2,1:2:0:0:
214,345,72530,1,2,1:2:0:0:
224,174,72832,6,0,B|223:139|176:113|176:113|98:169|152:240,1,225.260008583069,4|0,1:0|2:0,2:0:0:0:
214,345,73133,5,6,1:2:0:0:
214,345,73435,1,10,2:0:0:0:
224,174,73586,1,8,2:0:0:0:
59,218,73736,1,8,2:0:0:0:
384,237,73887,1,8,2:0:0:0:
132,30,74038,1,8,2:0:0:0:
214,345,74189,1,8,2:0:0:0:
333,42,74339,6,0,B|398:26|398:26|446:55|416:128,1,150.173333333334,0|0,1:0|2:0,2:0:0:0:
384,237,74641,1,4,1:2:0:0:
224,174,74792,1,2,1:2:0:0:
471,194,74942,2,0,P|478:256|452:306,1,100.336666666667,2|0,1:2|1:0,2:0:0:0:
230,369,75244,2,0,P|223:307|249:257,1,100.336666666667,2|0,1:2|2:0,2:0:0:0:
343,109,75545,6,0,L|350:245,1,112.630004291535,4|0,1:0|2:0,2:0:0:0:
464,289,75846,2,0,L|458:176,1,112.630004291535,8|0,2:0|2:0,2:0:0:0:
506,79,76148,1,8,2:0:0:0:
199,144,76449,5,0,1:0:0:0:
409,378,76751,1,8,2:3:0:0:
464,289,76901,1,8,2:3:0:0:
360,286,77052,1,8,2:3:0:0:
55,344,77354,6,0,P|106:356|184:334,1,112.630004291535,0|0,1:0|2:0,2:0:0:0:
360,286,77655,2,0,P|309:298|231:276,1,112.630004291535,8|0,2:0|2:0,2:0:0:0:
157,241,77957,1,8,2:0:0:0:
291,82,78258,5,0,1:0:0:0:
209,31,78409,2,0,P|195:87|224:151,1,112.630004291535,8|0,2:3|2:0,2:0:0:0:
212,137,78710,1,0,1:0:0:0:
373,31,78861,1,10,2:0:0:0:
14,161,79163,6,0,B|54:182|54:182|144:162,1,112.630004291535,2|0,1:2|2:0,2:0:0:0:
296,238,79464,2,0,B|256:217|256:217|190:231,1,112.630004291535,8|0,2:0|2:0,2:0:0:0:
119,295,79766,1,8,2:0:0:0:
452,228,80067,5,0,1:0:0:0:
320,144,80218,1,8,2:3:0:0:
296,238,80369,1,0,1:0:0:0:
378,290,80519,1,0,1:0:0:0:
417,138,80670,2,0,B|399:83|399:83|341:54,1,112.630004291535,8|0,2:0|2:0,2:0:0:0:
338,53,80972,6,0,L|409:70,1,63.125,12|0,2:1|2:0,2:0:0:0:
503,18,81122,1,0,1:0:0:0:
503,18,81273,1,0,1:0:0:0:
320,144,81424,2,0,L|249:127,1,63.125,12|0,2:0|2:0,2:0:0:0:
104,211,81575,6,0,B|78:226|78:226|91:125,1,112.630004291535,8|0,2:0|2:0,2:0:0:0:
184,56,81876,6,0,B|171:142|171:142|194:201|194:201|181:287,1,225.260008583069,12|0,2:0|2:0,2:0:0:0:
244,362,82178,5,4,1:0:0:0:
244,362,82479,2,0,P|296:366|355:348,1,100.336666666667,10|0,2:0|2:0,2:0:0:0:
463,234,82781,1,2,1:2:0:0:
232,165,82931,1,2,1:2:0:0:
357,46,83082,1,10,2:0:0:0:
288,277,83233,1,2,2:0:0:0:
114,96,83384,6,0,P|85:139|71:199,1,100.336666666667,2|0,1:2|2:0,2:0:0:0:
316,193,83685,1,10,2:0:0:0:
204,249,83836,1,2,2:0:0:0:
409,117,83987,2,0,P|386:70|341:28,1,100.336666666667,2|0,1:2|1:0,2:0:0:0:
117,270,84288,6,0,P|195:257|221:159,1,187.716666666666,14|0,2:0|2:0,2:0:0:0:
131,38,84590,5,0,1:0:0:0:
131,38,84891,2,0,L|143:145,1,100.336666666667,10|0,2:0|2:0,2:0:0:0:
285,318,85193,5,2,1:2:0:0:
371,112,85343,1,2,1:2:0:0:
168,233,85494,5,10,2:0:0:0:
485,194,85645,1,2,2:0:0:0:
265,361,85796,5,2,1:2:0:0:
388,66,85946,1,2,2:0:0:0:
424,341,86097,5,10,2:0:0:0:
229,86,86248,1,2,2:0:0:0:
485,194,86399,6,0,B|429:189|429:189|392:206|392:206|331:194,1,150.173333333334,2|0,1:2|2:0,2:0:0:0:
166,158,86700,2,0,P|211:151|212:260,1,187.716666666666,14|0,2:0|2:0,2:0:0:0:
39,347,87002,6,0,L|162:331,1,100.336666666667,4|0,1:0|2:0,2:0:0:0:
217,257,87303,1,10,2:0:0:0:
384,367,87454,2,0,L|308:268,1,100.336666666667,2|0,2:0|1:0,2:0:0:0:
217,257,87755,1,0,1:0:0:0:
248,15,87906,2,0,L|190:150,1,150.173333333334,10|0,2:0|2:0,2:0:0:0:
188,152,88208,6,0,P|240:151|300:189,1,100.336666666667,2|0,1:2|1:0,2:0:0:0:
384,367,88509,1,10,2:0:0:0:
217,257,88660,1,2,1:2:0:0:
395,167,88811,1,8,2:0:0:0:
152,343,88961,1,8,2:0:0:0:
245,49,89112,1,10,2:0:0:0:
453,276,89263,1,8,2:0:0:0:
213,174,89414,6,0,P|167:154|118:157,1,100.336666666667,4|0,1:0|2:0,2:0:0:0:
309,117,89715,2,0,P|349:87|374:21,1,100.336666666667,10|0,2:0|1:0,2:0:0:0:
311,229,90017,2,0,P|317:279|361:333,1,100.336666666667,2|0,2:0|1:0,2:0:0:0:
490,181,90318,1,8,2:0:0:0:
490,181,90620,6,0,L|511:301,1,100.336666666667,10|0,2:0|1:0,2:0:0:0:
389,155,90921,2,0,L|338:292,1,125.420833333333,14|0,2:0|1:0,2:0:0:0:
141,140,91223,1,6,1:2:0:0:
166,158,91298,1,0,1:0:0:0:
211,166,91374,1,0,1:0:0:0:
259,152,91449,1,0,1:0:0:0:
299,113,91524,1,0,1:0:0:0:
338,68,91600,1,0,1:0:0:0:
402,54,91675,1,0,1:0:0:0:
464,88,91750,1,0,1:0:0:0:
488,159,91826,5,4,1:0:0:0:
488,159,92127,2,0,L|511:74,1,75.2525028610231,2|0,1:2|2:0,2:0:0:0:
318,11,92429,1,2,1:2:0:0:
342,109,92580,1,0,2:0:0:0:
189,268,92730,1,2,1:2:0:0:
213,170,92881,1,2,2:0:0:0:
35,97,93032,6,0,P|78:71|118:67,1,75.2525028610231,2|2,1:2|2:0,2:0:0:0:
283,242,93333,1,2,1:2:0:0:
73,348,93484,2,0,L|54:292,1,37.8750014305115,6|0,2:0|2:0,2:0:0:0:
57,304,93635,2,0,L|39:391,1,75.2525028610231,2|0,1:2|2:0,2:0:0:0:
167,158,93936,2,0,L|195:297,1,112.630004291535,2|0,1:2|2:0,2:0:0:0:
210,352,94238,5,0,1:0:0:0:
210,352,94539,2,0,P|248:343|289:296,1,75.2525028610231,6|0,1:2|2:0,2:0:0:0:
245,159,94841,1,2,1:2:0:0:
393,285,94992,2,0,P|366:256|304:244,1,75.2525028610231,6|0,2:0|1:0,2:0:0:0:
210,352,95293,1,2,2:0:0:0:
245,159,95444,6,0,P|233:197|253:256,1,75.2525028610231,6|8,1:2|2:3,2:0:0:0:
394,286,95745,1,2,1:2:0:0:
210,352,95896,1,8,2:3:0:0:
328,148,96047,2,0,B|338:112|338:112|324:61,1,75.2525028610231,2|0,1:2|2:0,2:0:0:0:
225,51,96348,6,0,B|240:117|240:117|220:161|220:161|238:231,1,187.716666666666,6|0,1:2|2:0,2:0:0:0:
140,296,96650,6,0,B|127:246|127:246|141:195,1,100.336666666667,4|0,1:0|2:0,2:0:0:0:
424,175,96951,2,0,L|304:141,1,100.336666666667,2|4,1:2|2:3,2:0:0:0:
53,44,97253,1,10,1:2:0:0:
41,87,97328,1,0,1:0:0:0:
55,135,97404,1,10,1:2:0:0:
99,166,97479,1,0,1:0:0:0:
158,161,97554,1,10,1:2:0:0:
199,110,97630,1,8,1:2:0:0:
187,41,97705,2,0,L|177:97,1,50.5,10|8,1:2|1:2,2:0:0:0:
77,348,97856,5,6,1:2:0:0:
152,282,98157,1,2,2:0:0:0:
171,379,98459,1,2,2:0:0:0:
65,338,98760,6,0,L|311:294,1,225.260008583069,4|0,2:0|2:0,2:0:0:0:
469,338,99062,6,0,B|408:325|408:325|369:252,1,125.420833333333,4|0,1:0|2:0,2:0:0:0:
256,8,99363,5,10,2:0:0:0:
256,232,99514,1,0,1:0:0:0:
71,27,99665,5,10,2:0:0:0:
134,270,99816,1,0,1:0:0:0:
441,27,99966,5,8,2:0:0:0:
378,270,100117,1,0,1:0:0:0:
376,282,100193,1,0,2:0:0:0:
374,294,100268,6,0,P|348:227|361:153,1,125.420833333333,10|0,2:0|2:0,2:0:0:0:
171,35,100569,2,0,P|174:97|150:154,1,125.420833333333,10|0,2:0|1:0,2:0:0:0:
0,324,100871,5,10,2:0:0:0:
21,303,100946,1,2,2:0:0:0:
61,286,101022,1,2,1:2:0:0:
110,291,101097,1,2,2:0:0:0:
154,326,101173,1,10,2:0:0:0:
215,335,101248,1,2,2:0:0:0:
275,303,101323,1,2,1:2:0:0:
307,234,101399,1,2,2:0:0:0:
261,167,101474,6,0,B|359:195|346:120|450:160,1,187.716666666666,10|0,2:0|2:0,2:0:0:0:
422,361,101776,2,0,P|394:306|398:245,1,125.420833333333,10|0,2:0|2:0,2:0:0:0:
475,54,102077,6,0,L|395:71,1,63.125,10|0,2:0|2:0,2:0:0:0:
442,157,102228,2,0,L|380:169,1,63.125,2|0,1:2|2:0,2:0:0:0:
120,220,102379,6,0,L|200:237,1,63.125,10|0,2:0|2:0,2:0:0:0:
153,323,102529,2,0,L|215:335,1,63.1249999999999,2|0,1:2|2:0,2:0:0:0:
422,361,102680,5,10,2:0:0:0:
496,315,102755,1,2,2:0:0:0:
505,233,102831,1,2,2:0:0:0:
456,176,102906,1,2,2:0:0:0:
386,171,102982,1,10,2:0:0:0:
328,194,103057,1,2,2:0:0:0:
276,172,103132,1,2,1:2:0:0:
251,127,103208,1,2,2:0:0:0:
267,106,103283,6,0,L|346:94,1,75.2525028610231,10|2,2:0|1:2,2:0:0:0:
374,3,103585,2,0,L|295:15,1,75.2525028610231,10|0,2:0|1:0,2:0:0:0:
113,133,103811,1,0,1:0:0:0:
135,164,103886,6,0,B|151:111|151:111|144:80|144:80|164:11,1,150.505005722046,4|0,1:0|2:0,2:0:0:0:
460,64,104188,5,10,2:0:0:0:
194,269,104338,1,0,1:0:0:0:
421,362,104489,5,10,2:0:0:0:
229,82,104640,1,0,1:0:0:0:
512,224,104791,5,8,2:0:0:0:
135,164,104941,1,0,1:0:0:0:
116,161,105017,1,0,2:0:0:0:
97,159,105092,6,0,B|146:125|146:125|232:145,1,125.420833333333,10|0,2:0|2:0,2:0:0:0:
436,294,105394,2,0,B|387:260|387:260|301:280,1,125.420833333333,10|0,2:0|1:0,2:0:0:0:
48,359,105695,5,10,2:0:0:0:
83,348,105770,1,2,2:0:0:0:
114,316,105846,1,2,1:2:0:0:
122,267,105921,1,2,2:0:0:0:
96,216,105997,1,10,2:0:0:0:
41,186,106072,1,2,2:0:0:0:
24,119,106147,1,2,1:2:0:0:
70,59,106223,1,2,2:0:0:0:
149,73,106298,6,0,B|253:112|230:18|348:70,1,187.716666666666,10|0,2:0|2:0,2:0:0:0:
395,240,106600,2,0,P|295:253|288:153,1,225.260008583069,10|0,2:0|2:0,2:0:0:0:
431,29,106901,6,0,L|416:107,1,63.125,10|0,2:0|2:0,2:0:0:0:
442,162,107052,2,0,L|427:84,1,63.125,2|0,1:2|2:0,2:0:0:0:
225,0,107203,6,0,L|206:98,1,63.125,10|0,2:0|2:0,2:0:0:0:
250,291,107353,2,0,L|228:178,1,63.1249999999999,2|0,1:2|2:0,2:0:0:0:
32,75,107504,5,8,1:3:0:0:
18,136,107580,1,2,2:0:0:0:
50,188,107655,1,2,2:0:0:0:
109,204,107730,1,2,2:0:0:0:
175,153,107806,6,0,B|252:142|252:142|314:171|314:171|397:160,1,225.260008583069,14|0,2:0|2:0,2:0:0:0:
472,218,108107,6,0,L|502:318,1,75.2525028610231,8|8,2:3|2:0,2:0:0:0:
423,354,108333,1,8,2:0:0:0:
423,354,108409,2,0,L|402:281,1,75.2525028610231,8|0,2:3|2:0,2:0:0:0:
505,96,108710,6,0,B|453:42|453:42|371:57,1,150.505005722046,4|0,1:0|2:0,2:0:0:0:
54,148,109012,5,8,2:0:0:0:
332,258,109162,1,0,1:0:0:0:
74,295,109313,5,8,2:0:0:0:
310,111,109464,1,0,1:0:0:0:
212,351,109615,5,8,2:0:0:0:
170,55,109765,1,0,1:0:0:0:
49,314,109916,5,10,2:0:0:0:
334,92,110067,1,2,1:2:0:0:
217,381,110218,1,10,2:0:0:0:
165,26,110368,1,2,1:2:0:0:
485,216,110519,5,10,2:0:0:0:
472,249,110595,1,0,2:0:0:0:
442,280,110670,1,0,1:0:0:0:
396,296,110745,1,0,2:0:0:0:
342,286,110821,1,10,2:0:0:0:
301,239,110896,1,0,2:0:0:0:
297,171,110971,1,0,1:0:0:0:
343,114,111047,1,0,1:0:0:0:
426,110,111122,6,0,B|461:174|461:174|425:247,1,150.505005722046,10|0,2:0|2:0,2:0:0:0:
115,320,111424,5,8,2:0:0:0:
426,340,111575,1,0,1:0:0:0:
68,215,111725,5,8,2:0:0:0:
457,172,111876,1,0,1:0:0:0:
90,110,112027,5,8,2:0:0:0:
336,27,112178,1,0,1:0:0:0:
239,340,112328,5,10,2:0:0:0:
155,383,112404,1,2,2:0:0:0:
73,353,112479,1,2,1:2:0:0:
38,279,112554,1,2,2:0:0:0:
58,206,112630,1,10,2:0:0:0:
112,165,112705,1,2,2:0:0:0:
157,120,112781,1,2,1:2:0:0:
162,64,112856,1,2,2:0:0:0:
136,21,112931,6,0,L|2:40,1,125,10|2,2:0|1:2,2:0:0:0:
250,173,113233,1,12,2:0:0:0:
299,210,113308,1,0,2:0:0:0:
354,199,113384,1,0,2:0:0:0:
383,159,113459,1,0,2:0:0:0:
360,84,113534,5,4,1:0:0:0:
350,77,113836,6,0,L|339:154,1,50.5,8|0,2:0|2:0,2:0:0:0:
259,250,113987,2,0,L|254:195,1,55.5500016784668,8|0,2:0|2:0,2:0:0:0:
225,36,114137,2,0,L|211:127,1,60.5999981689454,8|0,2:0|2:0,2:0:0:0:
137,305,114288,2,0,L|131:240,1,65.6499970245363,8|0,2:0|2:0,2:0:0:0:
85,0,114439,2,0,L|70:90,1,70.6999978637695,8|0,2:0|2:0,2:0:0:0:
246,336,114590,1,10,2:0:0:0:
326,350,114665,1,10,2:0:0:0:
393,307,114740,6,0,B|421:225|421:225|271:167|303:307|144:241,1,375.101666666666,4|0,2:1|2:0,2:0:0:0:
16,178,115946,6,0,B|100:191|76:126|179:146,1,150.007505722046,4|2,1:2|1:2,2:0:0:0:
260,353,116399,2,0,L|242:269,1,75.2525028610231,8|2,2:3|2:0,2:0:0:0:
339,94,116700,1,2,1:2:0:0:
339,94,116851,2,0,L|321:178,1,75.2525028610231,10|2,2:0|2:0,2:0:0:0:
493,210,117152,5,2,1:2:0:0:
240,166,117303,1,8,2:3:0:0:
424,92,117454,1,2,2:0:0:0:
302,293,117605,1,8,2:3:0:0:
131,97,117755,2,0,B|147:60|147:60|151:76|170:96,1,75.2525028610231,2|0,2:0|1:0,2:0:0:0:
0,172,118057,6,0,B|67:159|67:159|107:193|107:193|208:170,1,225.260008583069,12|0,2:0|2:0,2:0:0:0:
331,100,118358,6,0,L|316:211,1,100.336666666667,4|0,1:0|2:0,2:0:0:0:
445,332,118660,1,8,2:0:0:0:
208,169,118811,1,0,2:0:0:0:
463,102,118961,1,0,1:0:0:0:
237,279,119112,1,0,1:0:0:0:
114,48,119263,2,0,B|166:20|166:20|258:47,1,150.173333333334,8|0,2:0|2:0,2:0:0:0:
333,160,119564,6,0,L|226:145,1,100.336666666667,2|0,1:2|2:0,2:0:0:0:
23,321,119866,2,0,L|130:306,1,100.336666666667,8|0,2:0|2:0,2:0:0:0:
359,372,120167,1,0,1:0:0:0:
216,238,120318,1,0,1:0:0:0:
444,115,120469,2,0,B|472:167|472:167|448:272,1,150.173333333334,8|0,2:0|2:0,2:0:0:0:
359,372,120770,6,0,L|350:255,1,100.336666666667,6|0,1:2|2:0,2:0:0:0:
253,45,121072,1,8,2:0:0:0:
140,277,121223,1,0,2:0:0:0:
127,121,121374,1,0,1:0:0:0:
271,334,121524,1,0,1:0:0:0:
381,115,121675,2,0,B|372:91|346:79|346:79|356:129|336:181,1,150.173333333334,8|0,2:0|2:0,2:0:0:0:
444,296,121977,6,0,P|406:275|338:275,1,100.336666666667,2|0,1:2|2:0,2:0:0:0:
24,266,122278,2,0,P|103:256|205:182,1,187.716666666666,12|0,2:0|2:0,2:0:0:0:
131,43,122580,6,0,P|89:17|39:17,1,100.336666666667,8|0,3:0|1:0,2:0:0:0:
18,121,122806,1,0,1:0:0:0:
17,120,122881,2,0,P|59:146|109:146,1,100.336666666667,0|0,1:0|1:0,2:0:0:0:
468,124,123183,6,0,B|410:73|410:73|315:84,1,150.505005722046,4|0,1:0|2:0,2:0:0:0:
79,334,123484,5,8,2:0:0:0:
17,120,123635,1,0,1:0:0:0:
173,348,123786,5,8,2:0:0:0:
177,51,123936,1,0,1:0:0:0:
260,364,124087,5,8,2:0:0:0:
337,81,124238,1,0,1:0:0:0:
121,237,124389,5,8,2:0:0:0:
498,149,124539,1,0,1:0:0:0:
177,51,124690,5,8,2:0:0:0:
442,335,124841,1,0,1:0:0:0:
366,7,124992,5,8,2:0:0:0:
253,378,125142,1,0,1:0:0:0:
40,94,125293,6,0,B|-4:138|5:182|5:182|69:158|148:203,1,225.260008583069,12|0,2:0|2:0,2:0:0:0:
200,252,125595,6,0,P|225:253|249:246,1,50.5,8|0,1:3|2:0,2:0:0:0:
277,22,125745,2,0,P|263:43|258:67,1,50.5,8|0,1:3|2:0,2:0:0:0:
431,252,125896,2,0,P|427:227|416:205,1,50.5,0|0,1:0|2:0,2:0:0:0:
437,203,126047,2,0,P|426:180|408:164,1,50.5,0|0,1:2|2:0,2:0:0:0:
164,344,126198,6,0,B|139:367|121:335|149:304|191:324|204:356|248:363|282:335,1,150.173333333334,8|0,1:3|2:0,2:0:0:0:
344,316,126499,1,8,2:0:0:0:
81,170,126650,6,0,B|12:120|64:50|64:50|113:50|145:97|102:145,1,225.260008583069,4|0,1:0|2:0,2:0:0:0:
168,240,126951,2,0,L|183:167,1,50.5,8|0,1:3|2:0,2:0:0:0:
281,94,127102,1,0,1:0:0:0:
344,316,127253,1,8,2:0:0:0:
508,256,127404,6,0,B|459:198|459:198|371:211,1,150.173333333334,8|0,2:0|2:0,2:0:0:0:
344,316,127705,6,0,L|382:88,1,225.260008583069,12|0,2:0|2:0,2:0:0:0:
506,19,128007,5,0,1:0:0:0:
512,51,128082,1,0,2:0:0:0:
496,88,128157,1,0,2:0:0:0:
456,109,128233,1,0,2:0:0:0:
407,96,128308,1,0,2:0:0:0:
371,54,128384,1,0,2:0:0:0:
313,36,128459,1,8,2:0:0:0:
254,64,128534,1,0,2:0:0:0:
225,128,128610,5,2,1:2:0:0:
185,64,128685,1,2,2:0:0:0:
116,54,128760,1,2,2:0:0:0:
61,90,128836,1,2,2:0:0:0:
44,147,128911,1,10,2:0:0:0:
68,196,128987,1,2,2:0:0:0:
117,203,129062,1,2,2:0:0:0:
146,169,129137,1,2,2:0:0:0:
131,131,129213,5,0,1:2:0:0:
113,160,129288,1,0,2:0:0:0:
117,203,129363,1,0,2:0:0:0:
144,239,129439,1,0,2:0:0:0:
191,252,129514,1,0,2:0:0:0:
241,229,129590,1,0,2:0:0:0:
289,194,129665,1,8,2:0:0:0:
352,181,129740,1,0,2:0:0:0:
416,210,129816,5,2,1:2:0:0:
354,251,129891,1,2,2:0:0:0:
286,233,129966,1,2,2:0:0:0:
253,176,130042,1,2,2:0:0:0:
266,117,130117,1,10,2:0:0:0:
308,81,130193,1,2,2:0:0:0:
357,75,130268,1,2,2:0:0:0:
397,94,130343,1,2,2:0:0:0:
421,125,130419,5,0,1:2:0:0:
397,151,130494,1,0,2:0:0:0:
358,161,130569,1,0,2:0:0:0:
314,149,130645,1,0,2:0:0:0:
280,111,130720,1,0,2:0:0:0:
228,90,130796,1,0,2:0:0:0:
168,98,130871,1,8,2:0:0:0:
116,137,130946,1,0,2:0:0:0:
90,202,131022,5,2,1:2:0:0:
37,117,131097,1,2,2:0:0:0:
83,33,131173,1,2,2:0:0:0:
172,27,131248,1,2,2:0:0:0:
228,90,131323,1,10,2:0:0:0:
270,158,131399,1,2,2:0:0:0:
343,173,131474,1,2,2:0:0:0:
402,136,131549,1,2,2:0:0:0:
420,73,131625,5,0,1:2:0:0:
376,47,131700,1,0,2:0:0:0:
331,55,131776,1,0,2:0:0:0:
303,83,131851,1,0,2:0:0:0:
292,116,131926,1,0,2:0:0:0:
296,145,132002,1,0,2:0:0:0:
307,166,132077,6,0,L|356:160,1,50.5,8|0,2:0|2:0,2:0:0:0:
485,253,132228,2,0,P|438:270|388:231,1,100.336666666667,8|0,1:3|2:0,2:0:0:0:
313,293,132454,1,0,2:0:0:0:
313,293,132529,2,0,L|321:345,1,50.5,8|0,2:0|2:0,2:0:0:0:
207,261,132680,2,0,L|215:313,1,50.5,8|0,2:0|2:0,2:0:0:0:
69,353,132831,5,4,1:0:0:0:
44,321,132906,1,0,2:0:0:0:
37,276,132982,1,0,2:0:0:0:
57,230,133057,1,0,2:0:0:0:
105,203,133132,1,2,2:0:0:0:
143,156,133208,1,2,2:0:0:0:
129,92,133283,1,10,3:2:0:0:
65,63,133358,1,2,2:0:0:0:
3,106,133434,5,0,1:0:0:0:
33,131,133509,1,0,2:0:0:0:
77,137,133585,1,0,2:0:0:0:
120,113,133660,1,0,2:0:0:0:
156,72,133735,1,10,3:2:0:0:
214,58,133811,1,2,2:0:0:0:
273,83,133886,1,2,2:0:0:0:
305,144,133961,1,2,2:0:0:0:
284,216,134037,5,2,1:2:0:0:
276,176,134112,1,0,2:0:0:0:
287,132,134188,1,0,1:0:0:0:
317,92,134263,1,0,2:0:0:0:
367,71,134338,1,2,2:0:0:0:
426,81,134414,1,2,2:0:0:0:
473,125,134489,1,10,3:2:0:0:
484,193,134564,1,2,2:0:0:0:
445,258,134640,5,0,1:0:0:0:
416,229,134715,1,0,2:0:0:0:
373,213,134791,1,0,2:0:0:0:
323,218,134866,1,0,2:0:0:0:
275,244,134941,1,10,1:2:0:0:
232,286,135017,1,2,2:0:0:0:
169,301,135092,1,2,1:2:0:0:
105,273,135167,1,2,2:0:0:0:
67,207,135243,5,2,1:2:0:0:
103,190,135318,1,0,2:0:0:0:
146,201,135394,1,0,1:0:0:0:
180,237,135469,1,0,2:0:0:0:
184,291,135544,1,2,2:0:0:0:
151,342,135620,1,2,2:0:0:0:
87,353,135695,1,10,3:2:0:0:
27,317,135770,1,2,2:0:0:0:
17,241,135846,5,0,1:0:0:0:
46,267,135921,1,0,2:0:0:0:
90,273,135997,1,0,2:0:0:0:
133,249,136072,1,0,2:0:0:0:
151,197,136147,1,10,3:2:0:0:
194,154,136223,1,2,2:0:0:0:
257,143,136298,1,2,2:0:0:0:
319,172,136374,1,2,2:0:0:0:
354,238,136449,5,8,1:3:0:0:
388,256,136524,1,0,2:0:0:0:
433,252,136600,1,0,2:0:0:0:
469,218,136675,1,0,2:0:0:0:
474,163,136750,1,8,1:3:0:0:
434,117,136826,1,0,2:0:0:0:
369,119,136901,1,0,2:0:0:0:
319,172,136977,1,0,2:0:0:0:
263,221,137052,5,8,1:3:0:0:
195,262,137127,1,2,2:0:0:0:
105,244,137203,1,2,2:0:0:0:
52,159,137278,1,2,2:0:0:0:
91,55,137353,6,0,B|125:42|125:42|174:56,1,75.7500028610231,6|2,2:0|2:0,2:0:0:0:
403,185,137504,2,0,B|369:172|369:172|320:186,1,75.7500028610231,6|2,2:0|2:0,2:0:0:0:
146,368,137655,6,0,P|78:306|131:210,1,187.716666666666,4|0,1:0|2:0,2:0:0:0:
196,167,137956,2,0,P|221:101|218:37,1,125.420833333333,2|8,2:0|2:0,2:0:0:0:
490,203,138258,2,0,P|465:269|468:333,1,125.420833333333,2|2,2:0|1:2,2:0:0:0:
400,55,138559,1,10,2:0:0:0:
261,293,138710,1,2,2:0:0:0:
59,131,138861,6,0,B|157:115|157:115|213:135|213:135|317:115,1,250.0125,0|0,1:0|2:0,2:0:0:0:
511,279,139313,1,10,2:0:0:0:
296,210,139464,1,2,1:2:0:0:
468,91,139615,1,2,2:0:0:0:
290,303,139765,1,10,2:0:0:0:
196,43,139916,1,2,2:0:0:0:
410,232,140067,6,0,P|355:202|269:226,1,125.420833333333,0|0,1:0|2:0,2:0:0:0:
113,295,140368,1,0,2:0:0:0:
314,102,140519,1,8,2:0:0:0:
54,58,140670,1,2,1:2:0:0:
90,143,140745,1,2,2:0:0:0:
173,167,140821,1,2,2:0:0:0:
243,124,140896,1,2,2:0:0:0:
314,102,140971,1,10,2:0:0:0:
378,125,141047,1,2,2:0:0:0:
414,175,141122,1,2,2:0:0:0:
410,232,141198,1,2,2:0:0:0:
352,294,141273,6,0,L|486:275,1,125.420833333333,2|0,1:2|2:0,2:0:0:0:
243,124,141575,2,0,L|115:106,1,125.420833333333,2|8,2:0|2:0,2:0:0:0:
403,25,141876,1,8,1:3:0:0:
432,34,141951,1,2,2:0:0:0:
451,58,142027,1,2,2:0:0:0:
453,89,142102,1,2,2:0:0:0:
436,115,142178,2,0,P|407:129|354:101,1,63.125,10|2,2:0|2:0,2:0:0:0:
316,280,142328,2,0,P|289:261|287:201,1,63.125,10|2,2:0|2:0,2:0:0:0:
211,46,142479,6,0,B|114:3|114:3|55:26|93:93,1,187.716666666666,4|0,1:0|2:0,2:0:0:0:
265,134,142781,2,0,P|309:74|305:3,1,125.420833333333,2|8,2:0|2:0,2:0:0:0:
101,340,143082,2,0,P|57:280|61:209,1,125.420833333333,2|2,1:2|2:0,2:0:0:0:
211,46,143384,1,10,2:0:0:0:
352,251,143534,1,2,2:0:0:0:
306,265,143610,1,2,2:0:0:0:
260,260,143685,6,0,B|216:206|243:137|243:137|308:113|309:45,1,250.0125,2|2,1:2|2:0,2:0:0:0:
194,366,144137,1,10,2:0:0:0:
410,239,144288,1,2,1:2:0:0:
167,107,144439,1,2,2:0:0:0:
329,343,144590,1,8,2:0:0:0:
352,105,144740,1,2,2:0:0:0:
375,64,144816,1,2,2:0:0:0:
401,25,144891,6,0,B|440:82|440:82|419:172,1,125.420833333333,2|0,1:2|2:0,2:0:0:0:
270,332,145193,1,2,2:0:0:0:
86,118,145343,1,8,2:0:0:0:
367,201,145494,1,2,1:2:0:0:
72,116,145645,1,0,2:0:0:0:
338,33,145796,1,10,2:0:0:0:
377,8,145871,1,2,2:0:0:0:
423,8,145946,1,2,2:0:0:0:
461,34,146022,1,2,2:0:0:0:
479,77,146097,6,0,B|453:206,1,125.420833333333,10|0,2:0|1:0,2:0:0:0:
361,332,146323,1,2,1:2:0:0:
361,332,146399,6,0,P|336:219|219:261,1,225.260008583069,4|0,2:0|2:0,2:0:0:0:
105,326,146700,5,2,1:2:0:0:
134,256,146776,1,2,2:0:0:0:
114,190,146851,1,2,2:0:0:0:
62,154,146926,1,2,2:0:0:0:
50,98,147002,1,10,1:2:0:0:
72,53,147077,1,2,1:2:0:0:
109,31,147152,1,2,1:2:0:0:
146,31,147228,1,2,1:2:0:0:
130,110,147303,6,0,B|192:120|192:120|233:98|233:98|320:112,1,187.716666666666,4|0,1:0|2:0,2:0:0:0:
447,175,147605,2,0,P|410:124|448:44,1,125.420833333333,2|10,2:0|2:0,2:0:0:0:
114,190,147906,2,0,P|151:241|113:321,1,125.420833333333,2|0,1:2|2:0,2:0:0:0:
412,316,148208,1,10,2:0:0:0:
198,160,148358,1,2,1:2:0:0:
422,66,148509,6,0,B|458:50|458:50|436:139,1,125.420833333333,2|0,1:2|2:0,2:0:0:0:
412,316,148811,1,2,2:0:0:0:
390,293,148886,1,2,2:0:0:0:
354,280,148961,1,10,2:0:0:0:
310,288,149037,1,2,2:0:0:0:
273,322,149112,1,2,1:2:0:0:
216,327,149188,1,2,2:0:0:0:
168,287,149263,1,2,2:0:0:0:
164,218,149338,1,2,2:0:0:0:
222,169,149414,2,0,L|304:183,1,63.125,10|0,2:0|2:0,2:0:0:0:
80,380,149564,2,0,L|162:366,1,63.125,10|0,2:0|2:0,2:0:0:0:
1,146,149715,6,0,B|37:119|37:119|123:135,1,125.420833333333,2|0,1:2|2:0,2:0:0:0:
432,323,150017,1,2,2:0:0:0:
404,336,150092,1,0,2:0:0:0:
369,334,150167,1,8,2:0:0:0:
336,309,150243,1,0,2:0:0:0:
321,264,150318,5,2,1:2:0:0:
233,251,150394,1,2,2:0:0:0:
205,175,150469,1,2,2:0:0:0:
248,112,150544,1,2,2:0:0:0:
318,109,150620,1,10,2:0:0:0:
364,155,150695,1,2,2:0:0:0:
422,156,150770,1,2,2:0:0:0:
462,124,150846,1,2,2:0:0:0:
433,51,150921,6,0,B|388:47|388:47|362:34|362:34|293:24,1,125.420833333333,2|0,1:2|2:0,2:0:0:0:
194,179,151223,1,2,1:2:0:0:
72,106,151374,6,0,B|117:102|117:102|143:89|143:89|212:79,1,125.420833333333,8|8,2:0|1:3,2:0:0:0:
311,234,151675,1,0,2:0:0:0:
28,342,151826,1,2,1:2:0:0:
32,310,151901,1,2,2:0:0:0:
51,284,151977,1,2,2:0:0:0:
78,270,152052,1,2,2:0:0:0:
140,327,152127,6,0,B|240:368|225:276|347:331,1,187.716666666666,4|0,1:0|2:0,2:0:0:0:
414,361,152429,2,0,P|456:314|456:238,1,125.420833333333,2|8,2:0|2:0,2:0:0:0:
266,7,152730,2,0,P|224:52|218:113,1,125.420833333333,2|2,1:2|2:0,2:0:0:0:
320,320,153032,1,10,2:0:0:0:
444,40,153183,1,2,2:0:0:0:
462,82,153258,1,0,2:0:0:0:
453,127,153333,6,0,B|409:128|372:107|372:107|304:139|304:139|262:112|198:112,1,250.0125,2|2,1:2|2:0,2:0:0:0:
37,271,153786,1,8,2:0:0:0:
331,215,153936,1,2,1:2:0:0:
78,34,154087,1,2,2:0:0:0:
207,321,154238,1,10,2:0:0:0:
355,61,154389,1,2,2:0:0:0:
399,50,154464,1,2,2:0:0:0:
451,66,154539,6,0,B|472:121|472:121|462:165|462:165|484:226,1,150.000005722046,12|0,2:0|2:0,2:0:0:0:
349,359,154841,5,10,2:0:0:0:
151,31,154992,1,0,1:0:0:0:
163,359,155142,5,10,2:0:0:0:
361,31,155293,1,0,1:0:0:0:
440,306,155444,5,10,2:0:0:0:
47,175,155595,1,0,1:0:0:0:
361,31,155745,5,10,1:2:0:0:
389,44,155821,1,2,2:0:0:0:
413,72,155896,1,2,2:0:0:0:
422,114,155971,1,2,2:0:0:0:
404,161,156047,1,10,1:2:0:0:
357,191,156122,1,2,2:0:0:0:
295,177,156198,1,2,2:0:0:0:
253,122,156273,1,2,2:0:0:0:
184,92,156348,5,10,1:2:0:0:
104,109,156424,1,2,2:0:0:0:
47,175,156499,1,10,2:0:0:0:
45,269,156575,1,2,2:0:0:0:
108,345,156650,1,10,1:2:0:0:
213,354,156725,1,2,2:0:0:0:
293,273,156801,1,10,2:0:0:0:
409,254,156876,1,10,2:0:0:0:
509,330,156951,6,0,B|444:374|330:340|306:208|397:119|490:156|490:156|436:173|422:217,1,487.516666666668,8|0,2:0|2:0,2:0:0:0:
505,246,161236,5,2,2:0:0:0:
505,246,161664,1,2,2:0:0:0:
432,177,162093,2,0,P|382:171|332:184,1,100.033333333333,2|0,2:0|2:0,2:0:0:0:
194,298,162950,5,2,2:0:0:0:
194,298,163378,1,2,2:0:0:0:
290,270,163807,2,0,P|320:229|333:179,1,100.033333333333,2|0,2:0|2:0,2:0:0:0:
303,3,164664,5,2,2:0:0:0:
303,3,165093,1,2,2:0:0:0:
333,182,165521,1,2,2:0:0:0:
297,275,165736,1,0,2:0:0:0:
198,290,165950,1,2,2:0:0:0:
135,212,166164,1,0,2:0:0:0:
333,182,166378,5,2,2:0:0:0:
431,166,166593,1,0,2:0:0:0:
494,244,166807,1,2,2:0:0:0:
457,338,167021,1,2,2:0:0:0:
333,182,167236,6,0,L|317:70,1,100.033333333333,2|2,2:0|2:0,2:0:0:0:
162,281,168093,5,2,2:0:0:0:
162,281,168521,1,2,2:0:0:0:
179,182,168950,2,0,L|195:70,1,100.033333333333,2|0,2:0|2:0,2:0:0:0:
350,281,169807,5,2,2:0:0:0:
217,140,170236,1,2,2:0:0:0:
242,332,170664,1,2,2:0:0:0:
334,162,171093,1,0,2:0:0:0:
160,245,171521,5,2,2:0:0:0:
334,162,172164,1,0,2:0:0:0:
233,149,172378,5,2,2:0:0:0:
422,113,172593,1,2,2:0:0:0:
291,253,172807,1,2,2:0:0:0:
315,63,173021,1,2,2:0:0:0:
407,230,173236,6,0,P|456:232|499:189,1,100.033333333333,2|0,2:0|2:0,2:0:0:0:
150,362,174093,5,10,2:0:0:0:
312,91,174243,1,10,2:0:0:0:
21,213,174394,1,10,2:0:0:0:
329,285,174545,1,10,2:0:0:0:
122,46,174710,6,0,B|74:84|74:84|87:157,1,125,4|0,1:0|2:0,2:0:0:0:
445,285,175011,5,10,2:0:0:0:
190,125,175162,1,0,1:0:0:0:
311,355,175313,5,10,2:0:0:0:
323,54,175464,1,0,1:0:0:0:
140,359,175614,6,0,P|108:360|79:349,1,62.5,10|0,2:0|1:0,2:0:0:0:
96,252,175765,2,0,P|127:250|156:261,1,62.5,2|2,1:2|1:2,2:0:0:0:
311,355,175916,5,10,2:0:0:0:
99,128,176066,1,0,1:0:0:0:
3,309,176217,5,10,2:0:0:0:
282,173,176367,1,0,1:0:0:0:
152,384,176519,5,10,2:0:0:0:
126,356,176594,1,2,2:0:0:0:
116,313,176669,1,2,1:2:0:0:
133,265,176745,1,2,2:0:0:0:
180,236,176820,1,10,2:0:0:0:
195,175,176895,1,2,2:0:0:0:
156,117,176971,1,2,1:2:0:0:
81,113,177046,1,2,2:0:0:0:
33,192,177122,6,0,B|127:235|117:147|219:194,1,187.5,8|0,2:0|2:0,2:0:0:0:
291,12,177423,2,0,L|305:137,1,125,10|0,2:0|1:0,2:0:0:0:
383,361,177725,2,0,L|390:296,1,62.5,10|0,2:0|2:0,2:0:0:0:
468,339,177875,2,0,L|475:274,1,62.5,0|0,1:0|2:0,2:0:0:0:
512,30,178026,6,0,P|525:95|394:98,1,225.260008583069,12|0,2:0|2:0,2:0:0:0:
169,30,178328,5,8,1:3:0:0:
137,106,178403,1,2,1:2:0:0:
159,179,178478,1,2,1:2:0:0:
216,219,178554,1,2,1:2:0:0:
229,280,178629,1,2,1:2:0:0:
205,330,178704,1,2,1:2:0:0:
164,354,178780,1,2,1:2:0:0:
123,354,178855,1,2,1:2:0:0:
82,278,178931,6,0,B|173:247|143:316|263:268,1,150.173333333334,8|0,2:0|2:0,2:0:0:0:
343,367,179232,6,0,P|321:268|436:240,1,225.000008583069,4|0,1:2|2:0,2:0:0:0:
512,280,179534,5,4,1:0:0:0:
261,173,179684,1,0,2:0:0:0:
479,93,179835,5,10,2:0:0:0:
189,252,179986,1,0,1:0:0:0:
475,384,180137,5,10,2:0:0:0:
157,151,180287,1,0,1:0:0:0:
405,29,180438,6,0,P|399:62|384:87,1,63.125,10|2,2:0|2:0,2:0:0:0:
280,230,180589,2,0,P|275:198|260:172,1,63.125,2|2,1:2|2:0,2:0:0:0:
150,49,180740,5,10,2:0:0:0:
63,341,180890,1,0,2:0:0:0:
351,279,181041,5,10,2:0:0:0:
51,354,181192,1,0,1:0:0:0:
302,116,181343,5,10,2:0:0:0:
325,95,181418,1,0,2:0:0:0:
360,82,181493,1,2,1:2:0:0:
404,84,181569,1,0,2:0:0:0:
445,111,181644,1,10,2:0:0:0:
470,161,181720,1,2,2:0:0:0:
462,222,181795,1,2,1:2:0:0:
411,268,181870,1,2,2:0:0:0:
332,264,181946,6,0,P|239:243|261:386,1,250.0125,12|0,2:0|1:0,2:0:0:0:
391,346,182398,1,2,1:2:0:0:
202,151,182549,1,2,1:2:0:0:
468,197,182699,1,2,1:2:0:0:
227,316,182850,1,2,1:2:0:0:
352,77,183001,1,2,1:2:0:0:
468,306,183152,6,0,B|402:319|402:319|326:267,1,125,8|0,1:3|1:2,2:0:0:0:
79,57,183453,1,2,1:2:0:0:
108,43,183529,1,2,2:0:0:0:
146,45,183604,1,10,2:0:0:0:
181,71,183679,1,2,2:0:0:0:
197,119,183755,5,2,1:2:0:0:
290,133,183830,1,2,2:0:0:0:
320,214,183905,1,2,1:2:0:0:
274,281,183981,1,2,1:2:0:0:
200,284,184056,1,2,1:2:0:0:
151,235,184132,1,2,1:2:0:0:
89,234,184207,1,2,1:2:0:0:
46,268,184282,1,2,1:2:0:0:
60,348,184358,6,0,B|117:361|117:361|128:358|128:358|189:371,1,125.420833333333,4|0,1:0|2:0,2:0:0:0:
471,151,184659,5,10,2:0:0:0:
151,235,184810,1,0,1:0:0:0:
402,55,184961,5,10,2:0:0:0:
273,355,185112,1,0,1:0:0:0:
287,62,185262,5,8,2:0:0:0:
433,373,185413,1,0,1:0:0:0:
71,103,185564,6,0,B|133:87|133:87|227:137,1,125.420833333333,10|0,2:0|2:0,2:0:0:0:
336,356,185865,5,10,2:0:0:0:
408,52,186016,1,0,1:0:0:0:
113,178,186167,5,10,2:0:0:0:
461,235,186318,1,2,1:2:0:0:
433,222,186393,1,0,2:0:0:0:
396,220,186468,1,10,2:0:0:0:
357,237,186544,1,2,2:0:0:0:
308,230,186619,1,2,2:0:0:0:
268,191,186694,1,2,2:0:0:0:
182,210,186770,6,0,B|166:136|222:96|222:96|296:88|344:147,1,266.680000000001,4|10,1:2|1:2,2:0:0:0:
442,299,187272,1,8,1:2:0:0:
499,224,187373,2,0,B|384:174|411:279|280:219,1,200.01,2|10,1:2|1:2,2:0:0:0:
106,357,187775,1,10,1:2:0:0:
106,357,187875,1,0,1:0:0:0:
187,362,187976,6,0,B|236:326|218:266|218:266|159:247,1,150.173333333334,2|0,1:2|2:0,2:0:0:0:
50,189,188277,1,8,1:3:0:0:
20,148,188353,1,2,2:0:0:0:
23,98,188428,1,2,2:0:0:0:
58,62,188503,1,2,2:0:0:0:
133,41,188579,6,0,B|214:50|214:50|272:23|272:23|361:37,1,225.260008583069,6|0,1:2|2:0,2:0:0:0:
266,221,188880,2,0,P|265:127|349:191,1,225.260008583069,6|0,1:2|2:0,2:0:0:0:
481,290,189182,6,0,B|427:285|427:285|412:274|412:274|351:267,1,125.420833333333,4|0,1:0|2:0,2:0:0:0:
73,11,189483,5,10,2:0:0:0:
351,166,189634,1,0,1:0:0:0:
78,207,189785,5,10,2:0:0:0:
382,93,189936,1,0,1:0:0:0:
215,330,190086,5,10,2:0:0:0:
324,36,190237,1,0,1:0:0:0:
118,359,190388,6,0,P|163:353|189:338,1,63.125,10|2,2:0|2:0,2:0:0:0:
394,358,190539,2,0,P|362:357|334:345,1,63.125,10|2,2:0|2:0,2:0:0:0:
125,164,190689,6,0,P|107:137|83:118,1,63.125,10|2,2:0|2:0,2:0:0:0:
387,164,190840,2,0,P|414:128|440:113,1,63.125,10|2,2:0|2:0,2:0:0:0:
253,38,190991,6,0,B|196:84|196:84|218:197,1,187.716666666666,2|0,1:2|2:0,2:0:0:0:
285,367,191292,6,0,L|304:139,1,225.260008583069,12|0,1:2|2:0,2:0:0:0:
391,57,191594,6,0,B|416:124|416:124|389:171,1,125.420833333333,4|0,1:0|1:0,2:0:0:0:
48,309,191895,2,0,L|181:284,1,125.420833333333,2|8,1:2|2:0,2:0:0:0:
388,338,192197,5,8,1:0:0:0:
418,330,192272,1,8,2:0:0:0:
440,299,192348,1,8,2:0:0:0:
448,255,192423,1,8,2:0:0:0:
434,207,192498,1,8,1:0:0:0:
390,171,192574,1,8,2:0:0:0:
371,111,192649,1,8,2:0:0:0:
398,47,192725,1,8,2:0:0:0:
468,19,192800,6,0,L|454:102,1,63.125,2|2,1:2|2:0,2:0:0:0:
388,338,192951,2,0,L|377:276,1,63.125,2|2,1:2|2:0,2:0:0:0:
274,126,193101,6,0,L|202:108,1,63.125,2|2,1:2|2:0,2:0:0:0:
67,285,193252,2,0,L|139:267,1,63.125,2|2,1:2|2:0,2:0:0:0:
55,14,193403,6,0,P|59:69|45:123,1,100.336666666667,2|0,1:2|2:0,2:0:0:0:
127,269,193704,2,0,P|123:214|137:160,1,100.336666666667,2|0,1:2|1:0,2:0:0:0:
253,36,193931,1,8,2:0:0:0:
293,16,194006,6,0,B|351:33|351:33|382:24|382:24|453:41,1,150.505005722046,4|0,1:0|2:0,2:0:0:0:
484,247,194307,5,8,2:0:0:0:
132,170,194458,1,0,1:0:0:0:
362,380,194609,5,8,2:0:0:0:
253,36,194760,1,0,1:0:0:0:
186,341,194911,5,8,2:0:0:0:
429,75,195061,1,0,1:0:0:0:
114,166,195212,5,10,2:0:0:0:
501,250,195363,1,2,1:2:0:0:
174,354,195514,1,10,2:0:0:0:
441,62,195664,1,2,1:2:0:0:
453,48,195740,1,2,2:0:0:0:
464,33,195815,5,10,2:0:0:0:
365,306,195966,1,0,1:2:0:0:
48,33,196117,5,10,2:0:0:0:
147,306,196267,1,0,1:2:0:0:
417,167,196418,6,0,B|361:153|361:153|330:162|330:162|272:145,1,150.505005722046,4|0,1:0|2:0,2:0:0:0:
0,115,196720,5,8,2:0:0:0:
365,306,196870,1,0,1:0:0:0:
62,231,197021,5,8,2:0:0:0:
427,40,197172,1,0,1:0:0:0:
143,131,197323,5,8,2:0:0:0:
508,322,197473,1,0,1:0:0:0:
178,372,197624,6,0,B|191:316|191:316|182:285|182:285|199:227,1,150.505005722046,4|0,1:0|2:0,2:0:0:0:
266,38,197926,1,10,2:0:0:0:
383,292,198076,1,4,1:3:0:0:
106,148,198227,5,8,1:3:0:0:
176,119,198302,1,8,1:3:0:0:
242,139,198378,1,8,1:3:0:0:
278,191,198453,1,8,1:3:0:0:
334,203,198529,1,8,1:3:0:0:
379,181,198604,1,8,1:3:0:0:
401,144,198679,1,8,1:3:0:0:
401,107,198755,1,8,1:3:0:0:
354,38,198830,5,4,1:0:0:0:
425,322,198981,1,8,2:0:0:0:
158,38,199282,5,0,1:0:0:0:
87,322,199433,2,0,P|56:258|72:163,1,150.173333333334,8|0,2:0|2:0,2:0:0:0:
115,110,199735,1,0,2:0:0:0:
115,110,199885,1,8,2:0:0:0:
201,355,200036,5,2,1:2:0:0:
422,121,200187,1,8,2:0:0:0:
201,29,200488,5,0,1:0:0:0:
422,263,200639,2,0,P|359:275|316:177,1,150.173333333334,8|0,2:0|2:0,2:0:0:0:
309,214,200941,2,0,L|301:283,1,50.5,2|2,2:0|2:0,2:0:0:0:
201,355,201091,2,0,L|195:305,1,50.5,2|2,2:0|2:0,2:0:0:0:
26,65,201242,5,4,1:2:0:0:
272,137,201393,1,0,1:0:0:0:
83,300,201544,1,0,1:0:0:0:
141,37,201694,1,8,2:0:0:0:
193,6,201770,1,8,2:0:0:0:
257,7,201845,1,8,2:0:0:0:
310,53,201921,1,8,2:0:0:0:
321,126,201996,1,8,2:0:0:0:
280,194,202071,1,8,2:0:0:0:
303,276,202147,1,8,2:0:0:0:
382,316,202222,1,8,2:0:0:0:
466,274,202297,6,0,L|483:162,1,101,4|0,1:2|2:0,2:0:0:0:
481,175,203051,6,0,B|397:161|397:161|344:200|344:200|241:182,1,225.260008583069,2|0,2:3|2:0,2:0:0:0:
196,125,203353,1,14,2:0:0:0:
165,129,203428,1,2,2:0:0:0:
144,105,203503,1,2,2:0:0:0:
120,125,203579,1,2,2:0:0:0:
72,49,203654,6,0,B|-1:109|-1:109|21:236,1,187.716666666666,4|0,1:0|2:0,2:0:0:0:
73,347,203956,2,0,L|107:212,1,125.420833333333,8|0,2:0|2:0,2:0:0:0:
193,63,204257,1,0,1:0:0:0:
318,248,204408,1,0,1:0:0:0:
193,63,204559,1,8,2:0:0:0:
318,248,204709,1,0,2:0:0:0:
440,49,204860,6,0,B|513:109|513:109|491:236,1,187.716666666666,0|0,1:0|2:0,2:0:0:0:
439,347,205162,2,0,L|405:212,1,125.420833333333,8|0,2:0|2:0,2:0:0:0:
319,63,205463,1,0,1:0:0:0:
194,248,205614,1,0,1:0:0:0:
319,63,205765,1,8,2:0:0:0:
194,248,205915,1,0,2:0:0:0:
87,41,206066,6,0,B|38:-6|38:-6|-17:45|34:109,1,187.716666666666,2|0,1:3|2:0,2:0:0:0:
142,165,206368,2,0,B|77:147|83:204|24:189,1,125,8|0,2:0|2:0,2:0:0:0:
289,69,206669,1,0,1:0:0:0:
360,368,206820,1,0,1:0:0:0:
175,254,206971,1,8,2:0:0:0:
474,183,207122,1,0,1:0:0:0:
88,284,207272,5,2,1:2:0:0:
49,236,207348,1,2,2:0:0:0:
48,174,207423,1,2,2:0:0:0:
83,124,207498,1,2,2:0:0:0:
142,106,207574,6,0,B|154:133|199:150|199:150|243:145|275:109|275:109|311:144|353:146,1,225.260008583069,12|0,2:1|2:0,2:0:0:0:
399,256,207875,6,0,P|379:232|353:215,1,63.125,8|0,1:3|2:0,2:0:0:0:
88,284,208026,2,0,P|118:278|146:264,1,63.125,2|0,2:0|2:0,2:0:0:0:
219,0,208177,2,0,P|208:29|206:60,1,63.125,10|0,2:0|2:0,2:0:0:0:
234,342,208328,1,2,1:2:0:0:
234,342,208403,1,2,1:2:0:0:
234,342,208478,6,0,L|256:153,1,187.716666666666,4|0,1:2|2:0,2:0:0:0:
329,69,208780,2,0,B|362:119|362:119|343:193,1,125.420833333333,12|0,2:0|2:0,2:0:0:0:
128,313,209081,1,0,1:0:0:0:
405,316,209232,2,0,P|372:308|341:312,1,63.125,0|0,1:0|2:0,2:0:0:0:
328,310,209383,2,0,P|393:288|479:297,1,125.420833333333,8|0,2:0|2:0,2:0:0:0:
433,17,209684,6,0,B|393:50|343:46|343:46|322:80|338:153,1,187.716666666666,2|0,1:3|2:0,2:0:0:0:
440,359,209986,2,0,B|432:308|460:267|460:267|441:232|388:216,1,187.716666666666,8|0,2:0|2:0,2:0:0:0:
141,194,210287,2,0,B|190:213|212:258|212:258|252:259|292:221,1,187.716666666666,0|0,1:0|2:0,2:0:0:0:
170,39,210589,6,0,L|186:138,1,75.7500028610231,10|0,2:3|2:0,2:0:0:0:
387,215,210740,2,0,L|371:314,1,75.7500028610231,0|0,2:0|2:0,2:0:0:0:
80,324,210890,6,0,B|39:357|39:357|-10:287|55:210,1,187.716666666666,0|0,1:0|2:0,2:0:0:0:
95,152,211192,1,12,2:1:0:0:
264,370,211343,1,0,2:0:0:0:
220,66,211493,1,8,2:3:0:0:
100,330,211644,1,0,2:3:0:0:
391,207,211795,1,8,1:3:0:0:
108,23,211946,1,0,1:3:0:0:
319,275,212096,5,10,2:0:0:0:
409,303,212172,1,2,2:0:0:0:
478,250,212247,1,10,2:0:0:0:
479,168,212323,1,2,2:0:0:0:
425,116,212398,1,2,1:2:0:0:
356,116,212473,1,2,2:0:0:0:
308,157,212549,1,10,2:0:0:0:
252,161,212624,1,2,2:0:0:0:
207,138,212699,1,10,2:0:0:0:
184,100,212775,1,0,2:0:0:0:
178,63,212850,1,0,1:2:0:0:
185,32,212926,1,0,2:0:0:0:
212,20,213001,6,0,B|248:25|248:25|255:31|255:31|292:38,1,75.7500028610231,12|0,2:0|2:0,2:0:0:0:
391,207,213152,2,0,B|355:212|355:212|348:218|348:218|311:225,1,75.7500028610231,4|0,2:0|2:0,2:0:0:0:
181,384,213302,5,4,1:0:0:0:
