osu file format v14

[General]
AudioFilename: audio.mp3
AudioLeadIn: 0
PreviewTime: 76851
Countdown: 0
SampleSet: Normal
StackLeniency: 0.7
Mode: 1
LetterboxInBreaks: 0
WidescreenStoryboard: 1

[Editor]
Bookmarks: 13651,20051,32851,45651,58451,77651,103251,117651,130451,148051,172051,188051
DistanceSpacing: 2.8
BeatDivisor: 4
GridSize: 32
TimelineZoom: 1.6

[Metadata]
Title:Sanyousei SAY YA!!!
TitleUnicode:三妖精SAY YA!!!
Artist:ShinRa-Bansho
ArtistUnicode:森羅萬象
Creator:ilv_Rem
Version:Oni
Source:妖精大戦争 ~ 東方三月精
Tags:Yousei Daisensou Touhou Sangetsusei Three Fairies 春の氷精 Haru no Hyousei サニー ミルク Sunny Milk ルナ チャイルド Luna Child スターサファイア Star Sapphire あやぽんず* Ayaponzu* あよ Ayo エイセイパレード Eisei Eternity Parade 第16回 博麗神社例大祭 The 16th Hakurei Jinja Reitaisai ZUN 上海アリス幻樂団 Team Shanghai Alice kaztora waoru OrbitArk ACTRock イノライ Inorai BlackBN BlackBq Faputa jpop j-pop japanese video game
BeatmapID:2883015
BeatmapSetID:1396964

[Difficulty]
HPDrainRate:5.5
CircleSize:2
OverallDifficulty:5.5
ApproachRate:10
SliderMultiplier:1.4
SliderTickRate:1

[Events]
//Background and Video events
0,0,"bg2.jpg",0,30
//Break Periods
//Storyboard Layer 0 (Background)
//Storyboard Layer 1 (Fail)
//Storyboard Layer 2 (Pass)
//Storyboard Layer 3 (Foreground)
//Storyboard Layer 4 (Overlay)
//Storyboard Sound Samples

[TimingPoints]
851,400,4,1,0,60,1,0
11951,-100,4,1,0,65,0,0
12251,-100,4,1,0,70,0,0
12651,-100,4,1,0,80,0,0
13051,-100,4,1,0,85,0,0
13551,-100,4,1,0,90,0,0
33051,-100,4,1,0,80,0,0
45551,-100,4,1,0,85,0,0
77551,-100,4,1,0,95,0,0
77651,-100,4,1,0,95,0,1
96851,-100,4,1,0,95,0,0
97051,-100,4,1,0,90,0,0
103051,-100,4,1,0,85,0,0
103451,-100,4,1,0,40,0,0
104651,-100,4,1,0,85,0,0
106651,-100,4,1,0,40,0,0
107851,-100,4,1,0,85,0,0
109851,-100,4,1,0,40,0,0
111051,-100,4,1,0,85,0,0
112651,-100,4,1,0,95,0,0
117851,-100,4,1,0,80,0,0
127151,-100,4,1,0,40,0,0
128651,-100,4,1,0,95,0,0
130651,-100,4,1,0,85,0,0
147951,-100,4,1,0,95,0,0
148051,-100,4,1,0,95,0,1
160851,-100,4,1,0,95,0,0
162451,-100,4,1,0,95,0,1
165651,-100,4,1,0,95,0,0
165751,-100,4,1,0,85,0,0
166251,-100,4,1,0,75,0,0
166851,-100,4,1,0,65,0,0
167451,-100,4,1,0,55,0,0
169051,-100,4,1,0,40,0,0
171851,-100,4,1,0,80,0,0
184651,-100,4,1,0,90,0,0
195451,-100,4,1,0,75,0,0
202251,-100,4,1,0,80,0,0
210751,-100,4,1,0,60,0,0
211951,-100,4,1,0,85,0,0
213551,-100,4,1,0,95,0,0
213651,-100,4,1,0,95,0,1
234451,-100,4,1,0,90,0,0
248651,-100,4,1,0,40,0,0
250351,-100,4,1,0,90,0,0

[HitObjects]
256,192,851,5,0,0:0:0:0:
256,192,1251,1,8,0:0:0:0:
256,192,1451,1,8,0:0:0:0:
256,192,1651,1,8,0:0:0:0:
256,192,2051,1,0,0:0:0:0:
256,192,2451,1,8,0:0:0:0:
256,192,2851,1,8,0:0:0:0:
256,192,3251,1,0,0:0:0:0:
256,192,4051,1,0,0:0:0:0:
256,192,4251,1,8,0:0:0:0:
256,192,4451,1,8,0:0:0:0:
256,192,4651,1,0,0:0:0:0:
256,192,4851,1,8,0:0:0:0:
256,192,5251,1,0,0:0:0:0:
256,192,5651,1,8,0:0:0:0:
256,192,7251,1,0,0:0:0:0:
256,192,7651,1,8,0:0:0:0:
256,192,7851,1,8,0:0:0:0:
256,192,8051,1,8,0:0:0:0:
256,192,8451,1,0,0:0:0:0:
256,192,8851,1,8,0:0:0:0:
256,192,9251,1,8,0:0:0:0:
256,192,9651,1,0,0:0:0:0:
256,192,10451,1,0,0:0:0:0:
256,192,10651,1,8,0:0:0:0:
256,192,10851,1,8,0:0:0:0:
256,192,11051,1,0,0:0:0:0:
256,192,11251,1,8,0:0:0:0:
256,192,11651,1,0,0:0:0:0:
256,192,12051,5,4,0:0:0:0:
256,192,12451,1,4,0:0:0:0:
256,192,12851,1,4,0:0:0:0:
256,192,13251,1,4,0:0:0:0:
256,192,13651,1,12,0:0:0:0:
256,192,13851,1,12,0:0:0:0:
256,192,14051,1,8,0:0:0:0:
256,192,14151,1,8,0:0:0:0:
256,192,14251,1,0,0:0:0:0:
256,192,14351,1,0,0:0:0:0:
256,192,14451,1,8,0:0:0:0:
256,192,14651,1,0,0:0:0:0:
256,192,14851,1,8,0:0:0:0:
256,192,15051,1,8,0:0:0:0:
256,192,15251,1,4,0:0:0:0:
256,192,15451,1,4,0:0:0:0:
256,192,15651,1,0,0:0:0:0:
256,192,15751,1,0,0:0:0:0:
256,192,15851,1,8,0:0:0:0:
256,192,15951,1,8,0:0:0:0:
256,192,16051,1,0,0:0:0:0:
256,192,16451,1,0,0:0:0:0:
256,192,16851,1,12,0:0:0:0:
256,192,17051,1,12,0:0:0:0:
256,192,17251,1,0,0:0:0:0:
256,192,17351,1,0,0:0:0:0:
256,192,17451,1,8,0:0:0:0:
256,192,17551,1,8,0:0:0:0:
256,192,17651,1,0,0:0:0:0:
256,192,17851,1,0,0:0:0:0:
256,192,18051,1,8,0:0:0:0:
256,192,18251,1,8,0:0:0:0:
256,192,18451,1,4,0:0:0:0:
256,192,18851,1,0,0:0:0:0:
256,192,19051,1,0,0:0:0:0:
256,192,19151,1,0,0:0:0:0:
256,192,19251,1,8,0:0:0:0:
256,192,19451,1,0,0:0:0:0:
256,192,19651,1,8,0:0:0:0:
256,192,20051,1,4,0:0:0:0:
256,192,20251,1,0,0:0:0:0:
256,192,20451,1,8,0:0:0:0:
256,192,20651,1,8,0:0:0:0:
256,192,20851,1,0,0:0:0:0:
256,192,21051,1,8,0:0:0:0:
256,192,21151,1,8,0:0:0:0:
256,192,21251,1,0,0:0:0:0:
256,192,21451,1,8,0:0:0:0:
256,192,21651,1,0,0:0:0:0:
256,192,21851,1,8,0:0:0:0:
256,192,21951,1,0,0:0:0:0:
256,192,22051,1,0,0:0:0:0:
256,192,22251,1,8,0:0:0:0:
256,192,22451,1,0,0:0:0:0:
256,192,22651,1,0,0:0:0:0:
256,192,22751,1,0,0:0:0:0:
256,192,22851,1,8,0:0:0:0:
256,192,23051,1,8,0:0:0:0:
256,192,23251,1,0,0:0:0:0:
256,192,23451,1,8,0:0:0:0:
256,192,23651,1,0,0:0:0:0:
256,192,23851,1,8,0:0:0:0:
256,192,24051,1,0,0:0:0:0:
256,192,24251,1,8,0:0:0:0:
256,192,24351,1,8,0:0:0:0:
256,192,24451,1,8,0:0:0:0:
256,192,24651,1,8,0:0:0:0:
256,192,24851,1,0,0:0:0:0:
256,192,25051,1,8,0:0:0:0:
256,192,25151,1,8,0:0:0:0:
256,192,25251,1,0,0:0:0:0:
256,192,25451,1,8,0:0:0:0:
256,192,25651,1,0,0:0:0:0:
256,192,25851,1,8,0:0:0:0:
256,192,26051,1,8,0:0:0:0:
256,192,26451,1,0,0:0:0:0:
256,192,26651,1,8,0:0:0:0:
256,192,26851,1,0,0:0:0:0:
256,192,27051,1,8,0:0:0:0:
256,192,27251,1,0,0:0:0:0:
256,192,27451,1,8,0:0:0:0:
256,192,27551,1,8,0:0:0:0:
256,192,27651,1,0,0:0:0:0:
256,192,27851,1,8,0:0:0:0:
256,192,28051,1,0,0:0:0:0:
256,192,28251,1,8,0:0:0:0:
256,192,28351,1,0,0:0:0:0:
256,192,28451,1,0,0:0:0:0:
256,192,28651,1,8,0:0:0:0:
256,192,28851,1,0,0:0:0:0:
256,192,29051,1,8,0:0:0:0:
256,192,29151,1,0,0:0:0:0:
256,192,29251,1,8,0:0:0:0:
256,192,29451,1,8,0:0:0:0:
256,192,29651,1,0,0:0:0:0:
256,192,29851,1,8,0:0:0:0:
256,192,30051,1,0,0:0:0:0:
256,192,30251,1,8,0:0:0:0:
256,192,30451,1,0,0:0:0:0:
256,192,30651,1,0,0:0:0:0:
256,192,30751,1,0,0:0:0:0:
256,192,30851,1,8,0:0:0:0:
256,192,31051,1,8,0:0:0:0:
256,192,31251,1,0,0:0:0:0:
256,192,31451,1,8,0:0:0:0:
256,192,31551,1,8,0:0:0:0:
256,192,31651,1,0,0:0:0:0:
256,192,31851,1,8,0:0:0:0:
256,192,32051,1,0,0:0:0:0:
256,192,32251,1,8,0:0:0:0:
256,192,32451,1,8,0:0:0:0:
256,192,32851,1,4,0:0:0:0:
256,192,33051,1,8,0:0:0:0:
256,192,33251,1,8,0:0:0:0:
256,192,33451,1,0,0:0:0:0:
256,192,33551,1,0,0:0:0:0:
256,192,33651,1,8,0:0:0:0:
256,192,33851,1,8,0:0:0:0:
256,192,34051,1,0,0:0:0:0:
256,192,34251,1,8,0:0:0:0:
256,192,34651,1,8,0:0:0:0:
256,192,34851,1,0,0:0:0:0:
256,192,35051,1,0,0:0:0:0:
256,192,35251,1,8,0:0:0:0:
256,192,35451,1,8,0:0:0:0:
256,192,35651,1,0,0:0:0:0:
256,192,35851,1,8,0:0:0:0:
256,192,35951,1,8,0:0:0:0:
256,192,36051,1,0,0:0:0:0:
256,192,36251,1,0,0:0:0:0:
256,192,36451,1,8,0:0:0:0:
256,192,36651,1,0,0:0:0:0:
256,192,36851,1,8,0:0:0:0:
256,192,37051,1,8,0:0:0:0:
256,192,37251,1,0,0:0:0:0:
256,192,37451,1,0,0:0:0:0:
256,192,37651,1,8,0:0:0:0:
256,192,38051,1,0,0:0:0:0:
256,192,38451,1,0,0:0:0:0:
256,192,38651,1,8,0:0:0:0:
256,192,38851,1,8,0:0:0:0:
256,192,39051,1,8,0:0:0:0:
256,192,39151,1,8,0:0:0:0:
256,192,39251,1,0,0:0:0:0:
256,192,39451,1,8,0:0:0:0:
256,192,39651,1,8,0:0:0:0:
256,192,39851,1,0,0:0:0:0:
256,192,40051,1,8,0:0:0:0:
256,192,40251,1,0,0:0:0:0:
256,192,40451,1,8,0:0:0:0:
256,192,40651,1,8,0:0:0:0:
256,192,41051,1,8,0:0:0:0:
256,192,41251,1,0,0:0:0:0:
256,192,41451,1,0,0:0:0:0:
256,192,41651,1,8,0:0:0:0:
256,192,41851,1,0,0:0:0:0:
256,192,41951,1,0,0:0:0:0:
256,192,42051,1,8,0:0:0:0:
256,192,42251,1,0,0:0:0:0:
256,192,42451,1,0,0:0:0:0:
256,192,42651,1,8,0:0:0:0:
256,192,42851,1,8,0:0:0:0:
256,192,43051,1,0,0:0:0:0:
256,192,43251,1,8,0:0:0:0:
256,192,43451,1,0,0:0:0:0:
256,192,43651,1,0,0:0:0:0:
256,192,43851,1,8,0:0:0:0:
256,192,44251,1,8,0:0:0:0:
256,192,44651,1,0,0:0:0:0:
256,192,44851,1,8,0:0:0:0:
256,192,45251,1,8,0:0:0:0:
256,192,45351,1,8,0:0:0:0:
256,192,45451,1,8,0:0:0:0:
256,192,45551,1,8,0:0:0:0:
256,192,45651,1,0,0:0:0:0:
256,192,45851,1,0,0:0:0:0:
256,192,46051,1,8,0:0:0:0:
256,192,46251,1,8,0:0:0:0:
256,192,46451,1,0,0:0:0:0:
256,192,46651,1,0,0:0:0:0:
256,192,46751,1,0,0:0:0:0:
256,192,46851,1,8,0:0:0:0:
256,192,47051,1,8,0:0:0:0:
256,192,47251,1,0,0:0:0:0:
256,192,47451,1,8,0:0:0:0:
256,192,47551,1,0,0:0:0:0:
256,192,47651,1,8,0:0:0:0:
256,192,47851,1,8,0:0:0:0:
256,192,48051,1,0,0:0:0:0:
256,192,48251,1,0,0:0:0:0:
256,192,48451,1,8,0:0:0:0:
256,192,48651,1,0,0:0:0:0:
256,192,48851,1,8,0:0:0:0:
256,192,49051,1,0,0:0:0:0:
256,192,49251,1,0,0:0:0:0:
256,192,49451,1,0,0:0:0:0:
256,192,49551,1,0,0:0:0:0:
256,192,49651,1,8,0:0:0:0:
256,192,49851,1,8,0:0:0:0:
256,192,50051,1,0,0:0:0:0:
256,192,50251,1,0,0:0:0:0:
256,192,50451,1,8,0:0:0:0:
256,192,50851,1,8,0:0:0:0:
256,192,51051,1,0,0:0:0:0:
256,192,51251,1,8,0:0:0:0:
256,192,51651,1,8,0:0:0:0:
256,192,51851,1,8,0:0:0:0:
256,192,51951,1,8,0:0:0:0:
256,192,52051,1,0,0:0:0:0:
256,192,52251,1,0,0:0:0:0:
256,192,52451,1,8,0:0:0:0:
256,192,52651,1,0,0:0:0:0:
256,192,52751,1,0,0:0:0:0:
256,192,52851,1,8,0:0:0:0:
256,192,53051,1,8,0:0:0:0:
256,192,53251,1,0,0:0:0:0:
256,192,53451,1,8,0:0:0:0:
256,192,53651,1,0,0:0:0:0:
256,192,53851,1,0,0:0:0:0:
256,192,53951,1,0,0:0:0:0:
256,192,54051,1,8,0:0:0:0:
256,192,54251,1,0,0:0:0:0:
256,192,54451,1,8,0:0:0:0:
256,192,54651,1,0,0:0:0:0:
256,192,54851,1,0,0:0:0:0:
256,192,55051,1,8,0:0:0:0:
256,192,55251,1,0,0:0:0:0:
256,192,55451,1,8,0:0:0:0:
256,192,55551,1,0,0:0:0:0:
256,192,55651,1,8,0:0:0:0:
256,192,55851,1,8,0:0:0:0:
256,192,56051,1,0,0:0:0:0:
256,192,56251,1,8,0:0:0:0:
256,192,56351,1,8,0:0:0:0:
256,192,56451,1,8,0:0:0:0:
256,192,56651,1,8,0:0:0:0:
256,192,56851,1,0,0:0:0:0:
256,192,57051,1,8,0:0:0:0:
256,192,57151,1,0,0:0:0:0:
256,192,57251,1,8,0:0:0:0:
256,192,57451,1,8,0:0:0:0:
256,192,57651,1,0,0:0:0:0:
256,192,57851,1,12,0:0:0:0:
256,192,58051,1,12,0:0:0:0:
256,192,58451,1,4,0:0:0:0:
256,192,59051,1,0,0:0:0:0:
256,192,59251,1,8,0:0:0:0:
256,192,59451,1,8,0:0:0:0:
256,192,59651,1,0,0:0:0:0:
256,192,59851,1,0,0:0:0:0:
256,192,60051,1,8,0:0:0:0:
256,192,60251,1,0,0:0:0:0:
256,192,60351,1,0,0:0:0:0:
256,192,60451,1,8,0:0:0:0:
256,192,60651,1,0,0:0:0:0:
256,192,60851,1,8,0:0:0:0:
256,192,61051,1,0,0:0:0:0:
256,192,61251,1,8,0:0:0:0:
256,192,61451,1,0,0:0:0:0:
256,192,61651,1,0,0:0:0:0:
256,192,62251,1,0,0:0:0:0:
256,192,62451,1,8,0:0:0:0:
256,192,62651,1,0,0:0:0:0:
256,192,62851,1,0,0:0:0:0:
256,192,63051,1,8,0:0:0:0:
256,192,63251,1,0,0:0:0:0:
256,192,63451,1,8,0:0:0:0:
256,192,63551,1,8,0:0:0:0:
256,192,63651,1,0,0:0:0:0:
256,192,63851,1,0,0:0:0:0:
256,192,64051,1,8,0:0:0:0:
256,192,64451,1,8,0:0:0:0:
256,192,64651,1,0,0:0:0:0:
256,192,64751,1,0,0:0:0:0:
256,192,64851,1,0,0:0:0:0:
256,192,65051,1,0,0:0:0:0:
256,192,65251,1,8,0:0:0:0:
256,192,65451,1,0,0:0:0:0:
256,192,65651,1,8,0:0:0:0:
256,192,65851,1,0,0:0:0:0:
256,192,65951,1,0,0:0:0:0:
256,192,66051,1,8,0:0:0:0:
256,192,66251,1,0,0:0:0:0:
256,192,66451,1,8,0:0:0:0:
256,192,66651,1,8,0:0:0:0:
256,192,66751,1,8,0:0:0:0:
256,192,66851,1,0,0:0:0:0:
256,192,67051,1,8,0:0:0:0:
256,192,67251,1,0,0:0:0:0:
256,192,67351,1,0,0:0:0:0:
256,192,67451,1,8,0:0:0:0:
256,192,67551,1,8,0:0:0:0:
256,192,67651,1,0,0:0:0:0:
256,192,67851,1,0,0:0:0:0:
256,192,68051,1,12,0:0:0:0:
256,192,69251,1,8,0:0:0:0:
256,192,69451,1,8,0:0:0:0:
256,192,69651,1,4,0:0:0:0:
256,192,70851,1,8,0:0:0:0:
256,192,71051,1,0,0:0:0:0:
256,192,71251,1,4,0:0:0:0:
256,192,72451,1,8,0:0:0:0:
256,192,72551,1,8,0:0:0:0:
256,192,72651,1,0,0:0:0:0:
256,192,72751,1,0,0:0:0:0:
256,192,72851,1,8,0:0:0:0:
256,192,73251,1,0,0:0:0:0:
256,192,73651,1,0,0:0:0:0:
256,192,74051,1,0,0:0:0:0:
256,192,74451,1,0,0:0:0:0:
256,192,74651,1,0,0:0:0:0:
256,192,74851,1,0,0:0:0:0:
256,192,75051,1,0,0:0:0:0:
256,192,75251,1,8,0:0:0:0:
256,192,75451,1,8,0:0:0:0:
256,192,75651,1,8,0:0:0:0:
256,192,75751,1,8,0:0:0:0:
256,192,75851,1,8,0:0:0:0:
256,192,75951,1,8,0:0:0:0:
256,192,77051,1,0,0:0:0:0:
256,192,77151,1,0,0:0:0:0:
256,192,77251,1,8,0:0:0:0:
256,192,77651,1,4,0:0:0:0:
256,192,77851,1,0,0:0:0:0:
256,192,77951,1,0,0:0:0:0:
256,192,78051,1,8,0:0:0:0:
256,192,78251,1,8,0:0:0:0:
256,192,78451,1,0,0:0:0:0:
256,192,78651,1,8,0:0:0:0:
256,192,78751,1,8,0:0:0:0:
256,192,78851,1,0,0:0:0:0:
256,192,79051,1,8,0:0:0:0:
256,192,79251,1,0,0:0:0:0:
256,192,79451,1,0,0:0:0:0:
256,192,79551,1,8,0:0:0:0:
256,192,79651,1,0,0:0:0:0:
256,192,79851,1,8,0:0:0:0:
256,192,80051,1,0,0:0:0:0:
256,192,80151,1,0,0:0:0:0:
256,192,80251,1,8,0:0:0:0:
256,192,80351,1,8,0:0:0:0:
256,192,80451,1,0,0:0:0:0:
256,192,80651,1,0,0:0:0:0:
256,192,80851,1,8,0:0:0:0:
256,192,81051,1,0,0:0:0:0:
256,192,81151,1,0,0:0:0:0:
256,192,81251,1,8,0:0:0:0:
256,192,81451,1,8,0:0:0:0:
256,192,81651,1,0,0:0:0:0:
256,192,81851,1,8,0:0:0:0:
256,192,82051,1,0,0:0:0:0:
256,192,82251,1,0,0:0:0:0:
256,192,82451,1,8,0:0:0:0:
256,192,82651,1,0,0:0:0:0:
256,192,82751,1,0,0:0:0:0:
256,192,82851,1,8,0:0:0:0:
256,192,83051,1,8,0:0:0:0:
256,192,83151,1,0,0:0:0:0:
256,192,83251,1,8,0:0:0:0:
256,192,83451,1,8,0:0:0:0:
256,192,83651,1,8,0:0:0:0:
256,192,84051,1,4,0:0:0:0:
256,192,84251,1,0,0:0:0:0:
256,192,84351,1,0,0:0:0:0:
256,192,84451,1,8,0:0:0:0:
256,192,84651,1,8,0:0:0:0:
256,192,84851,1,0,0:0:0:0:
256,192,85051,1,8,0:0:0:0:
256,192,85151,1,0,0:0:0:0:
256,192,85251,1,8,0:0:0:0:
256,192,85451,1,8,0:0:0:0:
256,192,85651,1,0,0:0:0:0:
256,192,85851,1,8,0:0:0:0:
256,192,85951,1,0,0:0:0:0:
256,192,86051,1,0,0:0:0:0:
256,192,86251,1,8,0:0:0:0:
256,192,86451,1,0,0:0:0:0:
256,192,86551,1,0,0:0:0:0:
256,192,86651,1,8,0:0:0:0:
256,192,86751,1,8,0:0:0:0:
256,192,86851,1,0,0:0:0:0:
256,192,87051,1,0,0:0:0:0:
256,192,87251,1,12,0:0:0:0:
256,192,87651,1,8,0:0:0:0:
256,192,87851,1,0,0:0:0:0:
256,192,88051,1,8,0:0:0:0:
256,192,88251,1,0,0:0:0:0:
256,192,88351,1,0,0:0:0:0:
256,192,88451,1,8,0:0:0:0:
256,192,88651,1,0,0:0:0:0:
256,192,88851,1,12,0:0:0:0:
256,192,89251,1,8,0:0:0:0:
256,192,89451,1,0,0:0:0:0:
256,192,89651,1,8,0:0:0:0:
256,192,89851,1,8,0:0:0:0:
256,192,90051,1,0,0:0:0:0:
256,192,90251,1,0,0:0:0:0:
256,192,90451,1,12,0:0:0:0:
256,192,90851,1,8,0:0:0:0:
256,192,91051,1,0,0:0:0:0:
256,192,91251,1,0,0:0:0:0:
256,192,91651,1,0,0:0:0:0:
256,192,91851,1,0,0:0:0:0:
256,192,92051,1,12,0:0:0:0:
256,192,92251,1,0,0:0:0:0:
256,192,92451,1,0,0:0:0:0:
256,192,92651,1,0,0:0:0:0:
256,192,92851,1,8,0:0:0:0:
256,192,93051,1,0,0:0:0:0:
256,192,93251,1,8,0:0:0:0:
256,192,93451,1,8,0:0:0:0:
256,192,93851,1,8,0:0:0:0:
256,192,94051,1,8,0:0:0:0:
256,192,94251,1,0,0:0:0:0:
256,192,94351,1,0,0:0:0:0:
256,192,94451,1,8,0:0:0:0:
256,192,94651,1,8,0:0:0:0:
256,192,95051,1,8,0:0:0:0:
256,192,95251,1,0,0:0:0:0:
256,192,95451,1,0,0:0:0:0:
256,192,95651,1,8,0:0:0:0:
256,192,95851,1,0,0:0:0:0:
256,192,96051,1,8,0:0:0:0:
256,192,96451,1,8,0:0:0:0:
256,192,96551,1,8,0:0:0:0:
256,192,96651,1,8,0:0:0:0:
256,192,96751,1,8,0:0:0:0:
256,192,96851,1,0,0:0:0:0:
256,192,97051,1,8,0:0:0:0:
256,192,97251,1,0,0:0:0:0:
256,192,97451,1,8,0:0:0:0:
256,192,97651,1,0,0:0:0:0:
256,192,97851,1,8,0:0:0:0:
256,192,97951,1,8,0:0:0:0:
256,192,98051,1,0,0:0:0:0:
256,192,98251,1,8,0:0:0:0:
256,192,98451,1,0,0:0:0:0:
256,192,98651,1,8,0:0:0:0:
256,192,98751,1,0,0:0:0:0:
256,192,98851,1,8,0:0:0:0:
256,192,99051,1,8,0:0:0:0:
256,192,99251,1,0,0:0:0:0:
256,192,99451,1,8,0:0:0:0:
256,192,99551,1,8,0:0:0:0:
256,192,99651,1,8,0:0:0:0:
256,192,99851,1,8,0:0:0:0:
256,192,100051,1,0,0:0:0:0:
256,192,100251,1,0,0:0:0:0:
256,192,100451,1,8,0:0:0:0:
256,192,100651,1,8,0:0:0:0:
256,192,100851,1,0,0:0:0:0:
256,192,101051,1,8,0:0:0:0:
256,192,101151,1,8,0:0:0:0:
256,192,101251,1,0,0:0:0:0:
256,192,101451,1,8,0:0:0:0:
256,192,101651,1,0,0:0:0:0:
256,192,101851,1,8,0:0:0:0:
256,192,101951,1,0,0:0:0:0:
256,192,102051,1,0,0:0:0:0:
256,192,102251,1,8,0:0:0:0:
256,192,102451,1,0,0:0:0:0:
256,192,102651,1,8,0:0:0:0:
256,192,102751,1,8,0:0:0:0:
256,192,102851,1,0,0:0:0:0:
256,192,103051,1,8,0:0:0:0:
256,192,103251,1,12,0:0:0:0:
256,192,104851,1,12,0:0:0:0:
256,192,105051,1,4,0:0:0:0:
256,192,105251,1,12,0:0:0:0:
256,192,105651,1,12,0:0:0:0:
256,192,106451,1,4,0:0:0:0:
256,192,108051,1,12,0:0:0:0:
256,192,108251,1,4,0:0:0:0:
256,192,108451,1,12,0:0:0:0:
256,192,108651,1,4,0:0:0:0:
256,192,108851,1,12,0:0:0:0:
256,192,109651,1,4,0:0:0:0:
256,192,109851,1,12,0:0:0:0:
256,192,111251,1,12,0:0:0:0:
256,192,111451,1,4,0:0:0:0:
256,192,111651,1,12,0:0:0:0:
256,192,112051,1,12,0:0:0:0:
256,192,112851,1,12,0:0:0:0:
256,192,113251,1,4,0:0:0:0:
256,192,113651,1,12,0:0:0:0:
256,192,114051,1,4,0:0:0:0:
256,192,114451,1,12,0:0:0:0:
256,192,114851,1,4,0:0:0:0:
256,192,115251,1,12,0:0:0:0:
256,192,115651,1,4,0:0:0:0:
256,192,116051,1,8,0:0:0:0:
256,192,116251,1,0,0:0:0:0:
256,192,116451,1,8,0:0:0:0:
256,192,116651,1,0,0:0:0:0:
256,192,116851,1,8,0:0:0:0:
256,192,117051,1,8,0:0:0:0:
256,192,117251,1,8,0:0:0:0:
256,192,117351,1,8,0:0:0:0:
256,192,117451,1,8,0:0:0:0:
256,192,117551,1,8,0:0:0:0:
256,192,117651,1,0,0:0:0:0:
256,192,117851,1,8,0:0:0:0:
256,192,118051,1,8,0:0:0:0:
256,192,118251,1,0,0:0:0:0:
256,192,118351,1,0,0:0:0:0:
256,192,118451,1,8,0:0:0:0:
256,192,118651,1,8,0:0:0:0:
256,192,118851,1,0,0:0:0:0:
256,192,119051,1,8,0:0:0:0:
256,192,119451,1,8,0:0:0:0:
256,192,119651,1,0,0:0:0:0:
256,192,119851,1,0,0:0:0:0:
256,192,120051,1,8,0:0:0:0:
256,192,120251,1,0,0:0:0:0:
256,192,120351,1,0,0:0:0:0:
256,192,120451,1,8,0:0:0:0:
256,192,120651,1,0,0:0:0:0:
256,192,120851,1,0,0:0:0:0:
256,192,121051,1,8,0:0:0:0:
256,192,121251,1,8,0:0:0:0:
256,192,121451,1,0,0:0:0:0:
256,192,121651,1,8,0:0:0:0:
256,192,121851,1,0,0:0:0:0:
256,192,121951,1,0,0:0:0:0:
256,192,122051,1,0,0:0:0:0:
256,192,122251,1,8,0:0:0:0:
256,192,122451,1,8,0:0:0:0:
256,192,122851,1,8,0:0:0:0:
256,192,123251,1,0,0:0:0:0:
256,192,123451,1,8,0:0:0:0:
256,192,123651,1,8,0:0:0:0:
256,192,123851,1,8,0:0:0:0:
256,192,123951,1,8,0:0:0:0:
256,192,124051,1,0,0:0:0:0:
256,192,124251,1,8,0:0:0:0:
256,192,124451,1,0,0:0:0:0:
256,192,124651,1,0,0:0:0:0:
256,192,124751,1,0,0:0:0:0:
256,192,124851,1,8,0:0:0:0:
256,192,125051,1,8,0:0:0:0:
256,192,125251,1,0,0:0:0:0:
256,192,125451,1,8,0:0:0:0:
256,192,125651,1,0,0:0:0:0:
256,192,125851,1,8,0:0:0:0:
256,192,126051,1,0,0:0:0:0:
256,192,126251,1,0,0:0:0:0:
256,192,126451,1,8,0:0:0:0:
256,192,126651,1,0,0:0:0:0:
256,192,126851,1,8,0:0:0:0:
256,192,127051,1,0,0:0:0:0:
256,192,128851,1,8,0:0:0:0:
256,192,129051,1,0,0:0:0:0:
256,192,129251,1,8,0:0:0:0:
256,192,129451,1,0,0:0:0:0:
256,192,129651,1,8,0:0:0:0:
256,192,129851,1,0,0:0:0:0:
256,192,129951,1,0,0:0:0:0:
256,192,130051,1,8,0:0:0:0:
256,192,130251,1,8,0:0:0:0:
256,192,130451,1,4,0:0:0:0:
256,192,131051,1,0,0:0:0:0:
256,192,131251,1,8,0:0:0:0:
256,192,131451,1,8,0:0:0:0:
256,192,131651,1,0,0:0:0:0:
256,192,131851,1,0,0:0:0:0:
256,192,132051,1,8,0:0:0:0:
256,192,132251,1,0,0:0:0:0:
256,192,132351,1,0,0:0:0:0:
256,192,132451,1,8,0:0:0:0:
256,192,132651,1,0,0:0:0:0:
256,192,132851,1,8,0:0:0:0:
256,192,133251,1,8,0:0:0:0:
256,192,133651,1,0,0:0:0:0:
256,192,134251,1,0,0:0:0:0:
256,192,134451,1,8,0:0:0:0:
256,192,134651,1,8,0:0:0:0:
256,192,134851,1,0,0:0:0:0:
256,192,135051,1,8,0:0:0:0:
256,192,135251,1,0,0:0:0:0:
256,192,135451,1,8,0:0:0:0:
256,192,135551,1,8,0:0:0:0:
256,192,135651,1,0,0:0:0:0:
256,192,135851,1,0,0:0:0:0:
256,192,136051,1,8,0:0:0:0:
256,192,136451,1,8,0:0:0:0:
256,192,136651,1,0,0:0:0:0:
256,192,136751,1,0,0:0:0:0:
256,192,136851,1,0,0:0:0:0:
256,192,137051,1,0,0:0:0:0:
256,192,137251,1,8,0:0:0:0:
256,192,137451,1,0,0:0:0:0:
256,192,137551,1,0,0:0:0:0:
256,192,137651,1,8,0:0:0:0:
256,192,137851,1,8,0:0:0:0:
256,192,138051,1,0,0:0:0:0:
256,192,138251,1,8,0:0:0:0:
256,192,138351,1,8,0:0:0:0:
256,192,138451,1,0,0:0:0:0:
256,192,138651,1,8,0:0:0:0:
256,192,138851,1,0,0:0:0:0:
256,192,139051,1,0,0:0:0:0:
256,192,139151,1,0,0:0:0:0:
256,192,139251,1,8,0:0:0:0:
256,192,139451,1,0,0:0:0:0:
256,192,139651,1,8,0:0:0:0:
256,192,139851,1,4,0:0:0:0:
256,192,141251,1,0,0:0:0:0:
256,192,141451,1,4,0:0:0:0:
256,192,142851,1,4,0:0:0:0:
256,192,143451,1,4,0:0:0:0:
256,192,143651,1,4,0:0:0:0:
256,192,144051,1,12,0:0:0:0:
256,192,144251,1,12,0:0:0:0:
256,192,144651,1,4,0:0:0:0:
256,192,145051,1,8,0:0:0:0:
256,192,145251,1,0,0:0:0:0:
256,192,145451,1,8,0:0:0:0:
256,192,145651,1,0,0:0:0:0:
256,192,145851,1,0,0:0:0:0:
256,192,146051,1,8,0:0:0:0:
256,192,146151,1,8,0:0:0:0:
256,192,146251,1,8,0:0:0:0:
256,192,146351,1,8,0:0:0:0:
256,192,146851,12,0,147651,0:0:0:0:
256,192,148051,5,4,0:0:0:0:
256,192,148251,1,0,0:0:0:0:
256,192,148351,1,0,0:0:0:0:
256,192,148451,1,8,0:0:0:0:
256,192,148651,1,8,0:0:0:0:
256,192,148851,1,0,0:0:0:0:
256,192,149051,1,8,0:0:0:0:
256,192,149151,1,0,0:0:0:0:
256,192,149251,1,0,0:0:0:0:
256,192,149451,1,8,0:0:0:0:
256,192,149651,1,0,0:0:0:0:
256,192,149851,1,8,0:0:0:0:
256,192,149951,1,8,0:0:0:0:
256,192,150051,1,0,0:0:0:0:
256,192,150251,1,8,0:0:0:0:
256,192,150451,1,0,0:0:0:0:
256,192,150551,1,0,0:0:0:0:
256,192,150651,1,8,0:0:0:0:
256,192,150751,1,0,0:0:0:0:
256,192,150851,1,8,0:0:0:0:
256,192,151051,1,0,0:0:0:0:
256,192,151251,1,8,0:0:0:0:
256,192,151451,1,0,0:0:0:0:
256,192,151551,1,0,0:0:0:0:
256,192,151651,1,8,0:0:0:0:
256,192,151851,1,8,0:0:0:0:
256,192,152051,1,0,0:0:0:0:
256,192,152251,1,8,0:0:0:0:
256,192,152351,1,8,0:0:0:0:
256,192,152451,1,0,0:0:0:0:
256,192,152651,1,0,0:0:0:0:
256,192,152851,1,8,0:0:0:0:
256,192,153051,1,0,0:0:0:0:
256,192,153151,1,0,0:0:0:0:
256,192,153251,1,8,0:0:0:0:
256,192,153451,1,8,0:0:0:0:
256,192,153551,1,0,0:0:0:0:
256,192,153651,1,8,0:0:0:0:
256,192,153851,1,8,0:0:0:0:
256,192,154051,1,8,0:0:0:0:
256,192,154451,1,4,0:0:0:0:
256,192,154651,1,0,0:0:0:0:
256,192,154751,1,0,0:0:0:0:
256,192,154851,1,8,0:0:0:0:
256,192,155051,1,8,0:0:0:0:
256,192,155251,1,0,0:0:0:0:
256,192,155451,1,8,0:0:0:0:
256,192,155551,1,8,0:0:0:0:
256,192,155651,1,0,0:0:0:0:
256,192,155851,1,8,0:0:0:0:
256,192,156051,1,0,0:0:0:0:
256,192,156251,1,8,0:0:0:0:
256,192,156351,1,8,0:0:0:0:
256,192,156451,1,8,0:0:0:0:
256,192,156651,1,0,0:0:0:0:
256,192,156851,1,8,0:0:0:0:
256,192,156951,1,8,0:0:0:0:
256,192,157051,1,0,0:0:0:0:
256,192,157151,1,0,0:0:0:0:
256,192,157251,1,8,0:0:0:0:
256,192,157451,1,0,0:0:0:0:
256,192,157651,1,12,0:0:0:0:
256,192,158051,1,8,0:0:0:0:
256,192,158251,1,0,0:0:0:0:
256,192,158451,1,8,0:0:0:0:
256,192,158651,1,0,0:0:0:0:
256,192,158751,1,0,0:0:0:0:
256,192,158851,1,8,0:0:0:0:
256,192,159051,1,0,0:0:0:0:
256,192,159251,1,12,0:0:0:0:
256,192,159651,1,8,0:0:0:0:
256,192,159851,1,0,0:0:0:0:
256,192,160051,1,8,0:0:0:0:
256,192,160251,1,0,0:0:0:0:
256,192,160451,1,8,0:0:0:0:
256,192,160651,1,8,0:0:0:0:
256,192,160751,1,8,0:0:0:0:
256,192,160851,1,0,0:0:0:0:
256,192,161251,1,0,0:0:0:0:
256,192,161651,1,8,0:0:0:0:
256,192,162051,1,8,0:0:0:0:
256,192,162151,1,8,0:0:0:0:
256,192,162251,1,8,0:0:0:0:
256,192,162351,1,8,0:0:0:0:
256,192,162451,1,0,0:0:0:0:
256,192,162651,1,0,0:0:0:0:
256,192,162851,1,8,0:0:0:0:
256,192,163051,1,0,0:0:0:0:
256,192,163251,1,0,0:0:0:0:
256,192,163451,1,0,0:0:0:0:
256,192,163651,1,8,0:0:0:0:
256,192,163851,1,0,0:0:0:0:
256,192,164051,1,8,0:0:0:0:
256,192,164251,1,8,0:0:0:0:
256,192,164451,1,0,0:0:0:0:
256,192,164651,1,0,0:0:0:0:
256,192,164851,1,8,0:0:0:0:
256,192,165051,1,0,0:0:0:0:
256,192,165251,1,8,0:0:0:0:
256,192,165351,1,8,0:0:0:0:
256,192,165451,1,8,0:0:0:0:
256,192,165551,1,8,0:0:0:0:
256,192,165651,1,0,0:0:0:0:
256,192,165951,1,8,0:0:0:0:
256,192,166051,1,0,0:0:0:0:
256,192,166251,1,0,0:0:0:0:
256,192,166451,1,8,0:0:0:0:
256,192,166651,1,8,0:0:0:0:
256,192,166851,1,8,0:0:0:0:
256,192,167251,1,0,0:0:0:0:
256,192,167551,1,8,0:0:0:0:
256,192,167651,1,0,0:0:0:0:
256,192,167851,1,8,0:0:0:0:
256,192,168051,1,0,0:0:0:0:
256,192,168251,1,0,0:0:0:0:
256,192,168451,1,0,0:0:0:0:
256,192,168851,1,0,0:0:0:0:
256,192,169151,1,8,0:0:0:0:
256,192,169251,1,0,0:0:0:0:
256,192,169451,1,0,0:0:0:0:
256,192,169651,1,8,0:0:0:0:
256,192,169851,1,8,0:0:0:0:
256,192,170051,1,8,0:0:0:0:
256,192,170451,1,0,0:0:0:0:
256,192,170751,1,8,0:0:0:0:
256,192,170851,1,0,0:0:0:0:
256,192,171051,1,0,0:0:0:0:
256,192,171251,1,8,0:0:0:0:
256,192,171651,1,8,0:0:0:0:
256,192,172051,1,0,0:0:0:0:
256,192,172251,1,8,0:0:0:0:
256,192,172351,1,0,0:0:0:0:
256,192,172451,1,8,0:0:0:0:
256,192,172651,1,8,0:0:0:0:
256,192,172851,1,0,0:0:0:0:
256,192,173251,1,8,0:0:0:0:
256,192,173651,1,0,0:0:0:0:
256,192,173951,1,0,0:0:0:0:
256,192,174051,1,8,0:0:0:0:
256,192,174251,1,0,0:0:0:0:
256,192,174451,1,0,0:0:0:0:
256,192,174851,1,8,0:0:0:0:
256,192,175251,1,0,0:0:0:0:
256,192,175551,1,8,0:0:0:0:
256,192,175651,1,0,0:0:0:0:
256,192,175851,1,0,0:0:0:0:
256,192,176051,1,8,0:0:0:0:
256,192,176251,1,8,0:0:0:0:
256,192,176451,1,8,0:0:0:0:
256,192,176851,1,0,0:0:0:0:
256,192,177151,1,8,0:0:0:0:
256,192,177251,1,0,0:0:0:0:
256,192,177451,1,8,0:0:0:0:
256,192,177651,1,0,0:0:0:0:
256,192,177851,1,0,0:0:0:0:
256,192,178051,1,0,0:0:0:0:
256,192,178451,1,0,0:0:0:0:
256,192,178651,1,8,0:0:0:0:
256,192,178751,1,0,0:0:0:0:
256,192,178851,1,0,0:0:0:0:
256,192,179051,1,8,0:0:0:0:
256,192,179251,1,0,0:0:0:0:
256,192,179651,1,8,0:0:0:0:
256,192,180051,1,0,0:0:0:0:
256,192,180351,1,0,0:0:0:0:
256,192,180451,1,8,0:0:0:0:
256,192,180651,1,0,0:0:0:0:
256,192,180851,1,0,0:0:0:0:
256,192,181251,1,8,0:0:0:0:
256,192,181651,1,0,0:0:0:0:
256,192,181951,1,8,0:0:0:0:
256,192,182051,1,0,0:0:0:0:
256,192,182251,1,0,0:0:0:0:
256,192,182451,1,8,0:0:0:0:
256,192,182651,1,8,0:0:0:0:
256,192,182851,1,8,0:0:0:0:
256,192,183251,1,0,0:0:0:0:
256,192,183551,1,8,0:0:0:0:
256,192,183651,1,0,0:0:0:0:
256,192,183851,1,8,0:0:0:0:
256,192,184051,1,0,0:0:0:0:
256,192,184251,1,0,0:0:0:0:
256,192,184451,1,0,0:0:0:0:
256,192,184851,1,4,0:0:0:0:
256,192,185651,1,4,0:0:0:0:
256,192,186451,1,4,0:0:0:0:
256,192,187251,1,4,0:0:0:0:
256,192,187451,1,0,0:0:0:0:
256,192,187651,1,8,0:0:0:0:
256,192,187851,1,8,0:0:0:0:
256,192,187951,1,8,0:0:0:0:
256,192,188051,1,0,0:0:0:0:
256,192,188451,1,8,0:0:0:0:
256,192,188651,1,8,0:0:0:0:
256,192,188751,1,8,0:0:0:0:
256,192,188851,1,8,0:0:0:0:
256,192,189051,1,0,0:0:0:0:
256,192,189251,1,8,0:0:0:0:
256,192,189451,1,0,0:0:0:0:
256,192,189551,1,0,0:0:0:0:
256,192,189651,1,8,0:0:0:0:
256,192,189851,1,0,0:0:0:0:
256,192,190051,1,8,0:0:0:0:
256,192,190251,1,8,0:0:0:0:
256,192,190351,1,0,0:0:0:0:
256,192,190451,1,8,0:0:0:0:
256,192,190651,1,8,0:0:0:0:
256,192,190851,1,0,0:0:0:0:
256,192,191051,1,0,0:0:0:0:
256,192,191251,1,8,0:0:0:0:
256,192,191451,1,0,0:0:0:0:
256,192,191551,1,0,0:0:0:0:
256,192,191651,1,8,0:0:0:0:
256,192,191851,1,0,0:0:0:0:
256,192,192051,1,8,0:0:0:0:
256,192,192251,1,8,0:0:0:0:
256,192,192351,1,8,0:0:0:0:
256,192,192451,1,0,0:0:0:0:
256,192,192651,1,0,0:0:0:0:
256,192,192851,1,8,0:0:0:0:
256,192,193051,1,0,0:0:0:0:
256,192,193151,1,0,0:0:0:0:
256,192,193251,1,0,0:0:0:0:
256,192,193451,1,0,0:0:0:0:
256,192,193651,1,8,0:0:0:0:
256,192,193851,1,0,0:0:0:0:
256,192,194051,1,8,0:0:0:0:
256,192,194151,1,8,0:0:0:0:
256,192,194251,1,8,0:0:0:0:
256,192,194351,1,8,0:0:0:0:
256,192,195651,1,0,0:0:0:0:
256,192,195851,1,0,0:0:0:0:
256,192,196051,1,8,0:0:0:0:
256,192,196451,1,8,0:0:0:0:
256,192,196851,1,0,0:0:0:0:
256,192,197051,1,8,0:0:0:0:
256,192,197251,1,0,0:0:0:0:
256,192,197651,1,8,0:0:0:0:
256,192,197851,1,8,0:0:0:0:
256,192,198051,1,0,0:0:0:0:
256,192,198451,1,8,0:0:0:0:
256,192,198851,1,8,0:0:0:0:
256,192,199251,1,0,0:0:0:0:
256,192,199451,1,0,0:0:0:0:
256,192,199651,1,8,0:0:0:0:
256,192,199851,1,0,0:0:0:0:
256,192,200251,1,8,0:0:0:0:
256,192,200451,1,0,0:0:0:0:
256,192,200651,1,0,0:0:0:0:
256,192,200851,1,8,0:0:0:0:
256,192,201051,1,0,0:0:0:0:
256,192,201251,1,8,0:0:0:0:
256,192,201451,1,0,0:0:0:0:
256,192,201651,1,8,0:0:0:0:
256,192,201851,1,8,0:0:0:0:
256,192,202051,1,8,0:0:0:0:
256,192,202451,1,0,0:0:0:0:
256,192,202851,1,8,0:0:0:0:
256,192,203251,1,8,0:0:0:0:
256,192,203451,1,8,0:0:0:0:
256,192,203651,1,0,0:0:0:0:
256,192,204051,1,0,0:0:0:0:
256,192,204251,1,8,0:0:0:0:
256,192,204451,1,0,0:0:0:0:
256,192,204851,1,8,0:0:0:0:
256,192,205251,1,8,0:0:0:0:
256,192,205651,1,0,0:0:0:0:
256,192,206051,1,8,0:0:0:0:
256,192,206451,1,8,0:0:0:0:
256,192,206851,1,0,0:0:0:0:
256,192,207251,1,8,0:0:0:0:
256,192,207651,1,0,0:0:0:0:
256,192,208051,1,8,0:0:0:0:
256,192,208851,1,8,0:0:0:0:
256,192,209051,1,8,0:0:0:0:
256,192,209251,1,0,0:0:0:0:
256,192,209451,1,8,0:0:0:0:
256,192,209651,1,0,0:0:0:0:
256,192,209851,1,0,0:0:0:0:
256,192,210051,1,8,0:0:0:0:
256,192,210251,1,0,0:0:0:0:
256,192,210451,1,8,0:0:0:0:
256,192,210551,1,8,0:0:0:0:
256,192,210651,1,0,0:0:0:0:
256,192,210751,1,0,0:0:0:0:
256,192,210851,1,8,0:0:0:0:
256,192,211251,1,0,0:0:0:0:
256,192,211451,1,8,0:0:0:0:
256,192,211651,1,8,0:0:0:0:
256,192,211851,1,0,0:0:0:0:
256,192,212251,1,4,0:0:0:0:
256,192,212451,1,4,0:0:0:0:
256,192,212651,1,4,0:0:0:0:
256,192,212851,1,4,0:0:0:0:
256,192,213251,1,12,0:0:0:0:
256,192,213651,1,4,0:0:0:0:
256,192,213851,1,0,0:0:0:0:
256,192,213951,1,0,0:0:0:0:
256,192,214051,1,8,0:0:0:0:
256,192,214251,1,8,0:0:0:0:
256,192,214451,1,0,0:0:0:0:
256,192,214651,1,8,0:0:0:0:
256,192,214751,1,8,0:0:0:0:
256,192,214851,1,0,0:0:0:0:
256,192,215051,1,0,0:0:0:0:
256,192,215251,1,8,0:0:0:0:
256,192,215351,1,0,0:0:0:0:
256,192,215451,1,8,0:0:0:0:
256,192,215551,1,0,0:0:0:0:
256,192,215651,1,8,0:0:0:0:
256,192,215851,1,8,0:0:0:0:
256,192,216051,1,0,0:0:0:0:
256,192,216251,1,8,0:0:0:0:
256,192,216351,1,8,0:0:0:0:
256,192,216451,1,0,0:0:0:0:
256,192,216651,1,0,0:0:0:0:
256,192,216851,1,0,0:0:0:0:
256,192,216951,1,0,0:0:0:0:
256,192,217051,1,8,0:0:0:0:
256,192,217151,1,0,0:0:0:0:
256,192,217251,1,8,0:0:0:0:
256,192,217451,1,8,0:0:0:0:
256,192,217651,1,0,0:0:0:0:
256,192,217851,1,8,0:0:0:0:
256,192,217951,1,0,0:0:0:0:
256,192,218051,1,8,0:0:0:0:
256,192,218251,1,8,0:0:0:0:
256,192,218451,1,0,0:0:0:0:
256,192,218651,1,0,0:0:0:0:
256,192,218751,1,0,0:0:0:0:
256,192,218851,1,8,0:0:0:0:
256,192,219051,1,8,0:0:0:0:
256,192,219151,1,0,0:0:0:0:
256,192,219251,1,8,0:0:0:0:
256,192,219451,1,8,0:0:0:0:
256,192,219651,1,0,0:0:0:0:
256,192,220051,1,4,0:0:0:0:
256,192,220251,1,8,0:0:0:0:
256,192,220351,1,8,0:0:0:0:
256,192,220451,1,0,0:0:0:0:
256,192,220651,1,8,0:0:0:0:
256,192,220851,1,0,0:0:0:0:
256,192,220951,1,0,0:0:0:0:
256,192,221051,1,8,0:0:0:0:
256,192,221251,1,0,0:0:0:0:
256,192,221451,1,8,0:0:0:0:
256,192,221651,1,0,0:0:0:0:
256,192,221851,1,0,0:0:0:0:
256,192,221951,1,0,0:0:0:0:
256,192,222051,1,8,0:0:0:0:
256,192,222251,1,0,0:0:0:0:
256,192,222451,1,8,0:0:0:0:
256,192,222551,1,8,0:0:0:0:
256,192,222651,1,0,0:0:0:0:
256,192,222751,1,0,0:0:0:0:
256,192,222851,1,8,0:0:0:0:
256,192,223051,1,0,0:0:0:0:
256,192,223251,1,12,0:0:0:0:
256,192,223651,1,0,0:0:0:0:
256,192,224051,1,8,0:0:0:0:
256,192,224251,1,0,0:0:0:0:
256,192,224451,1,8,0:0:0:0:
256,192,224851,1,12,0:0:0:0:
256,192,225251,1,0,0:0:0:0:
256,192,225451,1,0,0:0:0:0:
256,192,225651,1,8,0:0:0:0:
256,192,225851,1,0,0:0:0:0:
256,192,226051,1,8,0:0:0:0:
256,192,226451,1,12,0:0:0:0:
256,192,226851,1,0,0:0:0:0:
256,192,227251,1,8,0:0:0:0:
256,192,227651,1,8,0:0:0:0:
256,192,227851,1,0,0:0:0:0:
256,192,228051,1,12,0:0:0:0:
256,192,228251,1,0,0:0:0:0:
256,192,228451,1,0,0:0:0:0:
256,192,228651,1,0,0:0:0:0:
256,192,228851,1,8,0:0:0:0:
256,192,229051,1,0,0:0:0:0:
256,192,229251,1,8,0:0:0:0:
256,192,229451,1,8,0:0:0:0:
256,192,229851,1,8,0:0:0:0:
256,192,230051,1,8,0:0:0:0:
256,192,230251,1,0,0:0:0:0:
256,192,230351,1,0,0:0:0:0:
256,192,230451,1,8,0:0:0:0:
256,192,230651,1,8,0:0:0:0:
256,192,230851,1,0,0:0:0:0:
256,192,231051,1,8,0:0:0:0:
256,192,231451,1,8,0:0:0:0:
256,192,231651,1,8,0:0:0:0:
256,192,231851,1,0,0:0:0:0:
256,192,231951,1,0,0:0:0:0:
256,192,232051,1,8,0:0:0:0:
256,192,232251,1,8,0:0:0:0:
256,192,232451,1,0,0:0:0:0:
256,192,232551,1,0,0:0:0:0:
256,192,232651,1,8,0:0:0:0:
256,192,233051,1,8,0:0:0:0:
256,192,233251,1,8,0:0:0:0:
256,192,233451,1,0,0:0:0:0:
256,192,233551,1,0,0:0:0:0:
256,192,233651,1,8,0:0:0:0:
256,192,233851,1,0,0:0:0:0:
256,192,234051,1,8,0:0:0:0:
256,192,234251,1,0,0:0:0:0:
256,192,234451,1,8,0:0:0:0:
256,192,234651,1,0,0:0:0:0:
256,192,234851,1,8,0:0:0:0:
256,192,235051,1,8,0:0:0:0:
256,192,235251,1,0,0:0:0:0:
256,192,235651,1,12,0:0:0:0:
256,192,236051,1,4,0:0:0:0:
256,192,236251,1,0,0:0:0:0:
256,192,236451,1,8,0:0:0:0:
256,192,236651,1,8,0:0:0:0:
256,192,236851,1,0,0:0:0:0:
256,192,237051,1,8,0:0:0:0:
256,192,237151,1,8,0:0:0:0:
256,192,237251,1,0,0:0:0:0:
256,192,237451,1,8,0:0:0:0:
256,192,237651,1,0,0:0:0:0:
256,192,237851,1,8,0:0:0:0:
256,192,237951,1,0,0:0:0:0:
256,192,238051,1,0,0:0:0:0:
256,192,238251,1,8,0:0:0:0:
256,192,238451,1,0,0:0:0:0:
256,192,238651,1,0,0:0:0:0:
256,192,238751,1,0,0:0:0:0:
256,192,238851,1,8,0:0:0:0:
256,192,239051,1,8,0:0:0:0:
256,192,239251,1,0,0:0:0:0:
256,192,239451,1,8,0:0:0:0:
256,192,239651,1,0,0:0:0:0:
256,192,239851,1,8,0:0:0:0:
256,192,240051,1,0,0:0:0:0:
256,192,240251,1,8,0:0:0:0:
256,192,240351,1,8,0:0:0:0:
256,192,240451,1,8,0:0:0:0:
256,192,240651,1,8,0:0:0:0:
256,192,240851,1,0,0:0:0:0:
256,192,241051,1,8,0:0:0:0:
256,192,241151,1,8,0:0:0:0:
256,192,241251,1,0,0:0:0:0:
256,192,241451,1,8,0:0:0:0:
256,192,241651,1,0,0:0:0:0:
256,192,241851,1,8,0:0:0:0:
256,192,242051,1,8,0:0:0:0:
256,192,242451,1,0,0:0:0:0:
256,192,242651,1,8,0:0:0:0:
256,192,242851,1,0,0:0:0:0:
256,192,243051,1,8,0:0:0:0:
256,192,243251,1,0,0:0:0:0:
256,192,243451,1,8,0:0:0:0:
256,192,243551,1,8,0:0:0:0:
256,192,243651,1,0,0:0:0:0:
256,192,243851,1,8,0:0:0:0:
256,192,244051,1,0,0:0:0:0:
256,192,244251,1,8,0:0:0:0:
256,192,244351,1,0,0:0:0:0:
256,192,244451,1,0,0:0:0:0:
256,192,244651,1,8,0:0:0:0:
256,192,244851,1,0,0:0:0:0:
256,192,245051,1,8,0:0:0:0:
256,192,245151,1,0,0:0:0:0:
256,192,245251,1,8,0:0:0:0:
256,192,245451,1,8,0:0:0:0:
256,192,245651,1,0,0:0:0:0:
256,192,245851,1,8,0:0:0:0:
256,192,246051,1,0,0:0:0:0:
256,192,246251,1,8,0:0:0:0:
256,192,246451,1,0,0:0:0:0:
256,192,246651,1,0,0:0:0:0:
256,192,246751,1,0,0:0:0:0:
256,192,246851,1,8,0:0:0:0:
256,192,247051,1,8,0:0:0:0:
256,192,247251,1,0,0:0:0:0:
256,192,247451,1,8,0:0:0:0:
256,192,247551,1,8,0:0:0:0:
256,192,247651,1,0,0:0:0:0:
256,192,247851,1,8,0:0:0:0:
256,192,248051,1,0,0:0:0:0:
256,192,248251,1,8,0:0:0:0:
256,192,248451,1,8,0:0:0:0:
256,192,248851,1,0,0:0:0:0:
256,192,249051,1,0,0:0:0:0:
256,192,249251,1,8,0:0:0:0:
256,192,249451,1,0,0:0:0:0:
256,192,249651,1,8,0:0:0:0:
256,192,249751,1,8,0:0:0:0:
256,192,249851,1,0,0:0:0:0:
256,192,249951,1,0,0:0:0:0:
256,192,250051,1,8,0:0:0:0:
256,192,250251,1,0,0:0:0:0:
256,192,250651,1,12,0:0:0:0:
256,192,251051,1,12,0:0:0:0:
256,192,251251,1,12,0:0:0:0:
