osu file format v14

[General]
AudioFilename: audio.mp3
AudioLeadIn: 0
PreviewTime: 39524
Countdown: 0
SampleSet: Normal
StackLeniency: 0.7
Mode: 1
LetterboxInBreaks: 0
WidescreenStoryboard: 1

[Editor]
Bookmarks: 544,8749,25159,39524,58175
DistanceSpacing: 0.8
BeatDivisor: 4
GridSize: 32
TimelineZoom: 1

[Metadata]
Title:NIGHT RUNNING (TV Size)
TitleUnicode:NIGHT RUNNING (TV Size)
Artist:Shin Sakiura feat. AAAMYYY
ArtistUnicode:Shin Sakiura feat. AAAMYYY
Creator:aceticke
Version:liku's KANTAN
Source:BNA ビー・エヌ・エー
Tags:liku japanese anime netflix TRIGGER TV アニメ エイミー AMY honami furuhara 古原 穂奈美 シン サキウラ furry ed ending j-pop jpop brand new animal 大神 士郎 Ōgami Ogami Shirō Shiro 影森 みちる Kagemori Michiru 日渡 なずな Hiwatashi Nazuna THCA-60263
BeatmapID:3623657
BeatmapSetID:1759381

[Difficulty]
HPDrainRate:9
CircleSize:5
OverallDifficulty:3
ApproachRate:5
SliderMultiplier:1.4
SliderTickRate:1

[Events]
//Background and Video events
0,0,"nr.jpg",0,-125
Video,-5,"nr.mp4"
//Break Periods
//Storyboard Layer 0 (Background)
//Storyboard Layer 1 (Fail)
//Storyboard Layer 2 (Pass)
//Storyboard Layer 3 (Foreground)
//Storyboard Layer 4 (Overlay)
//Storyboard Sound Samples

[TimingPoints]
550,512.820512820513,4,1,0,60,1,0
550,-111.111111111111,4,1,0,60,0,0
8754,-111.111111111111,4,1,0,70,0,0
39524,521.739130434783,4,1,0,80,1,0
39524,-111.111111111111,4,1,0,80,0,0
41610,521.739130434783,4,1,0,80,1,1
41610,-111.111111111111,4,1,0,80,0,1
58175,-111.111111111111,4,1,0,80,0,0

[HitObjects]
131,129,550,5,0,0:0:0:0:
131,129,806,1,0,0:0:0:0:
116,108,1575,1,0,0:0:0:0:
116,108,2344,1,8,0:0:0:0:
116,108,2857,1,0,0:0:0:0:
195,137,3626,1,0,0:0:0:0:
181,137,4139,1,0,0:0:0:0:
195,137,4396,1,8,0:0:0:0:
230,51,4908,1,0,0:0:0:0:
210,51,5678,1,8,0:0:0:0:
210,51,6447,1,8,0:0:0:0:
134,33,6960,1,0,0:0:0:0:
134,33,7729,1,8,0:0:0:0:
113,37,8755,1,4,0:0:0:0:
222,98,9780,1,8,0:0:0:0:
222,98,10806,1,0,0:0:0:0:
222,98,11319,1,0,0:0:0:0:
222,98,11832,1,8,0:0:0:0:
211,106,12857,1,8,0:0:0:0:
211,106,13883,1,0,0:0:0:0:
211,106,14908,1,0,0:0:0:0:
211,106,15421,1,8,0:0:0:0:
186,104,15678,1,0,0:0:0:0:
121,81,16960,1,0,0:0:0:0:
115,86,17985,1,8,0:0:0:0:
115,86,18498,1,0,0:0:0:0:
115,86,19011,1,0,0:0:0:0:
115,86,20037,1,8,0:0:0:0:
105,98,21062,1,0,0:0:0:0:
105,98,22088,1,8,0:0:0:0:
157,75,22601,1,0,0:0:0:0:
105,98,23626,1,8,0:0:0:0:
105,98,23883,1,8,0:0:0:0:
141,128,24652,1,8,0:0:0:0:
114,116,25165,1,4,0:0:0:0:
114,116,26191,1,0,0:0:0:0:
114,116,26703,1,8,0:0:0:0:
114,116,27216,1,0,0:0:0:0:
114,116,28242,1,8,0:0:0:0:
114,116,28755,1,8,0:0:0:0:
114,116,29267,1,0,0:0:0:0:
108,127,30293,1,8,0:0:0:0:
108,127,31319,1,8,0:0:0:0:
108,127,31832,1,0,0:0:0:0:
108,127,32344,1,8,0:0:0:0:
108,127,32857,1,8,0:0:0:0:
108,127,33370,1,0,0:0:0:0:
108,127,34396,1,8,0:0:0:0:
108,127,35421,1,0,0:0:0:0:
108,127,36447,1,8,0:0:0:0:
108,127,36960,1,8,0:0:0:0:
108,127,37473,1,0,0:0:0:0:
110,127,39524,1,0,0:0:0:0:
110,127,40045,1,0,0:0:0:0:
110,127,40567,1,8,0:0:0:0:
110,127,41089,1,8,0:0:0:0:
110,127,41610,1,4,0:0:0:0:
114,113,42653,1,8,0:0:0:0:
98,131,43696,1,0,0:0:0:0:
98,131,44218,1,8,0:0:0:0:
98,131,44479,1,0,0:0:0:0:
98,131,45001,1,8,0:0:0:0:
98,131,45783,1,0,0:0:0:0:
98,131,46827,1,8,0:0:0:0:
98,131,47870,1,8,0:0:0:0:
98,131,48392,1,8,0:0:0:0:
167,60,48653,1,8,0:0:0:0:
98,131,49175,1,0,0:0:0:0:
98,131,49436,1,8,0:0:0:0:
98,131,49957,1,4,0:0:0:0:
133,144,51001,1,8,0:0:0:0:
133,144,52044,1,0,0:0:0:0:
133,144,52566,1,8,0:0:0:0:
181,42,52827,1,0,0:0:0:0:
183,79,53349,1,8,0:0:0:0:
127,142,54131,1,0,0:0:0:0:
127,142,55175,1,8,0:0:0:0:
141,120,56218,1,0,0:0:0:0:
141,120,57262,1,0,0:0:0:0:
141,120,57783,1,0,0:0:0:0:
141,120,58044,1,8,0:0:0:0:
