osu file format v14

[General]
AudioFilename: audio.mp3
AudioLeadIn: 0
PreviewTime: 39524
Countdown: 0
SampleSet: Normal
StackLeniency: 0.7
Mode: 1
LetterboxInBreaks: 0
WidescreenStoryboard: 0

[Editor]
Bookmarks: 544,8749,25159,39524,58175
DistanceSpacing: 0.8
BeatDivisor: 4
GridSize: 32
TimelineZoom: 1.5

[Metadata]
Title:NIGHT RUNNING (TV Size)
TitleUnicode:NIGHT RUNNING (TV Size)
Artist:Shin Sakiura feat. AAAMYYY
ArtistUnicode:Shin Sakiura feat. AAAMYYY
Creator:aceticke
Version:YORU NI HASERU
Source:BNA ビー・エヌ・エー
Tags:liku japanese anime netflix TRIGGER TV アニメ エイミー AMY honami furuhara 古原 穂奈美 シン サキウラ furry ed ending j-pop jpop brand new animal 大神 士郎 Ōgami Ogami Shirō Shiro 影森 みちる Kagemori Michiru 日渡 なずな Hiwatashi Nazuna THCA-60263
BeatmapID:3600791
BeatmapSetID:1759381

[Difficulty]
HPDrainRate:8
CircleSize:2
OverallDifficulty:6
ApproachRate:10
SliderMultiplier:1.4
SliderTickRate:1

[Events]
//Background and Video events
0,0,"nr.jpg",0,-125
Video,-5,"nr.mp4"
//Break Periods
//Storyboard Layer 0 (Background)
//Storyboard Layer 1 (Fail)
//Storyboard Layer 2 (Pass)
//Storyboard Layer 3 (Foreground)
//Storyboard Layer 4 (Overlay)
//Storyboard Sound Samples

[TimingPoints]
550,512.820512820513,4,1,0,42,1,0
550,-125,4,1,0,42,0,0
4905,-122.226715969494,4,1,0,42,0,0
5290,-119.567060419375,4,1,0,42,0,0
5675,-117.020688129218,4,1,0,42,0,0
6188,-113.791619600882,4,1,0,42,0,0
6444,-112.245980792699,4,1,0,42,0,0
6572,-111.488801054018,4,1,0,42,0,0
6957,-109.271694214876,4,1,0,42,0,0
7341,-107.146474878444,4,1,0,42,0,0
7726,-105.097123553083,4,1,0,42,0,0
8111,-103.124695330019,4,1,0,42,0,0
8239,-102.485224299971,4,1,0,42,0,0
8495,-101.229782754331,4,1,0,42,0,0
8755,-90.9090909090909,4,1,0,62,0,0
9008,-93.0200916141322,4,1,0,62,0,0
9393,-96.3861083697542,4,1,0,62,0,0
9777,-99.9951245673054,4,1,0,62,0,0
10290,-105.260456761611,4,1,0,62,0,0
10547,-108.112382056824,4,1,0,62,0,0
10675,-109.591236975688,4,1,0,62,0,0
10803,-111.111111111111,4,1,0,62,0,0
25165,-100,4,1,0,62,0,0
37601,-100,4,1,0,22,0,0
39396,-100,4,1,0,52,0,0
39524,521.739130434783,4,1,0,52,1,0
39524,-108.695652173913,4,1,0,52,0,0
40045,-106.112054329372,4,1,0,52,0,0
40567,-103.369857349597,4,1,0,52,0,0
41089,-100.765820233777,4,1,0,52,0,0
41610,521.739130434783,4,1,0,62,1,1
41610,-98.2897582071948,4,1,0,62,0,1
58175,-98.2897582071948,4,1,0,62,0,0

[HitObjects]
256,192,550,5,8,0:0:0:0:
256,192,806,1,8,0:0:0:0:
256,192,1191,1,8,0:0:0:0:
256,192,1575,1,8,0:0:0:0:
256,192,2088,1,8,0:0:0:0:
256,192,2344,1,0,0:0:0:0:
256,192,2473,1,8,0:0:0:0:
256,192,2857,1,0,0:0:0:0:
256,192,3242,1,0,0:0:0:0:
256,192,3626,1,0,0:0:0:0:
256,192,4011,1,0,0:0:0:0:
256,192,4139,1,8,0:0:0:0:
256,192,4267,1,0,0:0:0:0:
256,192,4396,1,0,0:0:0:0:
256,192,4524,1,8,0:0:0:0:
256,192,4908,1,8,0:0:0:0:
256,192,5293,1,0,0:0:0:0:
256,192,5678,1,8,0:0:0:0:
256,192,6191,1,0,0:0:0:0:
256,192,6447,1,0,0:0:0:0:
256,192,6575,1,8,0:0:0:0:
256,192,6960,1,8,0:0:0:0:
256,192,7344,1,0,0:0:0:0:
256,192,7729,1,8,0:0:0:0:
256,192,8114,1,0,0:0:0:0:
256,192,8242,1,8,0:0:0:0:
256,192,8498,1,0,0:0:0:0:
256,288,8755,1,4,0:0:0:0:
256,192,9011,1,8,0:0:0:0:
256,192,9396,1,0,0:0:0:0:
256,192,9780,1,8,0:0:0:0:
256,192,10293,1,0,0:0:0:0:
256,192,10550,1,8,0:0:0:0:
256,192,10678,1,0,0:0:0:0:
256,192,10806,1,0,0:0:0:0:
256,192,11062,1,8,0:0:0:0:
256,192,11447,1,0,0:0:0:0:
256,192,11832,1,0,0:0:0:0:
256,192,12216,1,8,0:0:0:0:
256,192,12344,1,0,0:0:0:0:
256,192,12601,1,8,0:0:0:0:
256,192,12729,1,8,0:0:0:0:
256,192,12857,1,0,0:0:0:0:
256,192,13114,1,8,0:0:0:0:
256,192,13498,1,0,0:0:0:0:
256,192,13883,1,8,0:0:0:0:
256,192,14396,1,8,0:0:0:0:
256,192,14652,1,0,0:0:0:0:
256,192,14780,1,8,0:0:0:0:
256,192,14908,1,0,0:0:0:0:
256,192,15165,1,8,0:0:0:0:
256,192,15550,1,0,0:0:0:0:
256,192,15934,1,8,0:0:0:0:
256,192,16319,1,0,0:0:0:0:
256,192,16447,1,8,0:0:0:0:
256,192,16703,1,8,0:0:0:0:
256,192,16960,1,0,0:0:0:0:
256,192,17216,1,8,0:0:0:0:
256,192,17473,1,8,0:0:0:0:
256,192,17601,1,0,0:0:0:0:
256,192,17985,1,0,0:0:0:0:
256,192,18498,1,8,0:0:0:0:
256,192,18755,1,0,0:0:0:0:
256,192,18883,1,8,0:0:0:0:
256,192,19011,1,0,0:0:0:0:
256,192,19267,1,0,0:0:0:0:
256,192,19524,1,0,0:0:0:0:
256,192,19652,1,8,0:0:0:0:
256,192,20037,1,8,0:0:0:0:
256,192,20421,1,0,0:0:0:0:
256,192,20550,1,8,0:0:0:0:
256,192,20678,1,0,0:0:0:0:
256,192,20806,1,8,0:0:0:0:
256,192,20934,1,0,0:0:0:0:
256,192,21319,1,8,0:0:0:0:
256,192,21447,1,0,0:0:0:0:
256,192,21703,1,0,0:0:0:0:
256,192,21832,1,8,0:0:0:0:
256,192,22088,1,0,0:0:0:0:
256,192,22601,1,8,0:0:0:0:
256,192,22857,1,0,0:0:0:0:
256,192,22985,1,0,0:0:0:0:
256,192,23114,1,8,0:0:0:0:
256,192,23370,1,8,0:0:0:0:
256,192,23755,1,0,0:0:0:0:
256,192,24139,1,8,0:0:0:0:
256,192,24396,1,8,0:0:0:0:
256,192,24652,1,8,0:0:0:0:
256,192,24780,1,0,0:0:0:0:
256,96,25165,1,12,0:0:0:0:
256,192,25421,1,0,0:0:0:0:
256,192,25550,1,8,0:0:0:0:
256,192,25806,1,8,0:0:0:0:
256,192,26062,1,0,0:0:0:0:
256,192,26191,1,8,0:0:0:0:
256,192,26319,1,0,0:0:0:0:
256,192,26575,1,8,0:0:0:0:
256,192,26832,1,0,0:0:0:0:
256,192,26960,1,8,0:0:0:0:
256,192,27216,1,0,0:0:0:0:
256,192,27344,1,8,0:0:0:0:
256,192,27473,1,8,0:0:0:0:
256,192,27601,1,0,0:0:0:0:
256,192,27857,1,8,0:0:0:0:
256,192,27985,1,0,0:0:0:0:
256,192,28114,1,8,0:0:0:0:
256,192,28370,1,8,0:0:0:0:
256,192,28626,1,0,0:0:0:0:
256,192,28883,1,8,0:0:0:0:
256,192,29011,1,0,0:0:0:0:
256,192,29267,1,8,0:0:0:0:
256,192,29396,1,8,0:0:0:0:
256,192,29524,1,0,0:0:0:0:
256,192,29652,1,8,0:0:0:0:
256,192,29908,1,0,0:0:0:0:
256,192,30165,1,8,0:0:0:0:
256,192,30293,1,0,0:0:0:0:
256,192,30421,1,8,0:0:0:0:
256,192,30678,1,8,0:0:0:0:
256,192,30934,1,8,0:0:0:0:
256,192,31062,1,0,0:0:0:0:
256,192,31319,1,8,0:0:0:0:
256,192,31447,1,0,0:0:0:0:
256,192,31575,1,8,0:0:0:0:
256,192,31703,1,8,0:0:0:0:
256,192,31960,1,8,0:0:0:0:
256,192,32216,1,0,0:0:0:0:
256,192,32344,1,8,0:0:0:0:
256,192,32473,1,8,0:0:0:0:
256,192,32729,1,0,0:0:0:0:
256,192,33370,1,0,0:0:0:0:
256,192,33498,1,8,0:0:0:0:
256,192,33626,1,0,0:0:0:0:
256,192,33755,1,0,0:0:0:0:
256,192,34011,1,0,0:0:0:0:
256,192,34267,1,8,0:0:0:0:
256,192,34396,1,0,0:0:0:0:
256,192,34524,1,8,0:0:0:0:
256,192,34780,1,0,0:0:0:0:
256,192,35037,1,0,0:0:0:0:
256,192,35165,1,8,0:0:0:0:
256,192,35421,1,8,0:0:0:0:
256,192,35550,1,8,0:0:0:0:
256,192,35678,1,0,0:0:0:0:
256,192,35806,1,8,0:0:0:0:
256,192,36062,1,0,0:0:0:0:
256,192,36319,1,8,0:0:0:0:
256,192,36447,1,0,0:0:0:0:
256,192,36575,1,8,0:0:0:0:
256,192,36832,1,0,0:0:0:0:
256,192,36960,1,0,0:0:0:0:
256,192,37088,1,8,0:0:0:0:
256,192,37216,1,0,0:0:0:0:
256,192,37344,1,8,0:0:0:0:
256,192,37473,1,8,0:0:0:0:
256,192,37729,8,0,39267,0:0:0:0:
256,192,39524,5,0,0:0:0:0:
256,192,40045,1,8,0:0:0:0:
256,192,40567,1,0,0:0:0:0:
256,192,41089,1,8,0:0:0:0:
256,288,41610,1,4,0:0:0:0:
256,192,41870,1,0,0:0:0:0:
256,192,42131,1,8,0:0:0:0:
256,192,42392,1,0,0:0:0:0:
256,192,42523,1,0,0:0:0:0:
256,192,42653,1,8,0:0:0:0:
256,192,42914,1,8,0:0:0:0:
256,192,43175,1,0,0:0:0:0:
256,192,43436,1,0,0:0:0:0:
256,192,43696,1,8,0:0:0:0:
256,192,43827,1,8,0:0:0:0:
256,192,43957,1,0,0:0:0:0:
256,192,44218,1,0,0:0:0:0:
256,192,44479,1,8,0:0:0:0:
256,192,44610,1,8,0:0:0:0:
256,192,44740,1,0,0:0:0:0:
256,192,44870,1,0,0:0:0:0:
256,192,45001,1,8,0:0:0:0:
256,192,45262,1,8,0:0:0:0:
256,192,45523,1,0,0:0:0:0:
256,192,45653,1,8,0:0:0:0:
256,192,45783,1,8,0:0:0:0:
256,192,46044,1,8,0:0:0:0:
256,192,46305,1,0,0:0:0:0:
256,192,46436,1,0,0:0:0:0:
256,192,46566,1,0,0:0:0:0:
256,192,46827,1,8,0:0:0:0:
256,192,47088,1,0,0:0:0:0:
256,192,47349,1,8,0:0:0:0:
256,192,47479,1,0,0:0:0:0:
256,192,47610,1,0,0:0:0:0:
256,192,47870,1,8,0:0:0:0:
256,192,48001,1,0,0:0:0:0:
256,192,48131,1,8,0:0:0:0:
256,192,48392,1,0,0:0:0:0:
256,192,48653,1,8,0:0:0:0:
256,192,48783,1,0,0:0:0:0:
256,192,48914,1,0,0:0:0:0:
256,192,49044,1,0,0:0:0:0:
256,192,49175,1,8,0:0:0:0:
256,192,49436,1,0,0:0:0:0:
256,96,49957,1,12,0:0:0:0:
256,192,50218,1,0,0:0:0:0:
256,192,50479,1,8,0:0:0:0:
256,192,50610,1,0,0:0:0:0:
256,192,50740,1,8,0:0:0:0:
256,192,51001,1,0,0:0:0:0:
256,192,51262,1,8,0:0:0:0:
256,192,51523,1,8,0:0:0:0:
256,192,51653,1,0,0:0:0:0:
256,192,51783,1,0,0:0:0:0:
256,192,52044,1,8,0:0:0:0:
256,192,52175,1,0,0:0:0:0:
256,192,52305,1,8,0:0:0:0:
256,192,52566,1,0,0:0:0:0:
256,192,52827,1,0,0:0:0:0:
256,192,52957,1,0,0:0:0:0:
256,192,53088,1,8,0:0:0:0:
256,192,53218,1,8,0:0:0:0:
256,192,53349,1,0,0:0:0:0:
256,192,53610,1,8,0:0:0:0:
256,192,53870,1,0,0:0:0:0:
256,192,54001,1,0,0:0:0:0:
256,192,54131,1,8,0:0:0:0:
256,192,54392,1,8,0:0:0:0:
256,192,54653,1,0,0:0:0:0:
256,192,54783,1,8,0:0:0:0:
256,192,54914,1,0,0:0:0:0:
256,192,55175,1,8,0:0:0:0:
256,192,55436,1,8,0:0:0:0:
256,192,55696,1,0,0:0:0:0:
256,192,55957,1,8,0:0:0:0:
256,192,56479,1,0,0:0:0:0:
256,192,56740,1,8,0:0:0:0:
256,192,57001,1,8,0:0:0:0:
256,192,57262,1,0,0:0:0:0:
256,192,57523,1,0,0:0:0:0:
256,192,57653,1,0,0:0:0:0:
256,192,57783,1,8,0:0:0:0:
256,192,57914,1,0,0:0:0:0:
256,192,58044,1,8,0:0:0:0:
256,192,58175,1,8,0:0:0:0:
