osu file format v14

[General]
AudioFilename: audio.mp3
AudioLeadIn: 0
PreviewTime: 217
Countdown: 0
SampleSet: Soft
StackLeniency: 0.8
Mode: 0
LetterboxInBreaks: 0
WidescreenStoryboard: 1

[Editor]
DistanceSpacing: 0.6
BeatDivisor: 4
GridSize: 4
TimelineZoom: 2.3

[Metadata]
Title:Shining Star (TV Size)
TitleUnicode:Shining Star (TV Size)
Artist:Shin Agnes
ArtistUnicode:신아녜스
Creator:Myxomatosis
Version:Mao's Insane
Source:Star vs. the Forces of Evil
Tags:ending disney xd english cartoon marco butterfly versus namki mao
BeatmapID:1928078
BeatmapSetID:885878

[Difficulty]
HPDrainRate:7
CircleSize:3.8
OverallDifficulty:7
ApproachRate:8.5
SliderMultiplier:1.11
SliderTickRate:2

[Events]
//Background and Video events
0,0,"wp2303190-star-vs-the-forces-of-evil-hd-wallpapers.png",0,0
//Break Periods
//Storyboard Layer 0 (Background)
//Storyboard Layer 1 (Fail)
//Storyboard Layer 2 (Pass)
//Storyboard Layer 3 (Foreground)
//Storyboard Sound Samples
Sample,30436,0,"whistle.wav",5
Sample,30525,0,"whistle.wav",5
Sample,30614,0,"whistle.wav",5

[TimingPoints]
-670,355.029585798817,4,2,0,40,1,0
395,-58.8235294117647,4,2,0,40,0,0
483,-58.8235294117647,4,2,0,45,0,0
572,-58.8235294117647,4,2,0,50,0,0
661,-58.8235294117647,4,2,0,55,0,0
750,-58.8235294117647,4,2,0,60,0,0
1105,-58.8235294117647,4,2,0,50,0,0
2880,-58.8235294117647,4,2,0,60,0,0
2969,-58.8235294117647,4,2,0,55,0,0
3057,-58.8235294117647,4,2,0,50,0,0
3146,-58.8235294117647,4,2,0,45,0,0
3235,-58.8235294117647,4,2,0,55,0,0
3324,-58.8235294117647,4,2,0,50,0,0
3412,-58.8235294117647,4,2,0,45,0,0
3501,-58.8235294117647,4,2,0,40,0,0
3590,-58.8235294117647,4,2,0,50,0,0
5720,-58.8235294117647,4,2,0,60,0,0
5809,-58.8235294117647,4,2,0,55,0,0
5898,-58.8235294117647,4,2,0,50,0,0
5986,-58.8235294117647,4,2,0,45,0,0
6075,-58.8235294117647,4,2,0,55,0,0
6164,-58.8235294117647,4,2,0,50,0,0
6253,-58.8235294117647,4,2,0,45,0,0
6341,-58.8235294117647,4,2,0,40,0,0
6430,-58.8235294117647,4,2,0,60,0,0
6785,-58.8235294117647,4,2,0,50,0,0
8738,-58.8235294117647,4,2,0,55,0,0
8915,-100,4,2,0,55,0,0
9270,-55.5555555555556,4,2,0,60,0,0
10513,-55.5555555555556,4,2,0,55,0,0
11134,-55.5555555555556,4,2,0,40,0,0
11223,-55.5555555555556,4,2,0,45,0,0
11312,-55.5555555555556,4,2,0,50,0,0
11401,-55.5555555555556,4,2,0,55,0,0
11519,-55.5555555555556,4,2,0,45,0,0
11637,-55.5555555555556,4,2,0,50,0,0
11756,-55.5555555555556,4,2,0,45,0,0
11874,-55.5555555555556,4,2,0,50,0,0
11992,-55.5555555555556,4,2,0,55,0,0
12111,-50,4,2,0,65,0,1
17081,-50,4,2,0,45,0,1
17170,-50,4,2,0,50,0,1
17258,-50,4,2,0,55,0,1
17347,-50,4,2,0,60,0,1
17436,-50,4,2,0,45,0,1
17525,-50,4,2,0,50,0,1
17614,-50,4,2,0,55,0,1
17702,-50,4,2,0,60,0,1
17791,-50,4,2,0,65,0,1
19566,-45.4545454545455,4,2,0,60,0,1
20276,-50,4,2,0,65,0,1
22229,-50,4,2,0,50,0,1
22406,-50,4,2,0,60,0,1
22584,-50,4,2,0,50,0,1
22761,-50,4,2,0,65,0,1
22939,-50,4,2,0,55,0,1
23116,-50,4,2,0,70,0,1
23294,-50,4,2,0,60,0,1
23472,357.142857142857,4,2,0,50,1,0
23472,-66.6666666666667,4,2,0,50,0,0
23829,-66.6666666666667,4,2,0,55,0,0
24900,-66.6666666666667,4,2,0,60,0,0
25972,-133.333333333333,4,2,0,55,0,0
26150,-133.333333333333,4,2,1,47,0,0
26239,-133.333333333333,4,2,0,46,0,0
26329,-133.333333333333,4,2,1,45,0,0
26418,-133.333333333333,4,2,0,44,0,0
26507,-133.333333333333,4,2,1,43,0,0
26597,-133.333333333333,4,2,0,42,0,0
26686,-133.333333333333,4,2,1,41,0,0
26775,-133.333333333333,4,2,0,40,0,0
26864,-133.333333333333,4,2,1,39,0,0
26954,-133.333333333333,4,2,0,38,0,0
27043,-133.333333333333,4,2,1,37,0,0
27132,-133.333333333333,4,2,0,36,0,0
27222,-133.333333333333,4,2,1,35,0,0
27311,-133.333333333333,4,2,0,34,0,0
27400,-133.333333333333,4,2,1,33,0,0
27489,-133.333333333333,4,2,0,32,0,0
27579,-133.333333333333,4,2,1,31,0,0
27668,-133.333333333333,4,2,0,30,0,0
27757,-133.333333333333,4,2,1,29,0,0
27847,-133.333333333333,4,2,0,28,0,0
27936,-133.333333333333,4,2,1,27,0,0
28025,-133.333333333333,4,2,0,26,0,0
28114,-133.333333333333,4,2,1,25,0,0
28204,-133.333333333333,4,2,0,24,0,0
28293,-133.333333333333,4,2,1,23,0,0
28382,-133.333333333333,4,2,0,22,0,0
28472,-133.333333333333,4,2,1,21,0,0
28561,-133.333333333333,4,2,0,20,0,0
28650,-133.333333333333,4,2,1,19,0,0
28739,-133.333333333333,4,2,0,18,0,0
28829,-133.333333333333,4,2,1,17,0,0
28918,-133.333333333333,4,2,0,16,0,0
29007,-133.333333333333,4,2,1,15,0,0
29096,-133.333333333333,4,2,0,14,0,0
29186,-133.333333333333,4,2,1,13,0,0
29275,-133.333333333333,4,2,0,12,0,0
29364,-133.333333333333,4,2,1,11,0,0
29454,-133.333333333333,4,2,0,10,0,0
29543,-133.333333333333,4,2,1,9,0,0
29632,-133.333333333333,4,2,0,8,0,0
29721,-133.333333333333,4,2,1,7,0,0
29811,-133.333333333333,4,2,0,6,0,0
29900,-133.333333333333,4,2,1,5,0,0
30436,-25,4,2,1,5,0,0

[Colours]
Combo1 : 40,114,249
Combo2 : 210,96,202
Combo3 : 249,226,100
Combo4 : 230,87,112

[HitObjects]
74,45,395,6,0,L|88:112,1,47.1750008997917,0|2,0:0|0:0,0:0:0:0:
162,93,572,2,0,L|152:153,1,47.1750008997917,2|2,0:0|0:0,0:0:0:0:
40,207,750,6,0,P|125:237|139:331,1,188.700003599167,4|2,3:0|0:0,0:0:0:0:
141,325,1282,2,0,P|96:299|40:320,1,94.3500017995835,4|2,3:0|0:0,0:0:0:0:
44,321,1637,1,2,0:3:0:0:
230,372,1815,2,0,L|245:255,1,94.3500017995835,4|2,3:0|0:0,0:0:0:0:
253,187,2170,1,0,3:0:0:0:
372,352,2347,6,0,P|343:297|353:149,1,188.700003599167,6|2,3:0|3:2,0:0:0:0:
435,19,2880,2,0,P|413:51|420:95,1,47.1750008997917,6|0,3:0|0:0,0:0:0:0:
489,83,3057,2,0,P|496:105|512:122,1,47.1750008997917,2|0,0:0|0:0,0:0:0:0:
484,245,3235,5,6,3:0:0:0:
460,249,3324,1,0,0:0:0:0:
448,227,3412,1,2,0:0:0:0:
465,208,3501,1,2,0:0:0:0:
488,218,3590,6,0,B|436:225|416:276|452:319|380:362,1,188.700003599167,6|2,3:0|0:0,0:0:0:0:
382,360,4122,2,0,P|436:354|484:376,1,94.3500017995835,6|0,3:0|0:0,0:0:0:0:
491,378,4477,1,2,0:0:0:0:
296,318,4655,2,0,L|193:334,1,94.3500017995835,4|2,3:0|0:3,0:0:0:0:
112,347,5010,1,0,3:0:0:0:
191,196,5187,6,0,P|135:246|18:266,1,188.700003599167,4|0,3:0|3:0,0:0:0:0:
5,156,5720,2,0,P|30:171|59:163,1,47.1750008997917,6|0,3:0|0:0,0:0:0:0:
117,137,5898,2,0,P|132:111|124:82,1,47.1750008997917,2|0,0:0|0:0,0:0:0:0:
0,58,6075,5,6,3:0:0:0:
23,56,6164,1,0,0:0:0:0:
44,47,6252,1,2,0:0:0:0:
63,34,6341,1,2,0:0:0:0:
81,19,6430,6,0,B|130:3|169:42|155:94|239:103,1,188.700003599167,6|2,3:0|0:0,0:0:0:0:
237,104,6963,2,0,P|265:56|301:35,1,94.3500017995835,4|2,3:0|0:0,0:0:0:0:
318,32,7318,1,2,0:3:0:0:
442,212,7495,2,0,L|429:110,1,94.3500017995835,4|2,3:0|0:0,0:0:0:0:
416,20,7850,1,0,3:0:0:0:
336,194,8028,6,0,P|388:224|448:349,1,188.700003599167,6|2,3:0|3:2,0:0:0:0:
285,277,8560,1,4,3:0:0:0:
348,354,8738,1,2,0:0:0:0:
195,256,8915,2,0,L|207:165,1,83.25,6|0,3:0|0:0,0:0:0:0:
192,157,9270,6,0,P|137:192|115:301,1,149.849995426941,6|0,3:0|0:0,0:0:0:0:
116,297,9625,1,2,0:0:0:0:
45,124,9803,6,0,L|29:68,1,49.949998475647,10|0,1:3|0:0,0:0:0:0:
57,102,10158,2,0,L|41:46,1,49.949998475647,6|0,3:0|0:0,0:0:0:0:
69,80,10513,2,0,L|53:24,1,49.949998475647,10|0,1:3|0:0,0:0:0:0:
81,58,10868,2,0,L|65:2,1,49.949998475647,2|0,1:3|0:0,0:0:0:0:
184,29,11045,5,4,3:0:0:0:
196,61,11134,1,0,1:0:0:0:
177,90,11223,1,0,1:0:0:0:
187,123,11312,1,0,1:0:0:0:
175,156,11401,6,0,B|166:174|180:200|172:222,2,66.5999979675294,0|2|0,1:0|0:0|0:0,0:0:0:0:
222,225,11756,2,0,B|213:243|227:269|219:291,2,66.5999979675294,2|0|2,0:0|0:0|0:0,0:0:0:0:
243,330,12111,6,2,B|285:298|348:317|320:350|394:362,1,166.5,6|0,3:1|0:1,0:1:0:0:
415,365,12466,1,2,1:3:0:0:
494,200,12643,1,0,3:0:0:0:
494,200,12998,1,0,3:0:0:0:
377,144,13176,1,2,1:3:0:0:
406,234,13353,1,0,3:0:0:0:
478,60,13531,6,0,B|430:42|369:76|314:54,1,166.5,0|0,3:0|0:0,0:0:0:0:
291,37,13886,1,2,1:3:0:0:
262,137,14063,1,0,3:0:0:0:
79,19,14241,2,0,P|76:70|171:134,1,166.5,2|0,0:2|0:0,0:0:0:0:
181,124,14596,1,2,1:3:0:0:
76,111,14773,1,0,3:0:0:0:
161,311,14951,6,2,B|154:242|91:217|85:253|22:224|11:171,1,222,6|2,3:1|1:3,0:1:0:0:
65,357,15483,2,0,P|111:319|162:311,1,111,2|0,3:1|0:0,0:0:0:0:
57,372,15838,1,0,3:0:0:0:
252,341,16016,2,0,P|263:275|240:166,1,166.5,2|0,1:3|0:0,0:0:0:0:
245,177,16371,6,0,L|131:194,1,111,2|0,3:2|0:0,0:0:0:0:
199,73,16726,2,0,L|90:49,1,111,2|0,1:3|0:0,0:0:0:0:
311,17,17081,1,2,0:3:0:0:
309,27,17170,1,0,0:0:0:0:
313,36,17258,1,2,1:2:0:0:
311,47,17347,1,2,0:0:0:0:
331,73,17436,1,2,3:0:0:0:
321,105,17525,1,0,3:0:0:0:
342,130,17614,1,2,1:2:0:0:
334,162,17702,1,2,1:2:0:0:
352,209,17791,6,0,P|407:195|447:141,1,111,6|0,3:1|0:0,0:0:0:0:
467,70,18146,1,2,1:3:0:0:
499,253,18324,2,2,L|351:334,1,166.5,2|0,3:1|1:1,0:1:0:0:
331,348,18679,1,2,3:0:0:0:
437,319,18856,1,2,1:3:0:0:
254,262,19034,2,0,P|233:322|250:378,2,111,2|0|2,3:1|3:0|0:1,0:0:0:0:
29,332,19566,6,0,B|59:306|59:306|140:320,1,122.100003726196,2|0,1:3|3:0,0:0:0:0:
128,198,19921,2,0,B|97:223|97:223|16:209,1,122.100003726196,2|0,0:0|0:0,0:0:0:0:
24,39,20276,6,0,P|65:87|173:93,1,166.5,2|0,1:3|0:0,0:0:0:0:
181,121,20631,2,2,B|196:58|247:39|274:77|336:75|367:33,1,222,6|2,3:1|1:3,0:1:0:0:
481,96,21164,2,0,P|424:68|352:85,1,111,2|0,3:1|0:0,0:0:0:0:
505,195,21519,1,2,3:2:0:0:
505,195,21696,1,2,1:3:0:0:
304,285,21874,6,0,P|320:221|425:167,1,166.5,2|0,3:1|0:0,0:0:0:0:
424,174,22229,1,4,3:0:0:0:
457,271,22406,1,8,1:3:0:0:
397,348,22584,1,4,3:0:0:0:
305,301,22761,1,8,3:0:0:0:
217,358,22939,1,4,3:0:0:0:
140,260,23116,1,10,1:3:0:0:
24,313,23294,1,2,3:2:0:0:
117,343,23472,6,0,L|19:329,1,83.2500031757356,4|0,3:1|0:0,0:0:0:0:
140,260,23829,2,0,L|80:180,1,83.2500031757356,2|0,1:3|3:0,0:0:0:0:
214,217,24186,2,0,L|228:119,1,83.2500031757356,2|0,0:0|3:0,0:0:0:0:
296,238,24543,2,0,L|375:178,1,83.2500031757356,2|0,1:2|3:0,0:0:0:0:
480,41,24900,5,4,3:1:0:0:
404,100,25079,1,2,1:3:0:0:
344,27,25257,1,2,1:3:0:0:
243,94,25436,1,4,3:0:0:0:
152,12,25614,1,2,1:3:0:0:
48,74,25793,1,2,1:3:0:0:
53,266,25972,6,0,B|139:228|139:228|219:276|219:276|210:185|210:185|281:123|281:123|189:102|189:102|152:15|152:15|104:96|104:96|15:104|15:104|74:174|74:174|53:266,1,915.750034933092,4|0,3:1|0:0,0:0:0:0:
122,347,30436,6,0,B|133:342|133:342|143:348|143:348|142:336|142:336|151:328|151:328|139:325|139:325|134:314|134:314|128:324|128:324|117:325|117:325|124:334|124:334|122:347,2,111
