osu file format v14

[General]
AudioFilename: audio.mp3
AudioLeadIn: 0
PreviewTime: 27192
Countdown: 0
SampleSet: Soft
StackLeniency: 0.7
Mode: 0
LetterboxInBreaks: 0
WidescreenStoryboard: 1

[Editor]
DistanceSpacing: 1
BeatDivisor: 2
GridSize: 4
TimelineZoom: 1.7

[Metadata]
Title:Shining Star
TitleUnicode:Shining Star
Artist:Shin Agnes
ArtistUnicode:신아녜스
Creator:Aakki
Version:Normal
Source:Star vs. the Forces of Evil
Tags:ending english pop disney xd cartoon marco butterfly versus female vocals chiga my_angel_ram xandit cris- kuki1537 shadren
BeatmapID:2598991
BeatmapSetID:1250546

[Difficulty]
HPDrainRate:3
CircleSize:3.4
OverallDifficulty:4
ApproachRate:5
SliderMultiplier:1
SliderTickRate:1

[Events]
//Background and Video events
0,0,"bg.png",0,0
//Break Periods
//Storyboard Layer 0 (Background)
//Storyboard Layer 1 (Fail)
//Storyboard Layer 2 (Pass)
//Storyboard Layer 3 (Foreground)
//Storyboard Layer 4 (Overlay)
//Storyboard Sound Samples

[TimingPoints]
707,355.450236966825,4,2,1,70,1,0
707,-111.111111111111,4,2,1,70,0,0
12081,-100,4,2,1,80,0,0
24877,342.857142857143,4,2,1,80,1,0
25219,393.44262295082,4,2,1,80,1,0
25416,335.195530726257,4,2,1,80,1,0
25752,375,4,2,1,80,1,0
25960,352.941176470588,4,2,1,80,1,0
27350,355.450236966825,4,2,1,80,1,0
40146,342.857142857143,4,2,1,80,1,0
40488,393.44262295082,4,2,1,80,1,0
40685,335.195530726257,4,2,1,80,1,0
41021,352.941176470588,4,2,1,80,1,0
41214,370.37037037037,4,2,1,80,1,0
43806,-100,4,2,1,5,0,0

[Colours]
Combo1 : 128,128,192
Combo2 : 153,153,77
Combo3 : 255,128,192

[HitObjects]
96,16,707,6,0,P|68:40|60:136,2,134.999995880127,6|2|0,3:1|3:0|3:0,0:0:0:0:
168,80,2128,1,0,0:0:0:0:
168,80,2306,2,0,L|268:72,1,89.999997253418,2|2,3:0|0:0,0:0:0:0:
304,68,2839,1,2,3:0:0:0:
368,128,3195,1,2,3:0:0:0:
336,212,3550,6,0,B|284:204|284:204|252:220|252:220|204:212,2,134.999995880127,6|2|0,3:1|3:0|3:0,0:0:0:0:
408,268,4972,1,0,0:0:0:0:
408,268,5150,2,0,P|420:316|400:356,1,89.999997253418,2|0,3:0|0:0,0:0:0:0:
364,372,5683,1,2,3:0:0:0:
284,332,6038,1,2,3:0:0:0:
208,380,6394,6,0,B|168:384|144:360|160:352|128:324|84:324,2,134.999995880127,6|0|0,3:1|3:0|3:0,0:0:0:0:
268,312,7816,1,0,0:0:0:0:
268,312,7993,2,0,P|276:272|252:220,1,89.999997253418,2|2,3:0|0:0,0:0:0:0:
236,188,8526,1,0,3:0:0:0:
160,240,8882,1,0,3:0:0:0:
92,180,9237,6,0,P|80:144|100:80,1,89.999997253418,6|2,3:1|0:0,0:0:0:0:
116,56,9770,2,0,L|212:68,1,89.999997253418,10|10,0:3|0:3,0:0:0:0:
264,136,10481,2,0,L|353:124,1,89.999997253418,14|10,0:0|0:0,0:0:0:0:
460,44,11370,6,0,B|504:80|504:80|488:160,1,134.999995880127,4|0,3:1|0:0,0:0:0:0:
480,204,12081,6,0,B|428:192|436:224|368:208,1,100,6|8,3:2|0:0,0:0:0:0:
344,176,12614,2,0,P|296:152|244:176,1,100,0|0,3:2|3:2,0:0:0:0:
232,212,13147,1,8,0:0:0:0:
280,300,13503,2,0,L|272:364,1,50,0|0,3:2|0:0,0:0:0:0:
236,384,13858,1,10,0:0:0:0:
164,312,14214,2,0,P|136:304|104:308,1,50,2|0,0:0|3:2,0:0:0:0:
72,332,14569,1,10,0:0:0:0:
12,252,14925,6,0,P|0:208|32:144,1,100,2|8,3:2|0:0,0:0:0:0:
56,124,15458,2,0,B|84:112|116:128|104:136|128:152|160:144,1,100,2|0,3:2|3:2,0:0:0:0:
192,116,15991,2,0,P|216:104|260:108,1,50,10|0,0:0|3:2,0:0:0:0:
280,132,16346,1,2,3:2:0:0:
368,88,16702,2,0,L|364:152,1,50,10|0,0:0|3:2,0:0:0:0:
396,176,17057,2,0,L|399:225,1,50,2|10,0:0|0:0,0:0:0:0:
404,276,17413,1,10,0:0:0:0:
316,328,17768,6,0,P|260:336|200:304,1,100,6|10,3:2|0:0,0:0:0:0:
180,292,18301,2,0,L|168:240,1,50,2|0,3:2|0:0,0:0:0:0:
208,212,18657,2,0,L|219:163,1,50,2|8,3:2|0:0,0:0:0:0:
228,116,19012,2,0,P|192:80|124:88,1,100,2|2,3:2|0:0,0:0:0:0:
104,104,19545,1,10,0:0:0:0:
32,176,19901,2,0,L|40:232,1,50,2|0,0:0|3:2,0:0:0:0:
52,272,20256,1,10,0:0:0:0:
132,332,20612,6,0,B|160:324|188:332|180:348|216:356|240:340,1,100,2|8,3:2|0:0,0:0:0:0:
276,328,21145,2,0,P|284:300|276:272,1,50,2|0,3:2|0:0,0:0:0:0:
252,236,21500,2,0,P|248:211|256:187,1,50,2|8,3:2|0:0,0:0:0:0:
288,148,21856,1,2,3:2:0:0:
288,148,22034,1,0,3:2:0:0:
380,188,22389,2,0,P|388:152|380:124,1,50,10|8,0:0|0:3,0:0:0:0:
356,100,22744,2,0,P|354:75|362:51,1,50,10|8,0:3|0:3,0:0:0:0:
392,12,23100,1,10,0:0:0:0:
476,64,23455,6,0,B|504:100|504:100|488:172,1,100,0|10,3:0|0:0,0:0:0:0:
432,232,24166,1,2,0:0:0:0:
348,180,24522,1,10,0:0:0:0:
292,268,24877,6,0,L|232:260,1,50,10|8,0:0|0:0,0:0:0:0:
212,296,25219,1,0,3:0:0:0:
212,296,25416,2,0,L|152:304,1,50,10|8,0:3|0:3,0:0:0:0:
132,336,25752,1,0,3:0:0:0:
132,336,25960,6,0,B|108:364|80:372|32:344|24:264|76:208|96:256|136:168|100:108,1,300,6|2,3:2|0:0,0:0:0:0:
52,52,27350,6,0,P|104:28|180:60,1,100,6|8,3:2|0:0,0:0:0:0:
180,72,27883,2,0,B|216:64|216:64|244:72|244:72|304:60,1,100,0|0,3:2|3:2,0:0:0:0:
324,52,28416,1,8,0:0:0:0:
412,104,28771,1,0,3:2:0:0:
368,196,29127,2,0,L|380:268,1,50,10|0,0:0|3:2,0:0:0:0:
388,296,29482,2,0,P|348:328|280:312,1,100,2|10,0:0|0:0,0:0:0:0:
260,300,30015,1,0,3:2:0:0:
260,300,30193,6,0,B|224:304|224:304|196:324|196:324|144:328,1,100,2|8,3:2|0:0,0:0:0:0:
116,328,30726,2,0,P|88:272|120:200,1,100,2|0,3:2|3:2,0:0:0:0:
112,192,31259,1,10,0:0:0:0:
200,240,31615,1,2,3:2:0:0:
272,168,31970,2,0,L|332:176,1,50,10|0,0:0|3:2,0:0:0:0:
360,204,32326,2,0,L|409:197,1,50,2|10,0:0|0:0,0:0:0:0:
448,168,32681,1,10,0:0:0:0:
400,80,33037,6,0,P|356:52|304:60,1,100,6|10,3:2|0:0,0:0:0:0:
280,96,33570,2,0,P|231:100|190:72,1,100,2|2,3:2|3:2,0:0:0:0:
168,28,34103,1,8,0:0:0:0:
168,28,34281,1,2,3:2:0:0:
84,80,34636,1,2,0:0:0:0:
84,80,34814,2,0,L|96:152,1,50,10|0,0:0|3:2,0:0:0:0:
128,164,35169,2,0,L|119:213,1,50,2|0,0:0|3:2,0:0:0:0:
84,248,35525,1,10,0:0:0:0:
20,324,35880,6,0,P|60:356|140:336,1,100,2|8,3:2|0:0,0:0:0:0:
148,328,36413,2,0,B|192:324|192:324|212:336|212:336|284:328,1,100,2|2,3:2|3:2,0:0:0:0:
332,284,37124,1,2,3:2:0:0:
332,284,37302,1,0,3:2:0:0:
408,220,37658,2,0,P|420:168|412:152,1,50,10|8,0:0|0:3,0:0:0:0:
396,128,38013,2,0,P|367:82|350:77,1,50,10|8,0:3|0:3,0:0:0:0:
328,64,38368,1,10,0:0:0:0:
244,120,38724,5,0,3:0:0:0:
176,48,39079,2,0,L|56:64,1,100,10|2,0:0|0:0,0:0:0:0:
12,140,39790,1,10,0:0:0:0:
68,228,40146,6,0,L|132:232,1,50,10|8,0:0|0:0,0:0:0:0:
148,272,40488,1,0,3:0:0:0:
148,272,40685,2,0,L|197:268,1,50,10|8,0:3|0:3,0:0:0:0:
236,244,41021,1,0,3:0:0:0:
236,244,41214,1,6,3:2:0:0:
256,192,41399,12,0,43806,0:0:0:0:
