osu file format v14

[General]
AudioFilename: audio.mp3
AudioLeadIn: 0
PreviewTime: 47548
Countdown: 0
SampleSet: Soft
StackLeniency: 0
Mode: 0
LetterboxInBreaks: 0
WidescreenStoryboard: 1

[Editor]
DistanceSpacing: 1
BeatDivisor: 4
GridSize: 16
TimelineZoom: 1.7

[Metadata]
Title:Flutter Genshou no Temmatsu to Tanitsu Shikousei no Kanjouron
TitleUnicode:フラッター現象の顛末と単一指向性の感情論
Artist:Shimotsuki Rin(CV:Mizuhara Kaoru)
ArtistUnicode:霜月凛(CV:水原薫)
Creator:jieusieu
Version:Drum
Source:pop'n music éclale
Tags:日向美ビタースイーツ♪ ひなビタ
BeatmapID:1330808
BeatmapSetID:630400

[Difficulty]
HPDrainRate:5
CircleSize:5
OverallDifficulty:8
ApproachRate:7
SliderMultiplier:1.6
SliderTickRate:1

[Events]
//Background and Video events
0,0,"hZa7P0M.jpg",0,0
//Break Periods
//Storyboard Layer 0 (Background)
//Storyboard Layer 1 (Fail)
//Storyboard Layer 2 (Pass)
//Storyboard Layer 3 (Foreground)
//Storyboard Sound Samples

[TimingPoints]
1529,291.26213592233,4,2,1,75,1,0
9538,-100,4,2,10,75,0,0
10412,-100,4,2,1,90,0,0
19732,-100,4,2,10,90,0,0
20024,-100,4,2,1,90,0,0
24538,-100,4,2,1,70,0,0
24684,-100,4,2,10,70,0,0
26286,-100,4,2,1,70,0,0
26577,-100,4,2,1,80,0,0
26868,-100,4,2,1,90,0,0
27451,-100,4,2,1,60,0,0
27742,-100,4,2,1,70,0,0
28033,-100,4,2,1,80,0,0
28325,-100,4,2,1,90,0,0
28616,-100,4,2,1,100,0,0
28616,-100,4,2,1,80,0,0
28907,-100,4,2,1,80,0,0
29053,-100,4,2,2,80,0,0
29198,-100,4,2,4,80,0,0
29344,-100,4,2,1,70,0,0
29635,-100,4,2,10,70,0,0
31237,-100,4,2,1,70,0,0
31383,-100,4,2,10,70,0,0
31674,-100,4,2,1,70,0,0
31965,-100,4,2,10,70,0,0
33567,-100,4,2,1,70,0,0
33713,-100,4,2,10,70,0,0
34004,-100,4,2,1,70,0,0
34295,-100,4,2,10,70,0,0
35897,-100,4,2,1,70,0,0
36043,-100,4,2,10,70,0,0
36334,-100,4,2,1,70,0,0
36626,-100,4,2,10,70,0,0
37499,-100,4,2,1,70,0,0
37791,-100,4,2,10,70,0,0
38228,-100,4,2,1,60,0,0
38373,-100,4,2,2,70,0,0
38519,-100,4,2,1,80,0,0
38664,-100,4,2,1,90,0,0
38810,-100,4,2,10,80,0,0
39247,-100,4,2,1,80,0,0
39393,-100,4,2,10,80,0,0
39829,-100,4,2,1,80,0,0
40194,-100,4,2,10,80,0,0
40266,-100,4,2,1,80,0,0
40558,-100,4,2,10,80,0,0
42014,-100,4,2,1,80,0,0
42160,-100,4,2,10,80,0,0
42888,-100,4,2,1,90,0,0
43470,-100,4,2,10,80,0,0
43907,-100,4,2,1,80,0,0
44053,-100,4,2,10,80,0,0
44490,-100,4,2,1,80,0,0
45218,-100,4,2,10,80,0,0
45363,-100,4,2,1,90,0,0
46092,-100,4,2,4,40,0,0
46383,-100,4,2,4,50,0,0
46674,-100,4,2,4,60,0,0
46965,-100,4,2,4,80,0,0
47257,-100,4,2,4,100,0,0
48130,-100,4,2,1,95,0,0
66043,-100,4,2,1,90,0,0
66189,-100,4,2,2,90,0,0
66334,-100,4,2,1,80,0,0
66480,-100,4,2,2,90,0,0
66626,-100,4,2,4,100,0,0
66771,-100,4,2,1,90,0,0
70849,-100,4,2,2,90,0,0
70995,-100,4,2,1,80,0,0
71140,-100,4,2,2,90,0,0
71286,-100,4,2,4,100,0,0
71431,-100,4,2,1,90,0,0
75655,-100,4,2,4,80,0,0

[Colours]
Combo1 : 190,183,146
Combo2 : 179,191,198
Combo3 : 179,199,175
Combo4 : 181,166,187

[HitObjects]
96,112,1529,6,0,L|256:112,1,160,6|12,0:1|0:0,0:0:0:0:
256,192,1965,1,2,0:0:0:0:
176,192,2111,1,4,0:0:0:0:
256,192,2257,1,2,0:0:0:0:
256,272,2402,1,12,0:0:0:0:
416,272,2694,1,6,0:0:0:0:
416,192,2839,1,2,0:0:0:0:
416,112,2985,1,12,0:0:0:0:
256,112,3276,1,6,0:0:0:0:
256,32,3422,1,2,0:0:0:0:
336,32,3567,1,12,0:0:0:0:
336,192,3859,6,0,L|160:192,1,160,6|12,0:1|0:0,0:0:0:0:
96,192,4295,1,2,0:0:0:0:
96,112,4441,1,4,0:0:0:0:
16,112,4587,1,2,0:0:0:0:
96,112,4732,1,12,0:0:0:0:
96,272,5024,1,6,0:0:0:0:
176,272,5169,1,2,0:0:0:0:
256,272,5315,1,12,0:0:0:0:
256,112,5606,1,6,0:0:0:0:
256,32,5752,1,2,0:0:0:0:
256,112,5897,1,12,0:0:0:0:
416,112,6189,6,0,L|416:272,1,160,6|12,0:1|0:0,0:0:0:0:
336,272,6626,1,2,0:0:0:0:
336,192,6771,1,4,0:0:0:0:
416,192,6917,1,2,0:0:0:0:
416,272,7062,1,12,0:0:0:0:
256,272,7354,1,6,0:0:0:0:
176,272,7499,1,2,0:0:0:0:
176,352,7645,1,12,0:0:0:0:
96,192,7936,1,6,0:0:0:0:
96,112,8082,1,2,0:0:0:0:
96,32,8228,1,12,0:0:0:0:
256,112,8519,6,0,L|256:272,1,160,6|12,0:1|0:0,0:0:0:0:
256,352,8956,1,2,0:0:0:0:
336,352,9101,1,4,0:0:0:0:
416,352,9247,1,2,0:0:0:0:
336,272,9393,1,12,0:0:0:0:
416,272,9538,1,6,0:0:0:0:
416,272,10412,1,8,0:0:0:0:
416,272,10485,1,8,0:0:0:0:
416,272,10558,1,8,0:0:0:0:
416,272,10631,1,8,0:0:0:0:
416,272,10703,5,6,0:1:0:0:
256,272,10995,1,2,0:0:0:0:
256,192,11140,1,12,0:0:0:0:
96,192,11431,1,6,0:0:0:0:
96,272,11577,1,2,0:0:0:0:
176,192,11723,1,12,0:0:0:0:
176,272,11868,1,6,0:3:0:0:
176,112,12160,1,2,0:0:0:0:
256,112,12305,1,12,0:0:0:0:
256,192,12450,1,2,0:0:0:0:
336,192,12596,1,4,0:0:0:0:
336,112,12742,1,2,0:0:0:0:
256,192,12887,1,12,0:0:0:0:
336,192,13033,1,6,0:1:0:0:
496,192,13325,5,2,0:0:0:0:
496,272,13470,1,12,0:3:0:0:
336,272,13762,1,6,0:0:0:0:
256,272,13907,1,2,0:0:0:0:
176,272,14053,1,12,0:0:0:0:
336,272,14198,1,6,0:3:0:0:
176,352,14490,1,2,0:0:0:0:
176,272,14635,1,12,0:0:0:0:
176,352,14781,1,2,0:0:0:0:
176,272,14927,1,4,0:0:0:0:
176,192,15072,1,8,0:0:0:0:
176,192,15145,1,8,0:0:0:0:
176,192,15218,1,8,0:0:0:0:
176,192,15291,1,8,0:0:0:0:
176,192,15363,5,6,0:1:0:0:
16,192,15655,1,2,0:0:0:0:
16,112,15800,1,12,0:3:0:0:
16,272,16092,1,6,0:0:0:0:
96,272,16237,1,2,0:0:0:0:
96,192,16383,1,12,0:0:0:0:
176,192,16528,1,6,0:3:0:0:
176,352,16820,1,2,0:0:0:0:
256,352,16965,1,12,0:0:0:0:
256,272,17111,1,2,0:0:0:0:
176,352,17257,1,4,0:0:0:0:
256,352,17402,1,2,0:0:0:0:
176,272,17548,1,12,0:0:0:0:
256,272,17694,1,6,0:1:0:0:
256,112,17985,5,2,0:0:0:0:
256,32,18130,1,12,0:3:0:0:
416,32,18422,1,6,0:0:0:0:
416,112,18567,1,2,0:0:0:0:
496,112,18713,1,12,0:0:0:0:
416,112,18859,1,6,0:3:0:0:
416,272,19150,1,2,0:0:0:0:
416,352,19295,1,8,0:0:0:0:
496,272,19441,1,2,0:0:0:0:
416,272,19587,1,8,0:0:0:0:
496,352,19732,1,6,0:0:0:0:
496,272,20024,5,6,0:1:0:0:
496,272,24538,5,8,0:0:0:0:
496,272,24611,1,8,0:0:0:0:
496,272,24684,1,6,0:0:0:0:
496,272,26286,5,4,0:0:0:0:
336,272,26577,1,8,0:0:0:0:
256,272,26723,1,8,0:0:0:0:
256,192,26868,1,2,0:0:0:0:
336,192,27014,1,6,0:3:0:0:
96,192,27451,1,4,0:0:0:0:
256,192,27742,1,4,0:0:0:0:
96,192,28033,1,4,0:0:0:0:
256,192,28325,1,4,0:0:0:0:
96,192,28616,1,4,0:0:0:0:
96,352,28907,1,8,0:0:0:0:
96,352,28980,1,8,0:0:0:0:
96,352,29053,1,8,0:0:0:0:
16,352,29198,1,8,0:0:0:0:
16,272,29344,1,6,0:3:0:0:
16,112,29635,5,6,0:0:0:0:
16,192,29781,1,12,0:0:0:0:
96,192,29927,1,4,0:0:0:0:
96,272,30072,1,4,0:0:0:0:
176,272,30218,1,6,0:0:0:0:
256,272,30363,1,12,0:0:0:0:
336,272,30509,1,6,0:0:0:0:
336,272,30582,1,4,0:0:0:0:
336,272,30655,1,4,0:0:0:0:
256,272,30800,1,6,0:0:0:0:
256,192,30946,1,12,0:0:0:0:
256,112,31092,1,4,0:0:0:0:
336,112,31237,1,4,0:0:0:0:
336,32,31383,1,6,0:0:0:0:
336,32,31528,1,12,0:0:0:0:
256,32,31674,1,6,0:3:0:0:
256,192,31965,5,6,0:0:0:0:
336,192,32111,1,12,0:0:0:0:
416,192,32257,1,4,0:0:0:0:
496,192,32402,1,4,0:0:0:0:
496,112,32548,1,6,0:0:0:0:
416,112,32693,1,12,0:0:0:0:
416,32,32839,1,6,0:0:0:0:
416,32,32912,1,4,0:0:0:0:
416,32,32985,1,4,0:0:0:0:
416,112,33130,1,6,0:0:0:0:
496,112,33276,1,12,0:0:0:0:
496,32,33422,1,6,0:0:0:0:
416,112,33567,1,4,0:0:0:0:
416,32,33713,1,6,0:0:0:0:
336,32,33859,1,8,0:0:0:0:
336,32,33931,1,8,0:0:0:0:
336,32,34004,1,6,0:3:0:0:
176,32,34295,5,6,0:0:0:0:
96,32,34441,1,12,0:0:0:0:
16,32,34587,1,4,0:0:0:0:
16,112,34732,1,4,0:0:0:0:
16,192,34878,1,6,0:0:0:0:
16,112,35023,1,12,0:0:0:0:
16,192,35169,1,6,0:0:0:0:
16,192,35242,1,4,0:0:0:0:
16,192,35315,1,4,0:0:0:0:
96,192,35460,1,6,0:0:0:0:
16,272,35606,1,12,0:0:0:0:
96,272,35752,1,4,0:0:0:0:
96,352,35897,1,4,0:0:0:0:
176,352,36043,1,6,0:0:0:0:
176,352,36189,1,12,0:0:0:0:
176,272,36334,1,6,0:3:0:0:
176,112,36626,5,6,0:0:0:0:
176,192,36772,1,12,0:0:0:0:
256,192,36918,1,4,0:0:0:0:
256,272,37063,1,4,0:0:0:0:
176,272,37209,1,6,0:0:0:0:
256,272,37354,1,12,0:0:0:0:
256,192,37500,1,6,0:1:0:0:
256,352,37791,1,2,0:0:0:0:
336,352,37936,1,12,0:0:0:0:
336,272,38082,1,6,0:0:0:0:
336,192,38228,1,8,0:0:0:0:
336,192,38300,1,8,0:0:0:0:
336,192,38373,1,8,0:0:0:0:
336,192,38446,1,8,0:0:0:0:
336,192,38519,1,8,0:0:0:0:
336,192,38592,1,8,0:0:0:0:
336,192,38664,1,8,0:0:0:0:
336,192,38737,1,8,0:0:0:0:
336,192,38810,5,2,0:0:0:0:
336,272,38956,1,4,0:0:0:0:
336,352,39101,1,2,0:0:0:0:
416,272,39247,1,12,0:1:0:0:
416,352,39393,1,4,0:0:0:0:
496,352,39538,1,2,0:0:0:0:
496,272,39684,1,8,0:0:0:0:
496,192,39829,1,4,0:0:0:0:
496,112,39975,1,2,0:0:0:0:
416,112,40121,1,4,0:0:0:0:
416,112,40194,1,0,0:0:0:0:
416,112,40266,1,2,0:0:0:0:
336,112,40412,1,4,0:0:0:0:
336,192,40558,1,2,0:0:0:0:
256,192,40703,1,8,0:0:0:0:
176,192,40849,1,8,0:0:0:0:
176,192,40922,1,8,0:0:0:0:
176,192,40995,1,8,0:0:0:0:
176,112,41140,5,6,0:0:0:0:
176,192,41286,1,8,0:0:0:0:
176,272,41431,1,4,0:0:0:0:
176,352,41577,1,2,0:0:0:0:
96,352,41723,1,4,0:0:0:0:
96,272,41868,1,2,0:0:0:0:
16,352,42014,1,12,0:1:0:0:
96,352,42160,1,2,0:0:0:0:
96,272,42305,1,8,0:0:0:0:
16,272,42451,1,2,0:0:0:0:
16,192,42596,1,4,0:0:0:0:
96,192,42742,1,2,0:0:0:0:
96,112,42888,1,8,0:0:0:0:
16,112,43033,1,8,0:0:0:0:
16,32,43179,1,8,0:0:0:0:
96,32,43325,1,8,0:0:0:0:
96,112,43470,5,2,0:0:0:0:
96,192,43616,1,4,0:0:0:0:
176,192,43762,1,2,0:0:0:0:
96,272,43907,1,12,0:1:0:0:
176,272,44053,1,4,0:0:0:0:
256,272,44198,1,2,0:0:0:0:
256,192,44344,1,8,0:0:0:0:
176,192,44490,1,4,0:0:0:0:
176,112,44635,1,2,0:0:0:0:
176,32,44781,1,4,0:0:0:0:
256,32,44927,1,2,0:0:0:0:
336,32,45072,1,4,0:0:0:0:
416,32,45218,1,2,0:0:0:0:
416,112,45363,1,8,0:0:0:0:
336,112,45509,1,8,0:0:0:0:
336,192,45655,1,8,0:0:0:0:
336,272,45800,1,6,0:1:0:0:
176,272,46092,5,10,0:0:0:0:
176,112,46237,1,10,0:0:0:0:
336,112,46383,1,10,0:0:0:0:
176,272,46528,1,10,0:0:0:0:
176,112,46674,1,10,0:0:0:0:
336,272,46820,1,10,0:0:0:0:
336,112,46965,1,10,0:0:0:0:
336,112,47111,1,10,0:0:0:0:
176,272,47257,1,10,0:0:0:0:
336,112,47403,1,10,0:0:0:0:
336,112,48130,5,6,0:3:0:0:
336,272,48422,1,12,0:0:0:0:
336,112,48713,1,6,0:0:0:0:
256,112,48859,1,2,0:0:0:0:
336,112,49004,1,12,0:0:0:0:
176,272,49295,1,6,0:0:0:0:
176,352,49441,1,2,0:0:0:0:
256,352,49587,1,12,0:0:0:0:
96,192,49878,1,6,0:0:0:0:
96,272,50024,1,2,0:0:0:0:
176,192,50169,1,12,0:0:0:0:
16,112,50461,5,6,0:1:0:0:
176,112,50752,1,12,0:3:0:0:
16,272,51043,1,6,0:0:0:0:
176,272,51189,1,2,0:0:0:0:
16,112,51334,1,12,0:1:0:0:
16,272,51626,1,6,0:0:0:0:
176,272,51771,1,2,0:0:0:0:
176,112,51917,1,12,0:3:0:0:
16,272,52208,1,6,0:0:0:0:
176,272,52354,1,2,0:0:0:0:
16,112,52499,1,12,0:1:0:0:
176,272,52791,5,6,0:3:0:0:
336,272,53082,1,12,0:0:0:0:
336,112,53373,1,6,0:0:0:0:
336,192,53519,1,2,0:0:0:0:
336,112,53664,1,12,0:0:0:0:
176,112,53956,1,6,0:0:0:0:
256,112,54102,1,2,0:0:0:0:
256,192,54247,1,12,0:0:0:0:
416,192,54538,1,6,0:0:0:0:
416,272,54683,1,2,0:0:0:0:
256,272,54829,1,12,0:0:0:0:
176,112,55121,5,6,0:1:0:0:
16,112,55412,1,12,0:3:0:0:
16,272,55703,1,6,0:0:0:0:
176,272,55849,1,2,0:0:0:0:
176,112,55995,1,12,0:1:0:0:
176,272,56286,1,6,0:0:0:0:
16,272,56431,1,2,0:0:0:0:
16,112,56577,1,12,0:3:0:0:
176,272,56868,1,6,0:0:0:0:
176,352,57014,1,2,0:0:0:0:
96,352,57160,1,8,0:0:0:0:
96,352,57232,1,8,0:0:0:0:
96,352,57305,1,8,0:0:0:0:
96,352,57378,1,8,0:0:0:0:
96,352,57451,5,6,0:3:0:0:
256,352,57742,1,12,0:0:0:0:
416,352,58033,1,6,0:0:0:0:
416,272,58179,1,2,0:0:0:0:
416,352,58325,1,12,0:0:0:0:
416,192,58616,1,6,0:0:0:0:
336,192,58762,1,2,0:0:0:0:
256,192,58907,1,12,0:0:0:0:
416,112,59198,1,6,0:0:0:0:
496,192,59344,1,2,0:0:0:0:
496,112,59490,1,12,0:0:0:0:
496,272,59781,5,6,0:1:0:0:
336,272,60072,1,12,0:3:0:0:
336,112,60363,1,6,0:0:0:0:
496,112,60509,1,2,0:0:0:0:
496,272,60655,1,12,0:1:0:0:
336,112,60946,1,6,0:0:0:0:
496,112,61092,1,2,0:0:0:0:
336,272,61237,1,12,0:3:0:0:
336,112,61528,1,6,0:0:0:0:
496,112,61674,1,2,0:0:0:0:
496,272,61820,1,12,0:1:0:0:
336,272,62111,5,6,0:3:0:0:
176,272,62402,1,12,0:0:0:0:
336,272,62694,1,6,0:0:0:0:
336,352,62839,1,2,0:0:0:0:
336,272,62985,1,12,0:0:0:0:
336,112,63276,1,6,0:0:0:0:
416,112,63422,1,2,0:0:0:0:
496,112,63567,1,12,0:0:0:0:
336,32,63859,1,6,0:0:0:0:
416,32,64004,1,2,0:0:0:0:
256,32,64150,1,12,0:0:0:0:
336,272,64441,5,6,0:1:0:0:
496,272,64732,1,12,0:3:0:0:
336,112,65024,1,6,0:0:0:0:
496,112,65169,1,2,0:0:0:0:
336,272,65315,1,12,0:1:0:0:
496,112,65606,1,6,0:0:0:0:
496,192,65751,1,2,0:0:0:0:
496,272,65897,1,12,0:0:0:0:
336,272,66043,1,8,0:0:0:0:
336,272,66116,1,8,0:0:0:0:
336,272,66189,1,8,0:0:0:0:
496,272,66334,1,8,0:0:0:0:
496,272,66407,1,8,0:0:0:0:
496,272,66480,1,8,0:0:0:0:
496,272,66553,1,8,0:0:0:0:
496,272,66626,1,8,0:0:0:0:
496,272,66698,1,8,0:0:0:0:
496,272,66771,5,6,0:3:0:0:
496,352,66917,1,2,0:0:0:0:
416,352,67062,1,4,0:0:0:0:
416,272,67208,1,2,0:0:0:0:
336,272,67354,1,4,0:0:0:0:
336,352,67499,1,2,0:0:0:0:
256,352,67645,2,0,L|96:352,1,160,12|6,0:1|0:0,0:0:0:0:
96,272,68082,1,2,0:0:0:0:
96,192,68228,1,12,0:0:0:0:
16,192,68446,1,8,0:0:0:0:
16,192,68519,1,6,0:0:0:0:
96,192,68664,1,2,0:0:0:0:
96,112,68810,1,8,0:0:0:0:
256,112,69101,5,6,0:3:0:0:
336,112,69247,1,2,0:0:0:0:
336,32,69392,1,4,0:0:0:0:
256,32,69538,1,2,0:0:0:0:
336,32,69684,1,4,0:0:0:0:
416,32,69829,1,2,0:0:0:0:
496,32,69975,2,0,L|496:192,1,160,12|6,0:1|0:0,0:0:0:0:
416,192,70412,1,2,0:0:0:0:
416,272,70558,1,12,0:0:0:0:
416,352,70703,1,8,0:0:0:0:
416,352,70776,1,8,0:0:0:0:
416,352,70849,1,8,0:0:0:0:
336,352,70994,1,8,0:0:0:0:
336,352,71067,1,8,0:0:0:0:
336,352,71140,1,8,0:0:0:0:
336,352,71213,1,8,0:0:0:0:
336,352,71286,1,8,0:0:0:0:
336,352,71359,1,8,0:0:0:0:
336,352,71431,5,6,0:3:0:0:
336,272,71577,1,2,0:0:0:0:
256,272,71722,1,4,0:0:0:0:
256,192,71868,1,2,0:0:0:0:
336,272,72014,1,4,0:0:0:0:
336,192,72159,1,2,0:0:0:0:
336,112,72305,2,0,L|176:112,1,160,12|6,0:1|0:0,0:0:0:0:
176,192,72742,1,2,0:0:0:0:
96,192,72888,1,12,0:0:0:0:
96,112,73106,1,8,0:0:0:0:
96,112,73179,1,6,0:0:0:0:
96,192,73324,1,2,0:0:0:0:
96,272,73470,1,8,0:0:0:0:
256,272,73761,5,6,0:3:0:0:
176,272,73907,1,2,0:0:0:0:
176,192,74052,1,4,0:0:0:0:
176,112,74198,1,2,0:0:0:0:
96,112,74344,2,0,L|96:272,1,160,4|2,0:0|0:0,0:0:0:0:
96,352,74781,1,12,0:1:0:0:
96,352,75655,1,8,0:0:0:0:
