osu file format v14

[General]
AudioFilename: audio.mp3
AudioLeadIn: 0
PreviewTime: 328
Countdown: 0
SampleSet: Soft
StackLeniency: 0.4
Mode: 0
LetterboxInBreaks: 0
WidescreenStoryboard: 1

[Editor]
DistanceSpacing: 1.1
BeatDivisor: 8
GridSize: 32
TimelineZoom: 1.8

[Metadata]
Title:mirage
TitleUnicode:mirage
Artist:Shimotsuki Haruka, Nakae Mitsuki
ArtistUnicode:霜月はるか・中恵光城
Creator:Lasse
Version:Insane
Source:
Tags:しちごさん。×ABSOLUTE CASTAWAY 753 Another Flower II 2 Cross bouquet M3-35 日山 尚 Hiyama Nao 戀伊江 梓 幾丹弥吹 Mir Kalibe
BeatmapID:1372704
BeatmapSetID:646714

[Difficulty]
HPDrainRate:6
CircleSize:3.8
OverallDifficulty:7.6
ApproachRate:8.7
SliderMultiplier:2.88
SliderTickRate:1

[Events]
//Background and Video events
0,0,"bg.jpg",0,0
//Break Periods
2,98102,103495
2,212162,220724
//Storyboard Layer 0 (Background)
//Storyboard Layer 1 (Fail)
//Storyboard Layer 2 (Pass)
//Storyboard Layer 3 (Foreground)
//Storyboard Sound Samples

[TimingPoints]
477,594.059405940594,4,2,22,20,1,0
477,-200,4,2,22,20,0,0
9090,-142.857142857143,4,2,22,20,0,0
9981,-166.666666666667,4,2,22,24,0,0
10278,-166.666666666667,4,2,22,12,0,0
10427,-166.666666666667,4,2,22,24,0,0
10724,-166.666666666667,4,2,22,12,0,0
10873,-166.666666666667,4,2,22,24,0,0
11318,-166.666666666667,4,2,22,12,0,0
11467,-166.666666666667,4,2,22,24,0,0
12358,-166.666666666667,4,2,22,24,0,0
12655,-166.666666666667,4,2,22,12,0,0
12803,-166.666666666667,4,2,22,24,0,0
13100,-166.666666666667,4,2,22,12,0,0
13249,-166.666666666667,4,2,22,24,0,0
13694,-166.666666666667,4,2,22,12,0,0
13843,-166.666666666667,4,2,22,24,0,0
14734,-166.666666666667,4,2,22,24,0,0
15031,-166.666666666667,4,2,22,12,0,0
15179,-166.666666666667,4,2,22,24,0,0
15477,-166.666666666667,4,2,22,12,0,0
15625,-166.666666666667,4,2,22,24,0,0
16071,-166.666666666667,4,2,22,12,0,0
16219,-166.666666666667,4,2,22,24,0,0
17110,-166.666666666667,4,2,22,24,0,0
17407,-166.666666666667,4,2,22,12,0,0
17556,-166.666666666667,4,2,22,24,0,0
17853,-166.666666666667,4,2,22,12,0,0
18001,-166.666666666667,4,2,22,24,0,0
18447,-166.666666666667,4,2,22,12,0,0
18595,-111.111111111111,4,2,22,24,0,0
19486,-125,4,2,22,30,0,0
28694,-125,4,2,22,24,0,0
28991,-125,4,2,22,30,0,0
37902,-125,4,2,22,34,0,0
38199,-125,4,2,22,36,0,0
38496,-100,4,2,1,40,0,0
38719,-100,4,2,99,5,0,0
38793,-100,4,2,1,40,0,0
41095,-100,4,2,99,5,0,0
41170,-100,4,2,1,40,0,0
43472,-100,4,2,99,5,0,0
43546,-100,4,2,1,40,0,0
48224,-100,4,2,99,5,0,0
48298,-100,4,2,1,40,0,0
50600,-100,4,2,99,5,0,0
50675,-100,4,2,1,40,0,0
52457,-100,4,2,1,42,0,0
52902,-100,4,2,1,20,0,0
53051,-100,4,2,1,42,0,0
53496,-100,4,2,1,20,0,0
53645,-100,4,2,1,42,0,0
54090,-100,4,2,1,40,0,0
54239,-100,4,2,1,46,0,0
54536,-100,4,2,1,48,0,0
54833,-100,4,2,14,50,0,0
55130,-100,4,2,1,54,0,0
55576,-100,4,2,2,56,0,0
55725,-100,4,2,1,56,0,0
56021,-100,4,2,1,58,0,0
56467,-100,4,2,14,60,0,0
56912,-200,4,2,1,40,0,0
57506,-86.2068965517241,4,2,1,62,0,1
57729,-86.2068965517241,4,2,99,5,0,1
57803,-86.2068965517241,4,2,1,62,0,1
60105,-86.2068965517241,4,2,99,5,0,1
60179,-86.2068965517241,4,2,1,62,0,1
62259,-86.2068965517241,4,2,1,62,0,1
62481,-86.2068965517241,4,2,99,5,0,1
62556,-86.2068965517241,4,2,1,62,0,1
63967,-86.2068965517241,4,2,99,5,0,1
64041,-86.2068965517241,4,2,1,62,0,1
64561,-86.2068965517241,4,2,1,62,0,0
64635,-86.2068965517241,4,2,1,62,0,1
65080,-86.2068965517241,4,2,2,62,0,1
65229,-86.2068965517241,4,2,1,62,0,1
66417,-86.2068965517241,4,2,1,62,0,0
66615,-86.2068965517241,4,2,14,62,0,0
67011,-86.2068965517241,4,2,1,62,0,1
67234,-86.2068965517241,4,2,99,5,0,1
67308,-86.2068965517241,4,2,1,62,0,1
69610,-86.2068965517241,4,2,99,5,0,1
69684,-86.2068965517241,4,2,1,62,0,1
71764,-86.2068965517241,4,2,1,62,0,1
72061,-86.2068965517241,4,2,1,62,0,1
73472,-86.2068965517241,4,2,99,5,0,1
73546,-86.2068965517241,4,2,1,62,0,1
74140,-86.2068965517241,4,2,1,62,0,1
74585,-86.2068965517241,4,2,1,62,0,1
74882,-76.9230769230769,4,2,1,62,0,1
75625,-86.2068965517241,4,2,1,62,0,1
75922,-86.2068965517241,4,2,1,62,0,1
76120,-86.2068965517241,4,2,1,60,0,1
76516,-100,4,2,22,62,0,0
76553,-100,4,2,22,40,0,0
76813,-100,4,2,22,60,0,0
76887,-100,4,2,99,5,0,0
76962,-100,4,2,22,60,0,0
77036,-100,4,2,99,5,0,0
77110,-100,4,2,22,60,0,0
77184,-100,4,2,99,5,0,0
77259,-100,4,2,22,60,0,0
77333,-100,4,2,99,5,0,0
77407,-100,4,2,1,62,0,1
78001,-86.2068965517241,4,2,1,62,0,1
78298,-86.2068965517241,4,2,1,62,0,1
78595,-86.2068965517241,4,2,14,62,0,0
78892,-86.2068965517241,4,2,1,62,0,1
79115,-86.2068965517241,4,2,99,5,0,1
79189,-86.2068965517241,4,2,1,62,0,1
79486,-86.2068965517241,4,2,2,62,0,1
79709,-86.2068965517241,4,2,99,5,0,1
79783,-86.2068965517241,4,2,1,62,0,1
81269,-86.2068965517241,4,2,1,62,0,1
81491,-86.2068965517241,4,2,99,5,0,1
81566,-86.2068965517241,4,2,1,62,0,1
82977,-86.2068965517241,4,2,99,5,0,1
83051,-86.2068965517241,4,2,1,62,0,1
83571,-86.2068965517241,4,2,1,62,0,0
83645,-86.2068965517241,4,2,1,62,0,1
84090,-86.2068965517241,4,2,2,62,0,1
84239,-86.2068965517241,4,2,1,62,0,1
85427,-86.2068965517241,4,2,1,62,0,0
85625,-86.2068965517241,4,2,14,62,0,0
86021,-86.2068965517241,4,2,1,62,0,1
86244,-86.2068965517241,4,2,99,5,0,1
86318,-86.2068965517241,4,2,1,62,0,1
88620,-86.2068965517241,4,2,99,5,0,1
88694,-86.2068965517241,4,2,1,62,0,1
93150,-86.2068965517241,4,2,1,62,0,1
94041,-76.9230769230769,4,2,1,62,0,1
94486,-86.2068965517241,4,2,1,62,0,1
95526,-142.857142857143,4,2,22,50,0,0
95823,-142.857142857143,4,2,22,45,0,0
95972,-142.857142857143,4,2,22,40,0,0
96417,-142.857142857143,4,2,22,30,0,0
96491,-142.857142857143,4,2,22,10,0,0
97902,-142.857142857143,4,2,99,20,0,0
104140,-200,4,2,22,20,0,0
104734,-200,4,2,22,20,0,0
104882,-200,4,2,22,20,0,0
105031,-142.857142857143,4,2,22,34,0,0
113942,-142.857142857143,4,2,22,36,0,0
114090,-142.857142857143,4,2,22,42,0,0
114239,-142.857142857143,4,2,22,44,0,0
114387,-142.857142857143,4,2,22,46,0,0
114536,-111.111111111111,4,2,1,50,0,0
114759,-111.111111111111,4,2,99,5,0,0
114833,-111.111111111111,4,2,1,44,0,0
117135,-111.111111111111,4,2,99,5,0,0
117209,-111.111111111111,4,2,1,44,0,0
119511,-111.111111111111,4,2,99,5,0,0
119585,-111.111111111111,4,2,1,44,0,0
121887,-111.111111111111,4,2,99,5,0,0
121962,-111.111111111111,4,2,1,44,0,0
123001,-76.9230769230769,4,2,1,44,0,0
123744,-76.9230769230769,4,2,14,44,0,0
124041,-111.111111111111,4,2,1,44,0,0
124264,-111.111111111111,4,2,99,5,0,0
124338,-111.111111111111,4,2,1,44,0,0
126640,-111.111111111111,4,2,99,5,0,0
126714,-111.111111111111,4,2,1,44,0,0
129016,-111.111111111111,4,2,99,5,0,0
129090,-111.111111111111,4,2,1,44,0,0
131392,-111.111111111111,4,2,99,5,0,0
131467,-111.111111111111,4,2,1,44,0,0
132506,-76.9230769230769,4,2,1,44,0,0
133249,-121.951219512195,4,2,14,40,0,0
133546,-142.857142857143,4,2,22,34,0,0
135477,-142.857142857143,4,2,22,20,0,0
135625,-142.857142857143,4,2,22,34,0,0
137853,-142.857142857143,4,2,22,20,0,0
138001,-142.857142857143,4,2,22,34,0,0
138150,-142.857142857143,4,2,22,20,0,0
138298,-142.857142857143,4,2,22,34,0,0
140229,-142.857142857143,4,2,22,20,0,0
140377,-142.857142857143,4,2,22,34,0,0
140675,-142.857142857143,4,2,22,34,0,0
141046,-142.857142857143,4,2,99,5,0,0
141120,-142.857142857143,4,2,22,34,0,0
141491,-142.857142857143,4,2,99,5,0,0
141566,-142.857142857143,4,2,22,34,0,0
142011,-142.857142857143,4,2,22,20,0,0
142160,-142.857142857143,4,2,22,34,0,0
142308,-142.857142857143,4,2,22,20,0,0
142457,-142.857142857143,4,2,22,34,0,0
142605,-142.857142857143,4,2,22,20,0,0
142754,-142.857142857143,4,2,22,34,0,0
143051,-105.263157894737,4,2,1,40,0,0
143274,-105.263157894737,4,2,99,5,0,0
143348,-105.263157894737,4,2,1,40,0,0
147506,-100,4,2,1,42,0,0
147952,-100,4,2,1,20,0,0
148100,-100,4,2,1,42,0,0
148546,-100,4,2,1,20,0,0
148694,-100,4,2,1,42,0,0
149140,-100,4,2,1,40,0,0
149288,-100,4,2,1,46,0,0
149585,-100,4,2,1,48,0,0
149882,-100,4,2,14,50,0,0
150179,-100,4,2,1,54,0,0
150625,-100,4,2,2,56,0,0
150774,-100,4,2,1,56,0,0
151071,-100,4,2,1,58,0,0
151516,-100,4,2,14,60,0,0
151962,-200,4,2,1,40,0,0
152556,-86.2068965517241,4,2,1,62,0,1
152778,-86.2068965517241,4,2,99,5,0,1
152853,-86.2068965517241,4,2,1,62,0,1
155155,-86.2068965517241,4,2,99,5,0,1
155229,-86.2068965517241,4,2,1,62,0,1
157308,-86.2068965517241,4,2,1,62,0,1
157531,-86.2068965517241,4,2,99,5,0,1
157605,-86.2068965517241,4,2,1,62,0,1
159016,-86.2068965517241,4,2,99,5,0,1
159090,-86.2068965517241,4,2,1,62,0,1
159610,-86.2068965517241,4,2,1,62,0,0
159684,-86.2068965517241,4,2,1,62,0,1
161467,-86.2068965517241,4,2,1,62,0,0
161665,-86.2068965517241,4,2,14,62,0,0
162061,-86.2068965517241,4,2,1,62,0,1
162283,-86.2068965517241,4,2,99,5,0,1
162358,-86.2068965517241,4,2,1,62,0,1
164660,-86.2068965517241,4,2,99,5,0,1
164734,-86.2068965517241,4,2,1,62,0,1
166813,-86.2068965517241,4,2,1,62,0,1
167110,-86.2068965517241,4,2,1,62,0,1
168521,-86.2068965517241,4,2,99,5,0,1
168595,-86.2068965517241,4,2,1,62,0,1
169189,-86.2068965517241,4,2,1,62,0,1
169635,-86.2068965517241,4,2,1,62,0,1
169932,-76.9230769230769,4,2,1,62,0,1
170675,-86.2068965517241,4,2,1,62,0,1
170972,-86.2068965517241,4,2,1,62,0,1
171170,-86.2068965517241,4,2,1,60,0,1
171566,-100,4,2,22,62,0,0
171603,-100,4,2,22,40,0,0
171863,-100,4,2,22,60,0,0
171937,-100,4,2,99,5,0,0
172011,-100,4,2,22,60,0,0
172085,-100,4,2,99,5,0,0
172160,-100,4,2,22,60,0,0
172234,-100,4,2,99,5,0,0
172308,-100,4,2,22,60,0,0
172382,-100,4,2,99,5,0,0
172457,-100,4,2,1,62,0,1
173051,-86.2068965517241,4,2,1,62,0,1
173348,-86.2068965517241,4,2,1,62,0,1
173645,-86.2068965517241,4,2,14,62,0,0
173942,-86.2068965517241,4,2,1,62,0,1
174165,-86.2068965517241,4,2,99,5,0,1
174239,-86.2068965517241,4,2,1,62,0,1
174536,-86.2068965517241,4,2,2,62,0,1
174759,-86.2068965517241,4,2,99,5,0,1
174833,-86.2068965517241,4,2,1,62,0,1
176318,-86.2068965517241,4,2,1,62,0,1
176541,-86.2068965517241,4,2,99,5,0,1
176615,-86.2068965517241,4,2,1,62,0,1
178026,-86.2068965517241,4,2,99,5,0,1
178100,-86.2068965517241,4,2,1,62,0,1
178620,-86.2068965517241,4,2,1,62,0,0
178694,-86.2068965517241,4,2,1,62,0,1
180477,-86.2068965517241,4,2,1,62,0,0
180675,-86.2068965517241,4,2,14,62,0,0
181071,-86.2068965517241,4,2,1,62,0,1
181293,-86.2068965517241,4,2,99,5,0,1
181368,-86.2068965517241,4,2,1,62,0,1
183670,-86.2068965517241,4,2,99,5,0,1
183744,-86.2068965517241,4,2,1,62,0,1
188199,-86.2068965517241,4,2,1,62,0,1
189090,-76.9230769230769,4,2,1,62,0,1
189536,-86.2068965517241,4,2,1,62,0,1
190576,-90.9090909090909,4,2,1,56,0,0
191467,-90.9090909090909,4,2,2,56,0,0
191615,-90.9090909090909,4,2,1,56,0,0
193843,-90.9090909090909,4,2,2,56,0,0
193991,-90.9090909090909,4,2,1,56,0,0
196219,-90.9090909090909,4,2,2,56,0,0
196368,-90.9090909090909,4,2,1,56,0,0
199041,-66.6666666666667,4,2,2,68,0,0
199338,-90.9090909090909,4,2,1,56,0,0
199783,-90.9090909090909,4,2,14,56,0,0
200080,-90.9090909090909,4,2,1,56,0,0
200972,-90.9090909090909,4,2,2,56,0,0
201120,-90.9090909090909,4,2,1,56,0,0
203348,-90.9090909090909,4,2,2,56,0,0
203496,-90.9090909090909,4,2,1,56,0,0
204536,-90.9090909090909,4,2,2,56,0,0
204684,-90.9090909090909,4,2,1,56,0,0
204833,-83.3333333333333,4,2,1,58,0,0
206021,-83.3333333333333,4,2,1,44,0,0
206170,-83.3333333333333,4,2,1,56,0,0
207209,-100,4,2,56,56,0,0
207432,-100,4,2,99,5,0,0
207506,-100,4,2,56,56,0,0
207729,-100,4,2,99,5,0,0
207803,-100,4,2,56,58,0,0
208026,-100,4,2,99,5,0,0
208100,-100,4,2,56,60,0,0
208323,-100,4,2,99,5,0,0
208397,-100,4,2,56,62,0,0
208620,-100,4,2,99,5,0,0
208694,-100,4,2,56,56,0,0
208917,-100,4,2,99,5,0,0
208991,-100,4,2,56,66,0,0
209214,-100,4,2,99,5,0,0
209288,-100,4,2,56,68,0,0
209511,-100,4,2,99,5,0,0
209585,-100,4,2,1,62,0,0
209734,-100,4,2,1,56,0,0
210031,-100,4,2,2,56,0,0
210179,-100,4,2,1,56,0,0
210774,-200,4,2,1,56,0,0
211962,-200,4,2,22,50,0,0
221467,-133.333333333333,4,2,22,40,0,0
221689,-133.333333333333,4,2,99,5,0,0
221764,-133.333333333333,4,2,22,40,0,0
221838,-133.333333333333,4,2,22,20,0,0
221912,-133.333333333333,4,2,22,40,0,0
221986,-133.333333333333,4,2,22,20,0,0
222060,-133.333333333333,4,2,22,40,0,0
223175,-133.333333333333,4,2,99,5,0,0
223250,-133.333333333333,4,2,22,40,0,0
224066,-133.333333333333,4,2,99,5,0,0
224141,-133.333333333333,4,2,22,40,0,0
224214,-133.333333333333,4,2,22,20,0,0
224288,-133.333333333333,4,2,22,40,0,0
224363,-133.333333333333,4,2,22,20,0,0
224437,-133.333333333333,4,2,22,40,0,0
226739,-133.333333333333,4,2,22,20,0,0
226813,-133.333333333333,4,2,22,40,0,0
227778,-133.333333333333,4,2,22,20,0,0
228001,-133.333333333333,4,2,22,40,0,0
228818,-133.333333333333,4,2,99,5,0,0
228892,-133.333333333333,4,2,22,40,0,0
228967,-133.333333333333,4,2,22,20,0,0
229041,-133.333333333333,4,2,22,40,0,0
229115,-133.333333333333,4,2,22,20,0,0
229189,-133.333333333333,4,2,22,40,0,0
229486,-90.9090909090909,4,2,22,44,0,0
229932,-90.9090909090909,4,2,22,22,0,0
230080,-142.857142857143,4,2,22,40,0,0
230303,-142.857142857143,4,2,99,5,0,0
230377,-142.857142857143,4,2,22,42,0,0
230600,-142.857142857143,4,2,99,5,0,0
230675,-142.857142857143,4,2,22,44,0,0
230897,-142.857142857143,4,2,99,5,0,0
230972,-125,4,2,22,50,0,0
231269,-125,4,2,22,52,0,0
231566,-125,4,2,22,54,0,0
231863,-100,4,2,1,62,0,1
232457,-86.2068965517241,4,2,1,62,0,1
232754,-86.2068965517241,4,2,1,62,0,1
233051,-86.2068965517241,4,2,14,62,0,0
233348,-86.2068965517241,4,2,1,62,0,1
233571,-86.2068965517241,4,2,99,5,0,1
233645,-86.2068965517241,4,2,1,62,0,1
233942,-86.2068965517241,4,2,2,62,0,1
234165,-86.2068965517241,4,2,99,5,0,1
234239,-86.2068965517241,4,2,1,62,0,1
235724,-86.2068965517241,4,2,1,62,0,1
235947,-86.2068965517241,4,2,99,5,0,1
236021,-86.2068965517241,4,2,1,62,0,1
237432,-86.2068965517241,4,2,99,5,0,1
237506,-86.2068965517241,4,2,1,62,0,1
238026,-86.2068965517241,4,2,1,62,0,0
238100,-86.2068965517241,4,2,1,62,0,1
239882,-86.2068965517241,4,2,1,62,0,0
240080,-86.2068965517241,4,2,14,62,0,0
240477,-86.2068965517241,4,2,1,62,0,1
240699,-86.2068965517241,4,2,99,5,0,1
240774,-86.2068965517241,4,2,1,62,0,1
243076,-86.2068965517241,4,2,99,5,0,1
243150,-86.2068965517241,4,2,1,62,0,1
247605,-86.2068965517241,4,2,1,62,0,1
248496,-76.9230769230769,4,2,1,62,0,1
248942,-86.2068965517241,4,2,1,62,0,1
249981,-95.2380952380952,4,2,1,56,0,0
250130,-95.2380952380952,4,2,1,52,0,0
250576,-95.2380952380952,4,2,2,52,0,0
250724,-95.2380952380952,4,2,1,52,0,0
251170,-95.2380952380952,4,2,2,52,0,0
251318,-95.2380952380952,4,2,1,52,0,0
251764,-95.2380952380952,4,2,3,52,0,0
251912,-95.2380952380952,4,2,1,52,0,0
252358,-95.2380952380952,4,2,2,52,0,0
252506,-95.2380952380952,4,2,1,52,0,0
252952,-95.2380952380952,4,2,2,52,0,0
253100,-95.2380952380952,4,2,1,52,0,0
253546,-95.2380952380952,4,2,2,52,0,0
253694,-95.2380952380952,4,2,1,52,0,0
254140,-95.2380952380952,4,2,3,52,0,0
254288,-95.2380952380952,4,2,1,52,0,0
255328,-95.2380952380952,4,2,2,52,0,0
255476,-95.2380952380952,4,2,1,52,0,0
255922,-95.2380952380952,4,2,2,52,0,0
256071,-95.2380952380952,4,2,1,52,0,0
256516,-95.2380952380952,4,2,3,52,0,0
256665,-95.2380952380952,4,2,1,52,0,0
257110,-95.2380952380952,4,2,2,52,0,0
257258,-95.2380952380952,4,2,1,52,0,0
257704,-95.2380952380952,4,2,2,52,0,0
257852,-95.2380952380952,4,2,1,52,0,0
258892,-95.2380952380952,4,2,2,50,0,0
259041,-95.2380952380952,4,2,1,50,0,0
259189,-95.2380952380952,4,2,1,48,0,0
259338,-95.2380952380952,4,2,1,46,0,0
259486,-95.2380952380952,4,2,1,56,0,0
259635,-95.2380952380952,4,2,1,52,0,0
264239,-95.2380952380952,4,2,2,52,0,0
264387,-95.2380952380952,4,2,1,52,0,0
267061,-95.2380952380952,4,2,2,52,0,0
267210,-95.2380952380952,4,2,1,52,0,0
267803,-95.2380952380952,4,2,1,40,0,0
267952,-95.2380952380952,4,2,1,50,0,0
268397,-95.2380952380952,4,2,1,46,0,0
268694,-95.2380952380952,4,2,1,44,0,0
268769,-95.2380952380952,4,2,1,34,0,0
268843,-95.2380952380952,4,2,1,44,0,0
268917,-95.2380952380952,4,2,1,34,0,0
268991,-142.857142857143,4,2,22,40,0,0

[Colours]
Combo1 : 250,140,150
Combo2 : 150,150,150
Combo3 : 233,107,136
Combo4 : 200,200,200

[HitObjects]
207,139,477,6,0,P|203:87|199:22,2,108,6|2|2,0:1|0:2|0:2,0:0:0:0:
207,139,1962,5,2,0:1:0:0:
225,216,2259,1,2,0:0:0:0:
243,293,2556,1,2,0:0:0:0:
167,270,2853,6,0,P|115:266|50:262,2,108,2|2|2,0:1|0:2|0:2,0:0:0:0:
167,270,4338,5,2,0:1:0:0:
225,216,4635,1,2,0:0:0:0:
283,162,4932,1,2,0:0:0:0:
358,185,5229,6,0,P|411:189|465:192,2,108,2|2|2,0:1|0:2|0:2,0:0:0:0:
358,185,6714,5,2,0:1:0:0:
283,162,7011,1,2,0:0:0:0:
208,139,7308,1,2,0:0:0:0:
150,192,7605,6,0,P|96:196|42:199,2,108,2|2|2,0:1|0:2|0:2,0:0:0:0:
150,192,9090,6,2,B|159:171|152:145|152:145|135:116|150:80,2,100.799996923828,2|2|2,0:1|0:0|0:0,1:2:0:0:
150,192,9981,6,0,P|192:203|235:196,1,86.3999973632813,14|0,0:1|0:0,0:0:0:0:
318,200,10427,2,0,P|276:189|233:196,1,86.3999973632813,2|0,0:0|0:0,0:0:0:0:
288,298,10873,2,0,P|335:259|318:199,1,129.599996044922,2|0,0:0|0:0,0:0:0:0:
234,196,11467,6,0,L|141:196,2,86.3999973632813,2|2|2,0:1|0:0|0:0,0:0:0:0:
318,199,12358,6,0,P|328:157|321:114,1,86.3999973632813,2|0,0:1|0:0,0:0:0:0:
250,70,12803,2,0,P|281:99|321:115,1,86.3999973632813,2|0,0:0|0:0,0:0:0:0:
404,59,13249,2,0,P|343:58|321:115,1,129.599996044922,2|0,0:0|0:0,0:0:0:0:
318,199,13843,6,0,L|318:294,2,86.3999973632813,2|2|2,0:1|0:0|0:0,0:0:0:0:
318,199,14734,6,0,P|359:188|402:195,1,86.3999973632813,10|0,0:1|0:0,0:0:0:0:
486,199,15179,2,0,P|443:205|401:195,1,86.3999973632813,2|0,0:0|0:0,0:0:0:0:
373,96,15625,2,0,P|419:135|403:194,1,129.599996044922,2|0,0:0|0:0,0:0:0:0:
318,199,16219,6,0,L|225:199,2,86.3999973632813,2|2|2,0:1|0:0|0:0,0:0:0:0:
318,199,17110,6,0,P|324:156|314:113,1,86.3999973632813,2|0,0:1|0:0,0:0:0:0:
239,75,17556,2,0,P|273:101|314:114,1,86.3999973632813,2|0,0:0|0:0,0:0:0:0:
397,58,18001,2,0,P|336:57|314:114,1,129.599996044922,2|0,0:0|0:0,0:0:0:0:
318,199,18595,6,2,B|320:233|303:259|303:259|297:305|322:327,2,129.599996044922,2|2|2,0:1|0:0|0:0,1:2:0:0:
110,214,19486,6,0,P|167:206|225:205,1,115.2,14|0,0:1|0:0,0:0:0:0:
303,184,19932,1,10,0:3:0:0:
245,126,20080,2,0,P|241:97|238:53,1,57.6,10|0,0:0|0:0,0:0:0:0:
167,36,20377,1,2,0:0:0:0:
167,36,20526,2,0,P|109:43|52:45,1,115.2,2|0,0:0|0:0,0:0:0:0:
0,139,20972,6,0,P|58:132|115:130,2,115.2,10|10|2,0:3|0:0|0:0,0:0:0:0:
106,244,21863,6,0,P|113:186|115:129,1,115.2,10|0,0:3|0:0,0:0:0:0:
160,63,22308,1,10,0:3:0:0:
236,94,22457,2,0,P|270:92|313:88,1,57.6,8|0,0:0|0:0,0:0:0:0:
350,19,22754,2,0,P|343:77|338:199,1,172.8,2|0,0:0|0:0,0:0:0:0:
434,264,23348,6,0,P|440:206|443:149,2,115.2,10|10|2,0:3|0:0|0:0,0:0:0:0:
319,273,24239,6,0,P|377:266|434:264,1,115.2,10|0,0:3|0:0,0:0:0:0:
494,322,24684,1,2,0:3:0:0:
421,363,24833,2,0,P|384:359|339:349,1,57.6,8|0,0:0|0:0,0:0:0:0:
263,285,25130,2,0,P|347:269|434:264,1,172.8,2|0,0:0|0:0,0:0:0:0:
512,188,25724,6,0,P|459:183|380:168,1,115.2,10|10,0:3|0:0,0:0:0:0:
398,172,26318,2,0,P|365:166|335:163,1,57.6,2|0,0:0|0:0,0:0:0:0:
261,188,26615,6,0,P|204:193|148:203,1,115.2,10|0,0:3|0:0,0:0:0:0:
68,226,27061,1,10,0:3:0:0:
128,284,27209,2,0,P|157:287|195:293,1,57.6,8|0,0:0|0:0,0:0:0:0:
266,326,27506,1,2,0:0:0:0:
266,326,27655,2,0,P|322:316|380:311,1,115.2,2|0,0:0|0:0,0:0:0:0:
454,267,28100,6,0,P|457:237|460:195,1,57.6,10|0,0:3|0:0,0:0:0:0:
423,140,28397,1,10,0:0:0:0:
423,140,28546,2,0,P|420:111|417:82,1,57.6,2|2,0:0|0:0,0:0:0:0:
209,31,28991,6,0,P|151:29|94:21,1,115.2,14|0,0:1|0:0,0:0:0:0:
22,61,29437,1,10,0:3:0:0:
83,115,29585,2,0,P|106:113|139:112,1,57.6,10|0,0:0|0:0,0:0:0:0:
217,155,29882,1,2,0:0:0:0:
217,155,30031,2,0,P|210:212|207:269,1,115.2,2|0,0:0|0:0,0:0:0:0:
125,339,30477,6,0,P|122:281|115:224,2,115.2,10|10|2,0:3|0:0|0:0,0:0:0:0:
0,234,31368,6,0,P|58:227|115:225,1,115.2,10|0,0:3|0:0,0:0:0:0:
195,237,31813,1,10,0:3:0:0:
262,189,31962,2,0,P|266:158|270:123,1,57.6,8|0,0:0|0:0,0:0:0:0:
342,96,32259,2,0,P|255:93|169:83,1,172.8,2|0,0:0|0:0,0:0:0:0:
76,142,32853,6,0,P|72:84|67:27,2,115.2,10|10|2,0:3|0:0|0:0,0:0:0:0:
67,257,33744,6,0,P|69:199|76:142,1,115.2,10|0,0:3|0:0,0:0:0:0:
152,112,34189,1,10,0:3:0:0:
232,131,34338,2,0,P|268:129|317:122,1,57.6,8|0,0:0|0:0,0:0:0:0:
324,52,34635,2,0,P|240:36|153:30,1,172.8,2|0,0:0|0:0,0:0:0:0:
39,46,35229,6,0,P|96:40|152:30,1,115.2,10|10,0:3|0:0,0:0:0:0:
153,30,35823,2,0,P|183:30|217:33,1,57.6,2|0,0:0|0:0,0:0:0:0:
324,52,36120,6,0,P|381:47|437:37,1,115.2,10|0,0:3|0:0,0:0:0:0:
510,76,36566,1,10,0:3:0:0:
474,149,36714,2,0,P|473:175|472:214,1,57.6,8|0,0:0|0:0,0:0:0:0:
418,269,37011,1,2,0:0:0:0:
418,269,37160,2,0,P|361:258|303:253,1,115.2,2|0,0:0|0:0,0:0:0:0:
225,303,37605,6,0,P|195:297|141:292,1,57.6,10|0,0:3|0:0,0:0:0:0:
90,327,37902,1,8,0:0:0:0:
90,327,38051,1,8,0:0:0:0:
100,243,38199,5,10,0:0:0:0:
168,293,38348,1,8,0:0:0:0:
149,159,38496,6,0,P|86:179|101:243,1,144,6|2,0:0|0:0,0:0:0:0:
221,165,38942,2,0,L|150:159,1,72,2|8,0:0|0:0,0:0:0:0:
168,293,39239,1,2,0:0:0:0:
246,258,39387,2,0,P|276:200|221:165,1,144,2|0,0:0|0:0,0:0:0:0:
100,242,39833,5,8,0:0:0:0:
100,242,39981,2,0,L|29:236,1,72,2|0,0:0|0:0,0:0:0:0:
148,159,40278,2,0,L|219:165,1,72,10|0,0:0|0:0,0:0:0:0:
309,194,40576,1,10,0:3:0:0:
387,143,40724,1,2,0:0:0:0:
399,276,40873,6,0,B|383:249|383:249|416:201|387:143,1,144,2|2,0:0|0:0,0:0:0:0:
284,74,41318,2,0,P|320:72|355:62,1,72,2|8,0:0|0:0,0:0:0:0:
441,26,41615,1,2,0:0:0:0:
470,116,41764,2,0,P|424:63|355:62,1,144,2|0,0:0|0:0,0:0:0:0:
379,212,42209,5,8,0:0:0:0:
379,212,42358,2,0,P|389:175|386:139,1,72,2|0,0:0|0:0,0:0:0:0:
358,65,42655,1,10,0:0:0:0:
358,65,42803,1,8,0:3:0:0:
269,72,42952,2,0,P|248:68|208:60,2,48,2|0|0,0:0|0:0|0:0,0:0:0:0:
288,118,43249,6,0,P|222:110|124:94,1,144,10|2,0:3|0:0,0:0:0:0:
41,52,43694,2,0,P|50:86|48:122,1,72,2|8,0:0|0:0,0:0:0:0:
17,211,43991,1,2,0:0:0:0:
110,192,44140,2,0,P|155:189|262:194,1,144,2|0,0:0|0:0,0:0:0:0:
184,302,44585,5,8,0:0:0:0:
184,302,44734,2,0,L|181:222,1,72,2|0,0:0|0:0,0:0:0:0:
279,288,45031,2,0,L|282:208,1,72,10|0,0:0|0:0,0:0:0:0:
354,157,45328,1,10,0:3:0:0:
444,181,45477,1,2,0:0:0:0:
417,50,45625,6,0,B|371:67|371:67|340:108|354:156,1,144,10|0,0:3|0:0,0:0:0:0:
273,62,46071,2,0,P|221:55|189:55,2,72,2|10|0,0:0|0:0|0:0,0:0:0:0:
417,50,46516,6,0,P|452:48|488:42,2,72,2|0|0,0:0|0:0|0:0,0:0:0:0:
358,160,46962,1,10,0:0:0:0:
358,160,47110,2,0,P|322:161|286:167,1,72,2|0,0:0|0:0,0:0:0:0:
192,245,47407,1,10,0:0:0:0:
192,245,47556,1,8,0:3:0:0:
199,159,47704,5,2,0:0:0:0:
280,253,47853,1,2,0:3:0:0:
417,268,48001,6,0,P|350:242|280:253,1,144,6|2,0:0|0:0,0:0:0:0:
413,340,48447,2,0,L|418:254,1,72,2|8,0:0|0:0,0:0:0:0:
424,173,48744,1,2,0:0:0:0:
500,120,48892,2,0,P|429:130|363:104,1,144,2|0,0:0|0:0,0:0:0:0:
249,40,49338,5,8,0:0:0:0:
249,40,49486,2,0,P|283:41|320:34,1,72,2|0,0:0|0:0,0:0:0:0:
284,128,49783,2,0,P|248:121|213:122,1,72,10|0,0:0|0:0,0:0:0:0:
121,147,50080,1,10,0:3:0:0:
29,138,50229,1,2,0:0:0:0:
75,270,50377,6,0,B|111:245|111:245|135:193|121:148,1,144,10|2,0:3|0:0,0:0:0:0:
4,276,50823,2,0,L|75:269,1,72,2|8,0:0|0:0,0:0:0:0:
132,343,51120,1,2,0:0:0:0:
204,285,51269,2,0,P|143:251|75:269,1,144,2|0,0:0|0:0,0:0:0:0:
283,333,51714,5,8,0:0:0:0:
283,333,51863,2,0,P|296:299|295:263,1,72,2|0,0:0|0:0,0:0:0:0:
204,285,52160,2,0,P|203:249|216:215,1,72,10|0,0:0|0:0,0:0:0:0:
339,95,52457,5,10,0:3:0:0:
253,129,52605,1,2,0:0:0:0:
253,129,52679,1,2,0:0:0:0:
253,129,52754,2,0,L|172:119,1,72,10|0,0:3|0:0,0:0:0:0:
330,191,53051,5,2,0:0:0:0:
346,102,53199,1,2,0:0:0:0:
346,102,53274,1,2,0:0:0:0:
346,102,53348,2,0,L|395:36,1,72,10|0,0:2|0:0,0:0:0:0:
253,129,53645,5,2,0:0:0:0:
338,199,53793,1,2,0:0:0:0:
338,199,53868,1,2,0:0:0:0:
338,199,53942,2,0,L|370:274,1,72,2|8,0:3|0:0,0:0:0:0:
416,161,54239,5,2,0:0:0:0:
376,284,54387,2,0,P|373:322|372:369,2,72,10|8|8,0:3|0:0|0:3,0:0:0:0:
247,185,54833,5,10,0:3:0:0:
247,185,54981,1,10,0:3:0:0:
256,344,55130,5,14,0:0:0:0:
251,264,55278,1,8,0:3:0:0:
247,185,55427,1,8,0:3:0:0:
242,355,55576,5,6,0:0:0:0:
237,275,55724,1,8,0:3:0:0:
233,196,55873,1,8,0:3:0:0:
228,366,56021,5,6,0:0:0:0:
223,286,56170,1,8,0:3:0:0:
219,207,56318,1,8,0:3:0:0:
144,282,56467,5,12,0:3:0:0:
132,295,56541,1,8,0:3:0:0:
120,308,56615,2,0,P|96:303|75:299,3,36,8|8|8|8,0:3|0:3|0:3|0:3,0:0:0:0:
7,339,56912,6,2,P|5:303|1:252,1,72,6|2,0:1|0:0,1:2:0:0:
7,339,57506,6,0,P|12:256|21:173,1,167.040005097656,6|2,0:0|0:0,0:0:0:0:
171,110,57952,2,0,P|129:111|88:109,2,83.5200025488282,8|8|0,0:3|0:0|0:0,0:0:0:0:
347,59,58397,5,2,0:0:0:0:
250,133,58546,2,0,P|210:119|169:109,1,83.5200025488282,8|0,0:0|0:0,0:0:0:0:
198,249,58843,1,8,0:3:0:0:
198,249,58991,2,0,P|237:235|278:225,1,83.5200025488282,8|0,0:3|0:0,0:0:0:0:
359,75,59288,6,0,P|351:116|345:157,1,83.5200025488282,10|8,0:0|0:3,0:0:0:0:
246,49,59585,2,0,P|249:91|250:133,1,83.5200025488282,2|8,0:0|0:0,0:0:0:0:
83,116,59882,6,0,P|166:122|249:132,1,167.040005097656,10|2,0:3|0:0,0:0:0:0:
279,264,60328,1,10,0:3:0:0:
279,264,60477,2,0,P|237:253|196:248,1,83.5200025488282,8|0,0:0|0:0,0:0:0:0:
107,347,60774,5,2,0:0:0:0:
246,340,60922,2,0,P|264:302|278:263,1,83.5200025488282,10|0,0:0|0:0,0:0:0:0:
252,135,61219,1,8,0:3:0:0:
252,135,61368,2,0,P|244:93|240:52,1,83.5200025488282,8|0,0:3|0:0,0:0:0:0:
393,174,61665,6,0,P|401:132|405:91,1,83.5200025488282,10|8,0:0|0:3,0:0:0:0:
259,155,61962,1,2,0:0:0:0:
244,32,62110,1,8,0:0:0:0:
123,193,62259,6,0,P|114:121|104:16,1,167.040005097656,6|2,0:0|0:0,0:0:0:0:
12,138,62704,1,10,0:3:0:0:
12,138,62853,2,0,P|51:123|95:114,1,83.5200025488282,8|0,0:0|0:0,0:0:0:0:
204,239,63150,5,2,0:0:0:0:
204,239,63298,2,0,P|129:228|27:222,1,167.040005097656,8|8,0:0|0:3,0:0:0:0:
180,335,63744,6,0,P|221:328|308:326,1,125.280003823242,10|0,0:3|0:0,0:0:0:0:
308,329,64041,2,0,L|315:225,1,83.5200025488282,10|8,0:2|0:3,0:0:0:0:
191,148,64338,2,0,L|185:64,1,83.5200025488282,2|8,0:0|0:3,0:0:0:0:
185,64,64561,1,8,0:3:0:0:
185,64,64635,5,14,0:0:0:0:
271,30,64783,1,8,0:3:0:0:
359,50,64932,1,8,0:3:0:0:
207,87,65080,5,14,0:0:0:0:
290,123,65229,1,8,0:3:0:0:
339,200,65377,1,8,0:3:0:0:
205,118,65526,5,14,0:2:0:0:
239,202,65675,1,8,0:3:0:0:
218,291,65823,1,8,0:3:0:0:
64,220,65972,6,0,P|104:210|144:221,2,83.5200025488282,12|2|8,0:0|0:0|0:3,0:0:0:0:
71,227,66343,1,8,0:3:0:0:
71,227,66417,6,0,L|63:99,1,111.360003398438,10|8,0:0|0:3,0:0:0:0:
104,40,66714,2,0,P|77:34|50:28,2,55.6800016992188,10|8|8,0:3|0:3|0:3,0:0:0:0:
215,56,67011,6,0,P|134:36|49:28,1,167.040005097656,6|2,0:0|0:0,0:0:0:0:
186,153,67457,2,0,P|227:147|269:145,2,83.5200025488282,10|8|0,0:3|0:0|0:0,0:0:0:0:
71,227,67902,5,2,0:0:0:0:
134,78,68051,2,0,P|173:64|214:55,1,83.5200025488282,10|0,0:0|0:0,0:0:0:0:
355,137,68348,1,8,0:3:0:0:
355,137,68496,2,0,P|395:142|437:143,1,83.5200025488282,8|0,0:3|0:0,0:0:0:0:
324,255,68793,6,0,P|363:242|404:233,1,83.5200025488282,10|8,0:0|0:3,0:0:0:0:
474,349,69090,2,0,P|434:336|393:327,1,83.5200025488282,2|8,0:0|0:0,0:0:0:0:
227,344,69387,6,0,P|310:337|393:327,1,167.040005097656,10|2,0:3|0:0,0:0:0:0:
239,256,69833,1,10,0:3:0:0:
239,256,69981,2,0,P|226:216|217:175,1,83.5200025488282,8|0,0:0|0:0,0:0:0:0:
317,102,70278,5,2,0:0:0:0:
405,247,70427,2,0,P|418:207|427:166,1,83.5200025488282,10|2,0:2|0:3,0:0:0:0:
221,179,70724,1,8,0:3:0:0:
221,179,70873,2,0,P|210:137|203:97,1,83.5200025488282,8|0,0:3|0:0,0:0:0:0:
427,166,71170,2,0,P|435:123|439:82,1,83.5200025488282,8|8,0:0|0:3,0:0:0:0:
316,30,71467,5,2,0:3:0:0:
203,97,71615,1,8,0:0:0:0:
37,79,71764,6,0,P|120:86|203:97,1,167.040005097656,4|0,0:0|0:0,0:0:0:0:
114,201,72209,1,10,0:3:0:0:
114,201,72358,2,0,P|70:191|23:183,1,83.5200025488282,8|0,0:0|0:0,0:0:0:0:
0,326,72655,5,2,0:0:0:0:
0,326,72803,2,0,P|82:315|166:307,1,167.040005097656,8|8,0:0|0:3,0:0:0:0:
324,232,73249,6,0,P|261:225|199:217,1,125.280003823242,10|0,0:3|0:0,0:0:0:0:
203,221,73546,2,0,P|201:160|197:113,1,83.5200025488282,10|8,0:2|0:3,0:0:0:0:
348,142,73843,2,0,P|357:81|367:35,1,83.5200025488282,2|8,0:0|0:3,0:0:0:0:
361,59,74066,1,8,0:3:0:0:
361,59,74140,6,0,L|451:51,1,83.5200025488282,6|8,0:0|0:3,0:0:0:0:
324,232,74437,1,2,0:0:0:0:
199,137,74585,2,0,L|109:129,1,83.5200025488282,10|0,0:3|0:0,0:0:0:0:
23,306,74882,5,8,0:3:0:0:
23,306,74957,1,8,0:3:0:0:
23,306,75031,2,0,L|17:187,1,93.5999957153322,14|8,0:0|0:3,0:0:0:0:
18,212,75477,1,8,0:3:0:0:
119,133,75625,5,2,0:3:0:0:
119,133,75774,1,10,0:3:0:0:
113,216,75922,6,0,L|120:107,1,83.5200025488282,10|8,0:0|0:0,0:0:0:0:
182,59,76219,2,0,P|216:36|256:23,1,83.5200025488282,10|8,0:0|0:0,0:0:0:0:
270,119,76516,6,0,P|307:110|352:107,1,72,10|2,0:1|0:0,0:0:0:0:
478,124,76813,5,2,3:3:0:0:
404,155,76962,1,2,3:3:0:0:
393,234,77110,1,2,3:3:0:0:
455,283,77259,1,2,3:3:0:0:
482,128,77407,5,6,0:0:0:0:
482,128,77556,2,0,P|484:88|488:35,1,72,2|0,0:0|0:0,0:0:0:0:
332,98,77853,6,0,P|332:74|331:52,1,36,8|8,0:3|0:3,0:0:0:0:
336,102,78001,2,0,P|271:92|205:86,1,125.280003823242,12|8,0:0|0:3,0:0:0:0:
136,115,78298,6,0,L|56:112,2,55.6800016992188,10|8|8,0:0|0:0|0:0,0:0:0:0:
239,183,78595,2,0,L|319:186,2,55.6800016992188,10|8|8,0:3|0:3|0:3,0:0:0:0:
129,206,78892,6,0,P|220:192|312:183,1,167.040005097656,6|2,0:0|0:0,0:0:0:0:
415,277,79338,1,10,0:3:0:0:
498,151,79486,2,0,P|507:110|513:69,1,83.5200025488282,6|0,0:0|0:0,0:0:0:0:
336,22,79783,5,2,0:0:0:0:
287,164,79932,2,0,P|277:123|271:82,1,83.5200025488282,10|0,0:0|0:0,0:0:0:0:
379,191,80229,1,8,0:3:0:0:
379,191,80377,2,0,P|389:150|395:109,1,83.5200025488282,8|0,0:3|0:0,0:0:0:0:
506,296,80675,6,0,P|468:277|429:263,1,83.5200025488282,10|0,0:0|0:0,0:0:0:0:
259,313,80972,1,2,0:0:0:0:
382,343,81120,1,8,0:0:0:0:
267,219,81269,6,0,P|259:146|251:41,1,167.040005097656,6|2,0:0|0:0,0:0:0:0:
399,113,81714,1,8,0:3:0:0:
399,113,81863,2,0,P|435:91|474:74,1,83.5200025488282,8|0,0:0|0:0,0:0:0:0:
458,241,82160,5,2,0:0:0:0:
458,241,82308,2,0,P|466:157|473:74,1,167.040005097656,8|8,0:0|0:3,0:0:0:0:
322,205,82754,6,0,P|312:143|301:75,1,125.280003823242,10|0,0:3|0:0,0:0:0:0:
306,85,83051,2,0,L|209:77,1,83.5200025488282,10|8,0:2|0:3,0:0:0:0:
46,42,83348,2,0,L|128:35,1,83.5200025488282,2|8,0:0|0:3,0:0:0:0:
128,35,83571,1,8,0:3:0:0:
128,35,83645,5,14,0:0:0:0:
91,122,83793,1,8,0:3:0:0:
121,207,83942,1,8,0:3:0:0:
278,132,84090,5,14,0:0:0:0:
187,143,84239,1,8,0:3:0:0:
125,211,84387,1,8,0:3:0:0:
274,309,84536,5,14,0:2:0:0:
220,234,84684,1,8,0:3:0:0:
129,215,84833,1,8,0:3:0:0:
137,375,84981,6,0,P|155:338|156:297,2,83.5200025488282,12|2|8,0:0|0:0|0:3,0:0:0:0:
133,379,85353,1,8,0:3:0:0:
129,383,85427,6,0,L|-7:369,1,111.360003398438,10|8,0:0|0:3,0:0:0:0:
21,269,85724,2,0,P|15:244|5:210,2,55.6800016992188,10|8|8,0:3|0:3|0:3,0:0:0:0:
129,215,86021,6,0,P|206:197|296:197,1,167.040005097656,6|2,0:0|0:0,0:0:0:0:
381,304,86467,2,0,P|340:297|290:291,2,83.5200025488282,10|8|0,0:3|0:0|0:0,0:0:0:0:
512,364,86912,5,2,0:0:0:0:
436,232,87061,2,0,P|429:191|423:150,1,83.5200025488282,10|0,0:0|0:0,0:0:0:0:
297,201,87358,1,8,0:3:0:0:
297,201,87506,2,0,P|303:160|309:119,1,83.5200025488282,8|0,0:3|0:0,0:0:0:0:
467,42,87803,6,0,P|427:55|386:64,1,83.5200025488282,10|8,0:0|0:3,0:0:0:0:
228,97,88100,2,0,P|268:105|308:118,1,83.5200025488282,2|8,0:0|0:0,0:0:0:0:
246,263,88397,6,0,P|236:180|228:96,1,167.040005097656,10|2,0:3|0:0,0:0:0:0:
127,224,88843,1,10,0:3:0:0:
131,228,88991,2,0,P|140:182|144:141,1,83.5200025488282,8|0,0:0|0:0,0:0:0:0:
68,84,89288,5,2,0:0:0:0:
21,233,89437,2,0,P|8:193|-1:152,1,83.5200025488282,10|2,0:2|0:3,0:0:0:0:
131,228,89734,1,8,0:3:0:0:
135,232,89882,2,0,P|144:186|148:145,1,83.5200025488282,8|0,0:3|0:0,0:0:0:0:
229,288,90179,2,0,P|255:249|281:217,1,83.5200025488282,8|8,0:0|0:3,0:0:0:0:
346,319,90477,5,2,0:3:0:0:
346,319,90625,1,10,0:0:0:0:
277,220,90774,2,0,L|270:124,1,83.5200025488282,4|0,0:0|0:0,0:0:0:0:
350,323,91071,5,2,0:0:0:0:
350,323,91219,1,10,0:3:0:0:
409,224,91368,2,0,L|416:128,1,83.5200025488282,10|0,0:0|0:0,0:0:0:0:
354,327,91665,5,2,0:0:0:0:
354,327,91813,1,10,0:0:0:0:
281,224,91962,2,0,L|274:128,1,83.5200025488282,2|8,0:0|0:3,0:0:0:0:
358,331,92259,5,2,0:3:0:0:
358,331,92407,1,0,0:0:0:0:
413,228,92556,2,0,L|420:132,1,83.5200025488282,10|8,0:0|0:3,0:0:0:0:
309,37,92853,6,0,P|268:41|228:30,1,83.5200025488282,2|8,0:0|0:3,0:0:0:0:
224,34,93076,1,8,0:3:0:0:
220,38,93150,6,0,P|180:26|139:30,2,83.5200025488282,6|8|8,0:0|0:3|0:3,0:0:0:0:
274,140,93595,2,0,P|314:152|355:148,2,83.5200025488282,10|0|8,0:3|0:0|0:3,0:0:0:0:
270,144,93967,1,8,0:3:0:0:
266,148,94041,6,0,P|226:136|167:147,2,93.5999957153322,12|8|0,0:0|0:3|0:0,0:0:0:0:
198,290,94486,6,0,B|164:261|164:261|143:215|176:142,1,167.040005097656,10|8,0:3|0:3,0:0:0:0:
175,142,94858,1,8,0:3:0:0:
175,142,94932,5,10,0:0:0:0:
264,63,95080,1,10,0:0:0:0:
266,148,95229,5,10,0:2:0:0:
181,63,95377,1,10,0:2:0:0:
183,150,95526,5,6,0:1:0:0:
30,67,95823,5,2,0:0:0:0:
30,67,95972,2,0,L|186:63,1,151.199995385742,2|6,0:0|2:2,0:0:0:0:
256,192,96491,12,2,97902,0:2:0:0:
49,129,104140,6,0,L|43:41,2,72,2|2|2,0:1|0:0|0:0,0:0:0:0:
48,129,105031,6,0,P|99:123|149:121,1,100.799996923828,14|0,0:1|0:0,0:0:0:0:
233,153,105477,2,0,P|234:124|239:87,1,50.3999984619141,10|8,0:3|0:0,0:0:0:0:
237,103,105922,2,0,P|330:104|406:97,1,151.199995385742,2|0,0:1|0:0,0:0:0:0:
478,59,106516,6,0,P|471:95|466:163,2,100.799996923828,10|10|2,0:3|0:0|0:1,0:0:0:0:
478,59,107407,6,0,P|424:55|360:41,1,100.799996923828,10|0,0:3|0:0,0:0:0:0:
287,45,107853,2,0,P|259:48|216:58,1,50.3999984619141,10|8,0:3|0:0,0:0:0:0:
237,52,108298,2,0,B|232:212,1,151.199995385742,2|0,0:1|0:0,0:0:0:0:
202,289,108892,5,10,0:3:0:0:
155,155,109189,1,10,0:0:0:0:
63,263,109486,1,2,0:1:0:0:
232,203,109783,6,0,P|279:199|346:194,1,100.799996923828,10|0,0:1|0:0,0:0:0:0:
378,282,110229,2,0,P|353:279|311:277,1,50.3999984619141,10|8,0:3|0:0,0:0:0:0:
327,277,110675,2,0,P|259:281|172:294,1,151.199995385742,2|0,0:1|0:0,0:0:0:0:
89,352,111269,6,0,P|91:287|89:232,2,100.799996923828,10|10|2,0:3|0:0|0:1,0:0:0:0:
89,352,112160,6,0,P|138:343|188:338,1,100.799996923828,10|0,0:3|0:0,0:0:0:0:
277,355,112605,2,0,P|304:353|343:348,1,50.3999984619141,10|8,0:3|0:0,0:0:0:0:
327,350,113051,2,0,L|332:196,1,151.199995385742,2|0,0:0|0:0,0:0:0:0:
334,118,113645,5,10,0:3:0:0:
334,118,113793,1,8,0:3:0:0:
262,156,113942,5,10,2:2:0:0:
332,199,114090,1,8,0:0:0:0:
405,160,114239,1,10,0:0:0:0:
407,77,114387,1,8,0:0:0:0:
475,203,114536,6,0,P|428:195|376:195,1,97.1999970336915,4|0,0:0|0:0,0:0:0:0:
382,198,114833,2,0,P|379:236|377:275,1,64.799998022461,2|0,0:0|0:0,0:0:0:0:
298,316,115130,2,0,P|294:252|282:169,1,129.599996044922,10|2,0:0|0:0,0:0:0:0:
197,210,115576,2,0,P|199:177|201:145,1,64.799998022461,10|0,0:3|0:0,0:0:0:0:
201,145,116021,6,0,P|198:112|196:80,1,64.799998022461,10|0,0:3|0:0,0:0:0:0:
297,102,116318,2,0,P|299:69|301:37,1,64.799998022461,10|8,0:0|0:3,0:0:0:0:
399,84,116615,1,2,0:0:0:0:
399,84,116764,1,8,0:0:0:0:
485,51,116912,6,0,P|427:32|401:94,1,129.599996044922,8|2,0:3|0:0,0:0:0:0:
459,199,117358,2,0,P|461:167|463:135,1,64.799998022461,2|8,0:0|0:0,0:0:0:0:
463,134,117803,5,2,0:0:0:0:
398,83,117952,2,0,P|364:79|325:72,1,64.799998022461,8|0,0:3|0:0,0:0:0:0:
334,74,118397,6,0,P|330:108|323:147,1,64.799998022461,10|0,0:3|0:0,0:0:0:0:
238,183,118694,2,0,P|232:151|228:118,1,64.799998022461,10|8,0:0|0:3,0:0:0:0:
179,34,118991,1,2,0:0:0:0:
179,34,119140,1,8,0:0:0:0:
99,127,119288,6,0,P|151:121|243:119,1,129.599996044922,10|2,0:3|0:0,0:0:0:0:
274,205,119734,2,0,P|241:203|209:202,1,64.799998022461,2|8,0:0|0:0,0:0:0:0:
209,202,120179,6,0,P|211:235|212:269,1,64.799998022461,2|8,0:0|0:3,0:0:0:0:
152,336,120477,2,0,B|80:346|90:314|23:325,2,129.599996044922,2|8|8,0:0|0:3|0:0,0:0:0:0:
211,266,121219,1,8,0:3:0:0:
121,250,121368,1,2,0:0:0:0:
121,250,121516,1,8,0:0:0:0:
211,266,121665,6,0,P|264:261|352:259,1,129.599996044922,10|2,0:3|0:0,0:0:0:0:
425,305,122110,2,0,P|428:276|432:233,1,64.799998022461,2|8,0:0|0:0,0:0:0:0:
435,244,122556,5,2,0:0:0:0:
341,259,122704,2,0,P|338:230|334:187,1,64.799998022461,10|0,0:3|0:0,0:0:0:0:
398,153,123001,6,0,B|381:186|335:195|335:195|291:151|325:85,1,187.199991430664,12|8,0:0|0:3,0:0:0:0:
410,55,123447,5,10,0:0:0:0:
410,55,123595,1,10,0:0:0:0:
489,115,123744,5,8,0:3:0:0:
489,115,123892,1,8,0:3:0:0:
497,18,124041,6,0,P|491:62|488:121,1,97.1999970336915,4|0,0:0|0:0,0:0:0:0:
492,118,124338,2,0,P|494:150|495:182,1,64.799998022461,2|0,0:0|0:0,0:0:0:0:
439,262,124635,2,0,P|383:248|286:237,1,129.599996044922,10|2,0:0|0:0,0:0:0:0:
267,330,125080,2,0,P|299:327|331:326,1,64.799998022461,10|0,0:3|0:0,0:0:0:0:
332,326,125526,6,0,P|363:331|395:336,1,64.799998022461,10|0,0:3|0:0,0:0:0:0:
494,301,125823,2,0,P|498:268|504:237,1,64.799998022461,10|8,0:0|0:3,0:0:0:0:
450,154,126120,1,2,0:0:0:0:
450,154,126269,1,8,0:0:0:0:
363,186,126417,6,0,P|421:205|447:143,1,129.599996044922,8|2,0:3|0:0,0:0:0:0:
375,80,126863,2,0,P|339:76|293:75,1,64.799998022461,2|8,0:0|0:0,0:0:0:0:
310,74,127308,5,2,0:0:0:0:
241,134,127457,2,0,P|208:132|176:128,1,64.799998022461,8|0,0:3|0:0,0:0:0:0:
176,128,127902,6,0,P|179:160|181:192,1,64.799998022461,10|0,0:3|0:0,0:0:0:0:
86,234,128199,2,0,P|82:201|80:169,1,64.799998022461,10|8,0:0|0:3,0:0:0:0:
81,69,128496,1,2,0:0:0:0:
81,69,128645,1,8,0:0:0:0:
176,128,128793,6,0,P|239:120|327:115,1,129.599996044922,10|2,0:3|0:0,0:0:0:0:
344,204,129239,2,0,P|317:202|279:202,1,64.799998022461,2|8,0:0|0:0,0:0:0:0:
279,201,129684,6,0,P|285:241|286:268,1,64.799998022461,2|8,0:0|0:3,0:0:0:0:
344,335,129981,2,0,B|416:345|406:313|473:324,2,129.599996044922,2|8|8,0:0|0:3|0:0,0:0:0:0:
285,265,130724,1,8,0:3:0:0:
375,249,130873,1,2,0:0:0:0:
375,249,131021,1,8,0:0:0:0:
285,265,131170,6,0,P|232:260|144:258,1,129.599996044922,10|2,0:3|0:0,0:0:0:0:
131,358,131615,2,0,P|163:353|195:352,1,64.799998022461,2|8,0:0|0:0,0:0:0:0:
195,352,132061,5,2,0:0:0:0:
155,257,132209,2,0,P|122:252|90:251,1,64.799998022461,10|0,0:3|0:0,0:0:0:0:
25,209,132506,6,0,B|53:249|91:252|91:252|116:205|104:149,1,187.199991430664,12|8,0:0|0:3,0:0:0:0:
12,111,132952,5,10,0:0:0:0:
12,111,133100,1,10,0:0:0:0:
90,50,133249,5,10,0:3:0:0:
90,50,133397,1,10,0:3:0:0:
181,87,133546,6,0,P|227:95|284:66,1,100.799996923828,6|0,0:1|0:0,0:0:0:0:
370,61,133991,2,0,P|324:53|267:82,1,100.799996923828,2|0,0:1|0:0,0:0:0:0:
302,177,134437,2,0,P|356:109|276:74,1,201.599993847656,2|2,0:1|0:2,0:0:0:0:
276,74,135328,1,2,0:1:0:0:
155,156,135625,1,2,0:0:0:0:
155,156,135774,1,2,0:0:0:0:
194,244,135922,6,0,P|186:194|155:156,1,100.799996923828,2|0,0:1|0:0,0:0:0:0:
99,233,136368,2,0,P|115:187|154:156,1,100.799996923828,2|0,0:1|0:0,0:0:0:0:
193,243,136813,2,0,P|97:233|37:309,1,201.599993847656,2|2,0:1|0:0,0:0:0:0:
37,309,137704,1,2,0:2:0:0:
193,243,138001,1,2,0:1:0:0:
327,344,138298,6,0,P|376:355|425:342,1,100.799996923828,2|0,0:1|0:0,0:0:0:0:
374,259,138744,2,0,P|340:296|327:344,1,100.799996923828,2|0,0:1|0:0,0:0:0:0:
426,342,139189,2,0,B|422:291|374:260|374:260|349:210|384:164,1,201.599993847656,2|2,0:1|0:0,0:0:0:0:
383,165,140080,1,2,0:0:0:0:
484,52,140377,1,2,0:0:0:0:
484,52,140526,1,2,0:0:0:0:
375,45,140675,6,0,L|206:36,1,151.199995385742,2|2,0:1|0:1,0:0:0:0:
398,72,141566,2,0,L|196:61,1,201.599993847656,2|2,0:1|0:0,0:0:0:0:
196,61,142457,1,2,0:1:0:0:
47,31,142754,1,2,0:1:0:0:
47,31,142902,1,2,0:0:0:0:
63,123,143051,6,0,P|94:63|38:32,1,136.799996347046,6|2,0:0|0:0,0:0:0:0:
63,123,143496,2,0,L|155:115,1,68.399998173523,2|8,0:0|0:0,0:0:0:0:
211,78,143793,1,2,0:0:0:0:
261,153,143942,2,0,P|205:127|127:117,1,136.799996347046,2|0,0:0|0:0,0:0:0:0:
95,227,144387,5,8,0:0:0:0:
95,227,144536,2,0,P|131:220|166:221,1,68.399998173523,2|0,0:0|0:0,0:0:0:0:
116,322,144833,2,0,P|81:322|48:315,1,68.399998173523,8|0,0:0|0:0,0:0:0:0:
6,236,145130,1,10,0:3:0:0:
95,227,145278,1,2,0:0:0:0:
63,133,145427,6,0,B|25:148|25:148|-12:193|6:236,1,136.799996347046,10|2,0:3|0:0,0:0:0:0:
115,321,145873,2,0,P|82:314|48:315,1,68.399998173523,2|8,0:0|0:0,0:0:0:0:
95,227,146170,1,2,0:0:0:0:
188,263,146318,2,0,P|234:262|329:249,1,136.799996347046,2|0,0:0|0:0,0:0:0:0:
423,194,146764,5,8,0:0:0:0:
423,194,146912,2,0,P|410:228|411:264,1,68.399998173523,2|0,0:0|0:0,0:0:0:0:
488,310,147209,2,0,P|500:279|501:245,1,68.399998173523,8|0,0:0|0:0,0:0:0:0:
422,101,147506,5,10,0:3:0:0:
342,154,147655,1,2,0:0:0:0:
342,154,147729,1,2,0:0:0:0:
342,154,147803,2,0,L|261:144,1,72,10|0,0:3|0:0,0:0:0:0:
144,34,148100,5,2,0:0:0:0:
242,78,148249,1,2,0:0:0:0:
242,78,148323,1,2,0:0:0:0:
242,78,148397,2,0,L|273:153,1,72,10|0,0:2|0:0,0:0:0:0:
230,292,148694,5,2,0:0:0:0:
227,202,148843,1,2,0:0:0:0:
227,202,148917,1,2,0:0:0:0:
227,202,148991,2,0,L|276:136,1,72,2|8,0:3|0:0,0:0:0:0:
422,101,149288,5,2,0:0:0:0:
362,277,149437,2,0,P|359:235|352:196,2,72,10|8|8,0:3|0:0|0:3,0:0:0:0:
215,331,149882,5,10,0:3:0:0:
215,331,150031,1,10,0:3:0:0:
206,173,150179,5,14,0:0:0:0:
210,252,150328,1,8,0:3:0:0:
215,331,150477,1,8,0:3:0:0:
219,162,150625,5,6,0:0:0:0:
224,242,150774,1,8,0:3:0:0:
228,320,150922,1,8,0:3:0:0:
233,151,151071,5,6,0:0:0:0:
238,231,151219,1,8,0:3:0:0:
242,310,151368,1,8,0:3:0:0:
328,260,151516,5,12,0:3:0:0:
342,250,151590,1,8,0:3:0:0:
359,245,151665,2,0,P|384:242|412:236,3,36,8|8|8|8,0:3|0:3|0:3|0:3,0:0:0:0:
467,187,151962,6,2,P|469:153|473:100,1,72,6|2,0:1|0:0,1:2:0:0:
467,187,152556,6,0,P|463:103|447:19,1,167.040005097656,6|2,0:0|0:0,0:0:0:0:
355,151,153001,2,0,P|361:102|368:62,2,83.5200025488282,8|8|0,0:3|0:0|0:0,0:0:0:0:
393,300,153447,5,2,0:0:0:0:
277,209,153595,2,0,P|235:202|194:197,1,83.5200025488282,8|0,0:0|0:0,0:0:0:0:
284,80,153892,1,8,0:3:0:0:
284,80,154041,2,0,P|325:73|366:68,1,83.5200025488282,8|0,0:3|0:0,0:0:0:0:
468,200,154338,6,0,P|460:159|454:118,1,83.5200025488282,10|8,0:0|0:3,0:0:0:0:
352,150,154635,2,0,P|360:109|366:68,1,83.5200025488282,2|8,0:0|0:0,0:0:0:0:
200,83,154932,6,0,P|284:80|366:68,1,167.040005097656,10|2,0:3|0:0,0:0:0:0:
512,28,155377,1,10,0:3:0:0:
512,28,155526,2,0,P|469:22|429:12,1,83.5200025488282,8|0,0:0|0:0,0:0:0:0:
377,146,155823,5,2,0:0:0:0:
503,111,155972,2,0,P|509:60|512:25,1,83.5200025488282,10|0,0:0|0:0,0:0:0:0:
380,150,156269,1,8,0:3:0:0:
380,150,156417,2,0,P|372:109|366:68,1,83.5200025488282,8|0,0:3|0:0,0:0:0:0:
488,193,156714,6,0,P|496:152|502:111,1,83.5200025488282,10|8,0:0|0:3,0:0:0:0:
371,46,157011,1,2,0:0:0:0:
368,166,157160,1,8,0:0:0:0:
205,65,157308,6,0,P|288:57|371:46,1,167.040005097656,6|2,0:0|0:0,0:0:0:0:
448,184,157754,1,10,0:3:0:0:
448,184,157902,2,0,P|408:172|367:165,1,83.5200025488282,8|0,0:0|0:0,0:0:0:0:
294,277,158199,5,2,0:0:0:0:
294,277,158348,2,0,P|377:273|460:271,1,167.040005097656,8|8,0:0|0:3,0:0:0:0:
367,165,158793,6,0,P|361:123|358:37,1,125.280003823242,10|0,0:3|0:0,0:0:0:0:
361,44,159090,2,0,L|456:30,1,83.5200025488282,10|8,0:2|0:3,0:0:0:0:
453,181,159387,2,0,L|358:167,1,83.5200025488282,2|8,0:0|0:3,0:0:0:0:
370,168,159610,1,8,0:3:0:0:
370,168,159684,5,14,0:0:0:0:
389,266,159833,1,8,0:3:0:0:
331,338,159981,1,8,0:3:0:0:
292,186,160130,5,14,0:0:0:0:
259,280,160278,1,8,0:3:0:0:
173,313,160427,1,8,0:3:0:0:
215,161,160576,5,14,0:2:0:0:
139,226,160724,1,8,0:3:0:0:
48,212,160873,1,8,0:3:0:0:
63,33,161021,6,0,P|70:71|64:119,2,83.5200025488282,12|2|8,0:0|0:0|0:3,0:0:0:0:
70,40,161392,1,8,0:3:0:0:
70,40,161467,6,0,L|202:35,1,111.360003398438,10|8,0:0|0:3,0:0:0:0:
264,81,161764,2,0,P|264:56|270:25,2,55.6800016992188,10|8|8,0:3|0:3|0:3,0:0:0:0:
342,143,162061,6,0,P|273:108|214:161,1,167.040005097656,6|2,0:0|0:0,0:0:0:0:
323,242,162506,2,0,P|364:236|406:234,2,83.5200025488282,10|8|0,0:3|0:0|0:0,0:0:0:0:
205,339,162952,5,2,0:0:0:0:
112,218,163100,2,0,P|77:194|40:175,1,83.5200025488282,10|0,0:0|0:0,0:0:0:0:
218,213,163397,1,8,0:3:0:0:
218,213,163546,2,0,P|249:188|280:159,1,83.5200025488282,8|0,0:3|0:0,0:0:0:0:
162,105,163843,6,0,P|151:64|145:23,1,83.5200025488282,10|8,0:0|0:3,0:0:0:0:
281,158,164140,2,0,P|291:117|297:76,1,83.5200025488282,2|8,0:0|0:0,0:0:0:0:
445,184,164437,6,0,P|363:169|280:157,1,167.040005097656,10|2,0:3|0:0,0:0:0:0:
402,287,164882,1,10,0:3:0:0:
402,287,165031,2,0,P|362:272|323:261,1,83.5200025488282,8|0,0:0|0:0,0:0:0:0:
190,260,165328,5,2,0:0:0:0:
309,343,165477,2,0,P|317:301|322:260,1,83.5200025488282,10|2,0:2|0:3,0:0:0:0:
203,342,165774,1,8,0:3:0:0:
203,342,165922,2,0,P|194:300|189:259,1,83.5200025488282,8|0,0:3|0:0,0:0:0:0:
313,347,166219,2,0,P|321:305|326:264,1,83.5200025488282,8|8,0:0|0:3,0:0:0:0:
261,146,166516,5,2,0:3:0:0:
189,260,166665,1,8,0:0:0:0:
48,209,166813,6,0,P|129:205|189:260,1,167.040005097656,4|0,0:0|0:0,0:0:0:0:
91,317,167259,1,10,0:3:0:0:
91,317,167407,2,0,P|47:307|0:299,1,83.5200025488282,8|0,0:0|0:0,0:0:0:0:
193,264,167704,5,2,0:0:0:0:
193,264,167853,2,0,P|204:182|212:98,1,167.040005097656,8|8,0:0|0:3,0:0:0:0:
102,193,168298,6,0,P|95:130|87:68,1,125.280003823242,10|0,0:3|0:0,0:0:0:0:
91,72,168595,2,0,P|47:72|-20:67,1,83.5200025488282,10|8,0:2|0:3,0:0:0:0:
219,105,168892,2,0,P|260:102|302:102,1,83.5200025488282,2|8,0:0|0:3,0:0:0:0:
302,102,169115,1,8,0:3:0:0:
302,102,169189,6,0,L|312:12,1,83.5200025488282,6|8,0:0|0:3,0:0:0:0:
333,214,169486,1,2,0:0:0:0:
445,105,169635,2,0,L|455:15,1,83.5200025488282,10|0,0:3|0:0,0:0:0:0:
512,215,169932,5,8,0:3:0:0:
512,215,170006,1,8,0:3:0:0:
512,215,170080,2,0,P|485:204|419:192,1,93.5999957153322,14|8,0:0|0:3,0:0:0:0:
422,192,170526,1,8,0:3:0:0:
336,304,170675,5,2,0:3:0:0:
336,304,170823,1,10,0:3:0:0:
252,306,170972,6,0,L|362:303,1,83.5200025488282,10|8,0:0|0:0,0:0:0:0:
431,228,171269,2,0,P|474:213|516:215,1,83.5200025488282,10|8,0:0|0:0,0:0:0:0:
485,344,171566,6,0,P|450:335|414:331,1,72,10|2,0:1|0:0,0:0:0:0:
285,365,171863,5,2,3:3:0:0:
286,286,172011,1,2,3:3:0:0:
234,226,172160,1,2,3:3:0:0:
155,221,172308,1,2,3:3:0:0:
95,345,172457,5,6,0:0:0:0:
95,345,172605,2,0,L|95:261,1,72,2|0,0:0|0:0,0:0:0:0:
0,172,172902,6,0,P|1:149|-1:126,1,36,8|8,0:3|0:3,0:0:0:0:
4,176,173051,2,0,P|59:188|114:144,1,125.280003823242,12|8,0:0|0:3,0:0:0:0:
146,70,173348,6,0,L|59:65,2,55.6800016992188,10|8|8,0:0|0:0|0:0,0:0:0:0:
255,54,173645,2,0,L|310:50,2,55.6800016992188,10|8|8,0:3|0:3|0:3,0:0:0:0:
340,137,173942,6,0,P|397:80|386:1,1,167.040005097656,6|2,0:0|0:0,0:0:0:0:
255,54,174387,1,10,0:3:0:0:
398,77,174536,2,0,P|448:71|487:72,1,83.5200025488282,6|0,0:0|0:0,0:0:0:0:
395,230,174833,5,2,0:0:0:0:
340,137,174981,2,0,P|367:104|400:75,1,83.5200025488282,10|0,0:0|0:0,0:0:0:0:
496,194,175278,1,8,0:3:0:0:
496,194,175427,2,0,P|495:151|490:110,1,83.5200025488282,8|0,0:3|0:0,0:0:0:0:
340,137,175724,6,0,P|302:118|263:104,1,83.5200025488282,10|0,0:0|0:0,0:0:0:0:
114,141,176021,1,2,0:0:0:0:
184,56,176170,1,8,0:0:0:0:
199,222,176318,6,0,P|191:148|183:43,1,167.040005097656,6|2,0:0|0:0,0:0:0:0:
344,141,176764,1,8,0:3:0:0:
344,141,176912,2,0,P|349:95|356:54,1,83.5200025488282,8|0,0:0|0:0,0:0:0:0:
510,156,177209,5,2,0:0:0:0:
510,156,177358,2,0,P|436:148|331:140,1,167.040005097656,8|8,0:0|0:3,0:0:0:0:
269,253,177803,6,0,P|330:240|392:234,1,125.280003823242,10|0,0:3|0:0,0:0:0:0:
396,238,178100,2,0,L|492:248,1,83.5200025488282,10|8,0:2|0:3,0:0:0:0:
319,344,178397,2,0,L|223:334,1,83.5200025488282,2|8,0:0|0:3,0:0:0:0:
235,335,178620,1,8,0:3:0:0:
235,335,178694,5,14,0:0:0:0:
269,253,178843,1,8,0:3:0:0:
212,180,178991,1,8,0:3:0:0:
362,242,179140,5,14,0:0:0:0:
307,171,179288,1,8,0:3:0:0:
216,184,179437,1,8,0:3:0:0:
344,91,179585,5,14,0:2:0:0:
255,103,179734,1,8,0:3:0:0:
220,188,179882,1,8,0:3:0:0:
362,242,180031,6,0,P|388:205|395:163,2,83.5200025488282,12|2|8,0:0|0:0|0:3,0:0:0:0:
358,246,180402,1,8,0:3:0:0:
354,250,180477,6,0,L|351:370,1,111.360003398438,10|8,0:0|0:3,0:0:0:0:
267,311,180774,2,0,P|239:304|213:294,2,55.6800016992188,10|8|8,0:3|0:3|0:3,0:0:0:0:
167,359,181071,6,0,P|104:352|-4:344,1,167.040005097656,6|2,0:0|0:0,0:0:0:0:
120,247,181516,2,0,P|127:205|132:164,2,83.5200025488282,10|8|0,0:3|0:0|0:0,0:0:0:0:
0,344,181962,5,2,0:0:0:0:
50,177,182110,2,0,P|91:169|132:164,1,83.5200025488282,10|0,0:0|0:0,0:0:0:0:
303,197,182407,1,8,0:3:0:0:
303,197,182556,2,0,P|261:192|220:184,1,83.5200025488282,8|0,0:3|0:0,0:0:0:0:
132,329,182853,6,0,P|124:288|119:246,1,83.5200025488282,10|8,0:0|0:3,0:0:0:0:
290,279,183150,2,0,P|297:238|302:196,1,83.5200025488282,2|8,0:0|0:0,0:0:0:0:
322,362,183447,6,0,P|310:279|302:194,1,167.040005097656,10|2,0:3|0:0,0:0:0:0:
436,274,183892,1,10,0:3:0:0:
436,274,184041,2,0,P|444:233|448:191,1,83.5200025488282,8|0,0:0|0:0,0:0:0:0:
375,75,184338,5,2,0:0:0:0:
302,196,184486,2,0,P|293:155|289:113,1,83.5200025488282,10|2,0:2|0:3,0:0:0:0:
452,195,184783,1,8,0:3:0:0:
452,195,184932,2,0,P|460:154|464:112,1,83.5200025488282,8|0,0:3|0:0,0:0:0:0:
305,200,185229,2,0,P|297:159|293:117,1,83.5200025488282,8|8,0:0|0:3,0:0:0:0:
373,265,185526,5,2,0:3:0:0:
373,265,185675,1,10,0:0:0:0:
242,264,185823,2,0,L|139:246,1,83.5200025488282,4|0,0:0|0:0,0:0:0:0:
80,133,186120,5,2,0:0:0:0:
80,133,186269,1,10,0:3:0:0:
211,132,186417,2,0,L|314:114,1,83.5200025488282,10|0,0:0|0:0,0:0:0:0:
377,269,186714,5,2,0:0:0:0:
377,269,186863,1,10,0:0:0:0:
246,268,187011,2,0,L|143:250,1,83.5200025488282,2|8,0:0|0:3,0:0:0:0:
84,137,187308,5,2,0:3:0:0:
84,137,187457,1,0,0:0:0:0:
215,136,187605,2,0,L|318:118,1,83.5200025488282,10|8,0:0|0:3,0:0:0:0:
488,135,187902,6,0,P|443:127|401:108,1,83.5200025488282,2|8,0:0|0:3,0:0:0:0:
408,112,188125,1,8,0:3:0:0:
408,112,188199,6,0,P|422:72|428:31,2,83.5200025488282,6|8|8,0:0|0:3|0:3,0:0:0:0:
317,202,188645,2,0,P|303:162|297:121,2,83.5200025488282,10|0|8,0:3|0:0|0:3,0:0:0:0:
324,209,189016,1,8,0:3:0:0:
324,209,189090,6,0,P|327:255|320:301,2,93.5999957153322,12|8|0,0:0|0:3|0:0,0:0:0:0:
166,281,189536,6,0,B|211:260|211:260|274:264|319:301,1,167.040005097656,10|8,0:3|0:3,0:0:0:0:
319,301,189907,1,8,0:3:0:0:
319,301,189981,5,10,0:0:0:0:
423,207,190130,1,10,0:0:0:0:
425,306,190278,5,10,0:2:0:0:
324,209,190427,1,10,0:2:0:0:
227,309,190576,6,0,P|187:310|150:297,1,79.2000024169923,6|0,0:0|0:0,0:0:0:0:
202,202,190873,1,2,0:0:0:0:
202,202,191021,2,0,P|181:168|174:129,1,79.2000024169923,10|0,0:0|0:3,0:0:0:0:
80,43,191318,1,0,0:0:0:0:
20,130,191467,6,0,P|95:146|182:23,1,237.600007250977,6|8,0:3|0:3,0:0:0:0:
285,142,192061,1,2,0:0:0:0:
285,142,192209,2,0,P|270:104|270:65,2,79.2000024169923,10|8|8,0:3|0:0|0:3,0:0:0:0:
372,182,192655,1,2,0:0:0:0:
364,87,192803,1,8,0:0:0:0:
292,237,192952,6,0,P|363:209|426:252,1,158.400004833985,6|2,0:0|0:0,0:0:0:0:
512,153,193397,2,0,P|497:191|497:230,1,79.2000024169923,8|0,0:0|0:0,0:0:0:0:
355,289,193694,1,10,0:3:0:0:
426,252,193843,6,0,P|324:215|278:313,1,237.600007250977,6|8,0:3|0:3,0:0:0:0:
422,331,194437,5,10,0:3:0:0:
355,289,194585,1,10,0:3:0:0:
278,313,194734,5,8,0:3:0:0:
345,268,194882,1,8,0:3:0:0:
426,252,195031,5,10,0:3:0:0:
335,247,195179,1,8,0:0:0:0:
428,227,195328,6,0,L|433:122,1,79.2000024169923,6|0,0:0|0:0,0:0:0:0:
248,224,195625,1,8,0:3:0:0:
248,224,195774,2,0,L|235:119,1,79.2000024169923,10|0,0:0|0:3,0:0:0:0:
409,66,196071,1,10,0:3:0:0:
431,147,196219,6,0,B|390:186|390:186|296:135|332:34,1,237.600007250977,6|8,0:3|0:3,0:0:0:0:
242,149,196813,1,2,0:0:0:0:
242,149,196962,2,0,L|143:143,2,79.2000024169923,10|8|8,0:3|0:0|0:3,0:0:0:0:
409,66,197407,1,2,0:0:0:0:
431,147,197556,1,8,0:0:0:0:
332,33,197704,6,0,B|279:26|279:26|229:44|229:44|162:37,1,158.400004833985,6|0,0:0|0:0,0:0:0:0:
64,128,198150,2,0,L|49:28,2,79.2000024169923,8|0|0,0:0|0:0|0:3,0:0:0:0:
154,241,198595,1,10,0:0:0:0:
267,151,198744,1,10,0:3:0:0:
267,151,199041,6,0,B|337:135|337:135|410:164|410:164|499:152,1,216.000008239746,6|8,0:0|0:3,0:0:0:0:
423,68,199486,6,0,L|430:-13,2,52.8000016113282,10|8|8,0:0|0:0|0:0,0:0:0:0:
380,69,199783,1,10,0:3:0:0:
340,55,199882,1,8,0:3:0:0:
298,61,199981,1,8,0:3:0:0:
256,71,200080,6,0,P|216:70|178:55,1,79.2000024169923,6|0,0:0|0:0,0:0:0:0:
14,64,200377,1,2,0:0:0:0:
14,64,200526,2,0,P|53:60|93:71,1,79.2000024169923,10|0,0:0|0:0,0:0:0:0:
212,156,200823,1,10,0:3:0:0:
156,245,200972,6,0,P|110:182|187:53,1,237.600007250977,6|8,0:3|0:3,0:0:0:0:
288,150,201566,1,2,0:0:0:0:
288,150,201714,2,0,P|247:144|203:161,2,79.2000024169923,10|8|8,0:3|0:0|0:3,0:0:0:0:
346,222,202160,1,2,0:0:0:0:
255,237,202308,1,10,0:0:0:0:
404,294,202457,6,0,P|438:225|407:154,1,158.400004833985,6|2,0:0|0:0,0:0:0:0:
288,150,202902,2,0,P|248:149|213:131,1,79.2000024169923,10|0,0:0|0:0,0:0:0:0:
150,31,203199,1,10,0:3:0:0:
78,68,203348,6,0,P|180:105|227:8,1,237.600007250977,6|8,0:3|0:3,0:0:0:0:
288,150,203942,5,2,0:0:0:0:
311,70,204090,1,10,0:3:0:0:
372,160,204239,5,12,0:0:0:0:
341,70,204387,1,8,0:3:0:0:
456,145,204536,5,6,0:0:0:0:
372,61,204684,1,2,0:0:0:0:
288,150,204833,6,0,P|245:143|202:141,2,86.3999973632813,6|0|0,0:0|0:0|0:0,0:0:0:0:
392,247,205278,2,0,P|435:254|478:256,2,86.3999973632813,10|0|0,0:3|0:0|0:0,0:0:0:0:
266,250,205724,6,0,P|223:257|180:259,2,86.3999973632813,10|0|8,0:3|0:0|0:0,0:0:0:0:
370,153,206170,2,0,P|413:146|456:144,2,86.3999973632813,10|0|0,0:3|0:0|0:0,0:0:0:0:
272,335,206615,6,0,L|265:235,1,86.3999973632813,2|0,0:0|0:0,0:0:0:0:
391,333,206912,2,0,L|391:232,1,86.3999973632813,10|0,0:3|0:0,0:0:0:0:
236,152,207209,6,0,P|184:160|134:138,1,108,14|0,0:0|0:0,0:0:0:0:
138,142,207506,2,0,P|171:182|178:236,1,108,8|0,0:2|0:0,0:0:0:0:
182,239,207803,2,0,P|199:189|243:153,1,108,8|0,0:2|0:0,0:0:0:0:
244,158,208100,2,0,P|192:166|142:144,1,108,8|0,0:0|0:0,0:0:0:0:
146,148,208397,2,0,P|179:188|186:242,1,108,8|0,0:0|0:0,0:0:0:0:
190,245,208694,2,0,P|207:195|251:159,1,108,8|0,0:0|0:0,0:0:0:0:
252,164,208991,2,0,P|285:204|292:261,1,108,10|0,0:0|0:0,0:0:0:0:
296,261,209288,2,0,P|243:269|191:247,1,108,8|0,0:0|0:0,0:0:0:0:
180,236,209585,5,14,0:0:0:0:
102,220,209734,1,8,0:3:0:0:
23,203,209882,1,8,0:3:0:0:
176,254,210031,5,14,0:2:0:0:
98,238,210179,1,8,0:3:0:0:
19,221,210328,1,8,0:3:0:0:
172,272,210477,5,10,0:0:0:0:
15,239,210625,1,10,0:0:0:0:
256,192,211962,5,6,0:2:0:0:
100,342,221467,6,0,L|92:210,1,108.000004119873,14|2,0:1|2:1,0:0:0:0:
145,165,221912,1,10,0:3:0:0:
144,165,222061,2,0,P|197:169|245:146,1,108.000004119873,8|2,0:0|0:1,0:0:0:0:
346,128,222506,2,0,P|292:123|244:146,1,108.000004119873,2|2,0:1|0:0,0:0:0:0:
207,224,222952,1,10,0:3:0:0:
178,53,223249,1,10,0:0:0:0:
207,224,223546,1,2,0:0:0:0:
178,53,223843,6,0,L|57:45,1,108.000004119873,10|2,0:3|0:1,0:0:0:0:
2,99,224288,1,10,0:3:0:0:
2,99,224437,2,0,P|24:158|13:224,1,108.000004119873,8|2,0:0|0:0,0:0:0:0:
39,305,224882,2,0,P|18:255|20:201,1,108.000004119873,2|2,0:1|0:0,0:0:0:0:
83,142,225328,1,8,0:3:0:0:
237,218,225625,1,8,0:0:0:0:
83,142,225922,1,2,0:0:0:0:
237,218,226219,6,0,P|286:225|349:198,1,108.000004119873,10|2,0:3|0:0,0:0:0:0:
443,193,226665,1,10,0:3:0:0:
443,193,226813,2,0,P|389:186|340:205,1,108.000004119873,8|2,0:0|0:1,0:0:0:0:
343,313,227259,2,0,L|339:188,1,108.000004119873,2|2,0:2|0:0,0:0:0:0:
314,122,227704,1,10,0:3:0:0:
214,263,228001,1,10,0:0:0:0:
314,122,228298,1,2,0:0:0:0:
214,263,228595,6,0,P|165:270|102:243,1,108.000004119873,10|2,0:3|0:0,0:0:0:0:
68,174,229041,1,10,0:3:0:0:
68,174,229189,2,0,L|62:103,1,54.0000020599366,8|0,0:0|0:0,0:0:0:0:
123,62,229486,6,0,P|174:83|347:13,1,237.600007250977,6|0,0:2|0:0,0:0:0:0:
426,64,230080,5,10,0:1:0:0:
248,180,230377,1,10,0:0:0:0:
438,277,230675,1,2,0:0:0:0:
370,173,230972,5,2,0:1:0:0:
370,173,231120,1,2,0:0:0:0:
370,173,231269,1,2,0:1:0:0:
370,173,231417,1,2,0:0:0:0:
370,173,231566,1,2,0:1:0:0:
370,173,231714,1,2,0:0:0:0:
430,68,231863,5,6,0:0:0:0:
430,68,232011,2,0,P|384:63|329:51,1,72,2|0,0:0|0:0,0:0:0:0:
231,70,232308,6,0,P|215:66|184:61,1,36,8|8,0:3|0:3,0:0:0:0:
235,74,232457,2,0,P|296:64|359:58,1,125.280003823242,12|8,0:0|0:3,0:0:0:0:
447,116,232754,6,0,L|505:115,2,55.6800016992188,10|8|8,0:0|0:0|0:0,0:0:0:0:
370,172,233051,2,0,L|312:170,2,55.6800016992188,10|8|8,0:3|0:3|0:3,0:0:0:0:
424,270,233348,6,0,P|391:196|314:170,1,167.040005097656,6|2,0:0|0:0,0:0:0:0:
204,274,233793,1,10,0:3:0:0:
94,170,233942,2,0,P|86:129|83:69,1,83.5200025488282,6|0,0:0|0:0,0:0:0:0:
241,21,234239,5,2,0:0:0:0:
314,170,234387,2,0,P|322:129|325:69,1,83.5200025488282,10|0,0:0|0:0,0:0:0:0:
392,247,234684,1,8,0:3:0:0:
392,247,234833,2,0,P|410:209|428:152,1,83.5200025488282,8|0,0:3|0:0,0:0:0:0:
447,341,235130,6,0,P|474:308|506:258,1,83.5200025488282,10|0,0:0|0:0,0:0:0:0:
428,150,235427,1,2,0:0:0:0:
306,206,235576,1,8,0:0:0:0:
142,176,235724,6,0,P|224:187|306:206,1,167.040005097656,6|2,0:0|0:0,0:0:0:0:
246,313,236170,1,8,0:3:0:0:
246,313,236318,2,0,P|205:301|163:296,1,83.5200025488282,8|0,0:0|0:0,0:0:0:0:
0,321,236615,5,2,0:0:0:0:
0,321,236764,2,0,P|83:311|165:296,1,167.040005097656,8|8,0:0|0:3,0:0:0:0:
306,206,237209,6,0,P|244:196|182:186,1,125.280003823242,10|0,0:3|0:0,0:0:0:0:
186,190,237506,2,0,P|180:137|174:90,1,83.5200025488282,10|8,0:2|0:3,0:0:0:0:
343,129,237803,2,0,P|354:77|367:31,1,83.5200025488282,2|8,0:0|0:3,0:0:0:0:
362,47,238026,1,8,0:3:0:0:
362,47,238100,5,14,0:0:0:0:
278,51,238249,1,8,0:3:0:0:
192,16,238397,1,8,0:3:0:0:
258,190,238546,5,14,0:0:0:0:
209,112,238694,1,8,0:3:0:0:
196,20,238843,1,8,0:3:0:0:
84,163,238991,5,14,0:2:0:0:
127,81,239140,1,8,0:3:0:0:
200,24,239288,1,8,0:3:0:0:
369,54,239437,6,0,P|409:57|448:43,2,83.5200025488282,12|2|8,0:0|0:0|0:3,0:0:0:0:
365,58,239808,1,8,0:3:0:0:
361,62,239882,6,0,L|358:198,1,111.360003398438,10|8,0:0|0:3,0:0:0:0:
438,227,240179,2,0,P|444:202|454:168,2,55.6800016992188,10|8|8,0:3|0:3|0:3,0:0:0:0:
463,340,240477,6,0,P|460:256|452:173,1,167.040005097656,6|2,0:0|0:0,0:0:0:0:
361,62,240922,2,0,P|320:58|275:50,2,83.5200025488282,10|8|0,0:3|0:0|0:0,0:0:0:0:
511,46,241368,5,2,0:0:0:0:
452,173,241516,2,0,P|410:180|369:184,1,83.5200025488282,10|0,0:0|0:0,0:0:0:0:
283,54,241813,1,8,0:3:0:0:
283,54,241962,2,0,P|325:47|366:43,1,83.5200025488282,8|0,0:3|0:0,0:0:0:0:
370,184,242259,6,0,P|328:179|287:173,1,83.5200025488282,10|8,0:0|0:3,0:0:0:0:
200,43,242556,2,0,P|241:47|282:53,1,83.5200025488282,2|8,0:0|0:0,0:0:0:0:
208,210,242853,6,0,P|207:126|200:43,1,167.040005097656,10|2,0:3|0:0,0:0:0:0:
86,133,243298,1,10,0:3:0:0:
86,133,243447,2,0,P|90:91|98:50,1,83.5200025488282,8|0,0:0|0:0,0:0:0:0:
208,210,243744,5,2,0:0:0:0:
301,115,243892,2,0,P|308:74|312:32,1,83.5200025488282,10|2,0:2|0:3,0:0:0:0:
211,125,244189,1,8,0:3:0:0:
211,125,244338,2,0,P|203:84|199:42,1,83.5200025488282,8|0,0:3|0:0,0:0:0:0:
305,119,244635,2,0,P|313:78|317:36,1,83.5200025488282,8|8,0:0|0:3,0:0:0:0:
496,130,244932,5,2,0:3:0:0:
496,130,245080,1,10,0:0:0:0:
400,41,245229,2,0,L|316:36,1,83.5200025488282,4|0,0:0|0:0,0:0:0:0:
168,173,245526,5,2,0:0:0:0:
168,173,245675,1,10,0:3:0:0:
238,63,245823,2,0,L|317:36,1,83.5200025488282,10|0,0:0|0:0,0:0:0:0:
500,134,246120,5,2,0:0:0:0:
500,134,246269,1,10,0:0:0:0:
404,45,246417,2,0,L|320:40,1,83.5200025488282,2|8,0:0|0:3,0:0:0:0:
172,177,246714,5,2,0:3:0:0:
172,177,246863,1,0,0:0:0:0:
241,67,247011,2,0,L|320:40,1,83.5200025488282,10|8,0:0|0:3,0:0:0:0:
301,255,247308,6,0,P|290:212|296:162,1,83.5200025488282,2|8,0:0|0:3,0:0:0:0:
292,173,247531,1,8,0:3:0:0:
292,173,247605,6,0,P|333:175|373:164,2,83.5200025488282,6|8|8,0:0|0:3|0:3,0:0:0:0:
145,79,248051,6,0,P|103:76|63:87,2,83.5200025488282,10|0|8,0:3|0:0|0:3,0:0:0:0:
152,86,248422,1,8,0:3:0:0:
152,86,248496,6,0,P|166:129|171:175,2,93.5999957153322,12|8|0,0:0|0:3|0:0,0:0:0:0:
19,196,248942,6,0,B|64:217|64:217|127:213|172:176,1,167.040005097656,10|8,0:3|0:3,0:0:0:0:
171,176,249313,1,8,0:3:0:0:
171,176,249387,5,10,0:0:0:0:
242,60,249536,1,10,0:0:0:0:
268,150,249684,5,10,0:2:0:0:
152,86,249833,1,10,0:2:0:0:
86,201,249981,6,0,B|43:229|43:229|9:208|16:137,1,151.199995385742,6|0,0:0|0:0,0:0:0:0:
15,138,250427,1,10,0:3:0:0:
152,86,250576,2,0,L|156:-4,1,75.5999976928712,4|0,0:3|0:0,0:0:0:0:
268,150,250873,2,0,L|264:60,1,75.5999976928712,10|0,0:0|0:0,0:0:0:0:
182,249,251170,6,0,L|186:159,1,75.5999976928712,6|8,0:3|0:3,0:0:0:0:
185,173,251615,1,2,0:0:0:0:
263,74,251764,2,0,P|300:65|338:68,1,75.5999976928712,14|0,0:3|0:0,0:0:0:0:
427,156,252061,2,0,P|463:164|501:161,1,75.5999976928712,10|0,0:3|0:0,0:0:0:0:
433,4,252358,6,0,L|426:163,1,151.199995385742,4|0,0:0|0:0,0:0:0:0:
426,155,252803,1,10,0:3:0:0:
355,268,252952,2,0,P|351:230|343:193,1,75.5999976928712,4|0,0:3|0:0,0:0:0:0:
463,318,253249,2,0,P|466:280|474:243,1,75.5999976928712,10|0,0:0|0:0,0:0:0:0:
375,354,253546,6,0,P|338:345|300:342,1,75.5999976928712,6|8,0:3|0:3,0:0:0:0:
300,342,253991,1,2,0:0:0:0:
149,361,254140,2,0,P|111:357|74:349,1,75.5999976928712,14|0,0:3|0:0,0:0:0:0:
184,259,254437,2,0,P|220:250|258:247,1,75.5999976928712,10|0,0:3|0:0,0:0:0:0:
270,96,254734,6,0,L|257:253,1,151.199995385742,6|0,0:0|0:0,0:0:0:0:
258,246,255179,1,10,0:3:0:0:
344,107,255328,2,0,P|307:98|269:95,1,75.5999976928712,6|0,0:3|0:0,0:0:0:0:
128,31,255625,2,0,P|165:40|203:43,1,75.5999976928712,10|0,0:0|0:0,0:0:0:0:
57,147,255922,6,0,L|54:43,1,75.5999976928712,4|8,0:3|0:3,0:0:0:0:
54,71,256368,1,2,0:0:0:0:
170,196,256516,2,0,L|173:92,1,75.5999976928712,14|0,0:3|0:0,0:0:0:0:
59,222,256813,2,0,L|56:118,1,75.5999976928712,10|0,0:3|0:0,0:0:0:0:
126,309,257110,6,0,P|138:222|57:223,1,188.999994232178,6|0,0:3|0:0,0:0:0:0:
58,221,257556,1,10,0:3:0:0:
244,203,257704,2,0,L|169:195,1,75.5999976928712,4|0,0:3|0:0,0:0:0:0:
126,309,258001,2,0,L|201:317,1,75.5999976928712,10|0,0:0|0:0,0:0:0:0:
362,289,258298,5,8,0:3:0:0:
244,203,258447,2,0,B|212:167|212:167|203:117|247:70,1,151.199995385742,4|8,0:0|0:3,0:0:0:0:
384,20,258892,5,6,0:3:0:0:
384,20,259041,1,10,0:3:0:0:
309,141,259189,5,2,0:0:0:0:
309,141,259338,1,2,0:0:0:0:
465,122,259486,6,0,P|430:107|392:108,1,75.5999976928712,6|8,0:0|0:3,0:0:0:0:
465,262,259932,2,0,P|430:277|392:276,1,75.5999976928712,10|0,0:3|0:0,0:0:0:0:
323,334,260229,1,8,0:3:0:0:
323,334,260303,1,8,0:3:0:0:
323,334,260377,2,0,P|288:318|251:320,1,75.5999976928712,10|0,0:0|0:3,0:0:0:0:
72,355,260823,6,0,B|30:332|30:332|1:284|31:228,1,151.199995385742,10|0,0:0|0:3,0:0:0:0:
122,249,261269,2,0,P|159:254|195:243,1,75.5999976928712,10|8,0:0|0:3,0:0:0:0:
259,327,261566,2,0,P|293:342|330:340,1,75.5999976928712,2|8,0:0|0:3,0:0:0:0:
330,340,261788,1,8,0:3:0:0:
330,340,261863,2,0,P|364:324|401:326,1,75.5999976928712,10|0,0:0|0:0,0:0:0:0:
490,157,262308,6,0,P|421:156|318:121,1,151.199995385742,10|8,0:0|0:3,0:0:0:0:
349,140,262679,1,8,0:3:0:0:
349,140,262754,2,0,L|341:232,1,75.5999976928712,10|8,0:0|0:3,0:0:0:0:
114,89,263199,6,0,P|180:70|270:9,1,151.199995385742,8|8,0:0|0:3,0:0:0:0:
257,34,263571,1,8,0:3:0:0:
257,34,263645,2,0,L|265:131,1,75.5999976928712,10|8,0:0|0:3,0:0:0:0:
356,147,263942,2,0,L|348:244,1,75.5999976928712,2|8,0:0|0:3,0:0:0:0:
349,222,264165,1,8,0:3:0:0:
349,221,264239,6,0,P|386:216|424:214,1,75.5999976928712,6|0,0:0|0:3,0:0:0:0:
332,41,264684,2,0,P|294:39|257:34,1,75.5999976928712,10|0,0:0|0:0,0:0:0:0:
176,82,264981,1,8,0:3:0:0:
176,82,265056,1,8,0:3:0:0:
176,82,265130,2,0,P|139:76|101:74,1,75.5999976928712,10|8,0:0|0:3,0:0:0:0:
288,162,265576,6,0,B|330:139|330:139|359:91|331:40,1,151.199995385742,10|8,0:0|0:3,0:0:0:0:
338,47,265947,1,8,0:3:0:0:
338,47,266021,2,0,P|300:45|262:39,1,75.5999976928712,10|8,0:0|0:3,0:0:0:0:
369,141,266318,2,0,P|407:143|445:149,1,75.5999976928712,2|8,0:0|0:3,0:0:0:0:
444,148,266541,1,8,0:3:0:0:
444,148,266615,6,0,L|448:238,1,75.5999976928712,14|8,0:0|0:3,0:0:0:0:
319,343,267061,2,0,P|252:324|263:256,1,151.199995385742,14|8,0:3|0:3,0:0:0:0:
270,263,267432,1,8,0:3:0:0:
270,263,267506,6,0,L|356:255,2,75.5999976928712,14|8|8,0:3|0:3|0:2,0:0:0:0:
150,218,267952,2,0,L|64:226,2,75.5999976928712,10|8|8,0:3|0:3|0:3,0:0:0:0:
150,218,268323,1,0,0:3:0:0:
150,218,268397,5,10,0:0:0:0:
303,172,268546,1,8,0:0:0:0:
270,263,268694,5,10,0:3:0:0:
178,135,268843,1,10,0:3:0:0:
157,225,268991,5,6,0:0:0:0:
