osu file format v14

[General]
AudioFilename: audio.mp3
AudioLeadIn: 0
PreviewTime: 328
Countdown: 0
SampleSet: Soft
StackLeniency: 0.2
Mode: 0
LetterboxInBreaks: 0
WidescreenStoryboard: 1

[Editor]
DistanceSpacing: 0.8
BeatDivisor: 8
GridSize: 32
TimelineZoom: 2.699999

[Metadata]
Title:mirage
TitleUnicode:mirage
Artist:Shimotsuki Haruka, Nakae Mitsuki
ArtistUnicode:霜月はるか・中恵光城
Creator:Lasse
Version:Illusion
Source:
Tags:しちごさん。×ABSOLUTE CASTAWAY 753 Another Flower II 2 Cross bouquet M3-35 日山 尚 Hiyama Nao 戀伊江 梓 幾丹弥吹 Mir Kalibe
BeatmapID:1370196
BeatmapSetID:646714

[Difficulty]
HPDrainRate:6
CircleSize:4.4
OverallDifficulty:8.7
ApproachRate:9.2
SliderMultiplier:3.2
SliderTickRate:1

[Events]
//Background and Video events
0,0,"bg.jpg",0,0
//Break Periods
2,98102,103570
2,212162,220576
//Storyboard Layer 0 (Background)
//Storyboard Layer 1 (Fail)
//Storyboard Layer 2 (Pass)
//Storyboard Layer 3 (Foreground)
//Storyboard Sound Samples

[TimingPoints]
477,594.059405940594,4,2,22,20,1,0
477,-250,4,2,22,20,0,0
9090,-142.857142857143,4,2,22,20,0,0
9981,-166.666666666667,4,2,22,24,0,0
10278,-166.666666666667,4,2,22,12,0,0
10427,-166.666666666667,4,2,22,24,0,0
10724,-166.666666666667,4,2,22,12,0,0
10873,-166.666666666667,4,2,22,24,0,0
11318,-166.666666666667,4,2,22,12,0,0
11467,-125,4,2,22,24,0,0
12358,-166.666666666667,4,2,22,24,0,0
12655,-166.666666666667,4,2,22,12,0,0
12803,-166.666666666667,4,2,22,24,0,0
13100,-166.666666666667,4,2,22,12,0,0
13249,-166.666666666667,4,2,22,24,0,0
13694,-166.666666666667,4,2,22,12,0,0
13843,-125,4,2,22,24,0,0
14734,-166.666666666667,4,2,22,24,0,0
15031,-166.666666666667,4,2,22,12,0,0
15179,-166.666666666667,4,2,22,24,0,0
15477,-166.666666666667,4,2,22,12,0,0
15625,-166.666666666667,4,2,22,24,0,0
16071,-166.666666666667,4,2,22,12,0,0
16219,-125,4,2,22,24,0,0
17110,-166.666666666667,4,2,22,24,0,0
17407,-166.666666666667,4,2,22,12,0,0
17556,-166.666666666667,4,2,22,24,0,0
17853,-166.666666666667,4,2,22,12,0,0
18001,-166.666666666667,4,2,22,24,0,0
18447,-166.666666666667,4,2,22,12,0,0
18595,-111.111111111111,4,2,22,24,0,0
19486,-125,4,2,22,30,0,0
28694,-125,4,2,22,26,0,0
28991,-125,4,2,22,30,0,0
37902,-125,4,2,22,34,0,0
38199,-125,4,2,22,36,0,0
38496,-100,4,2,1,40,0,0
38719,-100,4,2,99,5,0,0
38793,-100,4,2,1,40,0,0
41095,-100,4,2,99,5,0,0
41170,-100,4,2,1,40,0,0
43472,-100,4,2,99,5,0,0
43546,-100,4,2,1,40,0,0
48224,-100,4,2,99,5,0,0
48298,-100,4,2,1,40,0,0
50600,-100,4,2,99,5,0,0
50675,-100,4,2,1,40,0,0
52457,-100,4,2,1,42,0,0
52902,-100,4,2,1,20,0,0
53051,-100,4,2,1,42,0,0
53496,-100,4,2,1,20,0,0
53645,-100,4,2,1,42,0,0
54090,-100,4,2,1,40,0,0
54239,-100,4,2,1,46,0,0
54536,-100,4,2,1,48,0,0
54833,-100,4,2,14,50,0,0
55130,-100,4,2,1,54,0,0
55576,-100,4,2,2,56,0,0
55725,-100,4,2,1,56,0,0
56021,-100,4,2,1,58,0,0
56467,-100,4,2,14,60,0,0
56912,-200,4,2,1,40,0,0
57506,-62.5,4,2,1,62,0,1
57729,-62.5,4,2,99,5,0,1
57803,-83.3333333333333,4,2,1,62,0,1
60105,-83.3333333333333,4,2,99,5,0,1
60179,-83.3333333333333,4,2,1,62,0,1
62259,-71.4285714285714,4,2,1,62,0,1
62481,-71.4285714285714,4,2,99,5,0,1
62556,-83.3333333333333,4,2,1,62,0,1
63967,-83.3333333333333,4,2,99,5,0,1
64041,-83.3333333333333,4,2,1,62,0,1
64561,-83.3333333333333,4,2,1,62,0,0
64635,-83.3333333333333,4,2,1,62,0,1
65080,-83.3333333333333,4,2,2,62,0,1
65229,-83.3333333333333,4,2,1,62,0,1
66417,-83.3333333333333,4,2,1,62,0,0
66615,-83.3333333333333,4,2,14,62,0,0
67011,-66.6666666666667,4,2,1,62,0,1
67234,-66.6666666666667,4,2,99,5,0,1
67308,-83.3333333333333,4,2,1,62,0,1
69610,-83.3333333333333,4,2,99,5,0,1
69684,-83.3333333333333,4,2,1,62,0,1
71764,-71.4285714285714,4,2,1,62,0,1
72061,-83.3333333333333,4,2,1,62,0,1
73472,-83.3333333333333,4,2,99,5,0,1
73546,-83.3333333333333,4,2,1,62,0,1
74140,-71.4285714285714,4,2,1,62,0,1
74585,-83.3333333333333,4,2,1,62,0,1
74882,-62.5,4,2,1,62,0,1
75625,-83.3333333333333,4,2,1,62,0,1
75922,-71.4285714285714,4,2,1,62,0,1
76120,-71.4285714285714,4,2,1,60,0,1
76516,-100,4,2,22,62,0,0
76553,-100,4,2,22,40,0,0
76813,-100,4,2,22,60,0,0
76887,-100,4,2,99,5,0,0
76962,-100,4,2,22,60,0,0
77036,-100,4,2,99,5,0,0
77110,-100,4,2,22,60,0,0
77184,-100,4,2,99,5,0,0
77259,-100,4,2,22,60,0,0
77333,-100,4,2,99,5,0,0
77407,-100,4,2,1,62,0,1
78001,-71.4285714285714,4,2,1,62,0,1
78298,-83.3333333333333,4,2,1,62,0,1
78595,-83.3333333333333,4,2,14,62,0,0
78892,-71.4285714285714,4,2,1,62,0,1
79115,-71.4285714285714,4,2,99,5,0,1
79189,-71.4285714285714,4,2,1,62,0,1
79486,-66.6666666666667,4,2,2,62,0,1
79709,-66.6666666666667,4,2,99,5,0,1
79783,-83.3333333333333,4,2,1,62,0,1
81269,-71.4285714285714,4,2,1,62,0,1
81491,-71.4285714285714,4,2,99,5,0,1
81566,-83.3333333333333,4,2,1,62,0,1
82977,-83.3333333333333,4,2,99,5,0,1
83051,-83.3333333333333,4,2,1,62,0,1
83571,-83.3333333333333,4,2,1,62,0,0
83645,-83.3333333333333,4,2,1,62,0,1
84090,-83.3333333333333,4,2,2,62,0,1
84239,-83.3333333333333,4,2,1,62,0,1
85427,-83.3333333333333,4,2,1,62,0,0
85625,-83.3333333333333,4,2,14,62,0,0
86021,-66.6666666666667,4,2,1,62,0,1
86244,-66.6666666666667,4,2,99,5,0,1
86318,-83.3333333333333,4,2,1,62,0,1
88620,-83.3333333333333,4,2,99,5,0,1
88694,-83.3333333333333,4,2,1,62,0,1
93150,-100,4,2,1,62,0,1
94041,-62.5,4,2,1,62,0,1
94486,-83.3333333333333,4,2,1,62,0,1
95526,-142.857142857143,4,2,22,50,0,0
95823,-142.857142857143,4,2,22,45,0,0
95972,-142.857142857143,4,2,22,40,0,0
96417,-142.857142857143,4,2,22,30,0,0
96491,-142.857142857143,4,2,22,10,0,0
97902,-142.857142857143,4,2,99,20,0,0
104140,-250,4,2,22,20,0,0
104734,-250,4,2,22,20,0,0
104882,-250,4,2,22,20,0,0
105031,-142.857142857143,4,2,22,34,0,0
113942,-142.857142857143,4,2,22,36,0,0
114090,-142.857142857143,4,2,22,42,0,0
114239,-142.857142857143,4,2,22,44,0,0
114387,-142.857142857143,4,2,22,46,0,0
114536,-111.111111111111,4,2,1,50,0,0
114759,-111.111111111111,4,2,99,5,0,0
114833,-111.111111111111,4,2,1,44,0,0
117135,-111.111111111111,4,2,99,5,0,0
117209,-111.111111111111,4,2,1,44,0,0
119511,-111.111111111111,4,2,99,5,0,0
119585,-111.111111111111,4,2,1,44,0,0
121887,-111.111111111111,4,2,99,5,0,0
121962,-111.111111111111,4,2,1,44,0,0
123001,-76.9230769230769,4,2,1,44,0,0
123744,-76.9230769230769,4,2,14,44,0,0
124041,-111.111111111111,4,2,1,44,0,0
124264,-111.111111111111,4,2,99,5,0,0
124338,-111.111111111111,4,2,1,44,0,0
126640,-111.111111111111,4,2,99,5,0,0
126714,-111.111111111111,4,2,1,44,0,0
129016,-111.111111111111,4,2,99,5,0,0
129090,-111.111111111111,4,2,1,44,0,0
131392,-111.111111111111,4,2,99,5,0,0
131467,-111.111111111111,4,2,1,44,0,0
132506,-76.9230769230769,4,2,1,44,0,0
133249,-121.951219512195,4,2,14,40,0,0
133546,-121.951219512195,4,2,22,34,0,0
135477,-121.951219512195,4,2,22,20,0,0
135625,-121.951219512195,4,2,22,34,0,0
137853,-121.951219512195,4,2,22,20,0,0
138001,-121.951219512195,4,2,22,34,0,0
138150,-121.951219512195,4,2,22,20,0,0
138298,-121.951219512195,4,2,22,34,0,0
140229,-121.951219512195,4,2,22,20,0,0
140377,-121.951219512195,4,2,22,34,0,0
140675,-100,4,2,22,34,0,0
141046,-100,4,2,99,5,0,0
141120,-100,4,2,22,34,0,0
141491,-100,4,2,99,5,0,0
141566,-100,4,2,22,34,0,0
142011,-100,4,2,22,20,0,0
142160,-121.951219512195,4,2,22,34,0,0
142308,-121.951219512195,4,2,22,20,0,0
142457,-121.951219512195,4,2,22,34,0,0
142605,-121.951219512195,4,2,22,20,0,0
142754,-121.951219512195,4,2,22,34,0,0
143051,-105.263157894737,4,2,1,40,0,0
143274,-105.263157894737,4,2,99,5,0,0
143348,-105.263157894737,4,2,1,40,0,0
147506,-100,4,2,1,42,0,0
147952,-100,4,2,1,20,0,0
148100,-100,4,2,1,42,0,0
148546,-100,4,2,1,20,0,0
148694,-100,4,2,1,42,0,0
149140,-100,4,2,1,40,0,0
149288,-100,4,2,1,46,0,0
149585,-100,4,2,1,48,0,0
149882,-100,4,2,14,50,0,0
150179,-100,4,2,1,54,0,0
150625,-100,4,2,2,56,0,0
150774,-100,4,2,1,56,0,0
151071,-100,4,2,1,58,0,0
151516,-100,4,2,14,60,0,0
151962,-200,4,2,1,40,0,0
152556,-62.5,4,2,1,62,0,1
152778,-62.5,4,2,99,5,0,1
152853,-83.3333333333333,4,2,1,62,0,1
155155,-83.3333333333333,4,2,99,5,0,1
155229,-83.3333333333333,4,2,1,62,0,1
157308,-71.4285714285714,4,2,1,62,0,1
157531,-71.4285714285714,4,2,99,5,0,1
157605,-83.3333333333333,4,2,1,62,0,1
159016,-83.3333333333333,4,2,99,5,0,1
159090,-83.3333333333333,4,2,1,62,0,1
159610,-83.3333333333333,4,2,1,62,0,0
159684,-83.3333333333333,4,2,1,62,0,1
161467,-83.3333333333333,4,2,1,62,0,0
161665,-83.3333333333333,4,2,14,62,0,0
162061,-66.6666666666667,4,2,1,62,0,1
162283,-66.6666666666667,4,2,99,5,0,1
162358,-83.3333333333333,4,2,1,62,0,1
164660,-83.3333333333333,4,2,99,5,0,1
164734,-83.3333333333333,4,2,1,62,0,1
166813,-71.4285714285714,4,2,1,62,0,1
167110,-83.3333333333333,4,2,1,62,0,1
168521,-83.3333333333333,4,2,99,5,0,1
168595,-83.3333333333333,4,2,1,62,0,1
169189,-71.4285714285714,4,2,1,62,0,1
169635,-83.3333333333333,4,2,1,62,0,1
169932,-62.5,4,2,1,62,0,1
170675,-83.3333333333333,4,2,1,62,0,1
170972,-71.4285714285714,4,2,1,62,0,1
171170,-71.4285714285714,4,2,1,60,0,1
171566,-100,4,2,22,62,0,0
171603,-100,4,2,22,40,0,0
171863,-100,4,2,22,60,0,0
171937,-100,4,2,99,5,0,0
172011,-100,4,2,22,60,0,0
172085,-100,4,2,99,5,0,0
172160,-100,4,2,22,60,0,0
172234,-100,4,2,99,5,0,0
172308,-100,4,2,22,60,0,0
172382,-100,4,2,99,5,0,0
172457,-100,4,2,1,62,0,1
173051,-71.4285714285714,4,2,1,62,0,1
173348,-83.3333333333333,4,2,1,62,0,1
173645,-83.3333333333333,4,2,14,62,0,0
173942,-71.4285714285714,4,2,1,62,0,1
174165,-71.4285714285714,4,2,99,5,0,1
174239,-71.4285714285714,4,2,1,62,0,1
174536,-66.6666666666667,4,2,2,62,0,1
174759,-66.6666666666667,4,2,99,5,0,1
174833,-83.3333333333333,4,2,1,62,0,1
176318,-71.4285714285714,4,2,1,62,0,1
176541,-71.4285714285714,4,2,99,5,0,1
176615,-83.3333333333333,4,2,1,62,0,1
178026,-83.3333333333333,4,2,99,5,0,1
178100,-83.3333333333333,4,2,1,62,0,1
178620,-83.3333333333333,4,2,1,62,0,0
178694,-83.3333333333333,4,2,1,62,0,1
180477,-83.3333333333333,4,2,1,62,0,0
180675,-83.3333333333333,4,2,14,62,0,0
181071,-66.6666666666667,4,2,1,62,0,1
181293,-66.6666666666667,4,2,99,5,0,1
181368,-83.3333333333333,4,2,1,62,0,1
183670,-83.3333333333333,4,2,99,5,0,1
183744,-83.3333333333333,4,2,1,62,0,1
188199,-100,4,2,1,62,0,1
189090,-62.5,4,2,1,62,0,1
189536,-83.3333333333333,4,2,1,62,0,1
190576,-90.9090909090909,4,2,1,56,0,0
191467,-90.9090909090909,4,2,2,56,0,0
191615,-90.9090909090909,4,2,1,56,0,0
193843,-90.9090909090909,4,2,2,56,0,0
193991,-90.9090909090909,4,2,1,56,0,0
196219,-90.9090909090909,4,2,2,56,0,0
196368,-90.9090909090909,4,2,1,56,0,0
199041,-55.5555555555556,4,2,2,68,0,0
199338,-55.5555555555556,4,2,1,56,0,0
199783,-55.5555555555556,4,2,14,56,0,0
200080,-90.9090909090909,4,2,1,56,0,0
200972,-90.9090909090909,4,2,2,56,0,0
201120,-90.9090909090909,4,2,1,56,0,0
203348,-90.9090909090909,4,2,2,56,0,0
203496,-90.9090909090909,4,2,1,56,0,0
204536,-90.9090909090909,4,2,2,56,0,0
204684,-90.9090909090909,4,2,1,56,0,0
204833,-83.3333333333333,4,2,1,58,0,0
206021,-83.3333333333333,4,2,1,44,0,0
206170,-83.3333333333333,4,2,1,56,0,0
207209,-100,4,2,56,56,0,0
207432,-100,4,2,99,5,0,0
207506,-90.9090909090909,4,2,56,56,0,0
207729,-90.9090909090909,4,2,99,5,0,0
207803,-83.3333333333333,4,2,56,58,0,0
208026,-83.3333333333333,4,2,99,5,0,0
208100,-76.9230769230769,4,2,56,60,0,0
208323,-76.9230769230769,4,2,99,5,0,0
208397,-71.4285714285714,4,2,56,62,0,0
208620,-71.4285714285714,4,2,99,5,0,0
208694,-66.6666666666667,4,2,56,56,0,0
208917,-66.6666666666667,4,2,99,5,0,0
208991,-62.5,4,2,56,66,0,0
209214,-62.5,4,2,99,5,0,0
209288,-58.8235294117647,4,2,56,68,0,0
209511,-58.8235294117647,4,2,99,5,0,0
209585,-100,4,2,1,62,0,0
209734,-100,4,2,1,56,0,0
210031,-100,4,2,2,56,0,0
210179,-100,4,2,1,56,0,0
210774,-200,4,2,1,56,0,0
211962,-200,4,2,22,50,0,0
221467,-133.333333333333,4,2,22,40,0,0
221689,-133.333333333333,4,2,99,5,0,0
221764,-133.333333333333,4,2,22,40,0,0
221838,-133.333333333333,4,2,22,20,0,0
221912,-133.333333333333,4,2,22,40,0,0
221986,-133.333333333333,4,2,22,20,0,0
222060,-133.333333333333,4,2,22,40,0,0
223175,-133.333333333333,4,2,99,5,0,0
223250,-133.333333333333,4,2,22,40,0,0
224066,-133.333333333333,4,2,99,5,0,0
224141,-133.333333333333,4,2,22,40,0,0
224214,-133.333333333333,4,2,22,20,0,0
224288,-133.333333333333,4,2,22,40,0,0
224363,-133.333333333333,4,2,22,20,0,0
224437,-133.333333333333,4,2,22,40,0,0
226739,-133.333333333333,4,2,22,20,0,0
226813,-133.333333333333,4,2,22,40,0,0
227778,-133.333333333333,4,2,22,20,0,0
228001,-133.333333333333,4,2,22,40,0,0
228818,-133.333333333333,4,2,99,5,0,0
228892,-133.333333333333,4,2,22,40,0,0
228967,-133.333333333333,4,2,22,20,0,0
229041,-133.333333333333,4,2,22,40,0,0
229115,-133.333333333333,4,2,22,20,0,0
229189,-133.333333333333,4,2,22,40,0,0
229486,-90.9090909090909,4,2,22,44,0,0
229932,-90.9090909090909,4,2,22,22,0,0
230080,-142.857142857143,4,2,22,40,0,0
230303,-142.857142857143,4,2,99,5,0,0
230377,-142.857142857143,4,2,22,42,0,0
230600,-142.857142857143,4,2,99,5,0,0
230675,-142.857142857143,4,2,22,44,0,0
230897,-142.857142857143,4,2,99,5,0,0
230972,-125,4,2,22,50,0,0
231269,-125,4,2,22,52,0,0
231566,-125,4,2,22,54,0,0
231863,-100,4,2,1,62,0,1
232457,-71.4285714285714,4,2,1,62,0,1
232754,-83.3333333333333,4,2,1,62,0,1
233051,-83.3333333333333,4,2,14,62,0,0
233348,-71.4285714285714,4,2,1,62,0,1
233571,-71.4285714285714,4,2,99,5,0,1
233645,-71.4285714285714,4,2,1,62,0,1
233942,-66.6666666666667,4,2,2,62,0,1
234165,-66.6666666666667,4,2,99,5,0,1
234239,-83.3333333333333,4,2,1,62,0,1
235724,-71.4285714285714,4,2,1,62,0,1
235947,-71.4285714285714,4,2,99,5,0,1
236021,-83.3333333333333,4,2,1,62,0,1
237432,-83.3333333333333,4,2,99,5,0,1
237506,-83.3333333333333,4,2,1,62,0,1
238026,-83.3333333333333,4,2,1,62,0,0
238100,-83.3333333333333,4,2,1,62,0,1
239882,-83.3333333333333,4,2,1,62,0,0
240080,-83.3333333333333,4,2,14,62,0,0
240477,-66.6666666666667,4,2,1,62,0,1
240699,-66.6666666666667,4,2,99,5,0,1
240774,-83.3333333333333,4,2,1,62,0,1
243076,-83.3333333333333,4,2,99,5,0,1
243150,-83.3333333333333,4,2,1,62,0,1
247605,-100,4,2,1,62,0,1
248496,-62.5,4,2,1,62,0,1
248942,-83.3333333333333,4,2,1,62,0,1
249981,-95.2380952380952,4,2,1,56,0,0
250130,-95.2380952380952,4,2,1,52,0,0
250576,-95.2380952380952,4,2,2,52,0,0
250724,-95.2380952380952,4,2,1,52,0,0
251170,-95.2380952380952,4,2,2,52,0,0
251318,-95.2380952380952,4,2,1,52,0,0
251764,-95.2380952380952,4,2,3,52,0,0
251912,-95.2380952380952,4,2,1,52,0,0
252358,-95.2380952380952,4,2,2,52,0,0
252506,-95.2380952380952,4,2,1,52,0,0
252952,-95.2380952380952,4,2,2,52,0,0
253100,-95.2380952380952,4,2,1,52,0,0
253546,-95.2380952380952,4,2,2,52,0,0
253694,-95.2380952380952,4,2,1,52,0,0
254140,-95.2380952380952,4,2,3,52,0,0
254288,-95.2380952380952,4,2,1,52,0,0
255328,-95.2380952380952,4,2,2,52,0,0
255476,-95.2380952380952,4,2,1,52,0,0
255922,-95.2380952380952,4,2,2,52,0,0
256071,-95.2380952380952,4,2,1,52,0,0
256516,-95.2380952380952,4,2,3,52,0,0
256665,-95.2380952380952,4,2,1,52,0,0
257110,-95.2380952380952,4,2,2,52,0,0
257258,-95.2380952380952,4,2,1,52,0,0
257704,-95.2380952380952,4,2,2,52,0,0
257852,-95.2380952380952,4,2,1,52,0,0
258892,-95.2380952380952,4,2,2,50,0,0
259041,-95.2380952380952,4,2,1,50,0,0
259189,-95.2380952380952,4,2,1,48,0,0
259338,-95.2380952380952,4,2,1,46,0,0
259486,-95.2380952380952,4,2,1,56,0,0
259635,-95.2380952380952,4,2,1,52,0,0
264239,-95.2380952380952,4,2,2,52,0,0
264387,-95.2380952380952,4,2,1,52,0,0
267061,-95.2380952380952,4,2,2,52,0,0
267210,-95.2380952380952,4,2,1,52,0,0
267803,-95.2380952380952,4,2,1,40,0,0
267952,-95.2380952380952,4,2,1,50,0,0
268397,-95.2380952380952,4,2,1,46,0,0
268694,-95.2380952380952,4,2,1,44,0,0
268769,-95.2380952380952,4,2,1,34,0,0
268843,-95.2380952380952,4,2,1,44,0,0
268917,-95.2380952380952,4,2,1,34,0,0
268991,-142.857142857143,4,2,22,40,0,0

[Colours]
Combo1 : 250,140,150
Combo2 : 150,150,150
Combo3 : 233,107,136
Combo4 : 200,200,200

[HitObjects]
170,151,477,6,0,L|64:144,2,96,6|2|2,0:1|0:2|0:2,0:0:0:0:
170,151,1962,5,2,0:1:0:0:
238,115,2259,1,2,0:0:0:0:
314,117,2556,1,2,0:0:0:0:
380,156,2853,6,0,L|486:163,2,96,2|2|2,0:1|0:2|0:2,0:0:0:0:
380,156,4338,5,2,0:1:0:0:
312,191,4635,1,2,0:0:0:0:
309,267,4932,1,2,0:0:0:0:
374,307,5229,6,0,L|480:314,2,96,2|2|2,0:1|0:2|0:2,0:0:0:0:
374,307,6714,5,2,0:1:0:0:
309,267,7011,1,2,0:0:0:0:
232,264,7308,1,2,0:0:0:0:
163,299,7605,6,0,L|56:298,2,96,2|2|2,0:1|0:2|0:2,0:0:0:0:
163,299,9090,6,2,B|164:277|157:255|157:255|164:246|166:234|166:234|158:213|161:190,2,111.999996582031,2|2|2,0:1|0:0|0:0,1:2:0:0:
100,142,9981,6,0,P|138:115|186:117,1,95.9999970703126,14|0,0:1|0:0,0:0:0:0:
186,117,10427,2,0,P|224:143|238:188,1,95.9999970703126,2|0,0:0|0:0,0:0:0:0:
238,189,10873,2,0,P|287:170|232:163,1,143.999995605469,2|0,0:0|0:0,0:0:0:0:
238,189,11467,6,0,L|371:182,2,128,2|2|2,0:1|0:0|0:0,0:0:0:0:
238,189,12358,6,0,P|248:233|286:264,1,95.9999970703126,2|0,0:1|0:0,0:0:0:0:
286,264,12803,2,0,P|319:231|326:184,1,95.9999970703126,2|0,0:0|0:0,0:0:0:0:
326,184,13249,2,0,B|309:146|277:132|277:132|250:149|238:189,1,143.999995605469,2|0,0:0|0:0,0:0:0:0:
326,184,13843,6,0,L|459:177,2,128,2|2|2,0:1|0:0|0:0,0:0:0:0:
326,184,14734,6,0,P|298:146|252:122,1,95.9999970703126,10|0,0:1|0:0,0:0:0:0:
169,155,15179,2,0,P|215:149|259:121,1,95.9999970703126,2|0,0:0|0:0,0:0:0:0:
302,34,15625,2,0,P|241:59|256:123,1,143.999995605469,2|0,0:0|0:0,0:0:0:0:
302,34,16219,6,0,B|258:30|258:30|216:42|216:42|173:38,2,128,2|2|2,0:1|0:0|0:0,0:0:0:0:
302,34,17110,6,0,P|338:63|385:74,1,95.9999970703126,2|0,0:1|0:0,0:0:0:0:
463,22,17556,2,0,P|418:39|386:74,1,95.9999970703126,2|0,0:0|0:0,0:0:0:0:
396,173,18001,2,0,B|436:149|432:90|432:90|370:68,1,143.999995605469,2|0,0:0|0:0,0:0:0:0:
396,173,18595,6,2,B|400:204|386:225|386:225|396:238|399:254|399:254|388:284|392:316,2,143.999995605469,2|2|2,0:1|0:0|0:0,1:2:0:0:
334,368,19486,6,0,P|285:342|191:345,1,128,14|0,0:1|0:0,0:0:0:0:
143,370,19932,1,10,0:3:0:0:
80,325,20080,2,0,L|74:258,1,64,10|0,0:0|0:0,0:0:0:0:
23,202,20377,1,2,0:0:0:0:
74,261,20526,2,0,P|137:258|194:230,1,128,2|0,0:0|0:0,0:0:0:0:
250,103,20972,6,0,P|231:128|226:160,1,64,10|0,0:3|0:0,0:0:0:0:
106,122,21269,2,0,P|133:139|149:166,1,64,10|0,0:0|0:0,0:0:0:0:
170,74,21566,2,0,L|161:10,1,64,2|0,0:0|0:0,0:0:0:0:
250,102,21863,6,0,P|297:61|358:68,1,128,10|0,0:3|0:0,0:0:0:0:
397,133,22308,1,10,0:3:0:0:
345,190,22457,2,0,P|326:165|319:134,1,64,8|0,0:0|0:0,0:0:0:0:
421,207,22754,2,0,P|356:269|275:229,1,192,2|0,0:0|0:0,0:0:0:0:
174,158,23348,6,0,P|193:183|200:215,1,64,10|0,0:3|0:0,0:0:0:0:
129,246,23645,2,0,P|110:221|103:190,1,64,10|0,0:0|0:0,0:0:0:0:
89,310,23942,2,0,P|59:298|27:300,1,64,2|0,0:0|0:0,0:0:0:0:
209,326,24239,6,0,B|169:309|169:309|130:333|88:310,1,128,10|0,0:3|0:0,0:0:0:0:
129,246,24684,1,2,0:3:0:0:
200,215,24833,2,0,L|279:209,1,64,8|0,0:0|0:0,0:0:0:0:
332,175,25130,2,0,L|141:167,1,192,2|0,0:0|0:0,0:0:0:0:
202,122,25724,6,0,L|265:131,1,64,10|0,0:3|0:0,0:0:0:0:
332,175,26021,1,10,0:0:0:0:
332,175,26318,2,0,L|395:184,1,64,2|0,0:0|0:0,0:0:0:0:
291,243,26615,6,0,P|255:193|265:131,1,128,10|0,0:3|0:0,0:0:0:0:
334,99,27061,1,10,0:3:0:0:
395,184,27209,2,0,L|332:175,1,64,8|0,0:0|0:0,0:0:0:0:
265,131,27506,1,2,0:0:0:0:
334,99,27655,2,0,L|187:76,1,128,2|0,0:0|0:0,0:0:0:0:
83,41,28100,6,0,L|147:32,1,64,10|0,0:3|0:0,0:0:0:0:
207,79,28397,1,10,0:0:0:0:
137,109,28546,2,0,L|73:118,1,64,2|2,0:0|0:0,0:0:0:0:
73,118,28991,6,0,B|91:157|91:157|77:262,1,128,14|0,0:1|0:0,0:0:0:0:
61,316,29437,1,10,0:3:0:0:
135,294,29585,2,0,L|198:284,1,64,10|0,0:0|0:0,0:0:0:0:
258,233,29882,1,2,0:0:0:0:
198,284,30031,2,0,B|180:245|180:245|194:140,1,128,2|0,0:0|0:0,0:0:0:0:
258,233,30477,6,0,L|267:162,1,64,10|0,0:3|0:0,0:0:0:0:
200,97,30774,2,0,L|191:160,1,64,10|0,0:0|0:0,0:0:0:0:
266,169,31071,2,0,L|274:105,1,64,2|0,0:0|0:0,0:0:0:0:
387,93,31368,6,0,P|334:124|275:106,1,128,10|0,0:3|0:0,0:0:0:0:
326,50,31813,1,10,0:3:0:0:
387,93,31962,2,0,L|395:156,1,64,8|0,0:0|0:0,0:0:0:0:
326,50,32259,2,0,P|389:18|461:103,1,192,2|0,0:0|0:0,0:0:0:0:
327,187,32853,6,0,L|319:124,1,64,10|0,0:3|0:0,0:0:0:0:
461,95,33150,2,0,L|469:158,1,64,10|0,0:0|0:0,0:0:0:0:
395,156,33447,2,0,L|387:93,1,64,2|0,0:0|0:0,0:0:0:0:
448,275,33744,6,0,B|430:249|440:217|440:217|466:197|469:159,1,128,10|0,0:3|0:0,0:0:0:0:
395,156,34189,1,2,0:3:0:0:
327,187,34338,2,0,L|249:184,1,64,8|0,0:0|0:0,0:0:0:0:
223,247,34635,2,0,P|301:254|264:185,1,192,2|0,0:0|0:0,0:0:0:0:
188,180,35229,6,0,L|180:117,1,64,10|0,0:3|0:0,0:0:0:0:
139,54,35526,1,10,0:0:0:0:
139,54,35823,2,0,P|108:54|59:34,1,64,2|0,0:0|0:0,0:0:0:0:
0,111,36120,6,0,P|59:124|73:184,1,128,10|0,0:3|0:0,0:0:0:0:
53,257,36566,1,10,0:3:0:0:
189,246,36714,2,0,P|158:236|126:236,1,64,8|0,0:0|0:0,0:0:0:0:
53,257,37011,1,2,0:0:0:0:
163,346,37160,2,0,P|207:305|189:246,1,128,2|0,0:0|0:0,0:0:0:0:
73,183,37605,6,0,P|103:192|135:192,1,64,10|0,0:3|0:0,0:0:0:0:
229,99,37902,5,8,0:0:0:0:
209,173,38051,1,8,0:0:0:0:
103,65,38199,5,10,0:0:0:0:
135,192,38348,1,8,0:0:0:0:
294,58,38496,6,0,P|246:23|188:33,1,120,6|0,0:0|0:0,0:0:0:0:
188,33,38793,1,2,0:0:0:0:
294,58,38942,2,0,P|332:67|370:56,1,80,2|8,0:0|0:0,0:0:0:0:
409,135,39239,1,2,0:0:0:0:
447,57,39387,2,0,B|413:38|374:55|374:55|345:71|314:71|294:58,1,160,2|0,0:0|0:0,0:0:0:0:
233,178,39833,5,8,0:0:0:0:
233,178,39981,2,0,L|228:98,1,80,2|0,0:0|0:0,0:0:0:0:
404,214,40278,2,0,L|408:134,1,80,10|0,0:0|0:0,0:0:0:0:
408,134,40501,1,0,0:0:0:0:
408,134,40576,1,10,0:3:0:0:
337,270,40724,1,2,0:0:0:0:
446,291,40873,6,0,P|387:300|337:270,1,120,2|0,0:0|0:0,0:0:0:0:
337,270,41170,1,2,0:0:0:0:
185,284,41318,2,0,P|224:287|257:309,1,80,2|8,0:0|0:0,0:0:0:0:
195,373,41615,1,2,0:0:0:0:
112,336,41764,2,0,P|98:260|149:202,1,160,2|0,0:0|0:0,0:0:0:0:
257,309,42209,5,8,0:0:0:0:
257,309,42358,2,0,P|217:305|184:283,1,80,2|0,0:0|0:0,0:0:0:0:
149,202,42655,1,10,0:0:0:0:
184,283,42803,1,8,0:3:0:0:
246,222,42952,2,0,P|248:200|240:165,2,53.3333333333333,2|0|0,0:0|0:0|0:0,0:0:0:0:
246,222,43249,6,0,P|296:192|354:201,1,120,10|0,0:3|0:0,0:0:0:0:
354,201,43546,1,2,0:0:0:0:
322,357,43694,2,0,L|313:278,1,80,2|8,0:0|0:0,0:0:0:0:
246,222,43991,1,2,0:0:0:0:
322,357,44140,2,0,B|313:278|313:278|234:311,1,160,2|0,0:0|0:0,0:0:0:0:
237,142,44585,5,8,0:0:0:0:
237,142,44734,2,0,L|246:221,1,80,2|0,0:0|0:0,0:0:0:0:
391,247,45031,2,0,L|400:168,1,80,10|0,0:0|0:0,0:0:0:0:
400,167,45254,1,0,0:0:0:0:
400,167,45328,1,10,0:3:0:0:
246,221,45477,1,2,0:0:0:0:
182,71,45625,6,0,P|258:57|316:109,1,160,10|0,0:3|0:0,0:0:0:0:
322,115,45996,1,0,0:0:0:0:
322,115,46071,2,0,L|331:36,2,80,2|10|0,0:0|0:0|0:0,0:0:0:0:
246,221,46516,6,0,L|237:142,2,80,2|0|0,0:0|0:0|0:0,0:0:0:0:
391,247,46962,1,10,0:0:0:0:
391,247,47036,1,2,0:0:0:0:
391,247,47110,2,0,L|400:168,1,80,2|0,0:0|0:0,0:0:0:0:
331,35,47407,5,10,0:0:0:0:
237,141,47556,1,8,0:3:0:0:
191,4,47704,5,2,0:0:0:0:
252,59,47853,1,2,0:3:0:0:
69,103,48001,6,0,P|116:68|172:83,1,120,6|0,0:0|0:0,0:0:0:0:
171,82,48298,1,2,0:0:0:0:
72,180,48447,2,0,P|61:142|69:103,1,80,2|8,0:0|0:0,0:0:0:0:
0,219,48744,1,2,0:0:0:0:
71,256,48892,2,0,B|90:222|74:183|74:183|57:154|57:124|70:102,1,160,2|0,0:0|0:0,0:0:0:0:
233,272,49338,5,8,0:0:0:0:
233,272,49486,2,0,L|154:267,1,80,2|0,0:0|0:0,0:0:0:0:
23,329,49783,2,0,L|102:334,1,80,10|0,0:0|0:0,0:0:0:0:
102,334,50006,1,0,0:0:0:0:
102,334,50080,1,10,0:3:0:0:
71,256,50229,1,2,0:0:0:0:
179,193,50377,6,0,P|199:147|177:70,1,120,10|0,0:3|0:0,0:0:0:0:
184,80,50675,1,2,0:0:0:0:
179,193,50823,2,0,L|260:197,1,80,2|8,0:0|0:0,0:0:0:0:
333,149,51120,1,2,0:0:0:0:
375,234,51269,2,0,P|330:174|258:196,1,160,2|0,0:0|0:0,0:0:0:0:
366,314,51714,5,8,0:0:0:0:
366,314,51863,2,0,L|375:235,1,80,2|0,0:0|0:0,0:0:0:0:
190,350,52160,2,0,L|181:271,1,80,10|0,0:0|0:0,0:0:0:0:
445,167,52457,5,10,0:3:0:0:
382,242,52605,1,2,0:0:0:0:
382,242,52679,1,2,0:0:0:0:
382,242,52754,2,0,P|340:243|305:227,1,80,10|0,0:3|0:0,0:0:0:0:
323,76,53051,5,2,0:0:0:0:
420,94,53199,1,2,0:0:0:0:
420,94,53274,1,2,0:0:0:0:
420,94,53348,2,0,P|441:129|445:168,1,80,10|0,0:2|0:0,0:0:0:0:
305,227,53645,5,2,0:0:0:0:
273,135,53793,1,2,0:0:0:0:
273,135,53868,1,2,0:0:0:0:
273,135,53942,2,0,P|293:98|324:75,1,80,2|8,0:3|0:0,0:0:0:0:
358,157,54239,5,2,0:0:0:0:
210,209,54387,1,10,0:3:0:0:
382,242,54536,5,8,0:0:0:0:
273,135,54684,1,8,0:3:0:0:
443,178,54833,5,10,0:3:0:0:
178,118,54981,1,10,0:3:0:0:
504,114,55130,5,14,0:0:0:0:
385,88,55278,1,8,0:3:0:0:
273,135,55427,1,8,0:3:0:0:
503,95,55576,5,6,0:0:0:0:
384,69,55724,1,8,0:3:0:0:
272,116,55873,1,8,0:3:0:0:
502,76,56021,5,6,0:0:0:0:
383,50,56170,1,8,0:3:0:0:
271,97,56318,1,8,0:3:0:0:
367,260,56467,5,12,0:3:0:0:
383,246,56541,1,8,0:3:0:0:
403,242,56615,1,8,0:3:0:0:
419,243,56689,1,8,0:3:0:0:
430,248,56764,1,8,0:3:0:0:
440,257,56838,1,8,0:3:0:0:
440,257,56912,6,2,L|440:175,1,80,6|2,0:1|0:0,1:2:0:0:
440,257,57506,6,0,P|509:218|442:176,1,192,6|0,0:0|0:0,0:0:0:0:
373,214,57803,1,2,0:0:0:0:
341,46,57952,2,0,P|364:89|374:135,2,95.9999970703126,8|8|0,0:3|0:0|0:0,0:0:0:0:
125,181,58397,5,2,0:0:0:0:
193,29,58546,2,0,P|160:64|138:107,1,95.9999970703126,8|0,0:0|0:0,0:0:0:0:
153,345,58843,1,8,0:3:0:0:
153,345,58991,2,0,P|131:303|120:257,1,95.9999970703126,8|0,0:3|0:0,0:0:0:0:
303,364,59288,6,0,P|335:328|357:285,1,95.9999970703126,10|8,0:0|0:3,0:0:0:0:
204,154,59585,2,0,P|252:153|299:166,1,95.9999970703126,2|8,0:0|0:0,0:0:0:0:
154,346,59882,6,0,P|166:275|217:315,1,143.999995605469,10|0,0:3|0:0,0:0:0:0:
225,368,60179,1,2,0:0:0:0:
357,285,60328,1,10,0:3:0:0:
452,278,60477,2,0,L|356:285,1,95.9999970703126,8|0,0:0|0:0,0:0:0:0:
212,294,60774,5,2,0:0:0:0:
195,58,60922,2,0,L|203:154,1,95.9999970703126,10|0,0:0|0:0,0:0:0:0:
442,135,61219,1,8,0:3:0:0:
442,135,61368,2,0,L|347:142,1,95.9999970703126,8|0,0:3|0:0,0:0:0:0:
116,301,61665,6,0,L|211:294,1,95.9999970703126,10|8,0:0|0:3,0:0:0:0:
346,142,61962,1,2,0:0:0:0:
356,284,62110,1,8,0:0:0:0:
203,154,62259,6,0,B|147:149|147:149|96:176|96:176|32:171,1,167.999994873047,6|0,0:0|0:0,0:0:0:0:
42,172,62556,1,2,0:0:0:0:
65,3,62704,1,10,0:3:0:0:
77,94,62853,2,0,B|59:61|59:61|65:0,1,95.9999970703126,8|0,0:0|0:0,0:0:0:0:
324,62,63150,5,2,0:0:0:0:
140,43,63298,2,0,B|201:37|201:37|258:67|258:67|329:61,1,191.999994140625,8|8,0:0|0:3,0:0:0:0:
198,253,63744,6,0,B|202:207|202:207|180:166|180:166|184:115,1,143.999995605469,10|0,0:3|0:0,0:0:0:0:
262,151,64041,1,10,0:2:0:0:
140,43,64189,1,8,0:3:0:0:
262,151,64338,2,0,L|383:157,1,95.9999970703126,2|8,0:0|0:3,0:0:0:0:
432,135,64561,1,8,0:3:0:0:
444,150,64635,5,14,0:0:0:0:
324,62,64783,1,8,0:3:0:0:
184,114,64932,1,8,0:3:0:0:
356,268,65080,5,14,0:0:0:0:
262,151,65229,1,8,0:3:0:0:
114,165,65377,1,8,0:3:0:0:
240,358,65526,5,14,0:2:0:0:
179,220,65675,1,8,0:3:0:0:
33,196,65823,1,8,0:3:0:0:
245,58,65972,5,12,0:0:0:0:
356,268,66120,2,0,L|368:148,1,95.9999970703126,2|8,0:0|0:3,0:0:0:0:
471,154,66343,1,8,0:3:0:0:
483,169,66417,6,0,P|425:192|366:173,1,127.99999609375,10|8,0:0|0:3,0:0:0:0:
277,136,66714,6,0,P|245:130|210:135,1,63.9999980468751,10|8,0:3|0:3,0:0:0:0:
130,176,66912,1,8,0:3:0:0:
108,94,67011,6,0,B|199:81|178:153|276:136,1,180.000006866455,6|0,0:0|0:0,0:0:0:0:
276,135,67308,1,2,0:0:0:0:
126,266,67457,2,0,P|114:220|130:176,2,95.9999970703126,10|8|0,0:3|0:0|0:0,0:0:0:0:
245,58,67902,5,2,0:0:0:0:
280,270,68051,2,0,P|248:235|202:223,1,95.9999970703126,10|0,0:0|0:0,0:0:0:0:
138,356,68348,1,8,0:3:0:0:
138,356,68496,2,0,P|119:313|126:266,1,95.9999970703126,8|0,0:3|0:0,0:0:0:0:
245,58,68793,6,0,P|207:87|160:92,1,95.9999970703126,10|8,0:0|0:3,0:0:0:0:
43,301,69090,2,0,P|80:271|127:266,1,95.9999970703126,2|8,0:0|0:0,0:0:0:0:
380,350,69387,6,0,P|348:288|280:269,1,143.999995605469,10|0,0:3|0:0,0:0:0:0:
294,357,69684,1,2,0:0:0:0:
355,200,69833,1,10,0:3:0:0:
440,166,69981,2,0,P|402:194|355:200,1,95.9999970703126,8|0,0:0|0:0,0:0:0:0:
127,266,70278,5,2,0:0:0:0:
355,200,70427,1,10,0:2:0:0:
127,118,70576,5,2,0:3:0:0:
127,118,70724,1,8,0:3:0:0:
127,118,70873,2,0,L|118:22,1,95.9999970703126,8|0,0:3|0:0,0:0:0:0:
127,266,71170,2,0,L|118:361,1,95.9999970703126,8|8,0:0|0:3,0:0:0:0:
53,192,71467,5,2,0:3:0:0:
201,192,71615,1,8,0:0:0:0:
64,63,71764,6,0,B|90:45|135:40|173:55|196:88|196:88|154:92|127:119,1,223.999993164063,4|0,0:0|0:0,0:0:0:0:
297,189,72209,1,10,0:3:0:0:
201,192,72358,2,0,B|325:188,1,95.9999970703126,8|0,0:0|0:0,0:0:0:0:
512,173,72655,5,2,0:0:0:0:
431,64,72803,2,0,B|409:47|370:43|337:56|317:84|317:84|354:88|376:112,1,191.999994140625,8|8,0:0|0:3,0:0:0:0:
305,322,73249,6,0,B|280:278|280:278|270:226|307:170,1,143.999995605469,10|0,0:3|0:0,0:0:0:0:
362,254,73546,1,10,0:2:0:0:
375,110,73694,1,8,0:3:0:0:
305,322,73843,2,0,L|185:313,1,95.9999970703126,2|8,0:0|0:3,0:0:0:0:
173,197,74066,1,8,0:3:0:0:
184,179,74140,6,0,L|304:188,1,111.999996582031,6|8,0:0|0:3,0:0:0:0:
453,33,74437,1,2,0:0:0:0:
375,110,74585,2,0,L|280:103,1,95.9999970703126,10|0,0:3|0:0,0:0:0:0:
26,55,74882,5,8,0:3:0:0:
26,55,74957,1,8,0:3:0:0:
26,55,75031,2,0,B|49:27|49:27|62:152,1,128,14|8,0:0|0:3,0:0:0:0:
58,118,75477,5,8,0:3:0:0:
172,152,75625,6,0,L|124:157,1,47.9999985351563,2|0,0:3|0:3,0:0:0:0:
10,200,75774,2,0,L|57:194,1,47.9999985351563,10|8,0:3|0:3,0:0:0:0:
225,204,75922,5,10,0:0:0:0:
58,118,76071,1,8,0:0:0:0:
125,82,76219,5,8,0:0:0:0:
116,291,76368,1,8,0:0:0:0:
200,79,76516,6,0,L|237:74,6,20,10|0|0|0|2|0|0,0:1|0:0|0:0|0:0|0:0|0:0|0:0,0:0:0:0:
260,136,76813,6,0,P|276:128|289:109,1,40,2|0,3:3|0:0,0:0:0:0:
162,15,76962,2,0,P|146:23|133:42,1,40,2|0,3:3|0:0,0:0:0:0:
288,110,77110,6,0,P|297:95|299:72,1,40,2|0,3:3|0:0,0:0:0:0:
134,41,77259,2,0,P|124:55|122:78,1,40,2|0,3:3|0:0,0:0:0:0:
281,242,77407,5,6,0:0:0:0:
281,242,77556,2,0,P|243:218|181:224,1,80,2|0,0:0|0:0,0:0:0:0:
106,158,77853,2,0,P|127:157|146:153,1,40,8|8,0:3|0:3,0:0:0:0:
333,178,78001,6,0,B|375:175|375:175|407:182|407:182|460:179,1,111.999996582031,12|8,0:0|0:3,0:0:0:0:
500,126,78224,1,8,0:3:0:0:
509,106,78298,6,0,L|513:38,2,63.9999980468751,10|8|8,0:0|0:0|0:0,0:0:0:0:
505,244,78595,6,0,L|501:312,1,63.9999980468751,10|8,0:3|0:3,0:0:0:0:
379,365,78793,1,8,0:3:0:0:
340,291,78892,6,0,B|393:286|393:286|444:313|444:313|500:308,1,167.999994873047,6|0,0:0|0:0,0:0:0:0:
500,307,79189,1,2,0:0:0:0:
353,207,79338,1,10,0:3:0:0:
509,106,79486,6,0,B|450:100|450:100|393:130|393:130|336:125,1,180.000006866455,6|0,0:0|0:0,0:0:0:0:
260,146,79783,5,2,0:0:0:0:
458,228,79932,2,0,B|502:210|502:210|468:176,1,95.9999970703126,10|0,0:0|0:0,0:0:0:0:
372,51,80229,1,8,0:3:0:0:
372,51,80377,2,0,B|338:17|338:17|382:0,1,95.9999970703126,8|0,0:3|0:0,0:0:0:0:
406,218,80675,6,0,B|423:262|423:262|457:228,1,95.9999970703126,10|0,0:0|0:0,0:0:0:0:
456,23,80972,1,2,0:0:0:0:
362,138,81120,1,8,0:0:0:0:
213,24,81269,6,0,B|296:6|284:76|373:51,1,167.999994873047,6|0,0:0|0:0,0:0:0:0:
456,23,81566,1,2,0:0:0:0:
362,138,81714,1,8,0:3:0:0:
271,159,81863,2,0,P|314:139|362:138,1,95.9999970703126,8|0,0:0|0:0,0:0:0:0:
213,24,82160,5,2,0:0:0:0:
224,240,82308,2,0,P|270:160|361:138,1,191.999994140625,8|8,0:0|0:3,0:0:0:0:
433,346,82754,6,0,P|409:280|343:262,1,143.999995605469,10|0,0:3|0:0,0:0:0:0:
359,337,83051,1,10,0:2:0:0:
224,240,83199,1,8,0:3:0:0:
359,337,83348,2,0,B|319:342|298:324|298:324|282:329|270:339,1,95.9999970703126,2|8,0:0|0:3,0:0:0:0:
199,362,83571,1,8,0:3:0:0:
180,363,83645,5,14,0:0:0:0:
109,223,83793,1,8,0:3:0:0:
185,83,83942,1,8,0:3:0:0:
75,366,84090,5,14,0:0:0:0:
136,221,84239,1,8,0:3:0:0:
292,189,84387,1,8,0:3:0:0:
9,239,84536,5,14,0:2:0:0:
165,219,84684,1,8,0:3:0:0:
270,338,84833,1,8,0:3:0:0:
377,78,84981,5,12,0:0:0:0:
387,248,85130,2,0,L|381:152,1,95.9999970703126,2|8,0:0|0:3,0:0:0:0:
377,78,85353,1,8,0:3:0:0:
372,60,85427,6,0,P|316:24|236:47,1,127.99999609375,10|8,0:0|0:3,0:0:0:0:
139,148,85724,5,10,0:3:0:0:
198,89,85823,1,8,0:3:0:0:
219,169,85922,1,8,0:3:0:0:
299,110,86021,6,0,B|262:134|262:134|248:292,1,180.000006866455,6|0,0:0|0:0,0:0:0:0:
250,269,86318,1,2,0:0:0:0:
139,148,86467,2,0,B|154:177|154:177|148:255,2,95.9999970703126,10|8|0,0:3|0:0|0:0,0:0:0:0:
0,91,86912,5,2,0:0:0:0:
63,294,87061,2,0,B|47:261|47:261|52:199,1,95.9999970703126,10|0,0:0|0:0,0:0:0:0:
240,264,87358,1,8,0:3:0:0:
240,264,87506,2,0,B|212:246|212:246|149:240,1,95.9999970703126,8|0,0:3|0:0,0:0:0:0:
0,91,87803,6,0,B|31:102|31:102|94:92,1,95.9999970703126,10|8,0:0|0:3,0:0:0:0:
300,139,88100,2,0,B|267:148|267:148|206:139,1,95.9999970703126,2|8,0:0|0:0,0:0:0:0:
3,327,88397,6,0,B|39:301|39:301|52:202,1,143.999995605469,10|0,0:3|0:0,0:0:0:0:
121,156,88694,1,2,0:0:0:0:
240,264,88843,1,10,0:3:0:0:
333,265,88991,2,0,B|302:254|302:254|239:264,1,95.9999970703126,8|0,0:0|0:0,0:0:0:0:
94,81,89288,5,2,0:0:0:0:
300,139,89437,1,10,0:2:0:0:
52,202,89585,5,2,0:3:0:0:
52,202,89734,1,8,0:3:0:0:
52,202,89882,2,0,P|35:246|44:292,1,95.9999970703126,8|0,0:3|0:0,0:0:0:0:
164,134,90179,2,0,P|180:89|171:43,1,95.9999970703126,8|8,0:0|0:3,0:0:0:0:
289,254,90477,5,2,0:3:0:0:
164,134,90625,1,10,0:0:0:0:
380,262,90774,2,0,P|335:245|289:254,1,95.9999970703126,4|0,0:0|0:0,0:0:0:0:
135,284,91071,5,2,0:0:0:0:
289,254,91219,1,10,0:3:0:0:
44,292,91368,2,0,P|88:275|134:284,1,95.9999970703126,10|0,0:0|0:0,0:0:0:0:
265,168,91665,5,2,0:0:0:0:
135,284,91813,1,10,0:0:0:0:
356,161,91962,2,0,P|311:177|265:168,1,95.9999970703126,2|8,0:0|0:3,0:0:0:0:
100,110,92259,5,2,0:3:0:0:
265,168,92407,1,0,0:0:0:0:
9,104,92556,2,0,P|53:120|99:111,1,95.9999970703126,10|8,0:0|0:3,0:0:0:0:
361,28,92853,6,0,P|314:19|270:35,1,95.9999970703126,2|8,0:0|0:3,0:0:0:0:
218,85,93076,1,8,0:3:0:0:
212,100,93150,5,6,0:0:0:0:
109,39,93298,1,8,0:3:0:0:
9,104,93447,1,8,0:3:0:0:
202,194,93595,6,0,L|207:115,1,80,10|0,0:3|0:0,0:0:0:0:
103,160,93892,2,0,L|97:101,1,40,8|8,0:3|0:3,0:0:0:0:
5,229,94041,6,0,B|46:225|46:225|83:245|83:245|129:240,2,128,12|8|0,0:0|0:3|0:0,0:0:0:0:
55,67,94486,6,0,B|87:23|87:23|103:160,1,191.999994140625,10|8,0:3|0:3,0:0:0:0:
127,240,94858,1,8,0:3:0:0:
131,259,94932,5,10,0:0:0:0:
215,36,95080,1,10,0:0:0:0:
252,235,95229,5,10,0:2:0:0:
55,67,95377,1,10,0:2:0:0:
5,229,95526,5,6,0:1:0:0:
314,105,95823,5,2,0:0:0:0:
314,105,95972,2,0,B|272:123|272:123|222:178|253:236,1,167.999994873047,2|6,0:0|2:2,0:0:0:0:
256,192,96491,12,2,97902,0:2:0:0:
47,312,104140,6,0,L|40:238,2,64,2|2|2,0:1|0:0|0:0,0:0:0:0:
47,312,105031,6,0,P|92:283|162:294,1,111.999996582031,14|0,0:1|0:0,0:0:0:0:
218,323,105477,1,10,0:3:0:0:
218,323,105625,2,0,L|222:257,1,55.9999982910157,8|0,0:0|0:0,0:0:0:0:
298,248,105922,2,0,P|219:235|197:159,1,167.999994873047,2|0,0:1|0:0,0:0:0:0:
270,179,106516,6,0,L|381:173,2,111.999996582031,10|10|2,0:3|0:0|0:1,0:0:0:0:
382,173,107407,6,0,P|401:112|379:57,1,111.999996582031,10|0,0:3|0:0,0:0:0:0:
315,36,107853,1,10,0:3:0:0:
315,36,108001,2,0,L|259:33,1,55.9999982910157,8|0,0:0|0:0,0:0:0:0:
185,61,108298,2,0,B|140:89|140:89|27:69,1,167.999994873047,2|0,0:1|0:0,0:0:0:0:
96,108,108892,6,0,P|105:132|102:172,1,55.9999982910157,10|0,0:3|0:0,0:0:0:0:
59,225,109189,2,0,P|34:238|17:260,1,55.9999982910157,10|0,0:0|0:0,0:0:0:0:
67,320,109486,2,0,P|91:306|108:284,1,55.9999982910157,2|0,0:1|0:0,0:0:0:0:
184,259,109783,6,0,P|238:253|289:276,1,111.999996582031,10|0,0:1|0:0,0:0:0:0:
347,328,110229,1,10,0:3:0:0:
347,328,110377,2,0,L|419:324,1,55.9999982910157,8|0,0:0|0:0,0:0:0:0:
469,366,110675,2,0,B|439:328|439:328|426:264|492:222,1,167.999994873047,2|0,0:1|0:0,0:0:0:0:
505,150,111269,6,0,L|508:27,2,111.999996582031,10|10|2,0:3|0:0|0:1,0:0:0:0:
507,38,112160,6,0,B|472:59|472:59|394:50,1,111.999996582031,10|0,0:3|0:0,0:0:0:0:
341,100,112605,1,10,0:3:0:0:
341,100,112754,2,0,L|339:161,1,55.9999982910157,8|0,0:0|0:0,0:0:0:0:
275,202,113051,2,0,L|89:180,1,167.999994873047,2|0,0:0|0:0,0:0:0:0:
60,121,113645,5,10,0:3:0:0:
60,121,113793,1,8,0:3:0:0:
108,182,113942,5,10,2:2:0:0:
88,47,114090,1,8,0:0:0:0:
31,194,114239,1,10,0:0:0:0:
11,60,114387,1,8,0:0:0:0:
137,110,114536,6,0,B|174:122|174:122|247:114,1,107.999996704102,4|0,0:0|0:0,0:0:0:0:
246,118,114833,2,0,L|248:41,1,71.9999978027344,2|0,0:0|0:0,0:0:0:0:
324,139,115130,2,0,L|325:67,1,71.9999978027344,10|0,0:0|0:0,0:0:0:0:
402,160,115427,1,2,0:0:0:0:
402,160,115576,2,0,L|403:88,1,71.9999978027344,10|0,0:3|0:0,0:0:0:0:
403,88,116021,6,0,P|447:85|482:61,1,71.9999978027344,10|0,0:3|0:0,0:0:0:0:
325,67,116318,1,10,0:0:0:0:
325,67,116467,1,8,0:3:0:0:
402,160,116615,1,2,0:0:0:0:
324,139,116764,1,8,0:0:0:0:
401,232,116912,6,0,B|442:200|442:200|402:160,1,107.999996704102,8|0,0:3|0:0,0:0:0:0:
402,160,117209,1,2,0:0:0:0:
330,238,117358,2,0,B|363:228|363:228|401:232,1,71.9999978027344,2|8,0:0|0:0,0:0:0:0:
400,232,117803,5,2,0:0:0:0:
400,232,117952,2,0,B|367:242|367:242|329:238,1,71.9999978027344,8|0,0:3|0:0,0:0:0:0:
329,238,118397,6,0,L|252:231,1,71.9999978027344,10|0,0:3|0:0,0:0:0:0:
168,300,118694,1,10,0:0:0:0:
168,300,118843,1,8,0:3:0:0:
178,221,118991,1,2,0:0:0:0:
247,310,119140,1,8,0:0:0:0:
329,238,119288,6,0,L|340:116,1,107.999996704102,10|0,0:3|0:0,0:0:0:0:
339,130,119585,1,2,0:0:0:0:
178,221,119734,2,0,L|170:149,1,71.9999978027344,2|8,0:0|0:0,0:0:0:0:
170,149,120179,5,2,0:0:0:0:
170,149,120328,1,8,0:3:0:0:
170,149,120477,2,0,B|102:126|91:171|28:148,2,143.999995605469,2|8|8,0:0|0:3|0:0,0:0:0:0:
170,149,121219,1,8,0:3:0:0:
134,218,121368,1,2,0:0:0:0:
66,79,121516,1,8,0:0:0:0:
134,218,121665,6,0,P|146:269|145:336,1,107.999996704102,10|0,0:3|0:0,0:0:0:0:
146,324,121962,1,2,0:0:0:0:
244,225,122110,2,0,P|232:258|226:294,1,71.9999978027344,2|8,0:0|0:0,0:0:0:0:
226,294,122556,5,2,0:0:0:0:
226,294,122704,2,0,P|238:260|243:224,1,71.9999978027344,10|0,0:3|0:0,0:0:0:0:
313,194,123001,6,0,P|225:183|267:105,1,207.999990478516,12|8,0:0|0:3,0:0:0:0:
367,110,123447,5,10,0:0:0:0:
322,21,123595,1,10,0:0:0:0:
313,194,123744,5,8,0:3:0:0:
313,194,123892,1,8,0:3:0:0:
420,25,124041,6,0,B|370:1|370:1|322:21,1,107.999996704102,4|0,0:0|0:0,0:0:0:0:
324,25,124338,2,0,P|289:28|254:20,1,71.9999978027344,2|0,0:0|0:0,0:0:0:0:
230,117,124635,2,0,P|198:102|172:78,1,71.9999978027344,10|0,0:0|0:0,0:0:0:0:
102,149,124932,1,2,0:0:0:0:
102,149,125080,2,0,P|81:119|70:85,1,71.9999978027344,10|0,0:3|0:0,0:0:0:0:
70,85,125526,6,0,L|66:3,1,71.9999978027344,10|0,0:3|0:0,0:0:0:0:
102,149,125823,1,10,0:0:0:0:
102,149,125972,1,8,0:3:0:0:
172,78,126120,1,2,0:0:0:0:
70,85,126269,1,8,0:0:0:0:
98,221,126417,6,0,L|102:139,1,71.9999978027344,8|0,0:3|0:0,0:0:0:0:
172,78,126714,1,2,0:0:0:0:
172,78,126863,2,0,B|210:82|210:82|243:72,1,71.9999978027344,2|8,0:0|0:0,0:0:0:0:
242,72,127308,5,2,0:0:0:0:
243,72,127457,2,0,B|205:68|205:68|172:78,1,71.9999978027344,8|0,0:3|0:0,0:0:0:0:
173,78,127902,6,0,L|101:74,1,71.9999978027344,10|0,0:3|0:0,0:0:0:0:
23,151,128199,1,10,0:0:0:0:
23,151,128348,1,8,0:3:0:0:
23,74,128496,1,2,0:0:0:0:
100,150,128645,1,8,0:0:0:0:
172,77,128793,6,0,B|211:60|211:60|285:62,1,107.999996704102,10|0,0:3|0:0,0:0:0:0:
276,61,129090,1,2,0:0:0:0:
233,211,129239,2,0,L|228:126,1,71.9999978027344,2|8,0:0|0:0,0:0:0:0:
229,139,129684,5,2,0:0:0:0:
229,139,129833,1,8,0:3:0:0:
229,139,129981,2,0,B|283:142|283:142|317:130|317:130|371:132,2,143.999995605469,2|8|8,0:0|0:3|0:0,0:0:0:0:
229,139,130724,1,8,0:3:0:0:
330,205,130873,1,2,0:0:0:0:
270,66,131021,1,8,0:0:0:0:
224,247,131170,6,0,L|230:130,1,107.999996704102,10|0,0:3|0:0,0:0:0:0:
229,139,131467,1,2,0:0:0:0:
340,78,131615,2,0,P|305:77|271:66,1,71.9999978027344,2|8,0:0|0:0,0:0:0:0:
271,66,132061,5,2,0:0:0:0:
271,66,132209,2,0,P|306:66|340:78,1,71.9999978027344,10|0,0:3|0:0,0:0:0:0:
414,92,132506,6,0,B|383:36|383:36|362:208,1,207.999990478516,12|8,0:0|0:3,0:0:0:0:
351,325,132952,5,10,0:0:0:0:
432,259,133100,1,10,0:0:0:0:
284,245,133249,5,10,0:3:0:0:
358,252,133397,1,10,0:3:0:0:
210,238,133546,6,0,B|163:218|163:218|116:213|94:255,1,131.200002001953,6|0,0:1|0:0,0:0:0:0:
107,329,133991,2,0,B|154:349|154:349|201:354|223:312,1,131.200002001953,2|0,0:1|0:0,0:0:0:0:
210,238,134437,2,0,B|175:184|187:97|231:62|231:62|259:83|265:125,1,262.400004003906,2|2,0:1|0:2,0:0:0:0:
265,123,135328,2,0,L|335:120,1,65.6000010009766,2|0,0:1|0:0,0:0:0:0:
401,87,135625,1,2,0:0:0:0:
401,87,135774,1,2,0:0:0:0:
358,185,135922,6,0,B|350:201|335:212|335:212|313:174|331:120,1,131.200002001953,2|0,0:1|0:0,0:0:0:0:
428,152,136368,2,0,B|446:98|424:60|424:60|409:71|401:87,1,131.200002001953,2|0,0:1|0:0,0:0:0:0:
331,120,136813,2,0,B|206:72|202:182|78:128,1,262.400004003906,2|2,0:1|0:0,0:0:0:0:
78,128,137704,2,0,L|75:40,1,65.6000010009766,2|0,0:2|0:0,0:0:0:0:
152,115,138001,2,0,L|154:49,1,65.6000010009766,2|0,0:1|0:0,0:0:0:0:
228,129,138298,6,0,B|241:121|246:100|246:100|187:97|151:116,1,131.200002001953,2|0,0:1|0:0,0:0:0:0:
78,128,138744,2,0,B|42:147|-16:143|-16:143|-12:123|1:115,1,131.200002001953,2|0,0:1|0:0,0:0:0:0:
152,115,139189,2,0,B|206:94|262:98|262:98|334:134|408:106,1,262.400004003906,2|2,0:1|0:0,0:0:0:0:
407,106,140080,2,0,L|410:18,1,65.6000010009766,2|0,0:0|0:0,0:0:0:0:
479,2,140377,1,2,0:0:0:0:
479,2,140526,1,2,0:0:0:0:
407,106,140675,6,0,P|317:138|238:83,1,200,2|0,0:1|0:0,0:0:0:0:
237,82,141120,2,0,P|310:144|301:240,1,200,2|0,0:1|0:0,0:0:0:0:
301,240,141566,2,0,P|308:120|413:109,1,240,2|0,0:1|0:0,0:0:0:0:
431,190,142160,6,0,P|399:193|368:185,1,65.6000010009766,2|0,0:0|0:0,0:0:0:0:
300,240,142457,2,0,P|267:236|236:245,1,65.6000010009766,2|0,0:1|0:0,0:0:0:0:
190,320,142754,5,2,0:1:0:0:
149,243,142902,1,2,0:0:0:0:
15,325,143051,6,0,L|7:183,1,113.999996955872,6|0,0:0|0:0,0:0:0:0:
8,211,143348,1,2,0:0:0:0:
142,140,143496,2,0,P|109:158|72:159,1,75.9999979705811,2|8,0:0|0:0,0:0:0:0:
149,243,143793,1,2,0:0:0:0:
210,162,143942,2,0,B|185:129|143:139|143:139|123:159|95:163|72:159,1,151.999995941162,2|0,0:0|0:0,0:0:0:0:
149,243,144387,5,8,0:0:0:0:
149,243,144536,2,0,P|111:244|78:262,1,75.9999979705811,2|0,0:0|0:0,0:0:0:0:
135,331,144833,2,0,P|172:329|205:311,1,75.9999979705811,8|0,0:0|0:0,0:0:0:0:
211,162,145130,1,10,0:3:0:0:
149,243,145278,1,2,0:0:0:0:
211,162,145427,6,0,P|244:143|281:142,1,75.9999979705811,10|0,0:3|0:0,0:0:0:0:
352,245,145724,1,2,0:0:0:0:
286,301,145873,2,0,P|268:267|267:230,1,75.9999979705811,2|8,0:0|0:0,0:0:0:0:
352,245,146170,1,2,0:0:0:0:
458,201,146318,2,0,P|389:184|352:245,1,151.999995941162,2|0,0:0|0:0,0:0:0:0:
478,272,146764,5,8,0:0:0:0:
478,272,146912,2,0,P|476:234|458:201,1,75.9999979705811,2|0,0:0|0:0,0:0:0:0:
372,315,147209,2,0,P|353:281|352:244,1,75.9999979705811,8|0,0:0|0:0,0:0:0:0:
213,184,147506,5,10,0:3:0:0:
276,259,147655,1,2,0:0:0:0:
276,259,147729,1,2,0:0:0:0:
276,259,147803,2,0,P|315:260|352:244,1,80,10|0,0:3|0:0,0:0:0:0:
213,184,148100,5,2,0:0:0:0:
116,202,148249,1,2,0:0:0:0:
116,202,148323,1,2,0:0:0:0:
116,202,148397,2,0,P|95:235|90:275,1,80,10|0,0:2|0:0,0:0:0:0:
213,184,148694,5,2,0:0:0:0:
245,92,148843,1,2,0:0:0:0:
245,92,148917,1,2,0:0:0:0:
245,92,148991,2,0,P|225:55|194:32,1,80,2|8,0:3|0:0,0:0:0:0:
116,202,149288,5,2,0:0:0:0:
213,184,149437,1,10,0:3:0:0:
52,128,149585,5,8,0:0:0:0:
309,166,149734,1,8,0:3:0:0:
19,220,149882,5,10,0:3:0:0:
245,92,150031,1,10,0:3:0:0:
84,296,150179,5,14,0:0:0:0:
203,270,150328,1,8,0:3:0:0:
315,317,150477,1,8,0:3:0:0:
85,277,150625,5,6,0:0:0:0:
204,251,150774,1,8,0:3:0:0:
316,298,150922,1,8,0:3:0:0:
86,258,151071,5,6,0:0:0:0:
205,232,151219,1,8,0:3:0:0:
317,279,151368,1,8,0:3:0:0:
443,152,151516,5,12,0:3:0:0:
420,149,151590,1,8,0:3:0:0:
403,153,151665,1,8,0:3:0:0:
389,161,151739,1,8,0:3:0:0:
380,168,151813,1,8,0:3:0:0:
374,180,151887,1,8,0:3:0:0:
372,184,151962,6,2,P|333:187|295:175,1,80,6|2,0:1|0:0,1:2:0:0:
372,184,152556,6,0,B|379:138|340:96|340:96|293:131|294:177,1,192,6|0,0:0|0:0,0:0:0:0:
322,256,152853,1,2,0:0:0:0:
142,245,153001,2,0,P|190:239|238:240,2,95.9999970703126,8|8|0,0:3|0:0|0:0,0:0:0:0:
28,377,153447,5,2,0:0:0:0:
195,325,153595,2,0,P|220:284|237:240,1,95.9999970703126,8|0,0:0|0:0,0:0:0:0:
171,79,153892,1,8,0:3:0:0:
171,79,154041,2,0,P|194:120|223:158,1,95.9999970703126,8|0,0:3|0:0,0:0:0:0:
483,228,154338,6,0,P|435:221|387:222,1,95.9999970703126,10|8,0:0|0:3,0:0:0:0:
224,159,154635,2,0,P|268:176|309:201,1,95.9999970703126,2|8,0:0|0:0,0:0:0:0:
465,68,154932,6,0,B|423:64|423:64|376:87|364:142,1,143.999995605469,10|0,0:3|0:0,0:0:0:0:
387,222,155229,1,2,0:0:0:0:
224,159,155377,1,10,0:3:0:0:
128,165,155526,2,0,L|223:159,1,95.9999970703126,8|0,0:0|0:0,0:0:0:0:
469,241,155823,5,2,0:0:0:0:
358,46,155972,2,0,L|363:141,1,95.9999970703126,10|0,0:0|0:0,0:0:0:0:
475,337,156269,1,8,0:3:0:0:
475,337,156417,2,0,L|469:241,1,95.9999970703126,8|0,0:3|0:0,0:0:0:0:
236,298,156714,6,0,P|280:280|328:282,1,95.9999970703126,10|8,0:0|0:3,0:0:0:0:
475,337,157011,1,2,0:0:0:0:
387,222,157160,1,8,0:0:0:0:
236,298,157308,6,0,B|180:315|145:280|145:280|103:269|71:302,1,167.999994873047,6|0,0:0|0:0,0:0:0:0:
79,294,157605,1,2,0:0:0:0:
202,216,157754,1,10,0:3:0:0:
210,120,157902,2,0,B|202:215,1,95.9999970703126,8|0,0:0|0:0,0:0:0:0:
349,38,158199,5,2,0:0:0:0:
172,39,158348,2,0,B|233:20|272:58|272:58|319:71|349:39,1,191.999994140625,8|8,0:0|0:3,0:0:0:0:
230,253,158793,6,0,B|201:216|201:216|210:119,1,143.999995605469,10|0,0:3|0:0,0:0:0:0:
172,39,159090,1,10,0:2:0:0:
297,138,159239,1,8,0:3:0:0:
172,39,159387,2,0,L|52:33,1,95.9999970703126,2|8,0:0|0:3,0:0:0:0:
19,84,159610,1,8,0:3:0:0:
10,101,159684,5,14,0:0:0:0:
146,167,159833,1,8,0:3:0:0:
188,315,159981,1,8,0:3:0:0:
16,175,160130,5,14,0:0:0:0:
166,164,160278,1,8,0:3:0:0:
277,270,160427,1,8,0:3:0:0:
58,234,160576,5,14,0:2:0:0:
182,150,160724,1,8,0:3:0:0:
331,186,160873,1,8,0:3:0:0:
506,85,161021,5,12,0:0:0:0:
420,209,161170,2,0,B|400:201|384:188|384:188|360:178|331:186,1,95.9999970703126,2|8,0:0|0:3,0:0:0:0:
288,250,161392,1,8,0:3:0:0:
277,270,161467,6,0,P|218:294|140:265,1,127.99999609375,10|8,0:0|0:3,0:0:0:0:
59,246,161764,2,0,L|51:175,1,63.9999980468751,10|8,0:3|0:3,0:0:0:0:
190,110,161962,1,8,0:3:0:0:
211,193,162061,6,0,B|154:203|121:159|121:159|70:151|49:187,1,180.000006866455,6|0,0:0|0:0,0:0:0:0:
51,183,162358,1,2,0:0:0:0:
190,110,162506,2,0,P|203:63|193:17,2,95.9999970703126,10|8|0,0:3|0:0|0:0,0:0:0:0:
110,345,162952,5,2,0:0:0:0:
257,182,163100,2,0,P|210:193|175:225,1,95.9999970703126,10|0,0:0|0:0,0:0:0:0:
337,326,163397,1,8,0:3:0:0:
337,326,163546,2,0,P|302:294|256:283,1,95.9999970703126,8|0,0:3|0:0,0:0:0:0:
18,349,163843,6,0,P|64:358|110:345,1,95.9999970703126,10|8,0:0|0:3,0:0:0:0:
348,280,164140,2,0,P|301:270|255:283,1,95.9999970703126,2|8,0:0|0:0,0:0:0:0:
42,193,164437,6,0,P|104:228|175:224,1,143.999995605469,10|0,0:3|0:0,0:0:0:0:
256,283,164734,1,2,0:0:0:0:
110,344,164882,1,10,0:3:0:0:
18,348,165031,2,0,P|63:335|110:344,1,95.9999970703126,8|0,0:0|0:0,0:0:0:0:
348,279,165328,5,2,0:0:0:0:
174,224,165477,1,10,0:2:0:0:
348,131,165625,5,2,0:3:0:0:
348,131,165774,1,8,0:3:0:0:
348,131,165922,2,0,L|365:27,1,95.9999970703126,8|0,0:3|0:0,0:0:0:0:
348,279,166219,2,0,L|365:383,1,95.9999970703126,8|8,0:0|0:3,0:0:0:0:
422,205,166516,5,2,0:3:0:0:
246,157,166665,1,8,0:0:0:0:
457,63,166813,6,0,B|441:125|381:139|381:139|342:92|364:36,1,223.999993164063,4|0,0:0|0:0,0:0:0:0:
246,157,167259,1,10,0:3:0:0:
154,148,167407,2,0,P|200:141|245:156,1,95.9999970703126,8|0,0:0|0:0,0:0:0:0:
62,259,167704,5,2,0:0:0:0:
7,83,167853,2,0,B|16:29|67:14|67:14|103:53|86:102,1,191.999994140625,8|8,0:0|0:3,0:0:0:0:
328,137,168298,6,0,B|337:127|341:110|341:110|271:105|245:157,1,143.999995605469,10|0,0:3|0:0,0:0:0:0:
196,227,168595,1,10,0:2:0:0:
86,103,168744,1,8,0:3:0:0:
163,312,168892,2,0,P|191:274|196:227,1,95.9999970703126,2|8,0:0|0:3,0:0:0:0:
111,242,169115,1,8,0:3:0:0:
97,259,169189,6,0,B|40:260|16:234|16:234|27:226|38:223,1,111.999996582031,6|8,0:0|0:3,0:0:0:0:
183,111,169486,1,2,0:0:0:0:
264,239,169635,2,0,B|272:234|275:229|275:229|244:214|196:227,1,95.9999970703126,10|0,0:3|0:0,0:0:0:0:
1,371,169932,5,8,0:3:0:0:
1,371,170006,1,8,0:3:0:0:
1,371,170080,2,0,B|61:379|92:354|92:354|80:342|63:340,1,128,14|8,0:0|0:3,0:0:0:0:
63,340,170526,5,8,0:3:0:0:
87,173,170675,6,0,L|88:221,1,47.9999985351563,2|0,0:3|0:3,0:0:0:0:
63,340,170823,2,0,L|62:292,1,47.9999985351563,10|8,0:3|0:3,0:0:0:0:
29,125,170972,5,10,0:0:0:0:
137,278,171120,1,8,0:0:0:0:
195,227,171268,5,10,0:0:0:0:
12,235,171417,1,8,0:0:0:0:
128,126,171566,6,0,L|123:89,6,20,10|0|0|0|2|0|0,0:1|0:0|0:0|0:0|0:0|0:0|0:0,0:0:0:0:
124,205,171863,6,0,P|105:203|88:192,1,40,2|0,3:3|0:0,0:0:0:0:
123,24,172011,2,0,P|142:26|160:36,1,40,2|0,3:3|0:0,0:0:0:0:
88,192,172160,6,0,P|72:181|63:163,1,40,2|0,3:3|0:0,0:0:0:0:
160,36,172308,2,0,P|176:47|185:64,1,40,2|0,3:3|0:0,0:0:0:0:
246,254,172457,5,6,0:0:0:0:
246,254,172605,2,0,L|251:163,1,80,2|0,0:0|0:0,0:0:0:0:
364,161,172902,2,0,L|310:157,1,40,8|8,0:3|0:3,0:0:0:0:
208,79,173051,6,0,B|262:96|262:96|330:74,1,111.999996582031,12|8,0:0|0:3,0:0:0:0:
385,41,173274,1,8,0:3:0:0:
405,32,173348,6,0,L|469:28,2,63.9999980468751,10|8|8,0:0|0:0|0:0,0:0:0:0:
262,95,173645,6,0,L|198:91,1,63.9999980468751,10|8,0:3|0:3,0:0:0:0:
120,49,173843,1,8,0:3:0:0:
194,10,173942,6,0,B|199:63|199:63|172:114|172:114|177:170,1,167.999994873047,6|0,0:0|0:0,0:0:0:0:
177,170,174239,1,2,0:0:0:0:
120,49,174387,1,10,0:3:0:0:
55,237,174536,6,0,B|112:230|112:230|164:258|164:258|230:252,1,180.000006866455,6|0,0:0|0:0,0:0:0:0:
305,277,174833,5,2,0:0:0:0:
112,347,174981,2,0,B|60:317|60:317|95:312,1,95.9999970703126,10|0,0:0|0:0,0:0:0:0:
305,277,175278,1,8,0:3:0:0:
305,277,175427,2,0,B|357:247|357:247|321:242,1,95.9999970703126,8|0,0:3|0:0,0:0:0:0:
150,121,175724,6,0,B|180:173|180:173|184:137,1,95.9999970703126,10|0,0:0|0:0,0:0:0:0:
55,237,176021,1,2,0:0:0:0:
2,97,176170,1,8,0:0:0:0:
184,137,176318,6,0,B|231:147|262:107|262:107|305:92|337:119,1,167.999994873047,6|0,0:0|0:0,0:0:0:0:
372,189,176615,1,2,0:0:0:0:
171,44,176764,1,8,0:3:0:0:
184,137,176912,2,0,P|169:91|171:44,1,95.9999970703126,8|0,0:0|0:0,0:0:0:0:
326,287,177209,5,2,0:0:0:0:
183,231,177358,2,0,B|176:188|176:188|184:137|184:137|160:91|171:44,1,191.999994140625,8|8,0:0|0:3,0:0:0:0:
244,286,177803,6,0,P|181:314|119:282,1,143.999995605469,10|0,0:3|0:0,0:0:0:0:
183,231,178100,1,10,0:2:0:0:
326,287,178249,1,8,0:3:0:0:
183,231,178397,2,0,P|172:180|195:119,1,95.9999970703126,2|8,0:0|0:3,0:0:0:0:
240,87,178620,1,8,0:3:0:0:
259,85,178694,5,14,0:0:0:0:
98,64,178843,1,8,0:3:0:0:
19,207,178991,1,8,0:3:0:0:
357,201,179140,5,14,0:0:0:0:
240,87,179288,1,8,0:3:0:0:
91,153,179437,1,8,0:3:0:0:
364,351,179585,5,14,0:2:0:0:
339,190,179734,1,8,0:3:0:0:
180,153,179882,1,8,0:3:0:0:
0,362,180031,5,12,0:0:0:0:
0,212,180179,2,0,L|-5:96,1,95.9999970703126,2|8,0:0|0:3,0:0:0:0:
32,49,180402,1,8,0:3:0:0:
41,33,180477,6,0,P|104:12|175:55,1,127.99999609375,10|8,0:0|0:3,0:0:0:0:
76,192,180774,5,10,0:3:0:0:
98,104,180873,1,8,0:3:0:0:
163,169,180972,1,8,0:3:0:0:
245,106,181071,6,0,B|200:123|200:123|156:187|204:245,1,180.000006866455,6|0,0:0|0:0,0:0:0:0:
203,244,181368,1,2,0:0:0:0:
355,189,181516,2,0,L|259:182,2,95.9999970703126,10|8|0,0:3|0:0|0:0,0:0:0:0:
467,313,181962,5,2,0:0:0:0:
302,351,182110,2,0,B|289:319|289:319|302:254,1,95.9999970703126,10|0,0:0|0:0,0:0:0:0:
321,22,182407,1,8,0:3:0:0:
321,22,182556,2,0,B|334:54|334:54|320:114,1,95.9999970703126,8|0,0:3|0:0,0:0:0:0:
46,71,182853,6,0,L|141:64,1,95.9999970703126,10|8,0:0|0:3,0:0:0:0:
301,258,183150,2,0,L|205:264,1,95.9999970703126,2|8,0:0|0:0,0:0:0:0:
0,18,183447,6,0,B|29:42|29:42|14:147,1,143.999995605469,10|0,0:3|0:0,0:0:0:0:
0,223,183744,1,2,0:0:0:0:
141,64,183892,1,10,0:3:0:0:
237,71,184041,6,0,L|141:64,1,95.9999970703126,8|0,0:0|0:0,0:0:0:0:
0,223,184338,5,2,0:0:0:0:
0,18,184486,1,10,0:2:0:0:
86,255,184635,5,2,0:3:0:0:
86,255,184783,1,8,0:3:0:0:
86,255,184932,2,0,P|47:227|1:223,1,95.9999970703126,8|0,0:3|0:0,0:0:0:0:
237,71,185229,2,0,P|275:43|321:39,1,95.9999970703126,8|8,0:0|0:3,0:0:0:0:
468,149,185526,5,2,0:3:0:0:
306,125,185675,1,10,0:0:0:0:
475,53,185823,2,0,L|468:149,1,95.9999970703126,4|0,0:0|0:0,0:0:0:0:
306,259,186120,5,2,0:0:0:0:
468,283,186269,1,10,0:3:0:0:
299,355,186417,2,0,L|306:259,1,95.9999970703126,10|0,0:0|0:0,0:0:0:0:
44,149,186714,5,2,0:0:0:0:
206,126,186863,1,10,0:0:0:0:
36,53,187011,2,0,L|44:149,1,95.9999970703126,2|8,0:0|0:3,0:0:0:0:
206,258,187308,5,2,0:3:0:0:
44,283,187457,1,0,0:0:0:0:
214,354,187605,2,0,L|206:258,1,95.9999970703126,10|8,0:0|0:3,0:0:0:0:
321,53,187902,6,0,B|293:54|274:67|274:67|250:70|228:61,1,95.9999970703126,2|8,0:0|0:3,0:0:0:0:
158,35,188125,1,8,0:3:0:0:
143,30,188199,5,6,0:0:0:0:
40,95,188348,1,8,0:3:0:0:
5,213,188496,1,8,0:3:0:0:
192,128,188645,6,0,P|153:118|96:119,1,80,10|0,0:3|0:0,0:0:0:0:
206,258,188942,2,0,P|212:230|226:206,1,40,8|8,0:3|0:3,0:0:0:0:
287,121,189090,6,0,B|312:94|312:94|325:48|300:6,2,128,12|8|0,0:0|0:3|0:0,0:0:0:0:
127,247,189536,6,0,B|102:244|86:227|86:227|109:203|151:186|198:192|222:226,1,191.999994140625,10|8,0:3|0:3,0:0:0:0:
228,299,189907,1,8,0:3:0:0:
232,319,189981,5,10,0:0:0:0:
287,121,190130,1,10,0:0:0:0:
329,319,190278,5,10,0:2:0:0:
192,128,190427,1,10,0:2:0:0:
82,338,190576,6,0,P|36:345|-8:322,1,88.000002685547,6|0,0:0|0:0,0:0:0:0:
192,128,190873,1,2,0:0:0:0:
180,213,191021,2,0,P|136:196|110:154,1,88.000002685547,10|0,0:0|0:3,0:0:0:0:
75,41,191318,5,0,0:0:0:0:
268,85,191467,2,0,P|285:125|278:167,1,88.000002685547,6|0,0:3|0:0,0:0:0:0:
287,250,191764,2,0,P|270:210|278:168,1,88.000002685547,2|8,0:0|0:3,0:0:0:0:
481,144,192061,5,2,0:0:0:0:
426,62,192209,2,0,P|385:45|343:52,2,88.000002685547,10|8|8,0:3|0:0|0:3,0:0:0:0:
287,250,192655,5,2,0:0:0:0:
377,133,192803,1,8,0:0:0:0:
320,330,192952,6,0,P|278:337|238:321,1,88.000002685547,6|0,0:0|0:0,0:0:0:0:
121,127,193249,1,2,0:0:0:0:
191,78,193397,2,0,P|207:119|200:161,1,88.000002685547,8|0,0:0|0:0,0:0:0:0:
261,29,193694,5,10,0:3:0:0:
121,127,193843,2,0,P|114:169|131:210,1,88.000002685547,6|0,0:3|0:0,0:0:0:0:
141,293,194140,2,0,P|148:250|131:210,1,88.000002685547,2|8,0:0|0:3,0:0:0:0:
0,41,194437,5,10,0:3:0:0:
61,261,194585,1,10,0:3:0:0:
30,151,194734,5,8,0:3:0:0:
141,293,194882,1,8,0:3:0:0:
175,32,195031,5,10,0:3:0:0:
61,261,195179,1,8,0:0:0:0:
324,153,195328,6,0,L|331:53,1,88.000002685547,6|0,0:0|0:0,0:0:0:0:
455,246,195625,1,8,0:3:0:0:
462,158,195774,2,0,L|455:58,1,88.000002685547,10|0,0:0|0:3,0:0:0:0:
324,153,196071,5,10,0:3:0:0:
449,334,196219,2,0,L|456:234,1,88.000002685547,6|0,0:3|0:0,0:0:0:0:
330,240,196516,2,0,L|323:140,1,88.000002685547,2|8,0:0|0:3,0:0:0:0:
449,334,196813,5,2,0:0:0:0:
456,246,196962,2,0,L|463:146,2,88.000002685547,10|8|8,0:3|0:0|0:3,0:0:0:0:
235,188,197407,5,2,0:0:0:0:
456,246,197556,1,8,0:0:0:0:
196,279,197704,6,0,P|153:273|108:272,2,88.000002685547,6|0|0,0:0|0:0|0:0,0:0:0:0:
410,331,198150,2,0,P|453:337|497:337,2,88.000002685547,8|0|0,0:0|0:0|0:3,0:0:0:0:
158,157,198595,5,10,0:0:0:0:
436,154,198744,1,10,0:3:0:0:
436,154,199041,6,0,B|303:96|290:212|157:157,1,287.999991210938,6|8,0:0|0:3,0:0:0:0:
19,93,199486,5,10,0:0:0:0:
88,124,199585,1,8,0:0:0:0:
95,199,199684,1,8,0:0:0:0:
162,246,199783,5,10,0:3:0:0:
94,214,199882,1,8,0:3:0:0:
36,265,199981,1,8,0:3:0:0:
156,334,200080,6,0,L|163:234,1,88.000002685547,6|0,0:0|0:0,0:0:0:0:
288,192,200377,1,2,0:0:0:0:
356,334,200526,2,0,L|349:234,1,88.000002685547,10|0,0:0|0:0,0:0:0:0:
156,334,200823,5,10,0:3:0:0:
162,138,200972,2,0,L|155:50,1,88.000002685547,6|0,0:3|0:0,0:0:0:0:
256,128,201269,2,0,L|256:40,1,88.000002685547,2|8,0:0|0:3,0:0:0:0:
349,246,201566,5,2,0:0:0:0:
350,138,201714,2,0,L|356:50,2,88.000002685547,10|8|8,0:3|0:0|0:3,0:0:0:0:
162,246,202160,5,2,0:0:0:0:
350,138,202308,1,10,0:0:0:0:
155,50,202457,2,0,L|67:43,1,88.000002685547,6|0,0:0|0:0,0:0:0:0:
256,128,202754,1,2,0:0:0:0:
356,50,202902,2,0,L|443:43,1,88.000002685547,10|0,0:0|0:0,0:0:0:0:
256,216,203199,5,10,0:3:0:0:
256,40,203348,2,0,L|256:136,1,88.000002685547,6|0,0:3|0:0,0:0:0:0:
256,216,203645,2,0,L|256:128,1,88.000002685547,2|8,0:0|0:3,0:0:0:0:
67,43,203942,5,2,0:0:0:0:
162,246,204090,1,10,0:3:0:0:
256,40,204239,5,12,0:0:0:0:
256,216,204387,1,8,0:3:0:0:
443,43,204536,5,6,0:0:0:0:
349,246,204684,1,2,0:0:0:0:
105,141,204833,6,0,P|49:135|7:145,2,95.9999970703126,6|0|0,0:0|0:0|0:0,0:0:0:0:
407,141,205278,2,0,P|463:135|505:145,2,95.9999970703126,10|0|0,0:3|0:0|0:0,0:0:0:0:
162,246,205724,6,0,P|106:252|64:242,2,95.9999970703126,10|0|8,0:3|0:0|0:0,0:0:0:0:
350,246,206170,2,0,P|406:252|448:242,2,95.9999970703126,10|0|0,0:3|0:0|0:0,0:0:0:0:
155,50,206615,6,0,P|173:105|174:147,1,95.9999970703126,2|0,0:0|0:0,0:0:0:0:
357,50,206912,2,0,P|339:105|338:147,1,95.9999970703126,10|0,0:3|0:0,0:0:0:0:
168,331,207209,6,0,P|221:307|277:324,1,120,14|0,0:0|0:0,0:0:0:0:
277,324,207506,2,0,P|228:283|163:284,1,132.00000402832,8|0,0:2|0:0,0:0:0:0:
162,284,207803,2,0,P|226:256|293:279,1,143.999995605469,8|0,0:2|0:0,0:0:0:0:
293,280,208100,2,0,P|235:230|159:231,1,155.999992858887,8|0,0:0|0:0,0:0:0:0:
159,231,208397,2,0,P|230:206|312:245,1,167.999994873047,8|0,0:0|0:0,0:0:0:0:
310,243,208694,2,0,P|252:177|150:169,1,180.000006866455,8|0,0:0|0:0,0:0:0:0:
165,165,208991,2,0,P|122:247|158:332,1,192,10|0,0:0|0:0,0:0:0:0:
158,332,209288,2,0,P|260:323|311:237,1,204.000003890991,8|0,0:0|0:0,0:0:0:0:
364,115,209585,5,14,0:0:0:0:
330,241,209734,1,8,0:3:0:0:
377,366,209882,1,8,0:3:0:0:
384,112,210031,5,14,0:2:0:0:
349,241,210179,1,8,0:3:0:0:
397,364,210328,1,8,0:3:0:0:
406,113,210477,5,10,0:0:0:0:
417,364,210625,1,10,0:0:0:0:
256,192,211962,5,6,0:2:0:0:
13,243,221467,6,0,P|48:224|110:238,1,90.0000034332277,14|0,0:1|0:0,0:0:0:0:
117,246,221764,2,0,L|163:238,1,30.0000011444092,2|0,2:1|0:0,0:0:0:0:
169,255,221912,2,0,L|215:252,1,30.0000011444092,10|0,0:3|0:0,0:0:0:0:
219,270,222061,2,0,L|305:276,1,60.0000022888184,8|0,0:0|0:0,0:0:0:0:
353,336,222358,1,2,0:1:0:0:
416,264,222506,2,0,B|423:234|409:206|409:206|403:167|428:145,1,120.000004577637,2|2,0:1|0:0,0:0:0:0:
500,72,222952,6,0,P|455:74|400:63,1,90.0000034332277,10|0,0:3|0:0,0:0:0:0:
383,70,223249,2,0,P|350:58|300:52,1,60.0000022888184,10|0,0:0|0:0,0:0:0:0:
301,66,223472,1,2,0:0:0:0:
281,84,223546,2,0,P|251:86|221:85,1,60.0000022888184,2|0,0:0|0:0,0:0:0:0:
129,27,223843,6,0,B|144:52|144:52|140:130,1,90.0000034332277,10|0,0:3|0:0,0:0:0:0:
126,135,224140,2,0,L|127:180,1,30.0000011444092,2|0,0:1|0:0,0:0:0:0:
141,187,224288,2,0,L|134:231,1,30.0000011444092,10|0,0:3|0:0,0:0:0:0:
115,234,224437,2,0,L|117:305,1,60.0000022888184,8|0,0:0|0:0,0:0:0:0:
37,348,224734,1,2,0:0:0:0:
0,260,224882,2,0,L|6:140,1,120.000004577637,2|2,0:1|0:0,0:0:0:0:
69,30,225328,6,0,P|96:32|140:23,1,60.0000022888184,8|0,0:3|0:0,0:0:0:0:
235,54,225625,2,0,P|257:47|284:43,2,40.000001525879,8|0|0,0:0|0:0|0:0,0:0:0:0:
280,126,225922,2,0,P|302:133|329:137,2,40.000001525879,2|0|0,0:0|0:0|0:0,0:0:0:0:
196,129,226219,6,0,B|171:155|171:155|156:195|184:239,1,120.000004577637,10|2,0:3|0:0,0:0:0:0:
283,273,226665,2,0,L|322:265,1,30.0000011444092,10|0,0:3|0:0,0:0:0:0:
336,279,226813,2,0,L|418:288,1,60.0000022888184,8|0,0:0|0:0,0:0:0:0:
482,349,227110,1,2,0:1:0:0:
463,219,227259,2,0,B|464:184|444:167|444:167|435:134|461:90,1,120.000004577637,2|2,0:2|0:0,0:0:0:0:
369,28,227704,6,0,P|348:28|313:21,3,30.0000011444092,10|0|0|0,0:3|0:0|0:0|0:0,0:0:0:0:
314,34,228001,2,0,P|279:28|239:31,1,60.0000022888184,10|0,0:0|0:0,0:0:0:0:
236,48,228224,1,2,0:0:0:0:
226,73,228298,2,0,L|221:149,1,60.0000022888184,2|0,0:0|0:0,0:0:0:0:
241,234,228595,6,0,P|252:191|239:149,1,90.0000034332277,10|0,0:3|0:0,0:0:0:0:
222,133,228892,2,0,L|191:128,1,30.0000011444092,2|0,0:0|0:0,0:0:0:0:
176,150,229041,2,0,L|146:154,1,30.0000011444092,10|0,0:3|0:0,0:0:0:0:
120,147,229189,2,0,L|51:137,1,60.0000022888184,8|0,0:0|0:0,0:0:0:0:
11,252,229486,6,2,B|57:236|104:249|83:263|145:301|187:295|212:267|213:234|189:217|163:213|143:237,1,264.000008056641,6|0,0:2|0:0,1:2:0:0:
14,335,230080,6,2,L|11:252,1,83.9999974365235,10|0,0:1|0:0,1:2:0:0:
33,348,230377,2,2,L|29:264,1,83.9999974365235,10|0,0:0|0:0,1:2:0:0:
52,361,230675,2,2,L|48:277,1,83.9999974365235,2|0,0:0|0:0,1:2:0:0:
101,207,230972,5,2,0:1:0:0:
129,307,231120,1,2,0:0:0:0:
220,214,231269,5,2,0:1:0:0:
119,188,231417,1,2,0:0:0:0:
154,313,231566,5,2,0:1:0:0:
227,238,231714,1,2,0:0:0:0:
10,188,231863,5,6,0:0:0:0:
10,188,232011,2,0,L|5:90,1,80,2|0,0:0|0:0,0:0:0:0:
91,38,232308,2,0,P|106:38|130:33,1,40,8|8,0:3|0:3,0:0:0:0:
232,116,232457,6,0,B|272:121|272:121|303:111|303:111|341:116,1,111.999996582031,12|8,0:0|0:3,0:0:0:0:
413,83,232679,1,8,0:3:0:0:
422,63,232754,6,0,L|426:-5,2,63.9999980468751,10|8|8,0:0|0:0|0:0,0:0:0:0:
399,170,233051,6,0,L|395:238,1,63.9999980468751,10|8,0:3|0:3,0:0:0:0:
450,328,233249,1,8,0:3:0:0:
487,248,233348,6,0,B|434:243|434:243|383:270|383:270|327:265,1,167.999994873047,6|0,0:0|0:0,0:0:0:0:
326,264,233645,1,2,0:0:0:0:
450,328,233793,1,10,0:3:0:0:
476,166,233942,6,0,B|417:160|417:160|360:190|360:190|303:185,1,180.000006866455,6|0,0:0|0:0,0:0:0:0:
247,245,234239,5,2,0:0:0:0:
215,41,234387,2,0,B|240:69|240:69|242:128,1,95.9999970703126,10|0,0:0|0:0,0:0:0:0:
274,332,234684,1,8,0:3:0:0:
274,332,234833,2,0,B|249:304|249:304|247:245,1,95.9999970703126,8|0,0:3|0:0,0:0:0:0:
138,79,235130,6,0,B|162:106|162:106|164:165,1,95.9999970703126,10|0,0:0|0:0,0:0:0:0:
54,292,235427,1,2,0:0:0:0:
86,143,235576,1,8,0:0:0:0:
247,245,235724,6,0,B|283:230|322:252|322:252|369:264|409:225,1,167.999994873047,6|0,0:0|0:0,0:0:0:0:
343,167,236021,1,2,0:0:0:0:
277,327,236170,1,8,0:3:0:0:
187,347,236318,2,0,P|229:325|277:327,1,95.9999970703126,8|0,0:0|0:0,0:0:0:0:
164,165,236615,5,2,0:0:0:0:
99,323,236764,2,0,B|133:357|187:347|187:347|227:312|277:327,1,191.999994140625,8|8,0:0|0:3,0:0:0:0:
424,174,237209,6,0,P|360:204|342:271,1,143.999995605469,10|0,0:3|0:0,0:0:0:0:
426,260,237506,1,10,0:2:0:0:
277,327,237655,1,8,0:3:0:0:
474,336,237803,6,0,P|462:290|426:260,1,95.9999970703126,2|8,0:0|0:3,0:0:0:0:
392,338,238026,1,8,0:3:0:0:
387,357,238100,5,14,0:0:0:0:
261,242,238249,1,8,0:3:0:0:
271,72,238397,1,8,0:3:0:0:
426,260,238546,5,14,0:0:0:0:
255,267,238694,1,8,0:3:0:0:
142,140,238843,1,8,0:3:0:0:
384,163,238991,5,14,0:2:0:0:
268,289,239140,1,8,0:3:0:0:
98,279,239288,1,8,0:3:0:0:
27,43,239437,5,12,0:0:0:0:
142,140,239585,2,0,B|176:138|176:138|201:148|201:148|235:145,1,95.9999970703126,2|8,0:0|0:3,0:0:0:0:
291,96,239808,1,8,0:3:0:0:
307,87,239882,6,0,B|344:69|344:69|381:79|381:79|443:74,1,127.99999609375,10|8,0:0|0:3,0:0:0:0:
511,222,240179,5,10,0:3:0:0:
469,149,240278,1,8,0:3:0:0:
428,221,240377,1,8,0:3:0:0:
358,161,240477,6,0,B|401:182|401:182|413:267|413:267|378:299,1,180.000006866455,6|0,0:0|0:0,0:0:0:0:
379,298,240774,1,2,0:0:0:0:
230,229,240922,2,0,B|288:223|288:223|325:235,2,95.9999970703126,10|8|0,0:3|0:0|0:0,0:0:0:0:
60,188,241368,5,2,0:0:0:0:
207,308,241516,2,0,B|243:319|243:319|301:313,1,95.9999970703126,10|0,0:0|0:0,0:0:0:0:
452,166,241813,1,8,0:3:0:0:
452,166,241962,2,0,B|415:154|415:154|357:160,1,95.9999970703126,8|0,0:3|0:0,0:0:0:0:
511,9,242259,6,0,B|478:28|478:28|421:37,1,95.9999970703126,10|8,0:0|0:3,0:0:0:0:
269,189,242556,2,0,B|301:169|301:169|358:160,1,95.9999970703126,2|8,0:0|0:0,0:0:0:0:
132,13,242853,6,0,B|174:46|174:46|183:136,1,143.999995605469,10|0,0:3|0:0,0:0:0:0:
143,207,243150,1,2,0:0:0:0:
95,90,243298,1,10,0:3:0:0:
5,61,243447,2,0,B|37:80|37:80|94:89,1,95.9999970703126,8|0,0:0|0:0,0:0:0:0:
269,189,243744,5,2,0:0:0:0:
132,13,243892,1,10,0:2:0:0:
143,207,244041,5,2,0:3:0:0:
143,207,244189,1,8,0:3:0:0:
143,207,244338,2,0,L|139:313,1,95.9999970703126,8|0,0:3|0:0,0:0:0:0:
267,101,244635,2,0,L|270:-5,1,95.9999970703126,8|8,0:0|0:3,0:0:0:0:
407,229,244932,5,2,0:3:0:0:
267,101,245080,1,10,0:0:0:0:
407,229,245229,2,0,P|362:209|316:216,1,95.9999970703126,4|0,0:0|0:0,0:0:0:0:
140,302,245526,5,2,0:0:0:0:
317,216,245675,1,10,0:3:0:0:
140,302,245823,2,0,P|168:263|211:245,1,95.9999970703126,10|0,0:0|0:0,0:0:0:0:
385,123,246120,5,2,0:0:0:0:
211,245,246269,1,10,0:0:0:0:
385,123,246417,2,0,P|337:126|295:106,1,95.9999970703126,2|8,0:0|0:3,0:0:0:0:
130,48,246714,5,2,0:3:0:0:
295,106,246863,1,0,0:0:0:0:
39,42,247011,2,0,P|83:58|129:49,1,95.9999970703126,10|8,0:0|0:3,0:0:0:0:
385,90,247308,6,0,P|338:85|296:106,1,95.9999970703126,2|8,0:0|0:3,0:0:0:0:
265,176,247531,1,8,0:3:0:0:
263,192,247605,5,6,0:0:0:0:
170,116,247754,1,8,0:3:0:0:
50,128,247902,1,8,0:3:0:0:
180,268,248051,6,0,P|188:230|178:191,1,80,10|0,0:3|0:0,0:0:0:0:
73,227,248348,2,0,P|93:227|113:232,1,40,8|8,0:3|0:3,0:0:0:0:
205,345,248496,6,0,B|162:344|162:344|125:324|125:324|81:323,2,128,12|8|0,0:0|0:3|0:0,0:0:0:0:
396,119,248942,6,0,B|348:95|348:95|290:162|325:229,1,191.999994140625,10|8,0:3|0:3,0:0:0:0:
350,292,249313,1,8,0:3:0:0:
350,312,249387,5,10,0:0:0:0:
488,146,249536,1,10,0:0:0:0:
442,339,249684,5,10,0:2:0:0:
396,119,249833,1,10,0:2:0:0:
265,333,249981,6,0,B|207:355|207:355|147:360|115:315,1,167.999994873047,6|0,0:0|0:0,0:0:0:0:
115,315,250427,1,10,0:3:0:0:
183,192,250576,2,0,L|187:288,1,83.9999974365235,4|0,0:3|0:0,0:0:0:0:
44,271,250873,2,0,L|40:187,1,83.9999974365235,10|0,0:0|0:0,0:0:0:0:
129,45,251170,6,0,P|170:46|211:34,1,83.9999974365235,6|8,0:3|0:3,0:0:0:0:
218,41,251615,1,2,0:0:0:0:
218,41,251689,1,2,0:0:0:0:
217,41,251764,2,0,P|195:77|185:118,1,83.9999974365235,14|0,0:3|0:0,0:0:0:0:
299,52,252061,2,0,P|258:40|217:41,1,83.9999974365235,10|0,0:3|0:0,0:0:0:0:
412,119,252358,6,0,P|356:132|301:43,1,167.999994873047,4|0,0:0|0:0,0:0:0:0:
299,51,252803,1,10,0:3:0:0:
410,203,252952,2,0,L|413:93,1,83.9999974365235,4|0,0:3|0:0,0:0:0:0:
304,234,253249,2,0,L|301:150,1,83.9999974365235,10|0,0:0|0:0,0:0:0:0:
341,313,253546,6,0,P|300:321|259:311,1,83.9999974365235,6|8,0:3|0:3,0:0:0:0:
266,318,253991,1,2,0:0:0:0:
266,318,254066,1,2,0:0:0:0:
266,318,254140,2,0,P|225:309|184:319,1,83.9999974365235,14|0,0:3|0:0,0:0:0:0:
32,362,254437,2,0,P|73:371|114:361,1,83.9999974365235,10|0,0:3|0:0,0:0:0:0:
100,197,254734,6,0,B|77:152|77:152|72:270,1,167.999994873047,6|0,0:0|0:0,0:0:0:0:
72,269,255179,1,10,0:3:0:0:
181,196,255328,2,0,P|140:187|99:197,1,83.9999974365235,6|0,0:3|0:0,0:0:0:0:
184,318,255625,2,0,P|225:327|266:317,1,83.9999974365235,10|0,0:0|0:0,0:0:0:0:
140,126,255922,6,0,P|112:156|100:196,1,83.9999974365235,4|8,0:3|0:3,0:0:0:0:
107,203,256368,1,2,0:0:0:0:
107,203,256442,1,2,0:0:0:0:
107,203,256516,2,0,P|95:163|66:132,1,83.9999974365235,14|0,0:3|0:0,0:0:0:0:
222,107,256813,2,0,P|233:67|262:36,1,83.9999974365235,10|0,0:3|0:0,0:0:0:0:
458,174,257110,6,0,P|402:115|321:116,1,167.999994873047,6|0,0:3|0:0,0:0:0:0:
320,116,257556,1,10,0:3:0:0:
360,291,257704,2,0,L|364:207,1,83.9999974365235,4|0,0:3|0:0,0:0:0:0:
458,174,258001,2,0,L|462:258,1,83.9999974365235,10|0,0:0|0:0,0:0:0:0:
462,258,258298,5,8,0:3:0:0:
320,116,258447,2,0,B|278:101|242:127|242:127|193:142|153:105,1,167.999994873047,4|8,0:0|0:3,0:0:0:0:
54,12,258892,5,6,0:3:0:0:
72,170,259041,1,10,0:3:0:0:
63,91,259189,5,2,0:0:0:0:
81,249,259338,1,2,0:0:0:0:
242,123,259486,6,0,P|203:108|162:112,1,83.9999974365235,6|8,0:0|0:3,0:0:0:0:
161,112,259932,2,0,P|199:127|241:123,1,83.9999974365235,10|0,0:3|0:0,0:0:0:0:
378,31,260229,1,8,0:3:0:0:
378,31,260303,1,8,0:3:0:0:
378,31,260377,2,0,P|345:56|327:94,1,83.9999974365235,10|0,0:0|0:3,0:0:0:0:
327,93,260823,6,0,B|343:142|310:185|310:185|296:219|316:254,1,167.999994873047,10|0,0:0|0:3,0:0:0:0:
466,222,261269,2,0,P|427:207|387:214,1,83.9999974365235,10|8,0:0|0:3,0:0:0:0:
269,316,261566,2,0,P|308:331|349:324,1,83.9999974365235,2|8,0:0|0:3,0:0:0:0:
355,331,261788,1,8,0:3:0:0:
355,331,261863,6,0,P|395:324|434:339,1,83.9999974365235,10|0,0:0|0:0,0:0:0:0:
435,339,262308,2,0,L|449:159,1,167.999994873047,10|8,0:0|0:3,0:0:0:0:
448,171,262679,1,8,0:3:0:0:
455,178,262754,2,0,P|414:184|375:169,1,83.9999974365235,10|8,0:0|0:3,0:0:0:0:
375,169,263199,6,0,B|332:154|290:182|290:182|247:187|196:154,1,167.999994873047,8|8,0:0|0:3,0:0:0:0:
221,171,263571,1,8,0:3:0:0:
221,171,263645,2,0,L|229:258,1,83.9999974365235,10|8,0:0|0:3,0:0:0:0:
119,340,263942,2,0,L|111:253,1,83.9999974365235,2|8,0:0|0:3,0:0:0:0:
118,263,264165,1,8,0:3:0:0:
118,263,264239,6,0,P|78:256|39:271,1,83.9999974365235,6|0,0:0|0:3,0:0:0:0:
38,271,264684,2,0,P|78:278|117:263,1,83.9999974365235,10|0,0:0|0:0,0:0:0:0:
282,292,264981,1,8,0:3:0:0:
282,292,265056,1,8,0:3:0:0:
282,292,265130,2,0,P|241:285|202:300,1,83.9999974365235,10|8,0:0|0:3,0:0:0:0:
202,299,265576,6,0,B|223:254|195:209|195:209|188:161|222:137,1,167.999994873047,10|8,0:0|0:3,0:0:0:0:
222,148,265947,1,8,0:3:0:0:
222,148,266021,2,0,L|318:144,1,83.9999974365235,10|8,0:0|0:3,0:0:0:0:
235,29,266318,2,0,L|139:33,1,83.9999974365235,2|8,0:0|0:3,0:0:0:0:
158,39,266541,1,8,0:3:0:0:
158,39,266615,6,0,L|62:43,1,83.9999974365235,14|8,0:0|0:3,0:0:0:0:
74,42,267061,2,0,B|52:90|83:135|83:135|93:167|54:214,1,167.999994873047,14|8,0:3|0:3,0:0:0:0:
71,206,267432,1,8,0:3:0:0:
71,206,267506,6,0,L|-26:202,2,83.9999974365235,14|8|8,0:3|0:3|0:2,0:0:0:0:
299,312,267952,2,0,L|382:315,2,83.9999974365235,10|8|8,0:3|0:3|0:3,0:0:0:0:
292,325,268323,1,0,0:3:0:0:
285,338,268397,5,10,0:0:0:0:
161,222,268546,1,8,0:0:0:0:
304,166,268694,6,0,L|311:108,1,41.9999987182618,10|8,0:3|0:3,0:0:0:0:
192,106,268843,2,0,L|185:48,1,41.9999987182618,10|8,0:3|0:3,0:0:0:0:
256,8,268991,5,6,0:0:0:0:
