osu file format v14

[General]
AudioFilename: audio.mp3
AudioLeadIn: 0
PreviewTime: 328
Countdown: 0
SampleSet: Soft
StackLeniency: 0.7
Mode: 0
LetterboxInBreaks: 0
WidescreenStoryboard: 1

[Editor]
DistanceSpacing: 2.2
BeatDivisor: 4
GridSize: 32
TimelineZoom: 1.8

[Metadata]
Title:mirage
TitleUnicode:mirage
Artist:Shimotsuki Haruka, Nakae Mitsuki
ArtistUnicode:霜月はるか・中恵光城
Creator:Lasse
Version:Hard
Source:
Tags:しちごさん。×ABSOLUTE CASTAWAY 753 Another Flower II 2 Cross bouquet M3-35 日山 尚 Hiyama Nao 戀伊江 梓 幾丹弥吹 Mir Kalibe
BeatmapID:1376863
BeatmapSetID:646714

[Difficulty]
HPDrainRate:5
CircleSize:3.6
OverallDifficulty:6
ApproachRate:7.5
SliderMultiplier:2.64
SliderTickRate:1

[Events]
//Background and Video events
0,0,"bg.jpg",0,0
//Break Periods
2,98102,103315
2,212162,220642
//Storyboard Layer 0 (Background)
//Storyboard Layer 1 (Fail)
//Storyboard Layer 2 (Pass)
//Storyboard Layer 3 (Foreground)
//Storyboard Sound Samples

[TimingPoints]
477,594.059405940594,4,2,22,20,1,0
477,-200,4,2,22,20,0,0
9090,-142.857142857143,4,2,22,20,0,0
9981,-166.666666666667,4,2,22,24,0,0
10278,-166.666666666667,4,2,22,12,0,0
10427,-166.666666666667,4,2,22,24,0,0
10724,-166.666666666667,4,2,22,12,0,0
10873,-166.666666666667,4,2,22,24,0,0
11318,-166.666666666667,4,2,22,12,0,0
11467,-166.666666666667,4,2,22,24,0,0
12655,-166.666666666667,4,2,22,12,0,0
12803,-166.666666666667,4,2,22,24,0,0
13100,-166.666666666667,4,2,22,12,0,0
13249,-166.666666666667,4,2,22,24,0,0
13694,-166.666666666667,4,2,22,12,0,0
13843,-166.666666666667,4,2,22,24,0,0
15031,-166.666666666667,4,2,22,12,0,0
15179,-166.666666666667,4,2,22,24,0,0
15477,-166.666666666667,4,2,22,12,0,0
15625,-166.666666666667,4,2,22,24,0,0
16071,-166.666666666667,4,2,22,12,0,0
16219,-166.666666666667,4,2,22,24,0,0
17407,-166.666666666667,4,2,22,12,0,0
17556,-166.666666666667,4,2,22,24,0,0
17853,-166.666666666667,4,2,22,12,0,0
18001,-166.666666666667,4,2,22,24,0,0
18447,-166.666666666667,4,2,22,12,0,0
18595,-125,4,2,22,24,0,0
19486,-125,4,2,22,30,0,0
28694,-125,4,2,22,26,0,0
28991,-125,4,2,22,30,0,0
37902,-125,4,2,22,34,0,0
38199,-125,4,2,22,36,0,0
38496,-100,4,2,1,40,0,0
38719,-100,4,2,99,5,0,0
38793,-100,4,2,1,40,0,0
41095,-100,4,2,99,5,0,0
41170,-100,4,2,1,40,0,0
43472,-100,4,2,99,5,0,0
43546,-100,4,2,1,40,0,0
48224,-100,4,2,99,5,0,0
48298,-100,4,2,1,40,0,0
50600,-100,4,2,99,5,0,0
50675,-100,4,2,1,40,0,0
52457,-100,4,2,1,42,0,0
52902,-100,4,2,1,20,0,0
53051,-100,4,2,1,42,0,0
53496,-100,4,2,1,20,0,0
53645,-100,4,2,1,42,0,0
54090,-100,4,2,1,40,0,0
54239,-100,4,2,1,46,0,0
54536,-100,4,2,1,48,0,0
54833,-100,4,2,14,50,0,0
55130,-100,4,2,1,54,0,0
55576,-100,4,2,2,56,0,0
55725,-100,4,2,1,56,0,0
56021,-100,4,2,1,58,0,0
56467,-100,4,2,14,60,0,0
56615,-125,4,2,14,60,0,0
56912,-125,4,2,1,40,0,0
57506,-90.9090909090909,4,2,1,62,0,1
57729,-90.9090909090909,4,2,99,5,0,1
57803,-90.9090909090909,4,2,1,62,0,1
60105,-90.9090909090909,4,2,99,5,0,1
60179,-90.9090909090909,4,2,1,62,0,1
62481,-90.9090909090909,4,2,99,5,0,1
62556,-90.9090909090909,4,2,1,62,0,1
63967,-90.9090909090909,4,2,99,5,0,1
64041,-90.9090909090909,4,2,1,62,0,1
64561,-90.9090909090909,4,2,1,62,0,0
64635,-90.9090909090909,4,2,1,62,0,1
65080,-90.9090909090909,4,2,2,62,0,1
65229,-90.9090909090909,4,2,1,62,0,1
66120,-100,4,2,1,62,0,1
66417,-90.9090909090909,4,2,1,62,0,0
66615,-90.9090909090909,4,2,14,62,0,0
67011,-90.9090909090909,4,2,1,62,0,1
67234,-90.9090909090909,4,2,99,5,0,1
67308,-90.9090909090909,4,2,1,62,0,1
69610,-90.9090909090909,4,2,99,5,0,1
69684,-90.9090909090909,4,2,1,62,0,1
73472,-90.9090909090909,4,2,99,5,0,1
73546,-90.9090909090909,4,2,1,62,0,1
76120,-90.9090909090909,4,2,1,60,0,1
76516,-100,4,2,22,62,0,0
76553,-100,4,2,22,40,0,0
76813,-100,4,2,22,60,0,0
76887,-100,4,2,99,5,0,0
76962,-100,4,2,22,60,0,0
77036,-100,4,2,99,5,0,0
77110,-100,4,2,22,60,0,0
77184,-100,4,2,99,5,0,0
77259,-100,4,2,22,60,0,0
77333,-100,4,2,99,5,0,0
77407,-100,4,2,1,62,0,1
78001,-90.9090909090909,4,2,1,62,0,1
78595,-90.9090909090909,4,2,14,62,0,0
78892,-90.9090909090909,4,2,1,62,0,1
79115,-90.9090909090909,4,2,99,5,0,1
79189,-90.9090909090909,4,2,1,62,0,1
79486,-90.9090909090909,4,2,2,62,0,1
79709,-90.9090909090909,4,2,99,5,0,1
79783,-90.9090909090909,4,2,1,62,0,1
81491,-90.9090909090909,4,2,99,5,0,1
81566,-90.9090909090909,4,2,1,62,0,1
82977,-90.9090909090909,4,2,99,5,0,1
83051,-90.9090909090909,4,2,1,62,0,1
83571,-90.9090909090909,4,2,1,62,0,0
83645,-90.9090909090909,4,2,1,62,0,1
84090,-90.9090909090909,4,2,2,62,0,1
84239,-90.9090909090909,4,2,1,62,0,1
85130,-100,4,2,1,62,0,1
85427,-100,4,2,1,62,0,0
85625,-100,4,2,14,62,0,0
86021,-90.9090909090909,4,2,1,62,0,1
86244,-90.9090909090909,4,2,99,5,0,1
86318,-90.9090909090909,4,2,1,62,0,1
88620,-90.9090909090909,4,2,99,5,0,1
88694,-90.9090909090909,4,2,1,62,0,1
95526,-125,4,2,22,50,0,0
95823,-125,4,2,22,45,0,0
95972,-125,4,2,22,40,0,0
96417,-125,4,2,22,30,0,0
96491,-125,4,2,22,10,0,0
97902,-125,4,2,99,20,0,0
104140,-200,4,2,22,20,0,0
105031,-142.857142857143,4,2,22,34,0,0
113942,-142.857142857143,4,2,22,36,0,0
114090,-142.857142857143,4,2,22,42,0,0
114239,-142.857142857143,4,2,22,44,0,0
114387,-142.857142857143,4,2,22,46,0,0
114536,-111.111111111111,4,2,1,50,0,0
114759,-111.111111111111,4,2,99,5,0,0
114833,-111.111111111111,4,2,1,44,0,0
117135,-111.111111111111,4,2,99,5,0,0
117209,-111.111111111111,4,2,1,44,0,0
119511,-111.111111111111,4,2,99,5,0,0
119585,-111.111111111111,4,2,1,44,0,0
121887,-111.111111111111,4,2,99,5,0,0
121962,-111.111111111111,4,2,1,44,0,0
123001,-90.9090909090909,4,2,1,44,0,0
123298,-111.111111111111,4,2,1,44,0,0
123744,-111.111111111111,4,2,14,44,0,0
124041,-111.111111111111,4,2,1,44,0,0
124264,-111.111111111111,4,2,99,5,0,0
124338,-111.111111111111,4,2,1,44,0,0
126640,-111.111111111111,4,2,99,5,0,0
126714,-111.111111111111,4,2,1,44,0,0
129016,-111.111111111111,4,2,99,5,0,0
129090,-111.111111111111,4,2,1,44,0,0
131392,-111.111111111111,4,2,99,5,0,0
131467,-111.111111111111,4,2,1,44,0,0
132506,-90.9090909090909,4,2,1,44,0,0
132803,-100,4,2,1,44,0,0
133249,-117.647058823529,4,2,14,40,0,0
133546,-142.857142857143,4,2,22,34,0,0
135477,-142.857142857143,4,2,22,20,0,0
135625,-142.857142857143,4,2,22,34,0,0
137853,-142.857142857143,4,2,22,20,0,0
138001,-142.857142857143,4,2,22,34,0,0
138150,-142.857142857143,4,2,22,20,0,0
138298,-142.857142857143,4,2,22,34,0,0
140229,-142.857142857143,4,2,22,20,0,0
140377,-142.857142857143,4,2,22,34,0,0
141046,-142.857142857143,4,2,99,5,0,0
141120,-142.857142857143,4,2,22,34,0,0
141491,-142.857142857143,4,2,99,5,0,0
141566,-142.857142857143,4,2,22,34,0,0
142011,-142.857142857143,4,2,22,20,0,0
142160,-142.857142857143,4,2,22,34,0,0
142308,-142.857142857143,4,2,22,20,0,0
142457,-142.857142857143,4,2,22,34,0,0
142605,-142.857142857143,4,2,22,20,0,0
142754,-142.857142857143,4,2,22,34,0,0
143051,-105.263157894737,4,2,1,40,0,0
143274,-105.263157894737,4,2,99,5,0,0
143348,-105.263157894737,4,2,1,40,0,0
147506,-100,4,2,1,42,0,0
147952,-100,4,2,1,20,0,0
148100,-100,4,2,1,42,0,0
148546,-100,4,2,1,20,0,0
148694,-100,4,2,1,42,0,0
149140,-100,4,2,1,40,0,0
149288,-100,4,2,1,46,0,0
149585,-100,4,2,1,48,0,0
149882,-100,4,2,14,50,0,0
150179,-100,4,2,1,54,0,0
150625,-100,4,2,2,56,0,0
150774,-100,4,2,1,56,0,0
151071,-100,4,2,1,58,0,0
151516,-100,4,2,14,60,0,0
151665,-125,4,2,14,60,0,0
151962,-125,4,2,1,40,0,0
152556,-90.9090909090909,4,2,1,62,0,1
152778,-90.9090909090909,4,2,99,5,0,1
152853,-90.9090909090909,4,2,1,62,0,1
155155,-90.9090909090909,4,2,99,5,0,1
155229,-90.9090909090909,4,2,1,62,0,1
157531,-90.9090909090909,4,2,99,5,0,1
157605,-90.9090909090909,4,2,1,62,0,1
159016,-90.9090909090909,4,2,99,5,0,1
159090,-90.9090909090909,4,2,1,62,0,1
159610,-90.9090909090909,4,2,1,62,0,0
159684,-90.9090909090909,4,2,1,62,0,1
161170,-100,4,2,1,62,0,1
161467,-90.9090909090909,4,2,1,62,0,0
161665,-90.9090909090909,4,2,14,62,0,0
162061,-90.9090909090909,4,2,1,62,0,1
162283,-90.9090909090909,4,2,99,5,0,1
162358,-90.9090909090909,4,2,1,62,0,1
164660,-90.9090909090909,4,2,99,5,0,1
164734,-90.9090909090909,4,2,1,62,0,1
168521,-90.9090909090909,4,2,99,5,0,1
168595,-90.9090909090909,4,2,1,62,0,1
171170,-90.9090909090909,4,2,1,60,0,1
171566,-100,4,2,22,62,0,0
171603,-100,4,2,22,40,0,0
171863,-100,4,2,22,60,0,0
171937,-100,4,2,99,5,0,0
172011,-100,4,2,22,60,0,0
172085,-100,4,2,99,5,0,0
172160,-100,4,2,22,60,0,0
172234,-100,4,2,99,5,0,0
172308,-100,4,2,22,60,0,0
172382,-100,4,2,99,5,0,0
172457,-100,4,2,1,62,0,1
173051,-90.9090909090909,4,2,1,62,0,1
173645,-90.9090909090909,4,2,14,62,0,0
173942,-90.9090909090909,4,2,1,62,0,1
174165,-90.9090909090909,4,2,99,5,0,1
174239,-90.9090909090909,4,2,1,62,0,1
174536,-90.9090909090909,4,2,2,62,0,1
174759,-90.9090909090909,4,2,99,5,0,1
174833,-90.9090909090909,4,2,1,62,0,1
176541,-90.9090909090909,4,2,99,5,0,1
176615,-90.9090909090909,4,2,1,62,0,1
178026,-90.9090909090909,4,2,99,5,0,1
178100,-90.9090909090909,4,2,1,62,0,1
178620,-90.9090909090909,4,2,1,62,0,0
178694,-90.9090909090909,4,2,1,62,0,1
180179,-100,4,2,1,62,0,1
180477,-90.9090909090909,4,2,1,62,0,0
180675,-90.9090909090909,4,2,14,62,0,0
181071,-90.9090909090909,4,2,1,62,0,1
181293,-90.9090909090909,4,2,99,5,0,1
181368,-90.9090909090909,4,2,1,62,0,1
183670,-90.9090909090909,4,2,99,5,0,1
183744,-90.9090909090909,4,2,1,62,0,1
190576,-100,4,2,1,56,0,0
191467,-100,4,2,2,56,0,0
191615,-100,4,2,1,56,0,0
193843,-100,4,2,2,56,0,0
193991,-100,4,2,1,56,0,0
196219,-100,4,2,2,56,0,0
196368,-100,4,2,1,56,0,0
199041,-83.3333333333333,4,2,2,68,0,0
199338,-100,4,2,1,56,0,0
199783,-100,4,2,14,56,0,0
200080,-100,4,2,1,56,0,0
200972,-100,4,2,2,56,0,0
201120,-100,4,2,1,56,0,0
203348,-100,4,2,2,56,0,0
203496,-100,4,2,1,56,0,0
204536,-100,4,2,2,56,0,0
204684,-90.9090909090909,4,2,1,56,0,0
204833,-83.3333333333333,4,2,1,58,0,0
206021,-83.3333333333333,4,2,1,44,0,0
206170,-83.3333333333333,4,2,1,56,0,0
207209,-100,4,2,56,56,0,0
207432,-100,4,2,99,5,0,0
207506,-100,4,2,56,56,0,0
207729,-100,4,2,99,5,0,0
207803,-100,4,2,56,58,0,0
208026,-100,4,2,99,5,0,0
208100,-100,4,2,56,60,0,0
208323,-100,4,2,99,5,0,0
208397,-100,4,2,56,62,0,0
208620,-100,4,2,99,5,0,0
208694,-100,4,2,56,56,0,0
208917,-100,4,2,99,5,0,0
208991,-100,4,2,56,66,0,0
209214,-100,4,2,99,5,0,0
209288,-100,4,2,56,68,0,0
209511,-100,4,2,99,5,0,0
209585,-100,4,2,1,62,0,0
209734,-100,4,2,1,56,0,0
210031,-100,4,2,2,56,0,0
210179,-100,4,2,1,56,0,0
210774,-200,4,2,1,56,0,0
211962,-200,4,2,22,50,0,0
221467,-133.333333333333,4,2,22,40,0,0
221689,-133.333333333333,4,2,99,5,0,0
221764,-133.333333333333,4,2,22,40,0,0
221838,-133.333333333333,4,2,22,20,0,0
221912,-133.333333333333,4,2,22,40,0,0
221986,-133.333333333333,4,2,22,20,0,0
222060,-133.333333333333,4,2,22,40,0,0
223175,-133.333333333333,4,2,99,5,0,0
223250,-133.333333333333,4,2,22,40,0,0
224066,-133.333333333333,4,2,99,5,0,0
224141,-133.333333333333,4,2,22,40,0,0
224214,-133.333333333333,4,2,22,20,0,0
224288,-133.333333333333,4,2,22,40,0,0
224363,-133.333333333333,4,2,22,20,0,0
224437,-133.333333333333,4,2,22,40,0,0
226739,-133.333333333333,4,2,22,20,0,0
226813,-133.333333333333,4,2,22,40,0,0
227778,-133.333333333333,4,2,22,20,0,0
228001,-133.333333333333,4,2,22,40,0,0
228818,-133.333333333333,4,2,99,5,0,0
228892,-133.333333333333,4,2,22,40,0,0
228967,-133.333333333333,4,2,22,20,0,0
229041,-133.333333333333,4,2,22,40,0,0
229115,-133.333333333333,4,2,22,20,0,0
229189,-133.333333333333,4,2,22,40,0,0
229486,-90.9090909090909,4,2,22,44,0,0
229932,-90.9090909090909,4,2,22,22,0,0
230080,-142.857142857143,4,2,22,40,0,0
230303,-142.857142857143,4,2,99,5,0,0
230377,-142.857142857143,4,2,22,42,0,0
230600,-142.857142857143,4,2,99,5,0,0
230675,-142.857142857143,4,2,22,44,0,0
230897,-142.857142857143,4,2,99,5,0,0
230972,-111.111111111111,4,2,22,50,0,0
231269,-111.111111111111,4,2,22,52,0,0
231566,-111.111111111111,4,2,22,54,0,0
231863,-100,4,2,1,62,0,1
232457,-90.9090909090909,4,2,1,62,0,1
233051,-90.9090909090909,4,2,14,62,0,0
233348,-90.9090909090909,4,2,1,62,0,1
233571,-90.9090909090909,4,2,99,5,0,1
233645,-90.9090909090909,4,2,1,62,0,1
233942,-90.9090909090909,4,2,2,62,0,1
234165,-90.9090909090909,4,2,99,5,0,1
234239,-90.9090909090909,4,2,1,62,0,1
235947,-90.9090909090909,4,2,99,5,0,1
236021,-90.9090909090909,4,2,1,62,0,1
237432,-90.9090909090909,4,2,99,5,0,1
237506,-90.9090909090909,4,2,1,62,0,1
238026,-90.9090909090909,4,2,1,62,0,0
238100,-90.9090909090909,4,2,1,62,0,1
239585,-100,4,2,1,62,0,1
239882,-90.9090909090909,4,2,1,62,0,0
240080,-90.9090909090909,4,2,14,62,0,0
240477,-90.9090909090909,4,2,1,62,0,1
240699,-90.9090909090909,4,2,99,5,0,1
240774,-90.9090909090909,4,2,1,62,0,1
243076,-90.9090909090909,4,2,99,5,0,1
243150,-90.9090909090909,4,2,1,62,0,1
249981,-100,4,2,1,56,0,0
250130,-100,4,2,1,52,0,0
250576,-100,4,2,2,52,0,0
250724,-100,4,2,1,52,0,0
251170,-100,4,2,2,52,0,0
251318,-100,4,2,1,52,0,0
251764,-100,4,2,3,52,0,0
251912,-100,4,2,1,52,0,0
252358,-100,4,2,2,52,0,0
252506,-100,4,2,1,52,0,0
252952,-100,4,2,2,52,0,0
253100,-100,4,2,1,52,0,0
253546,-100,4,2,2,52,0,0
253694,-100,4,2,1,52,0,0
254140,-100,4,2,3,52,0,0
254288,-100,4,2,1,52,0,0
255328,-100,4,2,2,52,0,0
255476,-100,4,2,1,52,0,0
255922,-100,4,2,2,52,0,0
256071,-100,4,2,1,52,0,0
256516,-100,4,2,3,52,0,0
256665,-100,4,2,1,52,0,0
257110,-100,4,2,2,52,0,0
257258,-100,4,2,1,52,0,0
257704,-100,4,2,2,52,0,0
257852,-100,4,2,1,52,0,0
258892,-100,4,2,2,50,0,0
259041,-100,4,2,1,50,0,0
259189,-100,4,2,1,48,0,0
259338,-100,4,2,1,46,0,0
259486,-100,4,2,1,56,0,0
259635,-100,4,2,1,52,0,0
264239,-100,4,2,2,52,0,0
264387,-100,4,2,1,52,0,0
267061,-100,4,2,2,52,0,0
267210,-100,4,2,1,52,0,0
267803,-100,4,2,1,40,0,0
267952,-100,4,2,1,50,0,0
268397,-100,4,2,1,46,0,0
268694,-100,4,2,1,44,0,0
268769,-100,4,2,1,34,0,0
268843,-100,4,2,1,44,0,0
268917,-100,4,2,1,34,0,0
268991,-142.857142857143,4,2,22,40,0,0

[Colours]
Combo1 : 250,140,150
Combo2 : 150,150,150
Combo3 : 233,107,136
Combo4 : 200,200,200

[HitObjects]
180,301,477,6,0,L|66:295,2,99,6|2|2,0:1|0:2|0:2,0:0:0:0:
256,192,1962,2,0,L|256:117,2,66,2|2|2,0:1|0:0|0:0,0:0:0:0:
332,235,2853,6,0,L|446:229,2,99,2|2|2,0:1|0:2|0:2,0:0:0:0:
256,126,4338,2,0,L|256:51,2,66,2|2|2,0:1|0:0|0:0,0:0:0:0:
191,186,5229,6,0,L|77:180,2,99,2|2|2,0:1|0:2|0:2,0:0:0:0:
316,226,6714,2,0,L|394:221,2,66,2|2|2,0:1|0:0|0:0,0:0:0:0:
243,274,7605,6,0,L|137:274,2,99,2|2|2,0:1|0:2|0:2,0:0:0:0:
386,194,9090,6,2,B|396:167|396:167|383:140|389:105,2,92.3999971801759,2|2|2,0:1|0:0|0:0,1:2:0:0:
355,283,9981,5,14,0:1:0:0:
256,179,10427,1,2,0:0:0:0:
157,283,10873,1,2,0:0:0:0:
157,283,11467,2,0,L|66:277,2,79.1999975830079,2|2|2,0:1|0:0|0:0,0:0:0:0:
256,320,12358,5,2,0:1:0:0:
341,205,12803,1,2,0:0:0:0:
256,90,13249,1,2,0:0:0:0:
256,90,13843,2,0,L|256:-6,2,79.1999975830079,2|2|2,0:1|0:0|0:0,0:0:0:0:
206,172,14734,5,10,0:1:0:0:
85,95,15179,1,2,0:0:0:0:
79,239,15625,1,2,0:0:0:0:
79,239,16219,2,0,L|68:332,2,79.1999975830079,2|2|2,0:1|0:0|0:0,0:0:0:0:
131,159,17110,5,2,0:1:0:0:
256,226,17556,1,2,0:0:0:0:
381,159,18001,1,2,0:0:0:0:
381,159,18595,6,2,B|406:155|424:163|424:163|445:152|445:152|462:159|491:155,2,105.6,2|2|2,0:1|0:0|0:0,1:2:0:0:
282,79,19486,6,0,P|227:61|169:77,1,105.6,14|0,0:1|0:0,0:0:0:0:
113,118,19932,1,10,0:3:0:0:
113,118,20080,2,0,L|105:191,1,52.8,10|0,0:0|0:0,0:0:0:0:
52,234,20377,1,2,0:0:0:0:
52,234,20526,2,0,P|103:225|152:242,1,105.6,2|0,0:0|0:0,0:0:0:0:
227,282,20972,2,0,L|344:277,2,105.6,10|10|2,0:3|0:0|0:0,0:0:0:0:
52,234,21863,6,0,B|21:207|21:207|9:176|27:137,1,105.6,10|0,0:3|0:0,0:0:0:0:
80,81,22308,1,10,0:3:0:0:
80,81,22457,2,0,P|113:81|155:73,1,52.8,8|0,0:0|0:0,0:0:0:0:
214,99,22754,2,0,P|311:89|386:95,1,158.4,2|0,0:0|0:0,0:0:0:0:
429,154,23348,2,0,L|437:262,2,105.6,10|10|2,0:3|0:0|0:0,0:0:0:0:
296,48,24239,6,0,P|243:54|192:41,1,105.6,10|0,0:3|0:0,0:0:0:0:
122,87,24684,1,2,0:3:0:0:
122,87,24833,2,0,P|118:121|110:157,1,52.8,8|0,0:0|0:0,0:0:0:0:
66,209,25130,2,0,P|144:183|227:215,1,158.4,2|0,0:0|0:0,0:0:0:0:
273,265,25724,2,0,P|323:277|376:272,1,105.6,10|10,0:3|0:0,0:0:0:0:
502,160,26318,1,2,0:0:0:0:
393,30,26615,6,0,P|342:17|289:22,1,105.6,10|0,0:3|0:0,0:0:0:0:
237,88,27061,1,10,0:3:0:0:
237,88,27209,2,0,P|235:116|230:156,1,52.8,8|0,0:0|0:0,0:0:0:0:
262,219,27506,1,2,0:0:0:0:
262,219,27655,2,0,P|256:268|251:324,1,105.6,2|0,0:0|0:0,0:0:0:0:
175,360,28100,1,10,0:3:0:0:
24,284,28397,1,10,0:0:0:0:
24,284,28546,2,0,P|22:256|17:216,1,52.8,2|2,0:0|0:0,0:0:0:0:
133,96,28991,6,0,P|185:100|236:87,1,105.6,14|0,0:1|0:0,0:0:0:0:
309,43,29437,1,10,0:3:0:0:
309,43,29585,2,0,L|373:36,1,52.8,10|0,0:0|0:0,0:0:0:0:
442,77,29882,1,2,0:0:0:0:
442,77,30031,2,0,L|436:189,1,105.6,2|0,0:0|0:0,0:0:0:0:
369,233,30477,2,0,P|318:219|265:223,2,105.6,10|10|2,0:3|0:0|0:0,0:0:0:0:
486,351,31368,6,0,L|492:239,1,105.6,10|0,0:3|0:0,0:0:0:0:
440,186,31813,1,10,0:3:0:0:
440,186,31962,2,0,L|437:130,1,52.8,8|0,0:0|0:0,0:0:0:0:
380,70,32259,2,0,B|302:45|301:95|224:70,1,158.4,2|0,0:0|0:0,0:0:0:0:
145,40,32853,2,0,L|33:36,2,105.6,10|10|2,0:3|0:0|0:0,0:0:0:0:
257,166,33744,6,0,P|263:219|250:270,1,105.6,10|0,0:3|0:0,0:0:0:0:
187,324,34189,1,10,0:3:0:0:
187,324,34338,2,0,L|113:317,1,52.8,8|0,0:0|0:0,0:0:0:0:
58,280,34635,2,0,P|45:212|74:125,1,158.4,2|0,0:0|0:0,0:0:0:0:
142,82,35229,2,0,L|254:78,1,105.6,10|10,0:3|0:0,0:0:0:0:
411,36,35823,1,2,0:0:0:0:
368,199,36120,6,0,P|355:249|361:302,1,105.6,10|0,0:3|0:0,0:0:0:0:
439,351,36566,1,10,0:3:0:0:
439,351,36714,2,0,L|446:288,1,52.8,8|0,0:0|0:0,0:0:0:0:
484,223,37011,1,2,0:0:0:0:
484,223,37160,2,0,L|479:106,1,105.6,2|0,0:0|0:0,0:0:0:0:
426,51,37605,1,10,0:3:0:0:
273,124,37902,2,0,P|242:122|203:115,1,52.8,8|8,0:0|0:0,0:0:0:0:
145,158,38199,2,0,P|114:160|75:167,1,52.8,10|8,0:0|0:0,0:0:0:0:
132,263,38496,6,0,P|162:240|129:151,1,132,6|2,0:0|0:0,0:0:0:0:
79,83,38942,2,0,P|72:52|76:19,1,66,2|8,0:0|0:0,0:0:0:0:
167,50,39239,1,2,0:0:0:0:
167,50,39387,2,0,L|389:32,1,198,2|8,0:0|0:0,0:0:0:0:
456,22,39981,2,0,P|411:43|397:131,1,132,2|10,0:0|0:0,0:0:0:0:
460,290,40576,1,10,0:3:0:0:
460,290,40724,1,2,0:0:0:0:
460,290,40873,6,0,P|401:259|336:256,1,132,2|2,0:0|0:0,0:0:0:0:
256,301,41318,2,0,L|177:303,1,66,2|8,0:0|0:0,0:0:0:0:
104,338,41615,1,2,0:0:0:0:
104,338,41764,2,0,P|145:288|94:178,1,198,2|8,0:0|0:0,0:0:0:0:
16,130,42358,2,0,L|11:62,1,66,2|0,0:0|0:0,0:0:0:0:
101,91,42655,2,0,P|136:89|170:75,1,66,10|8,0:0|0:3,0:0:0:0:
238,22,42952,1,2,0:0:0:0:
378,136,43249,6,0,P|314:117|249:113,1,132,10|2,0:3|0:0,0:0:0:0:
175,168,43694,2,0,L|165:246,1,66,2|8,0:0|0:0,0:0:0:0:
150,324,43991,1,2,0:0:0:0:
150,324,44140,2,0,P|167:264|291:273,1,198,2|8,0:0|0:0,0:0:0:0:
343,334,44734,1,2,0:0:0:0:
465,194,45031,1,10,0:0:0:0:
284,158,45328,1,10,0:3:0:0:
284,158,45477,1,2,0:0:0:0:
284,158,45625,6,0,B|279:14,1,132,10|0,0:3|0:0,0:0:0:0:
190,97,46071,2,0,L|110:86,2,66,2|10|0,0:0|0:0|0:0,0:0:0:0:
284,158,46516,2,0,P|349:143|424:151,1,132,2|0,0:0|0:0,0:0:0:0:
488,212,46962,1,10,0:0:0:0:
488,212,47110,2,0,L|493:290,1,66,2|0,0:0|0:0,0:0:0:0:
425,342,47407,2,0,P|400:332|339:323,1,66,10|8,0:0|0:3,0:0:0:0:
273,352,47704,1,2,0:0:0:0:
273,352,47853,1,2,0:3:0:0:
218,277,48001,6,0,L|211:145,1,132,6|2,0:0|0:0,0:0:0:0:
133,95,48447,2,0,P|108:84|47:83,1,66,2|8,0:0|0:0,0:0:0:0:
1,142,48744,1,2,0:0:0:0:
1,142,48892,2,0,L|6:347,1,198,2|8,0:0|0:0,0:0:0:0:
90,378,49486,2,0,P|137:342|222:348,1,132,2|10,0:0|0:0,0:0:0:0:
390,370,50080,1,10,0:3:0:0:
390,370,50229,1,2,0:0:0:0:
390,370,50377,6,0,L|393:216,1,132,10|2,0:3|0:0,0:0:0:0:
451,166,50823,2,0,L|452:89,1,66,2|8,0:0|0:0,0:0:0:0:
499,22,51120,1,2,0:0:0:0:
499,22,51269,2,0,P|459:74|332:44,1,198,2|8,0:0|0:0,0:0:0:0:
250,31,51863,2,0,L|155:24,1,66,2|0,0:0|0:0,0:0:0:0:
108,80,52160,2,0,L|87:173,1,66,10|0,0:0|0:0,0:0:0:0:
231,144,52457,5,10,0:3:0:0:
231,144,52605,2,0,P|263:145|294:156,1,66,2|10,0:0|0:3,0:0:0:0:
212,325,53051,1,2,0:0:0:0:
212,325,53199,2,0,P|180:324|149:313,1,66,2|10,0:0|0:2,0:0:0:0:
17,160,53645,5,2,0:0:0:0:
17,160,53793,2,0,P|13:89|7:18,1,132,2|8,0:0|0:0,0:0:0:0:
111,88,54239,1,2,0:0:0:0:
111,88,54387,2,0,P|114:51|120:8,2,66,10|8|8,0:3|0:0|0:3,0:0:0:0:
138,182,54833,1,10,0:3:0:0:
138,182,54981,1,10,0:3:0:0:
252,160,55130,6,0,P|292:147|341:149,2,66,14|8|8,0:0|0:3|0:3,0:0:0:0:
214,268,55576,2,0,P|204:309|177:350,2,66,6|8|8,0:0|0:3|0:3,0:0:0:0:
138,182,56021,2,0,P|106:153|84:109,2,66,6|8|8,0:0|0:3|0:3,0:0:0:0:
260,168,56467,5,12,0:3:0:0:
260,168,56541,1,8,0:3:0:0:
260,168,56615,2,0,P|300:160|378:161,2,105.6,8|6|2,0:3|0:1|0:0,0:2:0:0:
83,268,57506,6,0,L|69:102,1,145.200004431152,6|2,0:0|0:0,0:0:0:0:
145,53,57952,2,0,P|192:41|228:30,2,72.6000022155762,8|8|0,0:3|0:0|0:0,0:0:0:0:
47,23,58397,1,2,0:0:0:0:
70,123,58546,2,0,L|63:195,1,72.6000022155762,8|0,0:0|0:0,0:0:0:0:
13,284,58843,1,8,0:3:0:0:
13,284,58991,1,8,0:3:0:0:
202,357,59288,2,0,P|236:347|272:348,1,72.6000022155762,10|8,0:0|0:3,0:0:0:0:
373,361,59585,2,0,P|409:362|443:351,1,72.6000022155762,2|8,0:0|0:0,0:0:0:0:
489,260,59882,6,0,L|494:107,1,145.200004431152,10|2,0:3|0:0,0:0:0:0:
421,42,60328,1,10,0:3:0:0:
421,42,60477,2,0,P|384:43|350:32,1,72.6000022155762,8|0,0:0|0:0,0:0:0:0:
248,25,60774,1,2,0:0:0:0:
178,98,60922,2,0,L|173:243,1,145.200004431152,10|8,0:0|0:3,0:0:0:0:
118,329,61368,1,8,0:3:0:0:
15,147,61665,2,0,P|6:113|7:77,1,72.6000022155762,10|8,0:0|0:3,0:0:0:0:
105,101,61962,2,0,L|177:97,1,72.6000022155762,2|8,0:0|0:0,0:0:0:0:
319,17,62259,6,0,B|279:16|268:58|268:58|283:97|270:130,1,145.200004431152,6|2,0:0|0:0,0:0:0:0:
237,225,62704,1,10,0:3:0:0:
236,225,62853,2,0,L|232:297,1,72.6000022155762,8|0,0:0|0:0,0:0:0:0:
319,362,63150,1,2,0:0:0:0:
319,362,63298,2,0,P|375:344|474:358,1,145.200004431152,8|8,0:0|0:3,0:0:0:0:
507,262,63744,6,0,L|511:190,1,72.6000022155762,10|0,0:3|0:0,0:0:0:0:
416,255,64041,2,0,L|420:183,1,72.6000022155762,10|8,0:2|0:3,0:0:0:0:
325,248,64338,2,0,L|329:176,1,72.6000022155762,2|8,0:0|0:3,0:0:0:0:
210,121,64635,5,14,0:0:0:0:
210,121,64783,2,0,P|174:122|140:111,1,72.6000022155762,8|8,0:3|0:3,0:0:0:0:
28,40,65080,5,14,0:0:0:0:
28,40,65229,2,0,P|47:70|55:105,1,72.6000022155762,8|8,0:3|0:3,0:0:0:0:
49,239,65526,5,14,0:2:0:0:
49,239,65675,2,0,P|63:209|106:174,1,72.6000022155762,8|8,0:3|0:3,0:0:0:0:
210,121,65972,5,12,0:0:0:0:
288,172,66120,2,0,L|435:167,2,132,2|10|10,0:0|0:0|0:3,0:0:0:0:
410,333,67011,6,0,P|475:315|477:240,1,145.200004431152,6|2,0:0|0:0,0:0:0:0:
420,167,67457,2,0,L|422:86,2,72.6000022155762,10|8|0,0:3|0:0|0:0,0:0:0:0:
353,243,67902,1,2,0:0:0:0:
265,190,68051,2,0,P|216:175|120:174,1,145.200004431152,10|8,0:0|0:3,0:0:0:0:
45,238,68496,1,8,0:3:0:0:
15,37,68793,2,0,P|54:46|112:44,1,72.6000022155762,10|8,0:0|0:3,0:0:0:0:
183,77,69090,2,0,P|222:68|280:70,1,72.6000022155762,2|8,0:0|0:0,0:0:0:0:
344,115,69387,6,0,L|500:126,1,145.200004431152,10|2,0:3|0:0,0:0:0:0:
441,222,69833,1,10,0:3:0:0:
441,222,69981,2,0,P|433:261|436:312,1,72.6000022155762,8|0,0:0|0:0,0:0:0:0:
356,360,70278,1,2,0:0:0:0:
262,321,70427,2,0,P|219:310|183:309,1,72.6000022155762,10|2,0:2|0:3,0:0:0:0:
98,344,70724,1,8,0:3:0:0:
98,344,70873,1,8,0:3:0:0:
9,160,71170,2,0,L|2:75,1,72.6000022155762,8|8,0:0|0:3,0:0:0:0:
100,117,71467,2,0,P|135:112|169:98,1,72.6000022155762,2|8,0:3|0:0,0:0:0:0:
308,99,71764,6,0,P|239:79|169:98,1,145.200004431152,4|0,0:0|0:0,0:0:0:0:
142,195,72209,1,10,0:3:0:0:
142,195,72358,2,0,L|138:267,1,72.6000022155762,8|0,0:0|0:0,0:0:0:0:
216,332,72655,1,2,0:0:0:0:
216,332,72803,2,0,P|286:321|344:372,1,145.200004431152,8|8,0:0|0:3,0:0:0:0:
421,306,73249,6,0,P|424:269|432:234,1,72.6000022155762,10|0,0:3|0:0,0:0:0:0:
345,177,73546,2,0,P|373:154|404:134,1,72.6000022155762,10|8,0:2|0:3,0:0:0:0:
382,33,73843,2,0,P|418:37|454:44,1,72.6000022155762,2|8,0:0|0:3,0:0:0:0:
469,56,74066,1,8,0:3:0:0:
481,68,74140,6,0,L|492:152,1,72.6000022155762,6|8,0:0|0:3,0:0:0:0:
432,234,74437,1,2,0:0:0:0:
328,200,74585,2,0,L|168:185,1,145.200004431152,10|8,0:3|0:3,0:0:0:0:
168,197,74957,1,8,0:3:0:0:
155,209,75031,2,0,P|142:255|145:294,1,72.6000022155762,14|8,0:0|0:3,0:0:0:0:
347,351,75477,5,8,0:3:0:0:
347,351,75625,2,0,P|358:316|359:280,1,72.6000022155762,2|10,0:3|0:3,0:0:0:0:
328,200,75922,2,0,L|327:50,1,145.200004431152,10|10,0:0|0:0,0:0:0:0:
142,64,76516,6,0,P|120:63|93:55,2,33,10|0|2,0:1|0:0|0:0,0:0:0:0:
232,29,76813,1,2,3:3:0:0:
327,54,76962,2,0,P|362:47|404:50,2,66,2|2|2,3:3|3:3|3:3,0:0:0:0:
237,135,77407,5,6,0:0:0:0:
237,135,77556,2,0,L|234:277,1,132,2|8,0:0|0:3,0:0:0:0:
140,357,78001,6,0,L|134:284,1,72.6000022155762,12|8,0:0|0:3,0:0:0:0:
48,229,78298,2,0,L|51:62,1,145.200004431152,10|10,0:0|0:3,0:0:0:0:
237,135,78892,6,0,P|308:146|365:81,1,145.200004431152,6|2,0:0|0:0,0:0:0:0:
417,16,79338,1,10,0:3:0:0:
456,135,79486,2,0,L|445:237,1,72.6000022155762,6|0,0:0|0:0,0:0:0:0:
495,297,79783,1,2,0:0:0:0:
419,365,79932,2,0,P|369:315|299:315,1,145.200004431152,10|8,0:0|0:3,0:0:0:0:
211,368,80377,1,8,0:3:0:0:
49,265,80675,2,0,P|47:227|62:178,1,72.6000022155762,10|0,0:0|0:0,0:0:0:0:
151,225,80972,2,0,L|227:220,1,72.6000022155762,2|8,0:0|0:0,0:0:0:0:
279,106,81269,6,0,B|239:124|239:124|208:162|223:219,1,145.200004431152,6|2,0:0|0:0,0:0:0:0:
314,262,81714,1,8,0:3:0:0:
314,262,81863,2,0,L|390:257,1,72.6000022155762,8|0,0:0|0:0,0:0:0:0:
480,295,82160,1,2,0:0:0:0:
480,295,82308,2,0,L|488:137,1,145.200004431152,8|8,0:0|0:3,0:0:0:0:
410,85,82754,6,0,L|317:62,1,72.6000022155762,10|0,0:3|0:0,0:0:0:0:
398,171,83051,2,0,L|305:148,1,72.6000022155762,10|8,0:2|0:3,0:0:0:0:
386,257,83348,2,0,L|293:234,1,72.6000022155762,2|8,0:0|0:3,0:0:0:0:
217,366,83645,5,14,0:0:0:0:
217,366,83793,2,0,L|267:312,1,72.6000022155762,8|8,0:3|0:3,0:0:0:0:
207,165,84090,5,14,0:0:0:0:
207,165,84239,2,0,L|228:235,1,72.6000022155762,8|8,0:3|0:3,0:0:0:0:
386,257,84536,5,14,0:2:0:0:
386,257,84684,2,0,L|293:234,1,72.6000022155762,8|8,0:3|0:3,0:0:0:0:
207,165,84981,5,12,0:0:0:0:
129,218,85130,2,0,L|117:76,2,132,2|10|10,0:0|0:0|0:3,0:0:0:0:
3,362,86021,6,0,P|45:305|115:306,1,145.200004431152,6|2,0:0|0:0,0:0:0:0:
212,276,86467,2,0,P|248:277|285:272,2,72.6000022155762,10|8|0,0:3|0:0|0:0,0:0:0:0:
129,218,86912,1,2,0:0:0:0:
193,138,87061,2,0,P|262:119|327:172,1,145.200004431152,10|8,0:0|0:3,0:0:0:0:
374,242,87506,1,8,0:3:0:0:
488,73,87803,2,0,P|452:77|415:76,1,72.6000022155762,10|8,0:0|0:3,0:0:0:0:
320,40,88100,2,0,P|285:30|249:26,1,72.6000022155762,2|8,0:0|0:0,0:0:0:0:
155,67,88397,6,0,B|79:78|92:33|13:48,1,145.200004431152,10|2,0:3|0:0,0:0:0:0:
45,150,88843,1,10,0:3:0:0:
45,150,88991,2,0,L|48:236,1,72.6000022155762,8|0,0:0|0:0,0:0:0:0:
89,315,89288,1,2,0:0:0:0:
191,299,89437,2,0,P|234:295|277:296,1,72.6000022155762,10|2,0:2|0:3,0:0:0:0:
363,334,89734,1,8,0:3:0:0:
363,334,89882,1,8,0:3:0:0:
506,185,90179,2,0,L|499:100,1,72.6000022155762,8|8,0:0|0:3,0:0:0:0:
398,41,90477,5,2,0:3:0:0:
398,41,90625,1,10,0:0:0:0:
398,41,90774,2,0,P|358:40|317:18,1,72.6000022155762,4|0,0:0|0:0,0:0:0:0:
237,89,91071,5,2,0:0:0:0:
237,89,91219,1,10,0:3:0:0:
237,89,91368,2,0,L|230:174,1,72.6000022155762,10|0,0:0|0:0,0:0:0:0:
314,235,91665,5,2,0:0:0:0:
314,235,91813,1,10,0:0:0:0:
314,235,91962,2,0,P|354:236|395:258,1,72.6000022155762,2|8,0:0|0:3,0:0:0:0:
471,183,92259,5,2,0:3:0:0:
471,183,92407,1,0,0:0:0:0:
471,183,92556,2,0,L|478:98,1,72.6000022155762,10|8,0:0|0:3,0:0:0:0:
397,41,92853,6,0,P|362:33|327:29,1,72.6000022155762,2|8,0:0|0:3,0:0:0:0:
312,40,93076,1,8,0:3:0:0:
298,52,93150,6,0,P|232:80|166:54,1,145.200004431152,6|8,0:0|0:3,0:0:0:0:
36,58,93595,2,0,P|101:29|167:55,1,145.200004431152,10|8,0:3|0:3,0:0:0:0:
172,71,93967,1,8,0:3:0:0:
175,88,94041,2,0,L|175:174,1,72.6000022155762,12|8,0:0|0:3,0:0:0:0:
292,340,94486,6,0,P|251:303|142:323,1,145.200004431152,10|8,0:3|0:3,0:0:0:0:
154,320,94858,1,8,0:3:0:0:
145,335,94932,2,0,L|56:327,1,72.6000022155762,10|10,0:0|0:0,0:0:0:0:
2,254,95229,2,0,P|-6:219|10:164,1,72.6000022155762,10|10,0:2|0:2,0:0:0:0:
62,127,95526,5,6,0:1:0:0:
216,178,95823,1,2,0:0:0:0:
216,178,95972,2,0,P|284:148|272:75,1,158.4,2|6,0:0|2:2,0:0:0:0:
256,192,96491,12,2,97902,0:2:0:0:
32,192,104140,6,0,L|27:113,2,66,2|2|2,0:1|0:0|0:0,0:0:0:0:
103,291,105031,6,0,P|149:280|207:288,1,92.3999971801759,14|0,0:1|0:0,0:0:0:0:
267,322,105477,2,0,P|300:319|330:318,1,46.1999985900879,10|8,0:3|0:0,0:0:0:0:
451,267,105922,2,0,P|453:212|458:121,1,138.599995770264,2|0,0:1|0:0,0:0:0:0:
420,59,106516,2,0,P|464:71|510:62,2,92.3999971801759,10|10|2,0:3|0:0|0:1,0:0:0:0:
273,91,107407,6,0,P|228:78|183:87,1,92.3999971801759,10|0,0:3|0:0,0:0:0:0:
135,154,107853,2,0,P|132:177|130:199,1,46.1999985900879,10|8,0:3|0:0,0:0:0:0:
47,344,108298,2,0,P|42:267|34:186,1,138.599995770264,2|0,0:1|0:0,0:0:0:0:
6,127,108892,5,10,0:3:0:0:
130,199,109189,1,10,0:0:0:0:
272,198,109486,1,2,0:1:0:0:
394,126,109783,6,0,P|401:78|406:32,1,92.3999971801759,10|0,0:1|0:0,0:0:0:0:
322,40,110229,2,0,P|298:39|276:35,1,46.1999985900879,10|8,0:3|0:0,0:0:0:0:
131,95,110675,2,0,P|193:101|271:117,1,138.599995770264,2|0,0:1|0:0,0:0:0:0:
325,175,111269,2,0,P|318:220|313:266,2,92.3999971801759,10|10|2,0:3|0:0|0:1,0:0:0:0:
402,288,112160,6,0,P|357:273|300:265,1,92.3999971801759,10|0,0:3|0:0,0:0:0:0:
239,305,112605,2,0,L|173:298,1,46.1999985900879,10|8,0:3|0:0,0:0:0:0:
52,347,113051,2,0,L|47:189,1,138.599995770264,2|0,0:0|0:0,0:0:0:0:
88,135,113645,6,0,P|89:109|93:79,1,46.1999985900879,10|8,0:3|0:3,0:0:0:0:
170,116,113942,2,0,P|183:93|202:70,1,46.1999985900879,10|8,2:2|0:0,0:0:0:0:
250,140,114239,2,0,P|273:127|300:116,1,46.1999985900879,10|8,0:0|0:0,0:0:0:0:
373,146,114536,6,0,P|420:138|501:149,2,118.799996374512,4|2|10,0:0|0:0|0:0,0:0:0:0:
241,247,115427,1,2,0:0:0:0:
241,247,115576,2,0,P|205:247|177:241,1,59.3999981872559,10|0,0:3|0:0,0:0:0:0:
46,146,116021,2,0,L|40:73,1,59.3999981872559,10|0,0:3|0:0,0:0:0:0:
121,109,116318,2,0,L|115:36,1,59.3999981872559,10|8,0:0|0:3,0:0:0:0:
196,72,116615,2,0,L|190:-1,1,59.3999981872559,2|8,0:0|0:0,0:0:0:0:
280,106,116912,6,0,P|225:119|196:72,1,118.799996374512,8|2,0:3|0:0,0:0:0:0:
275,27,117358,2,0,P|305:30|332:43,1,59.3999981872559,2|8,0:0|0:0,0:0:0:0:
334,220,117803,1,2,0:0:0:0:
334,220,117952,2,0,P|304:216|277:203,1,59.3999981872559,8|0,0:3|0:0,0:0:0:0:
424,102,118397,2,0,P|443:124|454:151,1,59.3999981872559,10|0,0:3|0:0,0:0:0:0:
457,235,118694,2,0,P|446:262|428:286,1,59.3999981872559,10|8,0:0|0:3,0:0:0:0:
362,336,118991,2,0,P|332:341|303:337,1,59.3999981872559,2|8,0:0|0:0,0:0:0:0:
220,344,119288,6,0,P|166:328|85:334,1,118.799996374512,10|2,0:3|0:0,0:0:0:0:
29,292,119734,2,0,L|24:231,1,59.3999981872559,2|8,0:0|0:0,0:0:0:0:
168,128,120179,2,0,L|173:67,1,59.3999981872559,2|8,0:0|0:3,0:0:0:0:
252,29,120477,2,0,B|312:20|306:50|369:38,2,118.799996374512,2|8|8,0:0|0:3|0:0,0:0:0:0:
81,82,121368,2,0,L|12:76,1,59.3999981872559,2|8,0:0|0:0,0:0:0:0:
0,163,121665,6,0,P|8:207|8:288,1,118.799996374512,10|2,0:3|0:0,0:0:0:0:
60,352,122110,2,0,L|129:358,1,59.3999981872559,2|8,0:0|0:0,0:0:0:0:
297,349,122556,1,2,0:0:0:0:
297,349,122704,2,0,L|356:354,1,59.3999981872559,10|0,0:3|0:0,0:0:0:0:
433,382,123001,6,0,P|389:329|411:263,1,145.200004431152,12|8,0:0|0:3,0:0:0:0:
491,222,123447,6,0,P|495:192|501:156,1,59.3999981872559,10|10,0:0|0:0,0:0:0:0:
437,99,123744,2,0,P|433:69|427:33,1,59.3999981872559,8|8,0:3|0:3,0:0:0:0:
342,82,124041,6,0,P|284:74|200:69,2,118.799996374512,4|2|10,0:0|0:0|0:0,0:0:0:0:
394,252,124932,1,2,0:0:0:0:
394,252,125080,2,0,L|400:189,1,59.3999981872559,10|0,0:3|0:0,0:0:0:0:
264,309,125526,2,0,L|258:246,1,59.3999981872559,10|0,0:3|0:0,0:0:0:0:
169,255,125823,2,0,L|179:192,1,59.3999981872559,10|8,0:0|0:3,0:0:0:0:
91,178,126120,2,0,L|117:120,1,59.3999981872559,2|8,0:0|0:0,0:0:0:0:
180,53,126417,6,0,P|169:108|115:123,1,118.799996374512,8|2,0:3|0:0,0:0:0:0:
58,54,126863,2,0,P|26:43|-6:41,1,59.3999981872559,2|8,0:0|0:0,0:0:0:0:
12,218,127308,1,2,0:0:0:0:
12,218,127457,2,0,P|44:229|76:231,1,59.3999981872559,8|0,0:3|0:0,0:0:0:0:
232,160,127902,2,0,P|254:141|281:130,1,59.3999981872559,10|0,0:3|0:0,0:0:0:0:
365,127,128199,2,0,P|392:138|416:156,1,59.3999981872559,10|8,0:0|0:3,0:0:0:0:
466,222,128496,2,0,P|471:252|467:281,1,59.3999981872559,2|8,0:0|0:0,0:0:0:0:
405,336,128793,6,0,L|270:324,1,118.799996374512,10|2,0:3|0:0,0:0:0:0:
206,347,129239,2,0,L|124:339,1,59.3999981872559,2|8,0:0|0:0,0:0:0:0:
19,216,129684,2,0,L|18:154,1,59.3999981872559,2|8,0:0|0:3,0:0:0:0:
71,92,129981,2,0,L|206:80,2,118.799996374512,2|8|8,0:0|0:3|0:0,0:0:0:0:
170,240,130873,2,0,L|176:178,1,59.3999981872559,2|8,0:0|0:0,0:0:0:0:
254,138,131170,6,0,P|302:135|397:131,1,118.799996374512,10|2,0:3|0:0,0:0:0:0:
452,171,131615,2,0,L|459:96,1,59.3999981872559,2|8,0:0|0:0,0:0:0:0:
295,36,132061,1,2,0:0:0:0:
295,36,132209,2,0,P|265:34|236:29,1,59.3999981872559,10|0,0:3|0:0,0:0:0:0:
151,12,132506,6,0,P|195:65|150:111,1,145.200004431152,12|8,0:0|0:3,0:0:0:0:
81,155,132952,6,0,L|72:223,1,66,10|10,0:0|0:0,0:0:0:0:
115,292,133249,6,0,L|113:356,1,56.1000010700226,10|10,0:3|0:3,0:0:0:0:
196,361,133546,6,0,P|261:339|330:338,2,138.599995770264,6|2|2,0:1|0:1|0:1,0:0:0:0:
17,314,135031,2,0,P|14:267|12:221,1,92.3999971801759,2|2,0:2|0:1,0:0:0:0:
49,136,135625,1,2,0:0:0:0:
142,147,135922,2,0,P|199:144|293:136,2,138.599995770264,2|2|2,0:1|0:1|0:1,0:0:0:0:
17,314,137407,2,0,P|67:300|123:292,1,92.3999971801759,2|2,0:0|0:2,0:0:0:0:
193,325,138001,1,2,0:1:0:0:
270,275,138298,6,0,P|274:205|280:135,2,138.599995770264,2|2|2,0:1|0:1|0:1,0:0:0:0:
439,349,139783,2,0,P|445:300|448:256,1,92.3999971801759,2|2,0:0|0:0,0:0:0:0:
435,165,140377,1,2,0:0:0:0:
342,140,140675,2,0,L|188:127,1,138.599995770264,2|2,0:1|0:1,0:0:0:0:
363,228,141566,2,0,L|161:210,1,184.799994360352,2|2,0:1|0:0,0:0:0:0:
74,288,142457,1,2,0:1:0:0:
4,189,142754,2,0,B|0:128,1,46.1999985900879,2|2,0:1|0:0,0:0:0:0:
67,69,143051,6,0,P|128:69|196:49,1,125.399996651459,6|2,0:0|0:0,0:0:0:0:
275,70,143496,2,0,P|305:68|357:81,1,62.6999983257294,2|8,0:0|0:0,0:0:0:0:
410,121,143793,1,2,0:0:0:0:
410,121,143942,2,0,L|403:326,1,188.099994977188,2|8,0:0|0:0,0:0:0:0:
332,361,144536,2,0,P|278:344|209:343,1,125.399996651459,2|8,0:0|0:0,0:0:0:0:
37,378,145130,1,10,0:3:0:0:
37,378,145278,1,2,0:0:0:0:
37,378,145427,6,0,L|29:227,1,125.399996651459,10|2,0:3|0:0,0:0:0:0:
118,258,145873,2,0,P|139:257|182:240,1,62.6999983257294,2|8,0:0|0:0,0:0:0:0:
250,193,146170,1,2,0:0:0:0:
250,193,146318,2,0,B|352:176|330:237|431:218,1,188.099994977188,2|8,0:0|0:0,0:0:0:0:
473,140,146912,2,0,L|476:78,1,62.6999983257294,2|0,0:0|0:0,0:0:0:0:
388,80,147209,2,0,L|385:18,1,62.6999983257294,8|0,0:0|0:0,0:0:0:0:
282,67,147506,5,10,0:3:0:0:
282,67,147655,2,0,P|250:66|219:55,1,66,2|10,0:0|0:3,0:0:0:0:
72,168,148100,1,2,0:0:0:0:
72,168,148249,2,0,P|104:169|135:180,1,66,2|10,0:0|0:2,0:0:0:0:
285,289,148694,5,2,0:0:0:0:
285,289,148843,2,0,L|294:147,1,132,2|8,0:0|0:0,0:0:0:0:
372,109,149288,1,2,0:0:0:0:
372,109,149437,2,0,L|455:100,2,66,10|8|8,0:3|0:0|0:3,0:0:0:0:
293,70,149882,1,10,0:3:0:0:
293,70,150031,1,10,0:3:0:0:
214,147,150179,6,0,P|183:133|151:128,2,66,14|8|8,0:0|0:3|0:3,0:0:0:0:
262,247,150625,2,0,P|265:279|276:310,2,66,6|8|8,0:0|0:3|0:3,0:0:0:0:
325,154,151071,2,0,P|351:134|372:109,2,66,6|8|8,0:0|0:3|0:3,0:0:0:0:
222,154,151516,5,12,0:3:0:0:
222,154,151590,1,8,0:3:0:0:
222,154,151665,2,0,P|162:141|102:142,2,105.6,8|6|2,0:3|0:1|0:0,0:0:0:0:
398,254,152556,6,0,L|409:106,1,145.200004431152,6|2,0:0|0:0,0:0:0:0:
323,53,153001,2,0,P|280:45|240:30,2,72.6000022155762,8|8|0,0:3|0:0|0:0,0:0:0:0:
413,7,153447,1,2,0:0:0:0:
498,63,153595,2,0,P|504:97|505:135,1,72.6000022155762,8|0,0:0|0:0,0:0:0:0:
461,228,153892,1,8,0:3:0:0:
461,228,154041,1,8,0:3:0:0:
273,149,154338,2,0,P|238:137|202:131,1,72.6000022155762,10|8,0:0|0:3,0:0:0:0:
124,196,154635,2,0,L|117:271,1,72.6000022155762,2|8,0:0|0:0,0:0:0:0:
34,332,154932,6,0,L|20:187,1,145.200004431152,10|2,0:3|0:0,0:0:0:0:
52,91,155377,1,10,0:3:0:0:
52,91,155526,2,0,P|97:89|137:74,1,72.6000022155762,8|0,0:0|0:0,0:0:0:0:
212,32,155823,1,2,0:0:0:0:
303,76,155972,2,0,P|375:78|450:93,1,145.200004431152,10|8,0:0|0:3,0:0:0:0:
500,177,156417,1,8,0:3:0:0:
376,338,156714,2,0,L|293:327,1,72.6000022155762,10|8,0:0|0:3,0:0:0:0:
206,355,157011,2,0,L|134:344,1,72.6000022155762,2|8,0:0|0:0,0:0:0:0:
0,362,157308,6,0,P|51:333|32:254,1,145.200004431152,6|2,0:0|0:0,0:0:0:0:
14,157,157754,1,10,0:3:0:0:
14,157,157902,2,0,L|10:85,1,72.6000022155762,8|0,0:0|0:0,0:0:0:0:
106,118,158199,1,2,0:0:0:0:
106,118,158348,2,0,P|167:123|247:84,1,145.200004431152,8|8,0:0|0:3,0:0:0:0:
325,32,158793,6,0,L|397:28,1,72.6000022155762,10|0,0:3|0:0,0:0:0:0:
332,123,159090,2,0,L|404:119,1,72.6000022155762,10|8,0:2|0:3,0:0:0:0:
339,214,159387,2,0,L|411:210,1,72.6000022155762,2|8,0:0|0:3,0:0:0:0:
358,372,159684,5,14,0:0:0:0:
358,372,159833,2,0,P|323:368|289:342,1,72.6000022155762,8|8,0:3|0:3,0:0:0:0:
343,218,160130,5,14,0:0:0:0:
343,218,160278,2,0,P|355:251|354:287,1,72.6000022155762,8|8,0:3|0:3,0:0:0:0:
218,308,160576,5,14,0:2:0:0:
218,308,160724,2,0,P|240:279|279:262,1,72.6000022155762,8|8,0:3|0:3,0:0:0:0:
358,372,161021,5,12,0:0:0:0:
446,325,161170,2,0,L|453:189,2,132,2|10|10,0:0|0:0|0:3,0:0:0:0:
246,366,162061,6,0,L|238:216,1,145.200004431152,6|2,0:0|0:0,0:0:0:0:
173,143,162506,2,0,L|86:132,2,72.6000022155762,10|8|0,0:3|0:0|0:0,0:0:0:0:
272,124,162952,1,2,0:0:0:0:
337,201,163100,2,0,B|403:224|410:184|480:207,1,145.200004431152,10|8,0:0|0:3,0:0:0:0:
511,304,163546,1,8,0:3:0:0:
509,100,163843,2,0,L|513:22,1,72.6000022155762,10|8,0:0|0:3,0:0:0:0:
415,59,164140,2,0,P|378:57|343:48,1,72.6000022155762,2|8,0:0|0:0,0:0:0:0:
242,62,164437,6,0,L|88:50,1,145.200004431152,10|2,0:3|0:0,0:0:0:0:
12,106,164882,1,10,0:3:0:0:
12,106,165031,2,0,P|19:141|19:177,1,72.6000022155762,8|0,0:0|0:0,0:0:0:0:
2,278,165328,1,2,0:0:0:0:
97,242,165477,2,0,P|140:231|176:230,1,72.6000022155762,10|2,0:2|0:3,0:0:0:0:
273,240,165774,1,8,0:3:0:0:
273,240,165922,1,8,0:3:0:0:
443,351,166219,2,0,L|446:267,1,72.6000022155762,8|8,0:0|0:3,0:0:0:0:
492,188,166516,2,0,L|489:104,1,72.6000022155762,2|8,0:3|0:0,0:0:0:0:
405,56,166813,6,0,P|336:76|266:57,1,145.200004431152,4|0,0:0|0:0,0:0:0:0:
189,122,167259,1,10,0:3:0:0:
189,122,167407,2,0,L|186:206,1,72.6000022155762,8|0,0:0|0:0,0:0:0:0:
95,243,167704,1,2,0:0:0:0:
95,243,167853,2,0,L|83:82,1,145.200004431152,8|8,0:0|0:3,0:0:0:0:
162,33,168298,6,0,P|198:31|251:50,1,72.6000022155762,10|0,0:3|0:0,0:0:0:0:
334,45,168595,2,0,P|353:75|363:130,1,72.6000022155762,10|8,0:2|0:3,0:0:0:0:
409,199,168892,2,0,P|392:231|349:267,1,72.6000022155762,2|8,0:0|0:3,0:0:0:0:
353,268,169115,1,8,0:3:0:0:
336,274,169189,6,0,L|252:268,1,72.6000022155762,6|8,0:0|0:3,0:0:0:0:
168,322,169486,1,2,0:0:0:0:
95,243,169635,2,0,L|83:82,1,145.200004431152,10|8,0:3|0:3,0:0:0:0:
83,79,170006,1,8,0:3:0:0:
80,61,170080,2,0,P|45:51|8:53,1,72.6000022155762,14|8,0:0|0:3,0:0:0:0:
7,257,170526,5,8,0:3:0:0:
7,257,170675,2,0,P|43:258|77:248,1,72.6000022155762,2|10,0:3|0:3,0:0:0:0:
169,211,170972,2,0,L|326:206,1,145.200004431152,10|10,0:0|0:0,0:0:0:0:
471,108,171566,6,0,P|471:85|474:52,2,33,10|0|2,0:1|0:0|0:0,0:0:0:0:
403,175,171863,1,2,3:3:0:0:
329,115,172011,2,0,L|246:109,2,66,2|2|2,3:3|3:3|3:3,0:0:0:0:
394,40,172457,5,6,0:0:0:0:
394,40,172605,2,0,L|249:27,1,132,2|8,0:0|0:3,0:0:0:0:
147,61,173051,6,0,P|114:60|62:40,1,72.6000022155762,12|8,0:0|0:3,0:0:0:0:
0,109,173348,2,0,L|-7:281,1,145.200004431152,10|10,0:0|0:3,0:0:0:0:
166,361,173942,6,0,P|212:322|311:330,1,145.200004431152,6|2,0:0|0:0,0:0:0:0:
382,371,174387,1,10,0:3:0:0:
482,300,174536,2,0,L|489:227,1,72.6000022155762,6|0,0:0|0:0,0:0:0:0:
502,126,174833,1,2,0:0:0:0:
407,166,174981,2,0,P|335:169|279:126,1,145.200004431152,10|8,0:0|0:3,0:0:0:0:
263,25,175427,1,8,0:3:0:0:
85,125,175724,2,0,L|78:33,1,72.6000022155762,10|0,0:0|0:0,0:0:0:0:
171,95,176021,2,0,L|176:22,1,72.6000022155762,2|8,0:0|0:0,0:0:0:0:
278,128,176318,6,0,P|214:149|171:96,1,145.200004431152,6|2,0:0|0:0,0:0:0:0:
83,56,176764,1,8,0:3:0:0:
83,56,176912,2,0,L|7:51,1,72.6000022155762,8|0,0:0|0:0,0:0:0:0:
34,150,177209,1,2,0:0:0:0:
34,150,177358,2,0,P|46:196|42:308,1,145.200004431152,8|8,0:0|0:3,0:0:0:0:
114,368,177803,6,0,P|148:356|184:353,1,72.6000022155762,10|0,0:3|0:0,0:0:0:0:
284,340,178100,2,0,P|318:351|354:354,1,72.6000022155762,10|8,0:2|0:3,0:0:0:0:
442,303,178397,2,0,P|476:291|512:288,1,72.6000022155762,2|8,0:0|0:3,0:0:0:0:
408,216,178694,5,14,0:0:0:0:
408,216,178843,2,0,L|400:138,1,72.6000022155762,8|8,0:3|0:3,0:0:0:0:
473,25,179140,5,14,0:0:0:0:
473,25,179288,2,0,L|409:70,1,72.6000022155762,8|8,0:3|0:3,0:0:0:0:
276,65,179585,5,14,0:2:0:0:
276,65,179734,2,0,L|347:97,1,72.6000022155762,8|8,0:3|0:3,0:0:0:0:
408,216,180031,5,12,0:0:0:0:
322,183,180179,2,0,L|187:168,2,132,2|10|10,0:0|0:0|0:3,0:0:0:0:
486,302,181071,6,0,L|500:137,1,145.200004431152,6|2,0:0|0:0,0:0:0:0:
440,73,181516,2,0,L|437:1,2,72.6000022155762,10|8|0,0:3|0:0|0:0,0:0:0:0:
408,167,181962,1,2,0:0:0:0:
349,83,182110,2,0,B|277:62|275:101|205:77,1,145.200004431152,10|8,0:0|0:3,0:0:0:0:
118,26,182556,1,8,0:3:0:0:
2,193,182853,2,0,L|8:287,1,72.6000022155762,10|8,0:0|0:3,0:0:0:0:
101,302,183150,2,0,L|107:208,1,72.6000022155762,2|8,0:0|0:0,0:0:0:0:
192,175,183447,6,0,B|268:164|255:209|334:194,1,145.200004431152,10|2,0:3|0:0,0:0:0:0:
424,149,183892,1,10,0:3:0:0:
424,149,184041,2,0,L|427:63,1,72.6000022155762,8|0,0:0|0:0,0:0:0:0:
346,12,184338,1,2,0:0:0:0:
264,74,184486,2,0,P|228:74|193:66,1,72.6000022155762,10|2,0:2|0:3,0:0:0:0:
110,18,184783,1,8,0:3:0:0:
110,18,184932,1,8,0:3:0:0:
18,195,185229,2,0,L|13:278,1,72.6000022155762,8|8,0:0|0:3,0:0:0:0:
100,352,185526,5,2,0:3:0:0:
100,352,185675,1,10,0:0:0:0:
100,352,185823,2,0,L|185:366,1,72.6000022155762,4|0,0:0|0:0,0:0:0:0:
260,298,186120,5,2,0:0:0:0:
260,298,186269,1,10,0:3:0:0:
260,298,186417,2,0,P|276:257|265:211,1,72.6000022155762,10|0,0:0|0:0,0:0:0:0:
216,148,186714,5,2,0:0:0:0:
216,148,186863,1,10,0:0:0:0:
216,148,187011,2,0,L|131:134,1,72.6000022155762,2|8,0:0|0:3,0:0:0:0:
52,191,187308,5,2,0:3:0:0:
52,191,187457,1,0,0:0:0:0:
52,191,187605,2,0,P|36:232|47:278,1,72.6000022155762,10|8,0:0|0:3,0:0:0:0:
100,352,187902,6,0,P|137:346|177:348,1,72.6000022155762,2|8,0:0|0:3,0:0:0:0:
190,350,188125,1,8,0:3:0:0:
207,354,188199,6,0,L|370:344,1,145.200004431152,6|8,0:0|0:3,0:0:0:0:
407,245,188645,2,0,L|262:236,1,145.200004431152,10|8,0:3|0:3,0:0:0:0:
244,230,189016,1,8,0:3:0:0:
228,219,189090,2,0,P|219:170|222:136,1,72.6000022155762,12|8,0:0|0:3,0:0:0:0:
432,97,189536,6,0,L|287:88,1,145.200004431152,10|8,0:3|0:3,0:0:0:0:
270,81,189907,1,8,0:3:0:0:
253,73,189981,2,0,P|218:66|166:86,1,72.6000022155762,10|10,0:0|0:0,0:0:0:0:
117,152,190278,2,0,L|110:239,1,72.6000022155762,10|10,0:2|0:2,0:0:0:0:
46,299,190576,6,0,P|86:300|96:209,1,132,6|2,0:0|0:0,0:0:0:0:
29,180,191021,2,0,L|30:112,1,66,10|0,0:0|0:3,0:0:0:0:
62,27,191318,1,0,0:0:0:0:
171,73,191467,2,0,P|266:88|330:18,1,198,6|8,0:3|0:3,0:0:0:0:
418,44,192061,1,2,0:0:0:0:
418,44,192209,2,0,P|456:33|497:30,2,66,10|8|8,0:3|0:0|0:3,0:0:0:0:
380,124,192655,1,2,0:0:0:0:
380,124,192803,1,8,0:0:0:0:
380,124,192952,6,0,L|371:261,1,132,6|2,0:0|0:0,0:0:0:0:
322,333,193397,2,0,P|291:343|256:344,1,66,8|0,0:0|0:0,0:0:0:0:
179,294,193694,1,10,0:3:0:0:
88,361,193843,2,0,L|77:152,1,198,6|0,0:3|0:3,0:0:0:0:
110,76,194437,2,0,P|141:44|158:19,1,66,10|10,0:3|0:3,0:0:0:0:
237,65,194734,2,0,P|279:52|307:39,1,66,8|8,0:3|0:3,0:0:0:0:
382,104,195031,1,10,0:3:0:0:
382,104,195179,1,8,0:0:0:0:
382,104,195328,6,0,P|430:85|525:93,1,132,6|8,0:0|0:3,0:0:0:0:
509,180,195774,2,0,P|504:215|501:262,1,66,10|0,0:0|0:3,0:0:0:0:
505,338,196071,1,10,0:3:0:0:
409,275,196219,2,0,B|313:245|308:298|213:267,1,198,6|8,0:3|0:3,0:0:0:0:
144,216,196813,1,2,0:0:0:0:
144,216,196962,2,0,L|136:149,2,66,10|8|8,0:3|0:0|0:3,0:0:0:0:
229,180,197407,2,0,L|237:113,1,66,2|8,0:0|0:0,0:0:0:0:
156,39,197704,6,0,P|91:49|32:21,1,132,6|0,0:0|0:0,0:0:0:0:
98,100,198150,2,0,P|139:150|144:215,1,132,8|0,0:0|0:3,0:0:0:0:
67,282,198595,1,10,0:0:0:0:
163,314,198744,1,10,0:3:0:0:
372,186,199041,6,0,L|383:13,1,158.399995166016,6|8,0:0|0:3,0:0:0:0:
294,75,199486,2,0,P|231:74|175:27,1,132,10|10,0:0|0:3,0:0:0:0:
256,228,200080,6,0,P|306:187|371:185,1,132,6|2,0:0|0:0,0:0:0:0:
452,229,200526,2,0,L|457:139,1,66,10|0,0:0|0:0,0:0:0:0:
502,82,200823,1,10,0:3:0:0:
372,96,200972,2,0,L|163:68,1,198,6|8,0:3|0:3,0:0:0:0:
92,109,201566,1,2,0:0:0:0:
92,109,201714,2,0,L|87:33,2,66,10|8|8,0:3|0:0|0:3,0:0:0:0:
48,194,202160,1,2,0:0:0:0:
48,194,202308,1,10,0:0:0:0:
48,194,202457,6,0,L|188:181,1,132,6|2,0:0|0:0,0:0:0:0:
271,181,202902,2,0,P|301:182|347:199,1,66,10|0,0:0|0:0,0:0:0:0:
406,251,203199,1,10,0:3:0:0:
322,331,203348,2,0,B|217:348|238:291|128:306,1,198,6|8,0:3|0:3,0:0:0:0:
49,353,203942,2,0,L|41:275,1,66,2|10,0:0|0:3,0:0:0:0:
107,221,204239,2,0,L|115:143,1,66,12|8,0:0|0:3,0:0:0:0:
31,111,204536,2,0,L|23:33,1,66,6|2,0:0|0:0,0:0:0:0:
172,70,204833,6,0,P|240:77|330:40,1,158.399995166016,6|0,0:0|0:0,0:0:0:0:
277,110,205278,2,0,P|291:176|354:250,1,158.399995166016,10|0,0:3|0:0,0:0:0:0:
271,222,205724,2,0,P|212:255|161:338,1,158.399995166016,10|8,0:3|0:0,0:0:0:0:
162,250,206170,2,0,P|111:204|17:181,1,158.399995166016,10|0,0:3|0:0,0:0:0:0:
105,158,206615,2,0,P|120:122|116:66,1,79.1999975830079,2|0,0:0|0:0,0:0:0:0:
120,82,206912,2,0,P|158:85|210:64,1,79.1999975830079,10|0,0:3|0:0,0:0:0:0:
285,30,207209,5,14,0:0:0:0:
406,82,207506,1,8,0:2:0:0:
454,204,207803,1,8,0:2:0:0:
401,324,208100,1,8,0:0:0:0:
279,373,208397,1,8,0:0:0:0:
160,320,208694,1,8,0:0:0:0:
111,198,208991,1,10,0:0:0:0:
164,79,209288,1,8,0:0:0:0:
280,191,209585,6,0,P|327:188|356:168,2,66,14|8|8,0:0|0:3|0:3,0:0:0:0:
189,224,210031,2,0,P|168:266|170:301,2,66,14|8|8,0:2|0:3|0:3,0:0:0:0:
205,128,210477,2,0,P|179:88|147:73,1,66,10|10,0:0|0:0,0:0:0:0:
4,94,211962,5,6,0:2:0:0:
52,253,221467,6,0,L|43:135,1,99.0000037765504,14|2,0:1|2:1,0:0:0:0:
70,79,221912,1,10,0:3:0:0:
70,79,222061,2,0,P|123:83|166:64,1,99.0000037765504,8|2,0:0|0:1,0:0:0:0:
236,97,222506,2,0,P|289:93|332:112,1,99.0000037765504,2|2,0:1|0:0,0:0:0:0:
370,179,222952,1,10,0:3:0:0:
332,25,223249,1,10,0:0:0:0:
273,172,223546,1,2,0:0:0:0:
164,65,223843,6,0,P|115:50|49:56,1,99.0000037765504,10|2,0:3|0:1,0:0:0:0:
6,101,224288,1,10,0:3:0:0:
6,101,224437,2,0,L|-3:218,1,99.0000037765504,8|2,0:0|0:0,0:0:0:0:
31,271,224882,2,0,P|76:289|125:284,1,99.0000037765504,2|2,0:1|0:0,0:0:0:0:
177,224,225328,1,8,0:3:0:0:
256,361,225625,1,8,0:0:0:0:
335,224,225922,1,2,0:0:0:0:
448,334,226219,6,0,L|453:227,1,99.0000037765504,10|2,0:3|0:0,0:0:0:0:
448,155,226665,1,10,0:3:0:0:
448,155,226813,2,0,P|396:160|351:125,1,99.0000037765504,8|2,0:0|0:1,0:0:0:0:
279,148,227259,2,0,P|237:122|189:128,1,99.0000037765504,2|2,0:2|0:0,0:0:0:0:
119,166,227704,1,10,0:3:0:0:
216,41,228001,1,10,0:0:0:0:
222,199,228298,1,2,0:0:0:0:
355,113,228595,6,0,P|400:94|446:108,1,99.0000037765504,10|2,0:3|0:0,0:0:0:0:
484,183,229041,1,10,0:3:0:0:
484,183,229189,2,0,L|478:254,1,49.5000018882752,8|0,0:0|0:0,0:0:0:0:
483,312,229486,6,2,P|393:267|334:348,1,217.800006646729,6|0,0:2|0:0,1:2:0:0:
413,346,230080,5,10,0:1:0:0:
360,188,230377,1,10,0:0:0:0:
256,318,230675,1,2,0:0:0:0:
88,255,230972,6,0,L|81:184,1,59.3999981872559,2|2,0:1|0:0,0:0:0:0:
145,132,231269,1,2,0:1:0:0:
207,69,231417,2,0,L|214:-2,2,59.3999981872559,2|2|2,0:0|0:1|0:0,0:0:0:0:
282,159,231863,5,6,0:0:0:0:
282,159,232011,2,0,P|365:140|423:144,1,132,2|8,0:0|0:3,0:0:0:0:
488,244,232457,6,0,L|482:317,1,72.6000022155762,12|8,0:0|0:3,0:0:0:0:
391,362,232754,2,0,P|303:341|242:346,1,145.200004431152,10|10,0:0|0:3,0:0:0:0:
46,365,233348,6,0,L|37:220,1,145.200004431152,6|2,0:0|0:0,0:0:0:0:
89,132,233793,1,10,0:3:0:0:
188,149,233942,2,0,P|217:149|261:133,1,72.6000022155762,6|0,0:0|0:0,0:0:0:0:
334,68,234239,1,2,0:0:0:0:
416,126,234387,2,0,L|424:270,1,145.200004431152,10|8,0:0|0:3,0:0:0:0:
481,355,234833,1,8,0:3:0:0:
289,281,235130,2,0,P|255:271|219:269,1,72.6000022155762,10|0,0:0|0:0,0:0:0:0:
125,307,235427,2,0,L|122:229,1,72.6000022155762,2|8,0:0|0:0,0:0:0:0:
66,120,235724,6,0,B|106:138|106:138|137:176|122:233,1,145.200004431152,6|2,0:0|0:0,0:0:0:0:
31,282,236170,1,8,0:3:0:0:
31,282,236318,2,0,L|26:210,1,72.6000022155762,8|0,0:0|0:0,0:0:0:0:
70,124,236615,1,2,0:0:0:0:
70,124,236764,2,0,L|227:120,1,145.200004431152,8|8,0:0|0:3,0:0:0:0:
300,175,237209,6,0,P|314:135|314:85,1,72.6000022155762,10|0,0:3|0:0,0:0:0:0:
215,120,237506,2,0,P|202:79|173:38,1,72.6000022155762,10|8,0:2|0:3,0:0:0:0:
110,121,237803,2,0,P|76:95|28:79,1,72.6000022155762,2|8,0:0|0:3,0:0:0:0:
40,228,238100,5,14,0:0:0:0:
40,228,238249,2,0,L|143:227,1,72.6000022155762,8|8,0:3|0:3,0:0:0:0:
219,124,238546,5,14,0:0:0:0:
219,124,238694,2,0,L|168:213,1,72.6000022155762,8|8,0:3|0:3,0:0:0:0:
219,331,238991,5,14,0:2:0:0:
219,331,239140,2,0,L|166:242,1,72.6000022155762,8|8,0:3|0:3,0:0:0:0:
40,228,239437,5,12,0:0:0:0:
87,148,239585,2,0,L|92:10,2,132,2|10|10,0:0|0:0|0:3,0:0:0:0:
210,309,240477,6,0,P|253:265|347:271,1,145.200004431152,6|2,0:0|0:0,0:0:0:0:
397,342,240922,2,0,L|477:346,2,72.6000022155762,10|8|0,0:3|0:0|0:0,0:0:0:0:
297,358,241368,1,2,0:0:0:0:
210,309,241516,2,0,L|201:145,1,145.200004431152,10|8,0:0|0:3,0:0:0:0:
195,62,241962,1,8,0:3:0:0:
343,201,242259,2,0,P|385:210|426:202,1,72.6000022155762,10|8,0:0|0:3,0:0:0:0:
468,119,242556,2,0,P|454:78|427:46,1,72.6000022155762,2|8,0:0|0:0,0:0:0:0:
331,94,242853,6,0,P|259:92|194:61,1,145.200004431152,10|2,0:3|0:0,0:0:0:0:
92,50,243298,1,10,0:3:0:0:
92,50,243447,2,0,P|102:88|102:139,1,72.6000022155762,8|0,0:0|0:0,0:0:0:0:
70,217,243744,1,2,0:0:0:0:
137,293,243892,2,0,L|222:289,1,72.6000022155762,10|2,0:2|0:3,0:0:0:0:
289,352,244189,1,8,0:3:0:0:
289,352,244338,1,8,0:3:0:0:
460,242,244635,2,0,L|474:152,1,72.6000022155762,8|8,0:0|0:3,0:0:0:0:
388,107,244932,5,2,0:3:0:0:
388,107,245080,1,10,0:0:0:0:
388,107,245229,2,0,P|348:106|307:84,1,72.6000022155762,4|0,0:0|0:0,0:0:0:0:
227,155,245526,5,2,0:0:0:0:
227,155,245675,1,10,0:3:0:0:
227,155,245823,2,0,L|220:240,1,72.6000022155762,10|0,0:0|0:0,0:0:0:0:
304,301,246120,5,2,0:0:0:0:
304,301,246269,1,10,0:0:0:0:
304,301,246417,2,0,P|344:302|385:324,1,72.6000022155762,2|8,0:0|0:3,0:0:0:0:
457,250,246714,5,2,0:3:0:0:
457,250,246863,1,0,0:0:0:0:
457,250,247011,2,0,L|464:165,1,72.6000022155762,10|8,0:0|0:3,0:0:0:0:
387,107,247308,6,0,P|352:99|317:95,1,72.6000022155762,2|8,0:0|0:3,0:0:0:0:
302,107,247531,1,8,0:3:0:0:
288,118,247605,6,0,P|212:135|150:78,1,145.200004431152,6|8,0:0|0:3,0:0:0:0:
25,69,248051,2,0,P|77:126|59:208,1,145.200004431152,10|8,0:3|0:3,0:0:0:0:
64,205,248422,1,8,0:3:0:0:
59,222,248496,2,0,L|49:313,1,72.6000022155762,12|8,0:0|0:3,0:0:0:0:
242,361,248942,6,0,P|283:324|392:344,1,145.200004431152,10|8,0:3|0:3,0:0:0:0:
380,341,249313,1,8,0:3:0:0:
389,356,249387,2,0,L|478:348,1,72.6000022155762,10|10,0:0|0:0,0:0:0:0:
507,258,249684,2,0,P|510:221|502:182,1,72.6000022155762,10|10,0:2|0:2,0:0:0:0:
401,136,249981,6,0,P|328:142|260:106,1,132,6|0,0:0|0:0,0:0:0:0:
223,50,250427,1,10,0:3:0:0:
149,94,250576,2,0,L|132:247,1,132,4|10,0:3|0:0,0:0:0:0:
259,342,251170,2,0,P|301:328|334:329,1,66,6|8,0:3|0:3,0:0:0:0:
490,363,251615,1,2,0:0:0:0:
451,286,251764,2,0,L|461:128,1,132,14|10,0:3|0:3,0:0:0:0:
329,42,252358,6,0,P|263:47|191:20,1,132,4|0,0:0|0:0,0:0:0:0:
124,63,252803,1,10,0:3:0:0:
194,112,252952,2,0,P|231:166|243:242,1,132,4|10,0:3|0:0,0:0:0:0:
118,347,253546,2,0,P|82:340|40:341,1,66,6|8,0:3|0:3,0:0:0:0:
57,168,253991,1,2,0:0:0:0:
115,232,254140,2,0,P|179:244|243:230,1,132,14|10,0:3|0:3,0:0:0:0:
388,135,254734,6,0,P|345:185|326:248,1,132,6|0,0:0|0:0,0:0:0:0:
340,331,255179,1,10,0:3:0:0:
423,309,255328,2,0,P|465:259|485:196,1,132,6|10,0:3|0:0,0:0:0:0:
429,33,255922,2,0,P|401:24|351:27,1,66,4|8,0:3|0:3,0:0:0:0:
109,62,256516,1,14,0:3:0:0:
266,131,256813,1,10,0:3:0:0:
105,193,257110,6,0,L|109:46,1,132,6|0,0:3|0:0,0:0:0:0:
186,23,257556,1,10,0:3:0:0:
269,41,257704,2,0,P|324:43|402:18,1,132,4|10,0:3|0:0,0:0:0:0:
473,197,258298,1,8,0:3:0:0:
394,151,258447,2,0,P|331:130|265:130,1,132,4|8,0:0|0:3,0:0:0:0:
215,199,258892,2,0,L|201:271,1,66,6|10,0:3|0:3,0:0:0:0:
116,266,259189,2,0,L|102:194,1,66,2|2,0:0|0:0,0:0:0:0:
61,126,259486,6,0,L|75:54,1,66,6|8,0:0|0:3,0:0:0:0:
241,98,259932,2,0,P|279:109|362:77,1,132,10|8,0:3|0:3,0:0:0:0:
371,67,260303,1,8,0:3:0:0:
381,59,260377,2,0,L|466:67,1,66,10|0,0:0|0:3,0:0:0:0:
495,240,260823,2,0,P|438:209|373:218,1,132,10|0,0:0|0:3,0:0:0:0:
306,272,261269,2,0,L|221:264,1,66,10|8,0:0|0:3,0:0:0:0:
170,315,261566,2,0,L|85:307,1,66,2|8,0:0|0:3,0:0:0:0:
92,315,261788,1,8,0:3:0:0:
80,321,261863,6,0,L|-5:313,1,66,10|0,0:0|0:0,0:0:0:0:
155,216,262308,2,0,P|181:147|153:83,1,132,10|8,0:0|0:3,0:0:0:0:
151,88,262679,1,8,0:3:0:0:
138,83,262754,2,0,L|70:74,1,66,10|8,0:0|0:3,0:0:0:0:
155,216,263199,2,0,P|214:190|276:208,1,132,8|8,0:0|0:3,0:0:0:0:
284,218,263571,1,8,0:3:0:0:
290,229,263645,2,0,L|295:294,1,66,10|8,0:0|0:3,0:0:0:0:
380,348,263942,2,0,L|385:282,1,66,2|8,0:0|0:3,0:0:0:0:
390,269,264165,1,8,0:3:0:0:
397,258,264239,6,0,P|433:247|475:256,1,66,6|0,0:0|0:3,0:0:0:0:
512,89,264684,2,0,P|468:98|369:44,1,132,10|8,0:0|0:3,0:0:0:0:
377,59,265056,1,8,0:3:0:0:
365,53,265130,2,0,L|290:45,1,66,10|8,0:0|0:3,0:0:0:0:
123,43,265576,2,0,P|165:92|160:156,1,132,10|8,0:0|0:3,0:0:0:0:
153,168,265947,1,8,0:3:0:0:
147,180,266021,2,0,L|137:264,1,66,10|8,0:0|0:3,0:0:0:0:
198,319,266318,2,0,P|233:316|274:327,1,66,2|8,0:0|0:3,0:0:0:0:
273,330,266541,1,8,0:3:0:0:
283,337,266615,6,0,P|315:343|347:340,1,66,14|8,0:0|0:3,0:0:0:0:
474,222,267061,2,0,L|481:75,1,132,14|8,0:3|0:3,0:0:0:0:
476,77,267432,1,8,0:3:0:0:
469,65,267506,2,0,P|425:47|323:65,1,132,14|8,0:3|0:2,0:0:0:0:
281,126,267952,2,0,P|237:144|135:126,1,132,10|8,0:3|0:3,0:0:0:0:
144,127,268323,1,0,0:3:0:0:
134,118,268397,2,0,P|100:104|58:105,1,66,10|8,0:0|0:0,0:0:0:0:
11,165,268694,2,0,L|2:245,1,66,10|10,0:3|0:3,0:0:0:0:
0,316,268991,5,6,0:0:0:0:
