osu file format v14

[General]
AudioFilename: audio.mp3
AudioLeadIn: 0
PreviewTime: 328
Countdown: 0
SampleSet: Soft
StackLeniency: 0.7
Mode: 0
LetterboxInBreaks: 0
WidescreenStoryboard: 1

[Editor]
DistanceSpacing: 1.2
BeatDivisor: 4
GridSize: 32
TimelineZoom: 1.4

[Metadata]
Title:mirage
TitleUnicode:mirage
Artist:Shimotsuki Haruka, Nakae Mitsuki
ArtistUnicode:霜月はるか・中恵光城
Creator:Lasse
Version:Easy
Source:
Tags:しちごさん。×ABSOLUTE CASTAWAY 753 Another Flower II 2 Cross bouquet M3-35 日山 尚 Hiyama Nao 戀伊江 梓 幾丹弥吹 Mir Kalibe
BeatmapID:1377890
BeatmapSetID:646714

[Difficulty]
HPDrainRate:3
CircleSize:3
OverallDifficulty:3
ApproachRate:4
SliderMultiplier:1.6
SliderTickRate:1

[Events]
//Background and Video events
0,0,"bg.jpg",0,0
//Break Periods
2,96617,103711
2,212162,220147
//Storyboard Layer 0 (Background)
//Storyboard Layer 1 (Fail)
//Storyboard Layer 2 (Pass)
//Storyboard Layer 3 (Foreground)
//Storyboard Sound Samples

[TimingPoints]
477,594.059405940594,4,2,22,20,1,0
477,-166.666666666667,4,2,22,20,0,0
9090,-166.666666666667,4,2,22,20,0,0
9981,-142.857142857143,4,2,22,24,0,0
10278,-142.857142857143,4,2,22,12,0,0
10427,-142.857142857143,4,2,22,24,0,0
10724,-142.857142857143,4,2,22,12,0,0
10873,-142.857142857143,4,2,22,24,0,0
11318,-142.857142857143,4,2,22,12,0,0
11467,-142.857142857143,4,2,22,24,0,0
12655,-142.857142857143,4,2,22,12,0,0
12803,-142.857142857143,4,2,22,24,0,0
13100,-142.857142857143,4,2,22,12,0,0
13249,-142.857142857143,4,2,22,24,0,0
13694,-142.857142857143,4,2,22,12,0,0
13843,-142.857142857143,4,2,22,24,0,0
15031,-142.857142857143,4,2,22,12,0,0
15179,-142.857142857143,4,2,22,24,0,0
15477,-142.857142857143,4,2,22,12,0,0
15625,-142.857142857143,4,2,22,24,0,0
16071,-142.857142857143,4,2,22,12,0,0
16219,-142.857142857143,4,2,22,24,0,0
17407,-142.857142857143,4,2,22,12,0,0
17556,-142.857142857143,4,2,22,24,0,0
17853,-142.857142857143,4,2,22,12,0,0
18001,-142.857142857143,4,2,22,24,0,0
18447,-142.857142857143,4,2,22,12,0,0
18595,-142.857142857143,4,2,22,24,0,0
19486,-125,4,2,22,30,0,0
28694,-125,4,2,22,26,0,0
28991,-125,4,2,22,30,0,0
37902,-125,4,2,22,34,0,0
38199,-125,4,2,22,36,0,0
38496,-111.111111111111,4,2,1,40,0,0
38719,-111.111111111111,4,2,99,5,0,0
38793,-111.111111111111,4,2,1,40,0,0
41095,-111.111111111111,4,2,99,5,0,0
41170,-111.111111111111,4,2,1,40,0,0
43472,-111.111111111111,4,2,99,5,0,0
43546,-111.111111111111,4,2,1,40,0,0
48224,-111.111111111111,4,2,99,5,0,0
48298,-111.111111111111,4,2,1,40,0,0
50600,-111.111111111111,4,2,99,5,0,0
50675,-111.111111111111,4,2,1,40,0,0
52457,-111.111111111111,4,2,1,42,0,0
52902,-111.111111111111,4,2,1,20,0,0
53051,-111.111111111111,4,2,1,42,0,0
53496,-111.111111111111,4,2,1,20,0,0
53645,-111.111111111111,4,2,1,42,0,0
54090,-111.111111111111,4,2,1,40,0,0
54239,-111.111111111111,4,2,1,46,0,0
54536,-111.111111111111,4,2,1,48,0,0
54833,-111.111111111111,4,2,14,50,0,0
55130,-111.111111111111,4,2,1,54,0,0
55576,-111.111111111111,4,2,2,56,0,0
55725,-111.111111111111,4,2,1,56,0,0
56021,-111.111111111111,4,2,1,58,0,0
56467,-111.111111111111,4,2,14,60,0,0
56912,-111.111111111111,4,2,1,40,0,0
57506,-100,4,2,1,62,0,1
57729,-100,4,2,99,5,0,1
57803,-100,4,2,1,62,0,1
60105,-100,4,2,99,5,0,1
60179,-100,4,2,1,62,0,1
62481,-100,4,2,99,5,0,1
62556,-100,4,2,1,62,0,1
63967,-100,4,2,99,5,0,1
64041,-100,4,2,1,62,0,1
64561,-100,4,2,1,62,0,0
64635,-100,4,2,1,62,0,1
65080,-100,4,2,2,62,0,1
65229,-100,4,2,1,62,0,1
66120,-100,4,2,1,62,0,1
66417,-100,4,2,1,62,0,0
66615,-100,4,2,14,62,0,0
67011,-100,4,2,1,62,0,1
67234,-100,4,2,99,5,0,1
67308,-100,4,2,1,62,0,1
69610,-100,4,2,99,5,0,1
69684,-100,4,2,1,62,0,1
73472,-100,4,2,99,5,0,1
73546,-100,4,2,1,62,0,1
76120,-100,4,2,1,60,0,1
76516,-100,4,2,22,62,0,0
76553,-100,4,2,22,40,0,0
76813,-100,4,2,22,60,0,0
76887,-100,4,2,99,5,0,0
76962,-100,4,2,22,60,0,0
77036,-100,4,2,99,5,0,0
77110,-100,4,2,22,60,0,0
77184,-100,4,2,99,5,0,0
77259,-100,4,2,22,60,0,0
77333,-100,4,2,99,5,0,0
77407,-100,4,2,1,62,0,1
78001,-100,4,2,1,62,0,1
78595,-100,4,2,14,62,0,0
78892,-100,4,2,1,62,0,1
79115,-100,4,2,99,5,0,1
79189,-100,4,2,1,62,0,1
79486,-100,4,2,2,62,0,1
79709,-100,4,2,99,5,0,1
79783,-100,4,2,1,62,0,1
81491,-100,4,2,99,5,0,1
81566,-100,4,2,1,62,0,1
82977,-100,4,2,99,5,0,1
83051,-100,4,2,1,62,0,1
83571,-100,4,2,1,62,0,0
83645,-100,4,2,1,62,0,1
84090,-100,4,2,2,62,0,1
84239,-100,4,2,1,62,0,1
85130,-100,4,2,1,62,0,1
85427,-100,4,2,1,62,0,0
85625,-100,4,2,14,62,0,0
86021,-100,4,2,1,62,0,1
86244,-100,4,2,99,5,0,1
86318,-100,4,2,1,62,0,1
88620,-100,4,2,99,5,0,1
88694,-100,4,2,1,62,0,1
95526,-125,4,2,22,50,0,0
95823,-125,4,2,22,45,0,0
95972,-125,4,2,22,40,0,0
96417,-125,4,2,22,30,0,0
96491,-125,4,2,22,10,0,0
97902,-125,4,2,99,20,0,0
104140,-125,4,2,22,20,0,0
105031,-125,4,2,22,34,0,0
113942,-125,4,2,22,36,0,0
114090,-125,4,2,22,42,0,0
114239,-125,4,2,22,44,0,0
114387,-125,4,2,22,46,0,0
114536,-111.111111111111,4,2,1,50,0,0
114759,-111.111111111111,4,2,99,5,0,0
114833,-111.111111111111,4,2,1,44,0,0
117135,-111.111111111111,4,2,99,5,0,0
117209,-111.111111111111,4,2,1,44,0,0
119511,-111.111111111111,4,2,99,5,0,0
119585,-111.111111111111,4,2,1,44,0,0
121887,-111.111111111111,4,2,99,5,0,0
121962,-111.111111111111,4,2,1,44,0,0
123744,-111.111111111111,4,2,14,44,0,0
124041,-111.111111111111,4,2,1,44,0,0
124264,-111.111111111111,4,2,99,5,0,0
124338,-111.111111111111,4,2,1,44,0,0
126640,-111.111111111111,4,2,99,5,0,0
126714,-111.111111111111,4,2,1,44,0,0
129016,-111.111111111111,4,2,99,5,0,0
129090,-111.111111111111,4,2,1,44,0,0
131392,-111.111111111111,4,2,99,5,0,0
131467,-111.111111111111,4,2,1,44,0,0
133249,-111.111111111111,4,2,14,40,0,0
133546,-136.986301369863,4,2,22,34,0,0
135477,-136.986301369863,4,2,22,20,0,0
135625,-136.986301369863,4,2,22,34,0,0
137853,-136.986301369863,4,2,22,20,0,0
138001,-136.986301369863,4,2,22,34,0,0
138150,-136.986301369863,4,2,22,20,0,0
138298,-136.986301369863,4,2,22,34,0,0
140229,-136.986301369863,4,2,22,20,0,0
140377,-136.986301369863,4,2,22,34,0,0
141046,-136.986301369863,4,2,99,5,0,0
141120,-136.986301369863,4,2,22,34,0,0
141491,-136.986301369863,4,2,99,5,0,0
141566,-136.986301369863,4,2,22,34,0,0
142011,-136.986301369863,4,2,22,20,0,0
142160,-136.986301369863,4,2,22,34,0,0
142308,-136.986301369863,4,2,22,20,0,0
142457,-136.986301369863,4,2,22,34,0,0
142605,-136.986301369863,4,2,22,20,0,0
142754,-136.986301369863,4,2,22,34,0,0
143051,-117.647058823529,4,2,1,40,0,0
143274,-117.647058823529,4,2,99,5,0,0
143348,-117.647058823529,4,2,1,40,0,0
147506,-111.111111111111,4,2,1,42,0,0
147952,-111.111111111111,4,2,1,20,0,0
148100,-111.111111111111,4,2,1,42,0,0
148546,-111.111111111111,4,2,1,20,0,0
148694,-111.111111111111,4,2,1,42,0,0
149140,-111.111111111111,4,2,1,40,0,0
149288,-111.111111111111,4,2,1,46,0,0
149585,-111.111111111111,4,2,1,48,0,0
149882,-111.111111111111,4,2,14,50,0,0
150179,-111.111111111111,4,2,1,54,0,0
150625,-111.111111111111,4,2,2,56,0,0
150774,-111.111111111111,4,2,1,56,0,0
151071,-111.111111111111,4,2,1,58,0,0
151516,-111.111111111111,4,2,14,60,0,0
151962,-111.111111111111,4,2,1,40,0,0
152556,-100,4,2,1,62,0,1
152778,-100,4,2,99,5,0,1
152853,-100,4,2,1,62,0,1
155155,-100,4,2,99,5,0,1
155229,-100,4,2,1,62,0,1
157531,-100,4,2,99,5,0,1
157605,-100,4,2,1,62,0,1
159016,-100,4,2,99,5,0,1
159090,-100,4,2,1,62,0,1
159610,-100,4,2,1,62,0,0
159684,-100,4,2,1,62,0,1
161170,-100,4,2,1,62,0,1
161467,-100,4,2,1,62,0,0
161665,-100,4,2,14,62,0,0
162061,-100,4,2,1,62,0,1
162283,-100,4,2,99,5,0,1
162358,-100,4,2,1,62,0,1
164660,-100,4,2,99,5,0,1
164734,-100,4,2,1,62,0,1
168521,-100,4,2,99,5,0,1
168595,-100,4,2,1,62,0,1
171170,-100,4,2,1,60,0,1
171566,-100,4,2,22,62,0,0
171603,-100,4,2,22,40,0,0
171863,-100,4,2,22,60,0,0
171937,-100,4,2,99,5,0,0
172011,-100,4,2,22,60,0,0
172085,-100,4,2,99,5,0,0
172160,-100,4,2,22,60,0,0
172234,-100,4,2,99,5,0,0
172308,-100,4,2,22,60,0,0
172382,-100,4,2,99,5,0,0
172457,-100,4,2,1,62,0,1
173051,-100,4,2,1,62,0,1
173645,-100,4,2,14,62,0,0
173942,-100,4,2,1,62,0,1
174165,-100,4,2,99,5,0,1
174239,-100,4,2,1,62,0,1
174536,-100,4,2,2,62,0,1
174759,-100,4,2,99,5,0,1
174833,-100,4,2,1,62,0,1
176541,-100,4,2,99,5,0,1
176615,-100,4,2,1,62,0,1
178026,-100,4,2,99,5,0,1
178100,-100,4,2,1,62,0,1
178620,-100,4,2,1,62,0,0
178694,-100,4,2,1,62,0,1
180179,-100,4,2,1,62,0,1
180477,-100,4,2,1,62,0,0
180675,-100,4,2,14,62,0,0
181071,-100,4,2,1,62,0,1
181293,-100,4,2,99,5,0,1
181368,-100,4,2,1,62,0,1
183670,-100,4,2,99,5,0,1
183744,-100,4,2,1,62,0,1
190576,-108.695652173913,4,2,1,56,0,0
191467,-108.695652173913,4,2,2,56,0,0
191615,-108.695652173913,4,2,1,56,0,0
193843,-108.695652173913,4,2,2,56,0,0
193991,-108.695652173913,4,2,1,56,0,0
196219,-108.695652173913,4,2,2,56,0,0
196368,-108.695652173913,4,2,1,56,0,0
199041,-108.695652173913,4,2,2,68,0,0
199338,-108.695652173913,4,2,1,56,0,0
199783,-108.695652173913,4,2,14,56,0,0
200080,-108.695652173913,4,2,1,56,0,0
200972,-108.695652173913,4,2,2,56,0,0
201120,-108.695652173913,4,2,1,56,0,0
203348,-108.695652173913,4,2,2,56,0,0
203496,-108.695652173913,4,2,1,56,0,0
204536,-108.695652173913,4,2,2,56,0,0
204684,-108.695652173913,4,2,1,56,0,0
204833,-100,4,2,1,58,0,0
206021,-100,4,2,1,44,0,0
206170,-100,4,2,1,56,0,0
207209,-100,4,2,56,56,0,0
207432,-100,4,2,99,5,0,0
207506,-100,4,2,56,56,0,0
207729,-100,4,2,99,5,0,0
207803,-100,4,2,56,58,0,0
208026,-100,4,2,99,5,0,0
208100,-100,4,2,56,60,0,0
208323,-100,4,2,99,5,0,0
208397,-100,4,2,56,62,0,0
208620,-100,4,2,99,5,0,0
208694,-100,4,2,56,56,0,0
208917,-100,4,2,99,5,0,0
208991,-100,4,2,56,66,0,0
209214,-100,4,2,99,5,0,0
209288,-100,4,2,56,68,0,0
209511,-100,4,2,99,5,0,0
209585,-100,4,2,1,62,0,0
209734,-100,4,2,1,56,0,0
210031,-100,4,2,2,56,0,0
210179,-100,4,2,1,56,0,0
211962,-100,4,2,22,50,0,0
221467,-133.333333333333,4,2,22,40,0,0
221689,-133.333333333333,4,2,99,5,0,0
221764,-133.333333333333,4,2,22,40,0,0
221838,-133.333333333333,4,2,22,20,0,0
221912,-133.333333333333,4,2,22,40,0,0
221986,-133.333333333333,4,2,22,20,0,0
222060,-133.333333333333,4,2,22,40,0,0
223175,-133.333333333333,4,2,99,5,0,0
223250,-133.333333333333,4,2,22,40,0,0
224066,-133.333333333333,4,2,99,5,0,0
224141,-133.333333333333,4,2,22,40,0,0
224214,-133.333333333333,4,2,22,20,0,0
224288,-133.333333333333,4,2,22,40,0,0
224363,-133.333333333333,4,2,22,20,0,0
224437,-133.333333333333,4,2,22,40,0,0
226739,-133.333333333333,4,2,22,20,0,0
226813,-133.333333333333,4,2,22,40,0,0
227778,-133.333333333333,4,2,22,20,0,0
228001,-133.333333333333,4,2,22,40,0,0
228818,-133.333333333333,4,2,99,5,0,0
228892,-133.333333333333,4,2,22,40,0,0
228967,-133.333333333333,4,2,22,20,0,0
229041,-133.333333333333,4,2,22,40,0,0
229115,-133.333333333333,4,2,22,20,0,0
229189,-133.333333333333,4,2,22,40,0,0
229486,-133.333333333333,4,2,22,44,0,0
229932,-133.333333333333,4,2,22,22,0,0
230080,-133.333333333333,4,2,22,40,0,0
230303,-133.333333333333,4,2,99,5,0,0
230377,-133.333333333333,4,2,22,42,0,0
230600,-133.333333333333,4,2,99,5,0,0
230675,-133.333333333333,4,2,22,44,0,0
230897,-133.333333333333,4,2,99,5,0,0
230972,-114.942528735632,4,2,22,50,0,0
231269,-114.942528735632,4,2,22,52,0,0
231566,-114.942528735632,4,2,22,54,0,0
231863,-100,4,2,1,62,0,1
232457,-100,4,2,1,62,0,1
233051,-100,4,2,14,62,0,0
233348,-100,4,2,1,62,0,1
233571,-100,4,2,99,5,0,1
233645,-100,4,2,1,62,0,1
233942,-100,4,2,2,62,0,1
234165,-100,4,2,99,5,0,1
234239,-100,4,2,1,62,0,1
235947,-100,4,2,99,5,0,1
236021,-100,4,2,1,62,0,1
237432,-100,4,2,99,5,0,1
237506,-100,4,2,1,62,0,1
238026,-100,4,2,1,62,0,0
238100,-100,4,2,1,62,0,1
239586,-100,4,2,1,62,0,1
239882,-100,4,2,1,62,0,0
240080,-100,4,2,14,62,0,0
240477,-100,4,2,1,62,0,1
240699,-100,4,2,99,5,0,1
240774,-100,4,2,1,62,0,1
243076,-100,4,2,99,5,0,1
243150,-100,4,2,1,62,0,1
249981,-108.695652173913,4,2,1,56,0,0
250130,-108.695652173913,4,2,1,52,0,0
250576,-108.695652173913,4,2,2,52,0,0
250724,-108.695652173913,4,2,1,52,0,0
251170,-108.695652173913,4,2,2,52,0,0
251318,-108.695652173913,4,2,1,52,0,0
251764,-108.695652173913,4,2,3,52,0,0
251912,-108.695652173913,4,2,1,52,0,0
252358,-108.695652173913,4,2,2,52,0,0
252506,-108.695652173913,4,2,1,52,0,0
252952,-108.695652173913,4,2,2,52,0,0
253100,-108.695652173913,4,2,1,52,0,0
253546,-108.695652173913,4,2,2,52,0,0
253694,-108.695652173913,4,2,1,52,0,0
254140,-108.695652173913,4,2,3,52,0,0
254288,-108.695652173913,4,2,1,52,0,0
255328,-108.695652173913,4,2,2,52,0,0
255476,-108.695652173913,4,2,1,52,0,0
255922,-108.695652173913,4,2,2,52,0,0
256071,-108.695652173913,4,2,1,52,0,0
256516,-108.695652173913,4,2,3,52,0,0
256665,-108.695652173913,4,2,1,52,0,0
257110,-108.695652173913,4,2,2,52,0,0
257258,-108.695652173913,4,2,1,52,0,0
257704,-108.695652173913,4,2,2,52,0,0
257852,-108.695652173913,4,2,1,52,0,0
258892,-108.695652173913,4,2,2,50,0,0
259041,-108.695652173913,4,2,1,50,0,0
259189,-108.695652173913,4,2,1,48,0,0
259338,-108.695652173913,4,2,1,46,0,0
259486,-108.695652173913,4,2,1,56,0,0
259635,-108.695652173913,4,2,1,52,0,0
264239,-108.695652173913,4,2,2,52,0,0
264387,-108.695652173913,4,2,1,52,0,0
267061,-108.695652173913,4,2,2,52,0,0
267210,-108.695652173913,4,2,1,52,0,0
267803,-108.695652173913,4,2,1,40,0,0
267952,-108.695652173913,4,2,1,50,0,0
268397,-108.695652173913,4,2,1,46,0,0
268694,-108.695652173913,4,2,1,44,0,0
268769,-108.695652173913,4,2,1,34,0,0
268843,-108.695652173913,4,2,1,44,0,0
268917,-108.695652173913,4,2,1,34,0,0
268991,-108.695652173913,4,2,22,40,0,0

[Colours]
Combo1 : 250,140,150
Combo2 : 150,150,150
Combo3 : 233,107,136
Combo4 : 200,200,200

[HitObjects]
87,57,477,6,0,P|142:69|150:153,1,143.999995605469,6|2,0:1|0:2,0:0:0:0:
100,226,1962,1,2,0:1:0:0:
215,312,2853,2,0,L|363:304,1,143.999995605469,2|2,0:1|0:2,0:0:0:0:
451,329,4338,1,2,0:1:0:0:
423,187,5229,6,0,B|408:147|431:106|431:106|431:70|406:44,1,143.999995605469,2|2,0:1|0:2,0:0:0:0:
318,27,6714,1,2,0:1:0:0:
210,125,7605,2,0,B|178:131|152:111|152:111|104:94|77:125,1,143.999995605469,2|2,0:1|0:2,0:0:0:0:
45,215,9090,2,2,L|38:321,1,95.9999970703126,2|2,0:1|0:0,1:2:0:0:
82,345,9981,6,0,P|99:331|168:322,2,83.9999974365235,14|2|2,0:1|0:0|0:0,0:0:0:0:
11,257,11467,2,0,L|6:134,1,111.999996582031,2|2,0:1|0:0,0:0:0:0:
36,97,12358,2,0,P|53:83|122:74,1,83.9999974365235,2|2,0:1|0:0,0:0:0:0:
185,112,13249,1,2,0:0:0:0:
290,73,13843,2,0,L|409:61,1,111.999996582031,2|2,0:1|0:0,0:0:0:0:
449,89,14734,6,0,P|463:106|472:175,2,83.9999974365235,10|2|2,0:1|0:0|0:0,0:0:0:0:
347,41,16219,2,0,L|224:36,1,111.999996582031,2|2,0:1|0:0,0:0:0:0:
181,53,17110,2,0,L|97:49,1,83.9999974365235,2|2,0:1|0:0,0:0:0:0:
35,107,18001,1,2,0:0:0:0:
131,163,18595,2,2,B|159:171|174:169|174:169|207:151|240:160,1,111.999996582031,2|2,0:1|0:0,1:2:0:0:
294,192,19486,6,0,P|359:211|423:186,1,128,14|10,0:1|0:0,0:0:0:0:
466,155,20377,1,2,0:0:0:0:
393,49,20972,2,0,P|358:39|317:36,1,64,10|10,0:3|0:0,0:0:0:0:
215,91,21863,2,0,P|150:110|86:85,1,128,10|8,0:3|0:0,0:0:0:0:
44,52,22754,1,2,0:0:0:0:
2,173,23348,2,0,L|-1:244,1,64,10|10,0:3|0:0,0:0:0:0:
83,332,24239,6,0,B|105:337|125:346|125:346|164:328|208:329,1,128,10|8,0:3|0:0,0:0:0:0:
268,344,25130,1,2,0:0:0:0:
391,309,25724,2,0,L|400:235,1,64,10|10,0:3|0:0,0:0:0:0:
344,129,26615,2,0,P|298:115|208:111,1,128,10|8,0:3|0:0,0:0:0:0:
163,142,27506,1,2,0:0:0:0:
49,82,28100,2,0,L|48:10,2,64,10|10|2,0:3|0:0|0:0,0:0:0:0:
17,137,28991,6,0,B|2:176|2:176|12:275,1,128,14|10,0:1|0:0,0:0:0:0:
47,314,29882,1,2,0:0:0:0:
154,244,30477,2,0,L|159:176,1,64,10|10,0:3|0:0,0:0:0:0:
226,71,31368,2,0,P|286:51|346:70,1,128,10|8,0:3|0:0,0:0:0:0:
387,119,32259,1,2,0:0:0:0:
500,179,32853,2,0,L|505:247,1,64,10|10,0:3|0:0,0:0:0:0:
432,348,33744,6,0,P|368:336|301:337,1,128,10|8,0:3|0:0,0:0:0:0:
247,363,34635,1,2,0:0:0:0:
187,249,35229,2,0,L|184:174,1,64,10|10,0:3|0:0,0:0:0:0:
153,61,36120,2,0,P|96:34|37:64,1,128,10|8,0:3|0:0,0:0:0:0:
8,115,37011,1,2,0:0:0:0:
19,242,37605,2,0,L|12:318,2,64,10|8|10,0:3|0:0|0:0,0:0:0:0:
88,191,38496,6,0,P|156:186|206:248,1,143.999995605469,6|8,0:0|0:0,0:0:0:0:
262,302,39387,2,0,L|380:300,2,107.999996704102,2|8|10,0:0|0:0|0:0,0:0:0:0:
177,321,40576,1,10,0:3:0:0:
108,268,40873,2,0,B|89:223|89:223|103:117,1,143.999995605469,2|8,0:0|0:0,0:0:0:0:
107,42,41764,2,0,P|60:21|-5:32,2,107.999996704102,2|8|10,0:0|0:0|0:0,0:0:0:0:
179,91,42952,1,2,0:0:0:0:
219,167,43249,6,0,P|268:200|357:170,1,143.999995605469,10|8,0:3|0:0,0:0:0:0:
405,118,44140,2,0,L|417:5,2,107.999996704102,2|8|10,0:0|0:0|0:0,0:0:0:0:
430,200,45328,1,10,0:3:0:0:
371,263,45625,2,0,B|340:301|321:342|321:342|295:338|264:338,1,143.999995605469,10|10,0:3|0:0,0:0:0:0:
184,349,46516,1,2,0:0:0:0:
71,284,46962,2,0,L|64:163,1,107.999996704102,10|10,0:0|0:0,0:0:0:0:
166,36,48001,6,0,B|219:17|219:17|253:36|259:95,1,143.999995605469,6|8,0:0|0:0,0:0:0:0:
196,151,48892,2,0,L|80:148,2,107.999996704102,2|8|10,0:0|0:0|0:0,0:0:0:0:
278,174,50080,1,10,0:3:0:0:
355,211,50377,2,0,P|385:254|336:329,1,143.999995605469,10|8,0:3|0:0,0:0:0:0:
259,340,51269,2,0,L|147:330,2,107.999996704102,2|8|10,0:0|0:0|0:0,0:0:0:0:
343,358,52457,1,10,0:3:0:0:
423,327,52754,6,0,P|464:271|447:203,1,143.999995605469,10|10,0:3|0:2,0:0:0:0:
387,141,53645,2,0,L|385:24,2,107.999996704102,2|8|8,0:0|0:0|0:0,0:0:0:0:
324,201,54833,1,10,0:3:0:0:
238,186,55130,2,0,B|200:184|200:184|171:196|171:196|125:190,2,107.999996704102,14|6|6,0:0|0:0|0:0,0:0:0:0:
491,320,57506,6,0,B|445:309|445:309|404:324|404:324|330:316,1,160,6|8,0:0|0:0,0:0:0:0:
195,349,58546,2,0,L|66:339,1,120,8|8,0:0|0:3,0:0:0:0:
19,261,59288,1,10,0:0:0:0:
180,157,59882,2,0,B|228:153|268:176|268:176|313:174|335:153,1,160,10|8,0:3|0:0,0:0:0:0:
255,34,60922,2,0,P|198:21|124:26,1,120,10|8,0:0|0:3,0:0:0:0:
58,79,61665,1,10,0:0:0:0:
139,253,62259,6,0,B|180:262|219:239|219:239|260:239|294:257,1,160,6|8,0:0|0:0,0:0:0:0:
398,354,63298,1,8,0:0:0:0:
494,246,63744,2,0,L|504:153,1,80,10|10,0:3|0:2,0:0:0:0:
347,53,64635,2,0,B|312:46|279:61|279:61|251:58|232:41,1,120,14|14,0:0|0:0,0:0:0:0:
114,124,65526,2,0,B|79:131|46:116|46:116|18:119|-1:136,2,120,14|12|10,0:2|0:0|0:0,0:0:0:0:
303,155,67011,6,0,B|328:191|319:228|319:228|293:274|310:312,1,160,6|8,0:0|0:0,0:0:0:0:
445,350,68051,2,0,P|468:285|458:224,1,120,10|8,0:0|0:3,0:0:0:0:
416,151,68793,1,10,0:0:0:0:
266,271,69387,2,0,B|217:307|217:307|157:318|117:272,1,160,10|8,0:3|0:0,0:0:0:0:
38,164,70427,2,0,B|25:125|25:125|34:79|64:57,1,120,10|8,0:2|0:3,0:0:0:0:
155,37,71170,1,8,0:0:0:0:
330,114,71764,6,0,B|372:124|413:95|413:95|457:106|468:136,1,160,4|8,0:0|0:0,0:0:0:0:
450,279,72803,1,8,0:0:0:0:
318,336,73249,2,0,L|222:329,1,80,10|10,0:3|0:2,0:0:0:0:
122,174,74140,2,0,B|114:143|114:143|127:118|127:118|131:50,2,120,6|10|14,0:0|0:3|0:0,0:0:0:0:
176,357,75625,2,0,P|220:299|308:305,1,160,2|10,0:3|0:0,0:0:0:0:
377,358,76516,5,10,0:1:0:0:
496,96,77407,2,0,P|447:35|370:39,1,160,6|12,0:0|0:0,0:0:0:0:
299,104,78298,1,10,0:0:0:0:
190,262,78892,2,0,B|117:279|117:279|69:279|48:236,1,160,6|6,0:0|0:0,0:0:0:0:
48,92,79932,2,0,P|102:66|172:70,1,120,10|8,0:0|0:3,0:0:0:0:
248,106,80675,1,10,0:0:0:0:
352,266,81269,6,0,P|429:268|476:208,1,160,6|8,0:0|0:0,0:0:0:0:
510,68,82308,1,8,0:0:0:0:
366,61,82754,2,0,L|275:45,1,80,10|10,0:3|0:2,0:0:0:0:
129,156,83645,2,0,B|122:191|137:224|137:224|134:252|118:269,1,120,14|14,0:0|0:0,0:0:0:0:
26,158,84536,2,0,B|33:123|18:90|18:90|21:62|36:44,2,120,14|12|10,0:2|0:0|0:0,0:0:0:0:
49,348,86021,6,0,B|79:326|122:332|122:332|157:354|201:346,1,160,6|8,0:0|0:0,0:0:0:0:
286,229,87061,2,0,L|300:101,1,120,10|8,0:0|0:3,0:0:0:0:
353,30,87803,1,10,0:0:0:0:
460,188,88397,2,0,B|452:280|452:280|440:314|412:337,1,160,10|8,0:3|0:0,0:0:0:0:
271,311,89437,2,0,P|209:302|155:330,1,120,10|8,0:2|0:3,0:0:0:0:
70,364,90179,2,0,L|64:268,1,80,8|2,0:0|0:3,0:0:0:0:
13,202,90774,6,0,L|7:106,1,80,4|2,0:0|0:0,0:0:0:0:
82,62,91368,2,0,P|133:32|191:39,2,120,10|10|2,0:0|0:0|0:3,0:0:0:0:
153,128,92556,2,0,P|191:136|231:128,1,80,10|2,0:0|0:0,0:0:0:0:
313,79,93150,2,0,B|348:66|348:66|375:82|375:82|436:84,1,120,6|10,0:0|0:3,0:0:0:0:
491,212,94041,2,0,B|456:199|456:199|429:215|429:215|377:216,1,120,12|10,0:0|0:3,0:0:0:0:
291,332,94932,1,10,0:0:0:0:
166,186,95526,6,0,B|147:141|147:141|170:85,2,96,6|2|6,0:1|0:0|2:2,0:0:0:0:
53,70,105031,6,0,P|118:51|182:76,1,128,14|8,0:1|0:0,0:0:0:0:
206,124,105922,1,2,0:1:0:0:
285,224,106516,2,0,P|312:229|361:226,1,64,10|10,0:3|0:0,0:0:0:0:
462,170,107407,2,0,B|488:146|488:146|501:99|467:52,1,128,10|8,0:3|0:0,0:0:0:0:
415,25,108298,1,2,0:1:0:0:
295,71,108892,2,0,P|263:72|231:66,1,64,10|10,0:3|0:0,0:0:0:0:
105,45,109783,6,0,B|73:61|73:61|48:103|69:157,1,128,10|8,0:1|0:0,0:0:0:0:
92,209,110675,1,2,0:1:0:0:
218,186,111269,2,0,L|293:185,1,64,10|10,0:3|0:0,0:0:0:0:
405,219,112160,2,0,P|436:272|412:328,1,128,10|8,0:3|0:0,0:0:0:0:
361,368,113051,1,2,0:0:0:0:
237,335,113645,2,0,L|162:334,1,64,10|10,0:3|2:2,0:0:0:0:
34,265,114536,6,0,B|21:223|21:223|32:109,1,143.999995605469,4|10,0:0|0:0,0:0:0:0:
89,60,115427,2,0,P|163:44|224:87,1,143.999995605469,2|10,0:0|0:3,0:0:0:0:
240,161,116318,1,10,0:0:0:0:
321,313,116912,2,0,P|389:330|449:294,1,143.999995605469,8|8,0:3|0:0,0:0:0:0:
491,218,117803,2,0,B|496:128|496:128|483:102|448:81,1,143.999995605469,2|10,0:0|0:3,0:0:0:0:
380,54,118694,1,10,0:0:0:0:
321,229,119288,6,0,B|277:257|277:257|164:234,1,143.999995605469,10|8,0:3|0:0,0:0:0:0:
107,204,120179,2,0,P|81:138|109:73,1,143.999995605469,2|8,0:0|0:3,0:0:0:0:
182,30,121071,1,8,0:0:0:0:
339,100,121665,2,0,B|382:113|415:92|415:92|449:85|477:105,1,143.999995605469,10|8,0:3|0:0,0:0:0:0:
496,188,122556,2,0,L|492:318,2,107.999996704102,2|12|10,0:0|0:0|0:0,0:0:0:0:
375,63,124041,6,0,B|346:42|312:49|312:49|279:70|236:57,1,143.999995605469,4|10,0:0|0:0,0:0:0:0:
172,115,124932,2,0,L|164:281,1,143.999995605469,2|10,0:0|0:3,0:0:0:0:
144,342,125823,1,10,0:0:0:0:
6,237,126417,2,0,L|-2:71,1,143.999995605469,8|8,0:3|0:0,0:0:0:0:
64,36,127308,2,0,B|103:42|139:63|139:63|172:54|220:50,1,143.999995605469,2|10,0:0|0:3,0:0:0:0:
282,20,128199,1,10,0:0:0:0:
432,105,128793,6,0,B|459:149|459:149|465:198|442:237,1,143.999995605469,10|8,0:3|0:0,0:0:0:0:
372,288,129684,2,0,L|228:281,1,143.999995605469,2|8,0:0|0:3,0:0:0:0:
156,328,130576,1,8,0:0:0:0:
29,209,131170,2,0,B|1:165|1:165|-4:115|18:76,1,143.999995605469,10|8,0:3|0:0,0:0:0:0:
99,45,132061,2,0,L|206:39,2,107.999996704102,2|12|10,0:0|0:0|0:0,0:0:0:0:
1,137,133546,5,6,0:1:0:0:
175,356,135922,1,2,0:1:0:0:
277,95,138298,1,2,0:1:0:0:
452,313,140675,2,0,B|431:228|480:237|457:141|457:141|390:138|357:188|357:188|338:166|293:161,1,350.400009624024,2|2,0:1|0:1,0:0:0:0:
175,258,143051,6,0,B|124:266|124:266|77:270|48:231,1,136.000002593994,6|8,0:0|0:0,0:0:0:0:
38,153,143942,2,0,L|33:33,2,102.000001945496,2|8|8,0:0|0:0|0:0,0:0:0:0:
114,183,145130,1,10,0:3:0:0:
181,137,145427,2,0,B|232:129|232:129|279:125|308:164,1,136.000002593994,10|8,0:3|0:0,0:0:0:0:
318,242,146318,2,0,L|313:362,2,102.000001945496,2|8|8,0:0|0:0|0:0,0:0:0:0:
380,190,147506,1,10,0:3:0:0:
451,147,147803,6,0,P|395:106|328:124,1,143.999995605469,10|10,0:3|0:2,0:0:0:0:
264,178,148694,2,0,L|148:164,2,107.999996704102,2|8|8,0:0|0:0|0:0,0:0:0:0:
318,242,149882,1,10,0:3:0:0:
380,190,150179,2,0,B|409:179|409:179|441:194|441:194|492:197,2,107.999996704102,14|6|6,0:0|0:0|0:0,0:0:0:0:
46,339,152556,6,0,B|47:310|41:292|41:292|55:268|55:268|36:231|51:179,1,160,6|8,0:0|0:0,0:0:0:0:
142,75,153595,2,0,L|269:67,1,120,8|8,0:0|0:3,0:0:0:0:
348,24,154338,1,10,0:0:0:0:
473,169,154932,2,0,B|493:220|493:220|497:289|435:318,1,160,10|8,0:3|0:0,0:0:0:0:
311,268,155972,2,0,L|302:142,1,120,10|8,0:0|0:3,0:0:0:0:
227,87,156714,1,10,0:0:0:0:
39,128,157308,6,0,B|35:144|36:162|36:162|45:186|45:186|21:235|35:283,1,160,6|8,0:0|0:0,0:0:0:0:
159,355,158348,1,8,0:0:0:0:
291,299,158793,2,0,L|382:293,1,80,10|10,0:3|0:2,0:0:0:0:
482,137,159684,2,0,B|508:103|497:63|497:63|461:41,1,120,14|14,0:0|0:0,0:0:0:0:
324,85,160576,2,0,B|287:104|287:104|246:97|231:54,2,120,14|12|10,0:2|0:0|0:0,0:0:0:0:
455,224,162061,6,0,B|427:200|382:208|382:208|347:234|298:217,1,160,6|8,0:0|0:0,0:0:0:0:
183,139,163100,2,0,P|128:118|61:128,1,120,10|8,0:0|0:3,0:0:0:0:
3,196,163843,1,10,0:0:0:0:
141,328,164437,2,0,B|184:343|219:317|219:317|264:309|292:333,1,160,10|8,0:3|0:0,0:0:0:0:
433,361,165477,2,0,B|468:340|468:340|491:317|485:265,1,120,10|8,0:2|0:3,0:0:0:0:
453,175,166219,1,8,0:0:0:0:
267,223,166813,6,0,B|249:220|225:223|225:223|204:209|204:209|160:234|110:212,1,160,4|8,0:0|0:0,0:0:0:0:
4,121,167853,1,8,0:0:0:0:
124,41,168298,2,0,P|168:33|220:34,1,80,10|10,0:3|0:2,0:0:0:0:
379,107,169189,2,0,B|420:119|420:119|443:110|443:110|501:108,2,120,6|10|14,0:0|0:3|0:0,0:0:0:0:
187,122,170675,2,0,P|129:166|135:254,1,160,2|10,0:3|0:0,0:0:0:0:
181,328,171566,5,10,0:1:0:0:
451,228,172457,2,0,P|492:163|464:91,1,160,6|12,0:0|0:0,0:0:0:0:
384,38,173348,1,10,0:0:0:0:
196,81,173942,2,0,B|154:84|118:96|118:96|81:82|39:75,1,160,6|6,0:0|0:0,0:0:0:0:
5,215,174981,2,0,B|-9:259|-9:259|-17:301|6:328,1,120,10|8,0:0|0:3,0:0:0:0:
96,362,175724,1,10,0:0:0:0:
285,333,176318,6,0,B|328:318|350:290|350:290|387:306|435:304,1,160,6|8,0:0|0:0,0:0:0:0:
504,183,177358,1,8,0:0:0:0:
417,67,177803,2,0,P|374:58|326:51,1,80,10|10,0:3|0:2,0:0:0:0:
154,108,178694,2,0,B|118:105|90:82|90:82|62:78|42:89,1,120,14|14,0:0|0:0,0:0:0:0:
65,231,179585,2,0,B|72:266|57:299|57:299|60:327|76:344,2,120,14|12|10,0:2|0:0|0:0,0:0:0:0:
186,81,181071,6,0,B|231:56|231:56|276:47|338:78,1,160,6|8,0:0|0:0,0:0:0:0:
432,183,182110,2,0,B|443:222|456:251|456:251|439:272|429:290,1,120,10|8,0:0|0:3,0:0:0:0:
361,358,182853,1,10,0:0:0:0:
214,232,183447,2,0,B|195:186|209:120|209:120|202:95|180:76,1,160,10|8,0:3|0:0,0:0:0:0:
42,99,184486,2,0,P|32:162|33:229,1,120,10|8,0:2|0:3,0:0:0:0:
73,304,185229,2,0,L|154:312,1,80,8|2,0:0|0:3,0:0:0:0:
241,347,185823,6,0,L|322:339,1,80,4|2,0:0|0:0,0:0:0:0:
414,317,186417,2,0,P|444:266|437:208,2,120,10|10|2,0:0|0:0|0:3,0:0:0:0:
348,246,187605,2,0,P|314:234|268:241,1,80,10|2,0:0|0:0,0:0:0:0:
182,276,188199,2,0,B|147:289|147:289|120:273|120:273|59:271,1,120,6|10,0:0|0:3,0:0:0:0:
46,128,189090,2,0,B|81:115|81:115|108:131|108:131|160:132,1,120,12|10,0:0|0:3,0:0:0:0:
288,195,189981,1,10,0:0:0:0:
429,88,190576,6,0,B|417:50|417:50|390:23|351:31,1,110.399996293945,6|10,0:0|0:0,0:0:0:0:
232,88,191467,2,0,B|193:96|166:69|166:69|154:31,2,110.399996293945,6|8|8,0:3|0:3|0:0,0:0:0:0:
316,111,192655,1,2,0:0:0:0:
366,183,192952,2,0,B|354:221|354:221|327:248|288:239,1,110.399996293945,6|8,0:0|0:0,0:0:0:0:
157,221,193843,2,0,B|119:209|119:209|92:182|100:143,2,110.399996293945,6|8|8,0:3|0:3|0:3,0:0:0:0:
294,110,195328,6,0,P|347:89|410:100,1,110.399996293945,6|10,0:0|0:0,0:0:0:0:
394,225,196219,2,0,P|341:246|278:235,2,110.399996293945,6|8|8,0:3|0:3|0:0,0:0:0:0:
456,162,197407,1,2,0:0:0:0:
398,95,197704,2,0,P|347:75|292:82,2,110.399996293945,6|8|10,0:0|0:0|0:0,0:0:0:0:
329,208,199041,2,0,P|274:214|223:195,1,110.399996293945,6|10,0:0|0:0,0:0:0:0:
102,65,200080,6,0,B|63:56|63:56|26:66|14:102,1,110.399996293945,6|10,0:0|0:0,0:0:0:0:
94,208,200972,2,0,B|81:244|44:254|44:254|6:245,2,110.399996293945,6|8|8,0:3|0:3|0:0,0:0:0:0:
174,171,202160,1,2,0:0:0:0:
261,178,202457,2,0,B|299:190|299:190|326:217|317:254,1,110.399996293945,6|10,0:0|0:0,0:0:0:0:
224,349,203348,2,0,B|186:337|186:337|159:310|167:271,2,110.399996293945,6|8|12,0:3|0:3|0:0,0:0:0:0:
413,316,204833,6,0,L|422:195,1,120,6|10,0:0|0:3,0:0:0:0:
362,63,205724,2,0,P|311:35|253:45,2,120,10|10|2,0:3|0:3|0:0,0:0:0:0:
296,132,206912,1,10,0:3:0:0:
201,153,207209,2,0,P|143:102|137:24,2,160,14|8|8,0:0|0:2|0:0,0:0:0:0:
393,148,208991,1,10,0:0:0:0:
263,289,209585,6,0,B|225:292|225:292|180:281|180:281|132:286,2,120,14|14|10,0:0|0:2|0:0,0:0:0:0:
460,48,211962,5,6,0:2:0:0:
36,329,221467,6,0,P|91:348|144:325,1,120.000004577637,14|8,0:1|0:0,0:0:0:0:
224,163,222952,2,0,L|231:91,1,60.0000022888184,10|10,0:3|0:0,0:0:0:0:
332,40,223843,2,0,B|380:33|380:33|414:45|431:80,1,120.000004577637,10|8,0:3|0:0,0:0:0:0:
468,256,225328,2,0,L|460:327,1,60.0000022888184,8|8,0:3|0:0,0:0:0:0:
342,326,226219,6,0,B|302:320|261:333|261:333|249:320|226:305,1,120.000004577637,10|8,0:3|0:0,0:0:0:0:
64,242,227704,2,0,L|56:173,1,60.0000022888184,10|10,0:3|0:0,0:0:0:0:
129,86,228595,2,0,P|187:83|217:142,1,120.000004577637,10|8,0:3|0:0,0:0:0:0:
218,190,229486,1,6,0:2:0:0:
326,242,230080,2,0,L|391:235,1,60.0000022888184,10|10,0:1|0:0,0:0:0:0:
467,123,230972,5,2,0:1:0:0:
262,326,231863,2,0,B|212:342|212:342|157:342|114:292,1,160,6|12,0:0|0:0,0:0:0:0:
54,224,232754,1,10,0:0:0:0:
151,58,233348,2,0,B|188:57|188:57|236:78|236:78|318:74,1,160,6|6,0:0|0:0,0:0:0:0:
444,114,234387,2,0,B|469:148|469:148|477:196|436:231,1,120,10|8,0:0|0:3,0:0:0:0:
377,285,235130,1,10,0:0:0:0:
208,192,235724,6,0,B|166:195|129:203|129:203|101:181|59:157,1,160,6|8,0:0|0:0,0:0:0:0:
8,292,236764,1,8,0:0:0:0:
137,355,237209,2,0,P|177:356|228:339,1,80,10|10,0:3|0:2,0:0:0:0:
327,189,238100,2,0,B|333:153|318:120|318:120|321:92|337:75,1,120,14|14,0:0|0:0,0:0:0:0:
441,175,238991,2,0,B|434:210|449:243|449:243|446:271|430:288,2,120,14|12|10,0:2|0:0|0:0,0:0:0:0:
295,48,240477,6,0,B|253:33|194:47|194:47|165:35|121:33,1,160,6|8,0:0|0:0,0:0:0:0:
45,144,241516,2,0,B|44:190|30:221|30:221|31:245|42:272,1,120,10|8,0:0|0:3,0:0:0:0:
97,336,242259,1,10,0:0:0:0:
288,326,242853,2,0,B|337:328|379:337|379:337|424:327|444:292,1,160,10|8,0:3|0:0,0:0:0:0:
425,159,243892,2,0,P|364:142|295:150,1,120,10|8,0:2|0:3,0:0:0:0:
240,214,244635,2,0,L|158:210,1,80,8|2,0:0|0:3,0:0:0:0:
66,187,245229,6,0,P|56:146|58:106,1,80,4|2,0:0|0:0,0:0:0:0:
129,45,245823,2,0,P|176:41|248:54,2,120,10|10|2,0:0|0:0|0:3,0:0:0:0:
148,140,247011,2,0,P|186:147|229:145,1,80,10|2,0:0|0:0,0:0:0:0:
318,114,247605,2,0,B|353:101|353:101|380:117|380:117|441:119,1,120,6|10,0:0|0:3,0:0:0:0:
479,254,248496,2,0,B|444:241|444:241|417:257|417:257|356:259,1,120,12|10,0:0|0:3,0:0:0:0:
256,353,249387,1,10,0:0:0:0:
81,287,249981,6,0,B|50:252|50:252|34:209|58:154,1,147.199995058594,6|4,0:0|0:3,0:0:0:0:
112,85,250873,1,10,0:0:0:0:
182,138,251170,2,0,B|220:164|220:164|265:175|316:144,1,147.199995058594,6|14,0:3|0:3,0:0:0:0:
382,85,252061,1,10,0:3:0:0:
454,135,252358,2,0,L|469:288,1,147.199995058594,4|4,0:0|0:3,0:0:0:0:
404,342,253249,1,10,0:0:0:0:
330,291,253546,2,0,L|315:144,1,147.199995058594,6|14,0:3|0:3,0:0:0:0:
166,49,254734,6,0,P|97:35|35:87,1,147.199995058594,6|6,0:0|0:3,0:0:0:0:
20,164,255625,1,10,0:0:0:0:
39,250,255922,2,0,P|95:293|165:279,1,147.199995058594,4|14,0:3|0:3,0:0:0:0:
229,218,256813,1,10,0:3:0:0:
314,196,257110,2,0,B|344:205|368:218|368:218|409:223|453:197,1,147.199995058594,6|4,0:3|0:3,0:0:0:0:
447,109,258001,2,0,P|392:89|328:91,2,110.399996293945,10|4|6,0:0|0:0|0:3,0:0:0:0:
364,265,259486,6,0,P|309:263|257:244,2,110.399996293945,6|10|10,0:0|0:3|0:0,0:0:0:0:
480,202,260823,1,10,0:0:0:0:
408,90,261269,2,0,P|377:74|323:65,1,73.599997529297,10|2,0:0|0:0,0:0:0:0:
251,67,261863,2,0,L|136:53,2,110.399996293945,10|10|10,0:0|0:0|0:0,0:0:0:0:
334,170,263199,1,8,0:0:0:0:
242,266,263645,2,0,L|166:274,1,73.599997529297,10|2,0:0|0:0,0:0:0:0:
90,234,264239,6,0,P|64:189|76:134,2,110.399996293945,6|10|10,0:0|0:0|0:0,0:0:0:0:
197,312,265576,1,10,0:0:0:0:
325,278,266021,2,0,P|364:274|410:276,1,73.599997529297,10|2,0:0|0:0,0:0:0:0:
471,225,266615,2,0,L|484:110,2,110.399996293945,14|14|14,0:0|0:3|0:3,0:0:0:0:
442,354,267952,1,10,0:3:0:0:
324,292,268397,2,0,P|294:284|249:281,1,73.599997529297,10|10,0:0|0:3,0:0:0:0:
173,321,268991,5,6,0:0:0:0:
