osu file format v14

[General]
AudioFilename: audio.mp3
AudioLeadIn: 0
PreviewTime: 328
Countdown: 0
SampleSet: Soft
StackLeniency: 0.7
Mode: 0
LetterboxInBreaks: 0
WidescreenStoryboard: 1

[Editor]
DistanceSpacing: 1
BeatDivisor: 4
GridSize: 32
TimelineZoom: 1.7

[Metadata]
Title:mirage
TitleUnicode:mirage
Artist:Shimotsuki Haruka, Nakae Mitsuki
ArtistUnicode:霜月はるか・中恵光城
Creator:Lasse
Version:Normal
Source:
Tags:しちごさん。×ABSOLUTE CASTAWAY 753 Another Flower II 2 Cross bouquet M3-35 日山 尚 Hiyama Nao 戀伊江 梓 幾丹弥吹 Mir Kalibe
BeatmapID:1377266
BeatmapSetID:646714

[Difficulty]
HPDrainRate:4
CircleSize:3.4
OverallDifficulty:4
ApproachRate:5
SliderMultiplier:2.2
SliderTickRate:1

[Events]
//Background and Video events
0,0,"bg.jpg",0,0
//Break Periods
2,98102,103831
2,212162,220267
//Storyboard Layer 0 (Background)
//Storyboard Layer 1 (Fail)
//Storyboard Layer 2 (Pass)
//Storyboard Layer 3 (Foreground)
//Storyboard Sound Samples

[TimingPoints]
477,594.059405940594,4,2,22,20,1,0
477,-166.666666666667,4,2,22,20,0,0
9090,-166.666666666667,4,2,22,20,0,0
9981,-142.857142857143,4,2,22,24,0,0
10278,-142.857142857143,4,2,22,12,0,0
10427,-142.857142857143,4,2,22,24,0,0
10724,-142.857142857143,4,2,22,12,0,0
10873,-142.857142857143,4,2,22,24,0,0
11318,-142.857142857143,4,2,22,12,0,0
11467,-142.857142857143,4,2,22,24,0,0
12655,-142.857142857143,4,2,22,12,0,0
12803,-142.857142857143,4,2,22,24,0,0
13100,-142.857142857143,4,2,22,12,0,0
13249,-142.857142857143,4,2,22,24,0,0
13694,-142.857142857143,4,2,22,12,0,0
13843,-142.857142857143,4,2,22,24,0,0
15031,-142.857142857143,4,2,22,12,0,0
15179,-142.857142857143,4,2,22,24,0,0
15477,-142.857142857143,4,2,22,12,0,0
15625,-142.857142857143,4,2,22,24,0,0
16071,-142.857142857143,4,2,22,12,0,0
16219,-142.857142857143,4,2,22,24,0,0
17407,-142.857142857143,4,2,22,12,0,0
17556,-142.857142857143,4,2,22,24,0,0
17853,-142.857142857143,4,2,22,12,0,0
18001,-142.857142857143,4,2,22,24,0,0
18447,-142.857142857143,4,2,22,12,0,0
18595,-142.857142857143,4,2,22,24,0,0
19486,-125,4,2,22,30,0,0
28694,-125,4,2,22,26,0,0
28991,-125,4,2,22,30,0,0
37902,-125,4,2,22,34,0,0
38199,-125,4,2,22,36,0,0
38496,-111.111111111111,4,2,1,40,0,0
38719,-111.111111111111,4,2,99,5,0,0
38793,-111.111111111111,4,2,1,40,0,0
41095,-111.111111111111,4,2,99,5,0,0
41170,-111.111111111111,4,2,1,40,0,0
43472,-111.111111111111,4,2,99,5,0,0
43546,-111.111111111111,4,2,1,40,0,0
48224,-111.111111111111,4,2,99,5,0,0
48298,-111.111111111111,4,2,1,40,0,0
50600,-111.111111111111,4,2,99,5,0,0
50675,-111.111111111111,4,2,1,40,0,0
52457,-111.111111111111,4,2,1,42,0,0
52902,-111.111111111111,4,2,1,20,0,0
53051,-111.111111111111,4,2,1,42,0,0
53496,-111.111111111111,4,2,1,20,0,0
53645,-111.111111111111,4,2,1,42,0,0
54090,-111.111111111111,4,2,1,40,0,0
54239,-111.111111111111,4,2,1,46,0,0
54536,-111.111111111111,4,2,1,48,0,0
54833,-111.111111111111,4,2,14,50,0,0
55130,-111.111111111111,4,2,1,54,0,0
55576,-111.111111111111,4,2,2,56,0,0
55725,-111.111111111111,4,2,1,56,0,0
56021,-111.111111111111,4,2,1,58,0,0
56467,-111.111111111111,4,2,14,60,0,0
56912,-111.111111111111,4,2,1,40,0,0
57506,-100,4,2,1,62,0,1
57729,-100,4,2,99,5,0,1
57803,-100,4,2,1,62,0,1
60105,-100,4,2,99,5,0,1
60179,-100,4,2,1,62,0,1
62481,-100,4,2,99,5,0,1
62556,-100,4,2,1,62,0,1
63967,-100,4,2,99,5,0,1
64041,-100,4,2,1,62,0,1
64561,-100,4,2,1,62,0,0
64635,-100,4,2,1,62,0,1
65080,-100,4,2,2,62,0,1
65229,-100,4,2,1,62,0,1
66120,-100,4,2,1,62,0,1
66417,-100,4,2,1,62,0,0
66615,-100,4,2,14,62,0,0
67011,-100,4,2,1,62,0,1
67234,-100,4,2,99,5,0,1
67308,-100,4,2,1,62,0,1
69610,-100,4,2,99,5,0,1
69684,-100,4,2,1,62,0,1
73472,-100,4,2,99,5,0,1
73546,-100,4,2,1,62,0,1
76120,-100,4,2,1,60,0,1
76516,-100,4,2,22,62,0,0
76553,-100,4,2,22,40,0,0
76813,-100,4,2,22,60,0,0
76887,-100,4,2,99,5,0,0
76962,-100,4,2,22,60,0,0
77036,-100,4,2,99,5,0,0
77110,-100,4,2,22,60,0,0
77184,-100,4,2,99,5,0,0
77259,-100,4,2,22,60,0,0
77333,-100,4,2,99,5,0,0
77407,-100,4,2,1,62,0,1
78001,-100,4,2,1,62,0,1
78595,-100,4,2,14,62,0,0
78892,-100,4,2,1,62,0,1
79115,-100,4,2,99,5,0,1
79189,-100,4,2,1,62,0,1
79486,-100,4,2,2,62,0,1
79709,-100,4,2,99,5,0,1
79783,-100,4,2,1,62,0,1
81491,-100,4,2,99,5,0,1
81566,-100,4,2,1,62,0,1
82977,-100,4,2,99,5,0,1
83051,-100,4,2,1,62,0,1
83571,-100,4,2,1,62,0,0
83645,-100,4,2,1,62,0,1
84090,-100,4,2,2,62,0,1
84239,-100,4,2,1,62,0,1
85130,-100,4,2,1,62,0,1
85427,-100,4,2,1,62,0,0
85625,-100,4,2,14,62,0,0
86021,-100,4,2,1,62,0,1
86244,-100,4,2,99,5,0,1
86318,-100,4,2,1,62,0,1
88620,-100,4,2,99,5,0,1
88694,-100,4,2,1,62,0,1
95526,-125,4,2,22,50,0,0
95823,-125,4,2,22,45,0,0
95972,-125,4,2,22,40,0,0
96417,-125,4,2,22,30,0,0
96491,-125,4,2,22,10,0,0
97902,-125,4,2,99,20,0,0
104140,-125,4,2,22,20,0,0
105031,-133.333333333333,4,2,22,34,0,0
113942,-133.333333333333,4,2,22,36,0,0
114090,-133.333333333333,4,2,22,42,0,0
114239,-133.333333333333,4,2,22,44,0,0
114387,-133.333333333333,4,2,22,46,0,0
114536,-111.111111111111,4,2,1,50,0,0
114759,-111.111111111111,4,2,99,5,0,0
114833,-111.111111111111,4,2,1,44,0,0
117135,-111.111111111111,4,2,99,5,0,0
117209,-111.111111111111,4,2,1,44,0,0
119511,-111.111111111111,4,2,99,5,0,0
119585,-111.111111111111,4,2,1,44,0,0
121887,-111.111111111111,4,2,99,5,0,0
121962,-111.111111111111,4,2,1,44,0,0
123744,-111.111111111111,4,2,14,44,0,0
124041,-111.111111111111,4,2,1,44,0,0
124264,-111.111111111111,4,2,99,5,0,0
124338,-111.111111111111,4,2,1,44,0,0
126640,-111.111111111111,4,2,99,5,0,0
126714,-111.111111111111,4,2,1,44,0,0
129016,-111.111111111111,4,2,99,5,0,0
129090,-111.111111111111,4,2,1,44,0,0
131392,-111.111111111111,4,2,99,5,0,0
131467,-111.111111111111,4,2,1,44,0,0
133249,-111.111111111111,4,2,14,40,0,0
133546,-142.857142857143,4,2,22,34,0,0
135477,-142.857142857143,4,2,22,20,0,0
135625,-142.857142857143,4,2,22,34,0,0
137853,-142.857142857143,4,2,22,20,0,0
138001,-142.857142857143,4,2,22,34,0,0
138150,-142.857142857143,4,2,22,20,0,0
138298,-142.857142857143,4,2,22,34,0,0
140229,-142.857142857143,4,2,22,20,0,0
140377,-142.857142857143,4,2,22,34,0,0
141046,-142.857142857143,4,2,99,5,0,0
141120,-142.857142857143,4,2,22,34,0,0
141491,-142.857142857143,4,2,99,5,0,0
141566,-142.857142857143,4,2,22,34,0,0
142011,-142.857142857143,4,2,22,20,0,0
142160,-142.857142857143,4,2,22,34,0,0
142308,-142.857142857143,4,2,22,20,0,0
142457,-142.857142857143,4,2,22,34,0,0
142605,-142.857142857143,4,2,22,20,0,0
142754,-142.857142857143,4,2,22,34,0,0
143051,-117.647058823529,4,2,1,40,0,0
143274,-117.647058823529,4,2,99,5,0,0
143348,-117.647058823529,4,2,1,40,0,0
147506,-111.111111111111,4,2,1,42,0,0
147952,-111.111111111111,4,2,1,20,0,0
148100,-111.111111111111,4,2,1,42,0,0
148546,-111.111111111111,4,2,1,20,0,0
148694,-111.111111111111,4,2,1,42,0,0
149140,-111.111111111111,4,2,1,40,0,0
149288,-111.111111111111,4,2,1,46,0,0
149585,-111.111111111111,4,2,1,48,0,0
149882,-111.111111111111,4,2,14,50,0,0
150179,-111.111111111111,4,2,1,54,0,0
150625,-111.111111111111,4,2,2,56,0,0
150774,-111.111111111111,4,2,1,56,0,0
151071,-111.111111111111,4,2,1,58,0,0
151516,-111.111111111111,4,2,14,60,0,0
151962,-111.111111111111,4,2,1,40,0,0
152556,-100,4,2,1,62,0,1
152778,-100,4,2,99,5,0,1
152853,-100,4,2,1,62,0,1
155155,-100,4,2,99,5,0,1
155229,-100,4,2,1,62,0,1
157531,-100,4,2,99,5,0,1
157605,-100,4,2,1,62,0,1
159016,-100,4,2,99,5,0,1
159090,-100,4,2,1,62,0,1
159610,-100,4,2,1,62,0,0
159684,-100,4,2,1,62,0,1
161170,-100,4,2,1,62,0,1
161467,-100,4,2,1,62,0,0
161665,-100,4,2,14,62,0,0
162061,-100,4,2,1,62,0,1
162283,-100,4,2,99,5,0,1
162358,-100,4,2,1,62,0,1
164660,-100,4,2,99,5,0,1
164734,-100,4,2,1,62,0,1
168521,-100,4,2,99,5,0,1
168595,-100,4,2,1,62,0,1
171170,-100,4,2,1,60,0,1
171566,-100,4,2,22,62,0,0
171603,-100,4,2,22,40,0,0
171863,-100,4,2,22,60,0,0
171937,-100,4,2,99,5,0,0
172011,-100,4,2,22,60,0,0
172085,-100,4,2,99,5,0,0
172160,-100,4,2,22,60,0,0
172234,-100,4,2,99,5,0,0
172308,-100,4,2,22,60,0,0
172382,-100,4,2,99,5,0,0
172457,-100,4,2,1,62,0,1
173051,-100,4,2,1,62,0,1
173645,-100,4,2,14,62,0,0
173942,-100,4,2,1,62,0,1
174165,-100,4,2,99,5,0,1
174239,-100,4,2,1,62,0,1
174536,-100,4,2,2,62,0,1
174759,-100,4,2,99,5,0,1
174833,-100,4,2,1,62,0,1
176541,-100,4,2,99,5,0,1
176615,-100,4,2,1,62,0,1
178026,-100,4,2,99,5,0,1
178100,-100,4,2,1,62,0,1
178620,-100,4,2,1,62,0,0
178694,-100,4,2,1,62,0,1
180179,-100,4,2,1,62,0,1
180477,-100,4,2,1,62,0,0
180675,-100,4,2,14,62,0,0
181071,-100,4,2,1,62,0,1
181293,-100,4,2,99,5,0,1
181368,-100,4,2,1,62,0,1
183670,-100,4,2,99,5,0,1
183744,-100,4,2,1,62,0,1
190576,-108.695652173913,4,2,1,56,0,0
191467,-108.695652173913,4,2,2,56,0,0
191615,-108.695652173913,4,2,1,56,0,0
193843,-108.695652173913,4,2,2,56,0,0
193991,-108.695652173913,4,2,1,56,0,0
196219,-108.695652173913,4,2,2,56,0,0
196368,-108.695652173913,4,2,1,56,0,0
199041,-108.695652173913,4,2,2,68,0,0
199338,-108.695652173913,4,2,1,56,0,0
199783,-108.695652173913,4,2,14,56,0,0
200080,-108.695652173913,4,2,1,56,0,0
200972,-108.695652173913,4,2,2,56,0,0
201120,-108.695652173913,4,2,1,56,0,0
203348,-108.695652173913,4,2,2,56,0,0
203496,-108.695652173913,4,2,1,56,0,0
204536,-108.695652173913,4,2,2,56,0,0
204684,-108.695652173913,4,2,1,56,0,0
204833,-100,4,2,1,58,0,0
206021,-100,4,2,1,44,0,0
206170,-100,4,2,1,56,0,0
207209,-100,4,2,56,56,0,0
207432,-100,4,2,99,5,0,0
207506,-100,4,2,56,56,0,0
207729,-100,4,2,99,5,0,0
207803,-100,4,2,56,58,0,0
208026,-100,4,2,99,5,0,0
208100,-100,4,2,56,60,0,0
208323,-100,4,2,99,5,0,0
208397,-100,4,2,56,62,0,0
208620,-100,4,2,99,5,0,0
208694,-100,4,2,56,56,0,0
208917,-100,4,2,99,5,0,0
208991,-100,4,2,56,66,0,0
209214,-100,4,2,99,5,0,0
209288,-100,4,2,56,68,0,0
209511,-100,4,2,99,5,0,0
209585,-100,4,2,1,62,0,0
209734,-100,4,2,1,56,0,0
210031,-100,4,2,2,56,0,0
210179,-100,4,2,1,56,0,0
211962,-100,4,2,22,50,0,0
221467,-133.333333333333,4,2,22,40,0,0
221689,-133.333333333333,4,2,99,5,0,0
221764,-133.333333333333,4,2,22,40,0,0
221838,-133.333333333333,4,2,22,20,0,0
221912,-133.333333333333,4,2,22,40,0,0
221986,-133.333333333333,4,2,22,20,0,0
222060,-133.333333333333,4,2,22,40,0,0
223175,-133.333333333333,4,2,99,5,0,0
223250,-133.333333333333,4,2,22,40,0,0
224066,-133.333333333333,4,2,99,5,0,0
224141,-133.333333333333,4,2,22,40,0,0
224214,-133.333333333333,4,2,22,20,0,0
224288,-133.333333333333,4,2,22,40,0,0
224363,-133.333333333333,4,2,22,20,0,0
224437,-133.333333333333,4,2,22,40,0,0
226739,-133.333333333333,4,2,22,20,0,0
226813,-133.333333333333,4,2,22,40,0,0
227778,-133.333333333333,4,2,22,20,0,0
228001,-133.333333333333,4,2,22,40,0,0
228818,-133.333333333333,4,2,99,5,0,0
228892,-133.333333333333,4,2,22,40,0,0
228967,-133.333333333333,4,2,22,20,0,0
229041,-133.333333333333,4,2,22,40,0,0
229115,-133.333333333333,4,2,22,20,0,0
229189,-133.333333333333,4,2,22,40,0,0
229486,-133.333333333333,4,2,22,44,0,0
229932,-133.333333333333,4,2,22,22,0,0
230080,-133.333333333333,4,2,22,40,0,0
230303,-133.333333333333,4,2,99,5,0,0
230377,-133.333333333333,4,2,22,42,0,0
230600,-133.333333333333,4,2,99,5,0,0
230675,-133.333333333333,4,2,22,44,0,0
230897,-133.333333333333,4,2,99,5,0,0
230972,-114.942528735632,4,2,22,50,0,0
231269,-114.942528735632,4,2,22,52,0,0
231566,-114.942528735632,4,2,22,54,0,0
231863,-100,4,2,1,62,0,1
232457,-100,4,2,1,62,0,1
233051,-100,4,2,14,62,0,0
233348,-100,4,2,1,62,0,1
233571,-100,4,2,99,5,0,1
233645,-100,4,2,1,62,0,1
233942,-100,4,2,2,62,0,1
234165,-100,4,2,99,5,0,1
234239,-100,4,2,1,62,0,1
235947,-100,4,2,99,5,0,1
236021,-100,4,2,1,62,0,1
237432,-100,4,2,99,5,0,1
237506,-100,4,2,1,62,0,1
238026,-100,4,2,1,62,0,0
238100,-100,4,2,1,62,0,1
239586,-100,4,2,1,62,0,1
239882,-100,4,2,1,62,0,0
240080,-100,4,2,14,62,0,0
240477,-100,4,2,1,62,0,1
240699,-100,4,2,99,5,0,1
240774,-100,4,2,1,62,0,1
243076,-100,4,2,99,5,0,1
243150,-100,4,2,1,62,0,1
249981,-108.695652173913,4,2,1,56,0,0
250130,-108.695652173913,4,2,1,52,0,0
250576,-108.695652173913,4,2,2,52,0,0
250724,-108.695652173913,4,2,1,52,0,0
251170,-108.695652173913,4,2,2,52,0,0
251318,-108.695652173913,4,2,1,52,0,0
251764,-108.695652173913,4,2,3,52,0,0
251912,-108.695652173913,4,2,1,52,0,0
252358,-108.695652173913,4,2,2,52,0,0
252506,-108.695652173913,4,2,1,52,0,0
252952,-108.695652173913,4,2,2,52,0,0
253100,-108.695652173913,4,2,1,52,0,0
253546,-108.695652173913,4,2,2,52,0,0
253694,-108.695652173913,4,2,1,52,0,0
254140,-108.695652173913,4,2,3,52,0,0
254288,-108.695652173913,4,2,1,52,0,0
255328,-108.695652173913,4,2,2,52,0,0
255476,-108.695652173913,4,2,1,52,0,0
255922,-108.695652173913,4,2,2,52,0,0
256071,-108.695652173913,4,2,1,52,0,0
256516,-108.695652173913,4,2,3,52,0,0
256665,-108.695652173913,4,2,1,52,0,0
257110,-108.695652173913,4,2,2,52,0,0
257258,-108.695652173913,4,2,1,52,0,0
257704,-108.695652173913,4,2,2,52,0,0
257852,-108.695652173913,4,2,1,52,0,0
258892,-108.695652173913,4,2,2,50,0,0
259041,-108.695652173913,4,2,1,50,0,0
259189,-108.695652173913,4,2,1,48,0,0
259338,-108.695652173913,4,2,1,46,0,0
259486,-108.695652173913,4,2,1,56,0,0
259635,-108.695652173913,4,2,1,52,0,0
264239,-108.695652173913,4,2,2,52,0,0
264387,-108.695652173913,4,2,1,52,0,0
267061,-108.695652173913,4,2,2,52,0,0
267210,-108.695652173913,4,2,1,52,0,0
267803,-108.695652173913,4,2,1,40,0,0
267952,-108.695652173913,4,2,1,50,0,0
268397,-108.695652173913,4,2,1,46,0,0
268694,-108.695652173913,4,2,1,44,0,0
268769,-108.695652173913,4,2,1,34,0,0
268843,-108.695652173913,4,2,1,44,0,0
268917,-108.695652173913,4,2,1,34,0,0
268991,-108.695652173913,4,2,22,40,0,0

[Colours]
Combo1 : 250,140,150
Combo2 : 150,150,150
Combo3 : 233,107,136
Combo4 : 200,200,200

[HitObjects]
130,311,477,6,0,L|31:304,2,98.9999969787599,6|2|2,0:1|0:2|0:2,0:0:0:0:
252,260,1962,2,0,P|278:201|244:144,1,131.99999597168,2|2,0:1|0:0,0:0:0:0:
175,111,2853,2,0,L|76:104,2,98.9999969787599,2|2|2,0:1|0:2|0:2,0:0:0:0:
293,53,4338,2,0,P|322:39|425:58,1,131.99999597168,2|2,0:1|0:0,0:0:0:0:
447,128,5229,6,0,L|453:231,2,98.9999969787599,2|2|2,0:1|0:2|0:2,0:0:0:0:
335,198,6714,2,0,P|306:212|203:193,1,131.99999597168,2|2,0:1|0:0,0:0:0:0:
159,136,7605,2,0,L|153:33,2,98.9999969787599,2|2|2,0:1|0:2|0:2,0:0:0:0:
98,253,9090,2,2,B|69:260|42:240|42:240|37:220|37:220|17:206|10:176,1,131.99999597168,2|2,0:1|0:0,1:2:0:0:
16,93,9981,5,14,0:1:0:0:
119,42,10427,1,2,0:0:0:0:
213,108,10873,1,2,0:0:0:0:
354,46,11467,2,0,L|444:41,2,76.9999976501466,2|2|2,0:1|0:0|0:0,0:0:0:0:
273,20,12358,5,2,0:1:0:0:
230,127,12803,1,2,0:0:0:0:
244,241,13249,1,2,0:0:0:0:
379,314,13843,2,0,L|469:319,2,76.9999976501466,2|2|2,0:1|0:0|0:0,0:0:0:0:
303,352,14734,5,10,0:1:0:0:
233,260,15179,1,2,0:0:0:0:
141,330,15625,1,2,0:0:0:0:
41,212,16219,2,0,L|35:134,2,76.9999976501466,2|2|2,0:1|0:0|0:0,0:0:0:0:
10,290,17110,5,2,0:1:0:0:
96,366,17556,1,2,0:0:0:0:
187,296,18001,1,2,0:0:0:0:
337,327,18595,2,2,B|355:329|368:333|368:333|377:329|386:329|386:329|410:334|427:335,2,76.9999976501466,2|2|2,0:1|0:0|0:0,1:2:0:0:
293,250,19486,6,0,B|277:191|277:191|309:128|289:72,1,176,14|10,0:1|0:0,0:0:0:0:
220,35,20377,1,2,0:0:0:0:
220,35,20526,2,0,P|170:53|84:29,1,132,2|10,0:0|0:3,0:0:0:0:
29,96,21269,2,0,L|19:195,1,88,10|2,0:0|0:0,0:0:0:0:
68,257,21863,6,0,P|108:270|167:253,1,88,10|0,0:3|0:0,0:0:0:0:
195,245,22308,1,10,0:3:0:0:
195,245,22457,2,0,P|237:236|279:249,1,88,8|2,0:0|0:0,0:0:0:0:
423,350,23348,1,10,0:3:0:0:
477,280,23645,2,0,L|482:188,1,88,10|2,0:0|0:0,0:0:0:0:
468,105,24239,6,0,P|426:88|371:94,1,88,10|0,0:3|0:0,0:0:0:0:
352,119,24684,1,2,0:3:0:0:
352,119,24833,2,0,P|308:120|267:103,1,88,8|2,0:0|0:0,0:0:0:0:
106,32,25724,2,0,L|19:25,2,88,10|10|2,0:3|0:0|0:0,0:0:0:0:
158,102,26615,6,0,B|175:149|141:183|141:183|114:227|143:268,1,176,10|8,0:3|0:0,0:0:0:0:
214,324,27506,1,2,0:0:0:0:
214,324,27655,2,0,P|260:316|356:329,1,132,2|10,0:0|0:3,0:0:0:0:
429,302,28397,2,0,L|438:211,1,88,10|2,0:0|0:0,0:0:0:0:
396,136,28991,6,0,B|307:105|307:162|223:132,1,176,14|10,0:1|0:0,0:0:0:0:
171,69,29882,1,2,0:0:0:0:
171,69,30031,2,0,P|219:38|309:49,1,132,2|10,0:0|0:3,0:0:0:0:
379,49,30774,2,0,L|480:38,1,88,10|2,0:0|0:0,0:0:0:0:
497,121,31368,6,0,P|480:161|484:204,1,88,10|0,0:3|0:0,0:0:0:0:
508,247,31813,1,10,0:3:0:0:
508,247,31962,2,0,P|512:290|495:330,1,88,8|2,0:0|0:0,0:0:0:0:
321,362,32853,1,10,0:3:0:0:
249,311,33150,2,0,L|242:220,1,88,10|2,0:0|0:0,0:0:0:0:
191,151,33744,6,0,P|149:134|92:144,1,88,10|0,0:3|0:0,0:0:0:0:
76,168,34189,1,2,0:3:0:0:
76,168,34338,2,0,L|69:259,1,88,8|2,0:0|0:0,0:0:0:0:
235,311,35229,2,0,L|242:220,2,88,10|10|2,0:3|0:0|0:0,0:0:0:0:
308,359,36120,6,0,B|398:363|398:363|437:347|443:296,1,176,10|8,0:3|0:0,0:0:0:0:
417,218,37011,1,2,0:0:0:0:
417,218,37160,2,0,B|395:184|395:184|417:149|410:95,1,132,2|10,0:0|0:3,0:0:0:0:
335,49,37902,2,0,L|235:38,1,88,8|10,0:0|0:0,0:0:0:0:
152,67,38496,6,0,P|132:112|144:161,1,98.9999969787599,6|2,0:0|0:0,0:0:0:0:
180,191,38942,2,0,L|280:202,1,98.9999969787599,2|2,0:0|0:0,0:0:0:0:
324,183,39387,2,0,B|406:172|397:209|470:196,2,148.49999546814,2|8|10,0:0|0:0|0:0,0:0:0:0:
256,255,40576,1,10,0:3:0:0:
180,191,40873,6,0,L|173:81,1,98.9999969787599,2|2,0:0|0:0,0:0:0:0:
151,48,41318,2,0,P|106:28|59:36,1,98.9999969787599,2|2,0:0|0:0,0:0:0:0:
26,73,41764,2,0,B|11:128|11:128|19:171|19:171|0:231,2,148.49999546814,2|8|10,0:0|0:0|0:0,0:0:0:0:
115,30,42952,1,2,0:0:0:0:
203,73,43249,6,0,P|251:79|299:67,1,98.9999969787599,10|2,0:3|0:0,0:0:0:0:
341,41,43694,2,0,P|389:34|437:46,1,98.9999969787599,2|2,0:0|0:0,0:0:0:0:
468,84,44140,2,0,L|478:234,1,148.49999546814,2|8,0:0|0:0,0:0:0:0:
459,278,44734,2,0,P|411:285|363:273,1,98.9999969787599,2|10,0:0|0:0,0:0:0:0:
280,217,45328,1,10,0:3:0:0:
211,145,45625,6,0,P|163:132|114:139,1,98.9999969787599,10|0,0:3|0:0,0:0:0:0:
79,175,46071,1,2,0:0:0:0:
79,175,46219,2,0,L|71:287,1,98.9999969787599,10|2,0:0|0:0,0:0:0:0:
204,341,46962,1,10,0:0:0:0:
204,341,47110,2,0,P|252:347|300:334,2,98.9999969787599,2|10|2,0:0|0:0|0:0,0:0:0:0:
179,244,48001,6,0,L|187:132,1,98.9999969787599,6|2,0:0|0:0,0:0:0:0:
204,98,48447,2,0,P|251:85|300:91,1,98.9999969787599,2|2,0:0|0:0,0:0:0:0:
342,116,48892,2,0,B|419:131|413:97|488:113,2,148.49999546814,2|8|10,0:0|0:0|0:0,0:0:0:0:
264,53,50080,1,10,0:3:0:0:
168,80,50377,6,0,L|59:66,1,98.9999969787599,10|2,0:3|0:0,0:0:0:0:
26,91,50823,2,0,P|4:138|18:192,1,98.9999969787599,2|2,0:0|0:0,0:0:0:0:
49,214,51269,2,0,B|97:210|97:210|144:228|144:228|193:222,2,148.49999546814,2|8|10,0:0|0:0|0:0,0:0:0:0:
4,302,52457,1,10,0:3:0:0:
92,346,52754,6,0,L|203:355,1,98.9999969787599,10|2,0:3|0:0,0:0:0:0:
287,374,53348,1,10,0:2:0:0:
381,344,53645,2,0,P|396:297|394:248,1,98.9999969787599,2|2,0:0|0:3,0:0:0:0:
364,215,54090,1,8,0:0:0:0:
364,215,54239,2,0,L|253:206,1,98.9999969787599,2|8,0:0|0:0,0:0:0:0:
174,245,54833,1,10,0:3:0:0:
105,173,55130,6,0,B|96:121|96:121|106:75|106:75|99:23,2,148.49999546814,14|6|6,0:0|0:0|0:0,0:0:0:0:
406,309,57506,6,0,L|414:191,1,110,6|2,0:0|0:0,0:0:0:0:
419,148,57952,1,8,0:3:0:0:
419,148,58100,2,0,P|352:92|285:128,1,165,8|8,0:0|0:0,0:0:0:0:
205,190,58843,1,8,0:3:0:0:
205,190,58991,1,8,0:3:0:0:
102,149,59288,2,0,P|83:90|112:44,1,110,10|2,0:0|0:0,0:0:0:0:
211,27,59882,6,0,L|341:20,1,110,10|2,0:3|0:0,0:0:0:0:
380,34,60328,1,10,0:3:0:0:
380,34,60477,2,0,P|406:80|391:132,1,110,8|2,0:0|0:0,0:0:0:0:
356,175,60922,2,0,B|328:206|334:249|334:249|361:286|345:334,1,165,10|8,0:0|0:3,0:0:0:0:
239,359,61665,2,0,L|108:349,1,110,10|2,0:0|0:0,0:0:0:0:
32,297,62259,6,0,P|13:246|35:198,1,110,6|2,0:0|0:0,0:0:0:0:
81,169,62704,1,10,0:3:0:0:
81,169,62853,2,0,B|124:157|154:176|154:176|204:191|246:168,1,165,8|8,0:0|0:0,0:0:0:0:
336,113,63595,1,8,0:3:0:0:
336,113,63744,2,0,P|386:91|453:97,2,110,10|10|2,0:3|0:2|0:0,0:0:0:0:
267,199,64635,6,0,P|202:215|155:189,1,110,14|8,0:0|0:3,0:0:0:0:
132,242,65080,2,0,P|74:207|59:155,1,110,14|8,0:0|0:3,0:0:0:0:
6,176,65526,2,0,P|-10:110|15:62,1,110,14|8,0:2|0:3,0:0:0:0:
58,56,65972,1,12,0:0:0:0:
58,56,66120,2,0,L|189:44,1,110,2|10,0:0|0:0,0:0:0:0:
256,110,66714,1,10,0:3:0:0:
344,45,67011,6,0,L|454:56,1,110,6|2,0:0|0:0,0:0:0:0:
488,106,67457,1,10,0:3:0:0:
488,106,67605,2,0,B|480:165|480:165|496:211|496:211|487:270,1,165,8|10,0:0|0:0,0:0:0:0:
425,356,68348,1,8,0:3:0:0:
425,356,68496,1,8,0:3:0:0:
337,288,68793,2,0,P|284:270|213:277,1,110,10|2,0:0|0:0,0:0:0:0:
139,331,69387,6,0,L|132:207,1,110,10|2,0:3|0:0,0:0:0:0:
150,168,69833,1,10,0:3:0:0:
150,168,69981,2,0,P|201:149|256:150,1,110,8|2,0:0|0:0,0:0:0:0:
308,167,70427,2,0,B|361:174|361:174|415:145|405:81,1,165,10|8,0:2|0:3,0:0:0:0:
313,20,71170,2,0,L|182:10,1,110,8|2,0:0|0:3,0:0:0:0:
95,30,71764,6,0,B|91:62|77:81|77:81|83:117|83:117|41:181|76:242,1,220,4|8,0:0|0:0,0:0:0:0:
167,308,72655,1,2,0:0:0:0:
167,308,72803,2,0,L|286:308,1,110,8|8,0:0|0:3,0:0:0:0:
327,330,73249,2,0,L|446:330,1,110,10|10,0:3|0:2,0:0:0:0:
506,245,73843,1,2,0:0:0:0:
419,177,74140,6,0,B|380:142|380:142|406:85|374:33,1,165,6|10,0:0|0:3,0:0:0:0:
282,95,74882,1,8,0:3:0:0:
282,95,75031,2,0,L|159:91,1,110,14|0,0:0|0:0,0:0:0:0:
77,148,75625,2,0,P|71:91|58:29,2,110,2|10|10,0:3|0:0|0:0,0:0:0:0:
54,255,76516,5,10,0:1:0:0:
380,305,77407,1,6,0:0:0:0:
380,305,77556,2,0,P|386:248|399:186,1,110,2|8,0:0|0:3,0:0:0:0:
429,153,78001,2,0,P|439:99|445:44,2,110,12|10|10,0:0|0:0|0:3,0:0:0:0:
320,168,78892,6,0,P|274:143|197:143,1,110,6|2,0:0|0:0,0:0:0:0:
178,177,79338,1,10,0:3:0:0:
178,177,79486,2,0,L|163:303,1,110,6|2,0:0|0:0,0:0:0:0:
130,329,79932,2,0,P|49:333|28:254,1,165,10|8,0:0|0:3,0:0:0:0:
70,163,80675,2,0,L|85:37,1,110,10|2,0:0|0:0,0:0:0:0:
184,96,81269,6,0,P|232:105|301:74,1,110,6|2,0:0|0:0,0:0:0:0:
333,53,81714,1,8,0:3:0:0:
333,53,81863,2,0,B|389:35|389:35|458:50|489:101,1,165,8|8,0:0|0:0,0:0:0:0:
484,196,82605,1,8,0:3:0:0:
484,196,82754,2,0,L|471:309,2,110,10|10|2,0:3|0:2|0:0,0:0:0:0:
394,132,83645,6,0,P|329:116|282:142,1,110,14|8,0:0|0:3,0:0:0:0:
252,95,84090,2,0,P|194:129|179:181,1,110,14|8,0:0|0:3,0:0:0:0:
125,169,84536,2,0,P|108:234|135:281,1,110,14|8,0:2|0:3,0:0:0:0:
172,310,84981,1,12,0:0:0:0:
172,310,85130,2,0,L|303:298,1,110,2|10,0:0|0:0,0:0:0:0:
378,351,85724,1,10,0:3:0:0:
469,289,86021,6,0,L|476:178,1,110,6|2,0:0|0:0,0:0:0:0:
461,131,86467,1,10,0:3:0:0:
461,131,86615,2,0,P|395:100|319:147,1,165,8|10,0:0|0:0,0:0:0:0:
282,246,87358,1,8,0:3:0:0:
282,246,87506,1,8,0:3:0:0:
183,294,87803,2,0,P|133:298|64:269,1,110,10|2,0:0|0:0,0:0:0:0:
12,189,88397,6,0,L|5:78,1,110,10|2,0:3|0:0,0:0:0:0:
45,42,88843,1,10,0:3:0:0:
45,42,88991,2,0,P|99:38|150:57,1,110,8|2,0:0|0:0,0:0:0:0:
189,95,89437,2,0,B|271:121|266:70|350:97,1,165,10|8,0:2|0:3,0:0:0:0:
434,168,90179,2,0,L|441:279,1,110,8|2,0:0|0:3,0:0:0:0:
425,330,90625,1,10,0:0:0:0:
425,330,90774,6,0,P|359:352|311:336,1,110,4|2,0:0|0:0,0:0:0:0:
243,265,91368,2,0,L|236:154,1,110,10|2,0:0|0:0,0:0:0:0:
199,114,91813,1,10,0:0:0:0:
199,114,91962,2,0,P|149:92|95:101,1,110,2|2,0:0|0:3,0:0:0:0:
7,165,92556,2,0,L|0:274,1,110,10|2,0:0|0:0,0:0:0:0:
99,325,93150,6,0,B|142:329|142:329|165:340|165:340|206:343,1,110,6|8,0:0|0:3,0:0:0:0:
258,360,93595,2,0,B|301:356|301:356|324:345|324:345|365:341,1,110,10|8,0:3|0:3,0:0:0:0:
418,356,94041,1,12,0:0:0:0:
507,218,94486,1,10,0:3:0:0:
399,92,94932,2,0,B|352:59|352:59|298:89,1,110,10|10,0:0|0:2,0:0:0:0:
239,150,95526,6,0,P|179:161|157:100,2,132,6|2|6,0:1|0:0|2:2,0:0:0:0:
256,192,96566,12,2,97902,0:2:0:0:
57,313,105031,5,14,0:1:0:0:
16,196,105477,1,10,0:3:0:0:
16,196,105625,2,0,L|14:109,1,82.5000031471254,8|2,0:0|0:1,0:0:0:0:
178,128,106516,2,0,L|180:41,2,82.5000031471254,10|10|2,0:3|0:0|0:1,0:0:0:0:
226,194,107407,5,10,0:3:0:0:
331,130,107853,1,10,0:3:0:0:
331,129,108001,2,0,P|370:118|411:122,1,82.5000031471254,8|2,0:0|0:1,0:0:0:0:
431,286,108892,2,0,P|391:297|350:293,2,82.5000031471254,10|10|2,0:3|0:0|0:1,0:0:0:0:
485,223,109783,5,10,0:1:0:0:
412,123,110229,1,10,0:3:0:0:
412,123,110377,2,0,L|410:36,1,82.5000031471254,8|2,0:0|0:1,0:0:0:0:
253,92,111269,2,0,L|167:81,2,82.5000031471254,10|10|2,0:3|0:0|0:1,0:0:0:0:
304,156,112160,5,10,0:3:0:0:
244,264,112605,1,10,0:3:0:0:
244,264,112754,2,0,L|158:275,1,82.5000031471254,8|2,0:0|0:0,0:0:0:0:
17,194,113645,2,0,P|12:154|27:109,1,82.5000031471254,10|10,0:3|2:2,0:0:0:0:
62,93,114090,1,8,0:0:0:0:
62,93,114239,2,0,L|118:90,1,41.2500015735627,10|8,0:0|0:0,0:0:0:0:
144,115,114536,6,0,P|193:120|239:103,2,98.9999969787599,4|2|10,0:0|0:0|0:0,0:0:0:0:
75,185,115427,1,2,0:0:0:0:
74,185,115576,2,0,P|42:250|42:324,1,148.49999546814,10|10,0:3|0:3,0:0:0:0:
134,359,116318,2,0,L|234:351,1,98.9999969787599,10|2,0:0|0:0,0:0:0:0:
329,370,116912,6,0,B|372:338|437:351|437:351|469:317|459:272,1,197.99999395752,8|8,0:3|0:0,0:0:0:0:
437,176,117803,1,2,0:0:0:0:
437,176,117952,2,0,B|405:164|371:174|371:174|323:176|296:137,1,148.49999546814,8|10,0:3|0:3,0:0:0:0:
260,40,118694,2,0,P|219:26|161:32,1,98.9999969787599,10|2,0:0|0:0,0:0:0:0:
95,114,119288,6,0,P|46:119|0:104,2,98.9999969787599,10|2|8,0:3|0:0|0:0,0:0:0:0:
189,158,120179,1,2,0:0:0:0:
189,158,120328,2,0,P|271:136|343:155,1,148.49999546814,8|8,0:3|0:3,0:0:0:0:
406,228,121071,2,0,L|403:334,1,98.9999969787599,8|2,0:0|0:0,0:0:0:0:
297,352,121665,6,0,B|241:344|176:350|176:350|150:320|107:292,1,197.99999395752,10|8,0:3|0:0,0:0:0:0:
20,251,122556,1,2,0:0:0:0:
20,251,122704,1,10,0:3:0:0:
51,157,123001,2,0,P|97:142|146:145,1,98.9999969787599,12|8,0:0|0:3,0:0:0:0:
186,175,123447,2,0,P|223:189|294:183,1,98.9999969787599,10|8,0:0|0:3,0:0:0:0:
369,140,124041,6,0,L|487:139,2,98.9999969787599,4|2|10,0:0|0:0|0:0,0:0:0:0:
305,72,124932,1,2,0:0:0:0:
305,72,125080,2,0,P|233:45|151:54,1,148.49999546814,10|10,0:3|0:3,0:0:0:0:
90,118,125823,2,0,L|81:220,1,98.9999969787599,10|2,0:0|0:0,0:0:0:0:
135,299,126417,6,0,B|181:318|230:281|230:281|290:275|313:315,1,197.99999395752,8|8,0:3|0:0,0:0:0:0:
403,357,127308,1,2,0:0:0:0:
403,357,127457,2,0,B|442:324|442:324|457:266|435:228,1,148.49999546814,8|10,0:3|0:3,0:0:0:0:
355,171,128199,2,0,L|250:160,1,98.9999969787599,10|2,0:0|0:0,0:0:0:0:
173,107,128793,6,0,P|168:58|183:12,2,98.9999969787599,10|2|8,0:3|0:0|0:0,0:0:0:0:
266,73,129684,1,2,0:0:0:0:
266,73,129833,2,0,P|349:60|418:79,1,148.49999546814,8|8,0:3|0:3,0:0:0:0:
482,144,130576,2,0,L|480:250,1,98.9999969787599,8|2,0:0|0:0,0:0:0:0:
454,338,131170,6,0,B|406:360|343:339|343:339|311:306|250:298,1,197.99999395752,10|8,0:3|0:0,0:0:0:0:
177,331,132061,1,2,0:0:0:0:
177,331,132209,1,10,0:3:0:0:
121,251,132506,2,0,L|131:145,1,98.9999969787599,12|8,0:0|0:3,0:0:0:0:
172,126,132952,2,0,P|216:114|269:118,1,98.9999969787599,10|10,0:0|0:3,0:0:0:0:
348,150,133546,6,0,L|358:32,2,115.49999647522,6|2|2,0:1|0:1|0:1,0:0:0:0:
292,293,135031,2,0,P|209:303|138:261,1,153.999995300293,2|2,0:2|0:0,0:0:0:0:
118,193,135922,2,0,L|108:75,2,115.49999647522,2|2|2,0:1|0:1|0:1,0:0:0:0:
199,323,137407,2,0,P|270:297|345:310,1,153.999995300293,2|2,0:0|0:1,0:0:0:0:
424,343,138298,6,0,L|434:212,2,115.49999647522,2|2|2,0:1|0:1|0:1,0:0:0:0:
280,286,139783,2,0,P|248:258|140:268,1,153.999995300293,2|2,0:0|0:0,0:0:0:0:
77,321,140675,1,2,0:1:0:0:
11,225,141120,1,2,0:1:0:0:
99,149,141566,2,0,P|165:113|240:123,1,153.999995300293,2|2,0:1|0:0,0:0:0:0:
312,169,142457,2,0,L|403:166,1,76.9999976501466,2|2,0:1|0:1,0:0:0:0:
479,143,143051,6,0,P|495:88|475:39,1,93.500001783371,6|2,0:0|0:0,0:0:0:0:
439,47,143496,2,0,L|342:43,1,93.500001783371,2|2,0:0|0:0,0:0:0:0:
300,30,143942,2,0,B|225:18|232:50|159:37,2,140.250002675057,2|8|8,0:0|0:0|0:0,0:0:0:0:
378,81,145130,1,10,0:3:0:0:
417,165,145427,6,0,L|412:262,1,93.500001783371,10|2,0:3|0:0,0:0:0:0:
395,302,145873,2,0,P|346:309|301:294,1,93.500001783371,2|2,0:0|0:0,0:0:0:0:
262,277,146318,2,0,B|216:280|216:280|171:263|171:263|125:269,2,140.250002675057,2|8|8,0:0|0:0|0:0,0:0:0:0:
312,191,147506,1,10,0:3:0:0:
251,112,147803,6,0,P|203:94|143:101,1,98.9999969787599,10|2,0:3|0:0,0:0:0:0:
95,175,148397,1,10,0:2:0:0:
125,269,148694,2,0,P|173:287|233:280,1,98.9999969787599,2|2,0:0|0:3,0:0:0:0:
268,265,149140,1,8,0:0:0:0:
268,265,149288,2,0,P|317:262|362:280,1,98.9999969787599,2|8,0:0|0:0,0:0:0:0:
438,343,149882,1,10,0:3:0:0:
500,266,150179,6,0,B|509:214|509:214|499:168|499:168|506:116,2,148.49999546814,14|6|6,0:0|0:0|0:0,0:0:0:0:
109,332,152556,6,0,L|101:214,1,110,6|2,0:0|0:0,0:0:0:0:
104,171,153001,1,8,0:3:0:0:
104,171,153150,2,0,B|141:133|141:133|206:149|214:209,1,165,8|8,0:0|0:0,0:0:0:0:
239,321,153892,1,8,0:3:0:0:
239,321,154041,1,8,0:3:0:0:
345,350,154338,2,0,L|463:345,1,110,10|2,0:0|0:0,0:0:0:0:
502,245,154932,6,0,L|495:135,1,110,10|2,0:3|0:0,0:0:0:0:
470,92,155377,1,10,0:3:0:0:
470,92,155526,2,0,P|423:65|367:70,1,110,8|2,0:0|0:0,0:0:0:0:
320,96,155972,2,0,B|274:103|241:71|241:71|200:58|165:81,1,165,10|8,0:0|0:3,0:0:0:0:
114,178,156714,2,0,L|113:294,1,110,10|2,0:0|0:0,0:0:0:0:
205,347,157308,6,0,P|264:349|310:327,1,110,6|2,0:0|0:0,0:0:0:0:
351,290,157754,1,10,0:3:0:0:
351,290,157902,2,0,L|356:123,1,165,8|8,0:0|0:0,0:0:0:0:
284,49,158645,1,8,0:3:0:0:
284,49,158793,2,0,P|234:26|179:29,2,110,10|10|2,0:3|0:2|0:0,0:0:0:0:
215,135,159684,6,0,B|204:166|204:166|207:243,1,110,14|8,0:0|0:3,0:0:0:0:
249,279,160130,2,0,B|216:284|216:284|151:326,1,110,14|8,0:0|0:3,0:0:0:0:
141,380,160576,2,0,B|120:353|120:353|51:318,1,110,14|8,0:2|0:3,0:0:0:0:
9,294,161021,1,12,0:0:0:0:
9,294,161170,2,0,L|5:175,1,110,2|10,0:0|0:0,0:0:0:0:
28,76,161764,1,10,0:3:0:0:
128,120,162061,6,0,P|182:124|243:108,1,110,6|2,0:0|0:0,0:0:0:0:
284,84,162506,1,10,0:3:0:0:
284,84,162655,2,0,B|341:75|380:100|380:100|408:82|442:84,1,165,8|10,0:0|0:0,0:0:0:0:
508,180,163397,1,8,0:3:0:0:
508,180,163546,1,8,0:3:0:0:
453,275,163843,2,0,P|399:279|338:263,1,110,10|2,0:0|0:0,0:0:0:0:
249,320,164437,6,0,P|195:307|141:311,1,110,10|2,0:3|0:0,0:0:0:0:
92,332,164882,1,10,0:3:0:0:
92,332,165031,2,0,L|87:222,1,110,8|2,0:0|0:0,0:0:0:0:
96,168,165477,2,0,P|143:104|220:117,1,165,10|8,0:2|0:3,0:0:0:0:
311,179,166219,2,0,P|379:183|442:169,1,110,8|2,0:0|0:3,0:0:0:0:
485,87,166813,6,0,B|450:59|408:67|408:67|375:31|331:20|281:37,1,220,4|8,0:0|0:0,0:0:0:0:
196,106,167704,1,2,0:0:0:0:
196,106,167853,2,0,B|132:116|145:92|87:94,1,110,8|8,0:0|0:3,0:0:0:0:
44,128,168298,2,0,P|26:177|41:244,1,110,10|10,0:3|0:2,0:0:0:0:
93,326,168892,1,2,0:0:0:0:
202,313,169189,6,0,B|248:301|309:307|309:307|332:282|357:265,1,165,6|10,0:0|0:3,0:0:0:0:
465,262,169932,1,8,0:3:0:0:
465,262,170080,2,0,P|483:210|473:157,1,110,14|0,0:0|0:0,0:0:0:0:
378,101,170675,2,0,P|323:100|250:90,2,110,2|10|10,0:3|0:0|0:0,0:0:0:0:
472,44,171566,5,10,0:1:0:0:
332,343,172457,1,6,0:0:0:0:
332,343,172605,2,0,P|277:336|222:335,1,110,2|8,0:0|0:3,0:0:0:0:
169,351,173051,2,0,P|114:349|59:342,2,110,12|10|10,0:0|0:0|0:3,0:0:0:0:
226,257,173942,6,0,L|235:131,1,110,6|2,0:0|0:0,0:0:0:0:
268,104,174387,1,10,0:3:0:0:
268,104,174536,2,0,P|314:84|374:90,1,110,6|2,0:0|0:0,0:0:0:0:
422,111,174981,2,0,B|459:134|470:168|470:168|454:217|466:272,1,165,10|8,0:0|0:3,0:0:0:0:
395,342,175724,2,0,P|340:348|290:327,1,110,10|2,0:0|0:0,0:0:0:0:
221,241,176318,6,0,L|212:115,1,110,6|2,0:0|0:0,0:0:0:0:
198,83,176764,1,8,0:3:0:0:
198,83,176912,2,0,P|109:62|38:108,1,165,8|8,0:0|0:0,0:0:0:0:
21,202,177655,1,8,0:3:0:0:
21,202,177803,2,0,L|12:328,2,110,10|10|2,0:3|0:2|0:0,0:0:0:0:
122,159,178694,6,0,B|153:170|153:170|230:167,1,110,14|8,0:0|0:3,0:0:0:0:
257,214,179140,2,0,B|286:199|286:199|339:143,1,110,14|8,0:0|0:3,0:0:0:0:
391,157,179585,2,0,B|400:125|400:125|398:48,1,110,14|8,0:2|0:3,0:0:0:0:
352,30,180031,1,12,0:0:0:0:
352,30,180179,2,0,L|221:18,1,110,2|10,0:0|0:0,0:0:0:0:
132,27,180774,1,10,0:3:0:0:
74,120,181071,6,0,L|62:251,1,110,6|2,0:0|0:0,0:0:0:0:
76,288,181516,1,10,0:3:0:0:
76,288,181665,2,0,B|164:282|142:333|233:321,1,165,8|10,0:0|0:0,0:0:0:0:
314,243,182407,1,8,0:3:0:0:
314,243,182556,1,8,0:3:0:0:
209,208,182853,2,0,L|198:88,1,110,10|2,0:0|0:0,0:0:0:0:
288,34,183447,6,0,P|336:23|403:41,1,110,10|2,0:3|0:0,0:0:0:0:
430,86,183892,1,10,0:3:0:0:
430,86,184041,2,0,L|441:206,1,110,8|2,0:0|0:0,0:0:0:0:
469,242,184486,2,0,B|478:304|431:347|431:347|406:341|385:331,1,165,10|8,0:2|0:3,0:0:0:0:
279,303,185229,2,0,L|149:292,1,110,8|2,0:0|0:3,0:0:0:0:
135,337,185675,1,10,0:0:0:0:
135,337,185823,6,0,L|5:326,1,110,4|2,0:0|0:0,0:0:0:0:
0,220,186417,2,0,L|11:90,1,110,10|2,0:0|0:0,0:0:0:0:
45,69,186863,1,10,0:0:0:0:
45,69,187011,2,0,L|175:58,1,110,2|2,0:0|0:3,0:0:0:0:
261,85,187605,2,0,L|391:74,1,110,10|2,0:0|0:0,0:0:0:0:
453,149,188199,6,0,B|449:192|449:192|438:215|438:215|434:256,1,110,6|8,0:0|0:3,0:0:0:0:
406,302,188645,2,0,B|363:298|363:298|340:287|340:287|299:283,1,110,10|8,0:3|0:3,0:0:0:0:
252,313,189090,1,12,0:0:0:0:
124,209,189536,1,10,0:3:0:0:
256,111,189981,2,0,B|289:64|289:64|259:10,1,110,10|10,0:0|0:2,0:0:0:0:
171,61,190576,6,0,B|115:68|115:68|75:33|24:45,1,151.799994904175,6|10,0:0|0:0,0:0:0:0:
53,146,191318,1,0,0:0:0:0:
53,146,191467,2,0,B|60:202|60:202|25:242|37:293,1,151.799994904175,6|8,0:3|0:3,0:0:0:0:
79,328,192061,1,2,0:0:0:0:
79,328,192209,2,0,L|238:320,1,151.799994904175,10|2,0:3|0:0,0:0:0:0:
330,340,192952,6,0,B|390:354|390:354|440:350|478:300,1,151.799994904175,6|8,0:0|0:0,0:0:0:0:
484,216,193694,1,10,0:3:0:0:
484,216,193843,2,0,B|479:59,1,151.799994904175,6|8,0:3|0:3,0:0:0:0:
436,48,194437,1,10,0:3:0:0:
436,48,194585,2,0,P|368:31|277:56,1,151.799994904175,10|10,0:3|0:3,0:0:0:0:
220,122,195328,6,0,B|215:279,1,151.799994904175,6|10,0:0|0:0,0:0:0:0:
145,347,196071,1,10,0:3:0:0:
145,347,196219,2,0,B|93:344|48:355|48:355|28:340|10:303,1,151.799994904175,6|8,0:3|0:3,0:0:0:0:
18,262,196813,1,2,0:0:0:0:
18,262,196962,2,0,B|22:110,1,151.799994904175,10|2,0:3|0:0,0:0:0:0:
95,40,197704,6,0,P|146:37|194:59,1,101.199996602783,6|0,0:0|0:0,0:0:0:0:
216,100,198150,2,0,B|218:201,1,101.199996602783,8|0,0:0|0:3,0:0:0:0:
246,250,198595,1,10,0:0:0:0:
246,250,198744,1,10,0:3:0:0:
331,304,199041,2,0,B|388:302|388:302|425:281|425:281|487:280,1,151.799994904175,6|10,0:0|0:0,0:0:0:0:
506,79,200080,6,0,B|470:43|470:43|421:26|364:60,1,151.799994904175,6|10,0:0|0:0,0:0:0:0:
304,130,200823,1,10,0:3:0:0:
304,130,200972,2,0,B|268:166|268:166|219:183|170:153,1,151.799994904175,6|8,0:3|0:3,0:0:0:0:
146,117,201566,1,2,0:0:0:0:
146,117,201714,2,0,P|79:82|17:141,1,151.799994904175,10|2,0:3|0:0,0:0:0:0:
29,223,202457,6,0,B|67:258|127:239|127:239|140:257|160:272,1,151.799994904175,6|10,0:0|0:0,0:0:0:0:
235,339,203199,1,10,0:3:0:0:
235,339,203348,2,0,B|273:304|333:323|333:323|346:305|366:290,1,151.799994904175,6|8,0:3|0:3,0:0:0:0:
410,263,203942,1,2,0:0:0:0:
410,263,204090,2,0,L|421:105,1,151.799994904175,10|6,0:3|0:0,0:0:0:0:
329,49,204833,6,0,P|267:35|156:38,2,165,6|10|10,0:0|0:3|0:3,0:0:0:0:
339,158,206021,1,8,0:0:0:0:
339,158,206170,2,0,P|259:136|177:133,1,165,10|2,0:3|0:0,0:0:0:0:
93,205,206912,1,10,0:3:0:0:
152,297,207209,6,0,P|195:311|263:315,1,110,14|8,0:0|0:2,0:0:0:0:
360,357,207803,2,0,P|404:347|465:317,1,110,8|8,0:2|0:0,0:0:0:0:
510,220,208397,1,8,0:0:0:0:
503,111,208694,1,8,0:0:0:0:
442,21,208991,2,0,P|388:7|333:8,1,110,10|8,0:0|0:0,0:0:0:0:
255,84,209585,6,0,B|236:130|236:130|257:197|257:197|232:260,2,165,14|14|10,0:0|0:2|0:0,0:0:0:0:
442,21,211962,5,6,0:2:0:0:
108,329,221467,6,0,P|154:326|196:225,1,165.000006294251,14|8,0:1|0:0,0:0:0:0:
131,185,222358,1,2,0:1:0:0:
131,185,222506,2,0,P|108:127|136:56,1,123.750004720688,2|10,0:1|0:3,0:0:0:0:
204,50,223249,2,0,L|290:45,1,82.5000031471254,10|2,0:0|0:0,0:0:0:0:
369,37,223843,6,0,B|434:49|434:49|466:102|442:152,1,165.000006294251,10|8,0:3|0:0,0:0:0:0:
409,217,224734,1,2,0:0:0:0:
409,217,224882,2,0,B|383:249|383:249|394:281|377:338,1,123.750004720688,2|8,0:1|0:3,0:0:0:0:
297,342,225625,2,0,L|211:334,1,82.5000031471254,8|2,0:0|0:0,0:0:0:0:
133,350,226219,6,0,P|61:347|61:261,1,165.000006294251,10|8,0:3|0:0,0:0:0:0:
122,220,227110,1,2,0:1:0:0:
122,220,227259,2,0,L|253:215,1,123.750004720688,2|10,0:2|0:3,0:0:0:0:
325,237,228001,2,0,L|411:233,1,82.5000031471254,10|2,0:0|0:0,0:0:0:0:
454,166,228595,6,0,P|450:90|375:84,1,165.000006294251,10|8,0:3|0:0,0:0:0:0:
314,139,229486,1,6,0:2:0:0:
160,77,230080,2,0,L|62:66,2,82.5000031471254,10|10|2,0:1|0:0|0:0,0:0:0:0:
239,23,230972,5,2,0:1:0:0:
434,288,231863,1,6,0:0:0:0:
434,288,232011,2,0,P|443:231|447:173,1,110,2|8,0:0|0:3,0:0:0:0:
419,131,232457,2,0,P|409:74|405:16,2,110,12|10|10,0:0|0:0|0:3,0:0:0:0:
359,223,233348,6,0,P|308:202|253:198,1,110,6|2,0:0|0:0,0:0:0:0:
211,233,233793,1,10,0:3:0:0:
211,233,233942,2,0,P|156:228|105:208,1,110,6|2,0:0|0:0,0:0:0:0:
58,179,234387,2,0,B|29:151|29:151|11:75|64:28,1,165,10|8,0:0|0:3,0:0:0:0:
162,65,235130,2,0,P|217:60|268:40,1,110,10|2,0:0|0:0,0:0:0:0:
369,81,235724,6,0,P|420:61|474:56,1,110,6|2,0:0|0:0,0:0:0:0:
512,104,236170,1,8,0:3:0:0:
512,104,236318,2,0,L|500:275,1,165,8|8,0:0|0:0,0:0:0:0:
401,316,237061,1,8,0:3:0:0:
401,316,237209,2,0,L|392:190,2,110,10|10|2,0:3|0:2|0:0,0:0:0:0:
304,368,238100,6,0,P|239:349|212:303,1,110,14|8,0:0|0:3,0:0:0:0:
165,338,238546,2,0,P|132:278|145:226,1,110,14|8,0:0|0:3,0:0:0:0:
89,217,238991,2,0,P|108:151|153:122,1,110,14|8,0:2|0:3,0:0:0:0:
193,120,239437,1,12,0:0:0:0:
193,120,239585,2,0,L|317:128,1,110,2|10,0:0|0:0,0:0:0:0:
391,192,240179,1,10,0:3:0:0:
483,132,240477,6,0,P|503:81|482:28,1,110,6|2,0:0|0:0,0:0:0:0:
436,19,240922,1,10,0:3:0:0:
436,19,241071,2,0,B|386:15|386:15|329:44|329:44|276:40,1,165,8|10,0:0|0:0,0:0:0:0:
168,26,241813,1,8,0:3:0:0:
168,26,241962,1,8,0:3:0:0:
211,129,242259,2,0,L|202:254,1,110,10|2,0:0|0:0,0:0:0:0:
160,339,242853,6,0,P|107:352|53:341,1,110,10|2,0:3|0:0,0:0:0:0:
26,293,243298,1,10,0:3:0:0:
26,293,243447,2,0,L|18:183,1,110,8|2,0:0|0:0,0:0:0:0:
25,128,243892,2,0,B|52:80|52:80|103:47|159:83,1,165,10|8,0:2|0:3,0:0:0:0:
261,108,244635,2,0,L|391:97,1,110,8|2,0:0|0:3,0:0:0:0:
424,111,245080,1,10,0:0:0:0:
424,111,245229,6,0,P|446:159|426:216,1,110,4|2,0:0|0:0,0:0:0:0:
349,286,245823,2,0,L|219:297,1,110,10|2,0:0|0:0,0:0:0:0:
193,322,246269,1,10,0:0:0:0:
193,322,246417,2,0,L|63:311,1,110,2|2,0:0|0:3,0:0:0:0:
0,239,247011,2,0,P|-16:187|5:138,1,110,10|2,0:0|0:0,0:0:0:0:
102,85,247605,6,0,B|145:89|145:89|168:100|168:100|209:104,1,110,6|8,0:0|0:3,0:0:0:0:
259,124,248051,2,0,B|302:120|302:120|325:109|325:109|366:105,1,110,10|8,0:3|0:3,0:0:0:0:
416,128,248496,1,12,0:0:0:0:
483,278,248942,1,10,0:3:0:0:
333,347,249387,2,0,B|205:330,1,110,10|10,0:0|0:2,0:0:0:0:
128,365,249981,6,0,L|121:249,1,101.199996602783,6|0,0:0|0:0,0:0:0:0:
93,229,250427,1,10,0:3:0:0:
93,229,250576,2,0,L|86:113,1,101.199996602783,4|10,0:3|0:0,0:0:0:0:
151,49,251170,2,0,P|199:35|249:40,1,101.199996602783,6|0,0:3|0:0,0:0:0:0:
292,76,251615,1,2,0:0:0:0:
292,76,251764,2,0,L|299:192,1,101.199996602783,14|10,0:3|0:3,0:0:0:0:
351,262,252358,6,0,P|431:277|476:179,1,202.399993205567,4|4,0:0|0:3,0:0:0:0:
446,84,253249,1,10,0:0:0:0:
358,34,253546,2,0,L|254:23,1,101.199996602783,6|0,0:3|0:0,0:0:0:0:
214,44,253991,1,2,0:0:0:0:
214,43,254140,2,0,P|188:89|187:140,1,101.199996602783,14|10,0:3|0:3,0:0:0:0:
268,195,254734,6,0,L|372:206,1,101.199996602783,6|0,0:0|0:0,0:0:0:0:
410,233,255179,1,10,0:3:0:0:
410,232,255328,2,0,P|423:283|410:332,1,101.199996602783,6|10,0:3|0:0,0:0:0:0:
311,333,255922,2,0,B|247:324|247:324|183:348|183:348|114:338,1,202.399993205567,4|14,0:3|0:3,0:0:0:0:
21,298,256813,1,10,0:3:0:0:
55,202,257110,6,0,P|103:188|153:193,1,101.199996602783,6|0,0:3|0:0,0:0:0:0:
197,216,257556,1,10,0:3:0:0:
197,216,257704,2,0,P|245:230|295:225,1,101.199996602783,4|10,0:3|0:0,0:0:0:0:
391,192,258298,1,8,0:3:0:0:
391,192,258447,2,0,B|401:154|429:120|429:120|422:82|394:37,1,151.799994904175,4|6,0:0|0:3,0:0:0:0:
204,87,259486,6,0,B|127:98|138:63|54:73,1,151.799994904175,6|10,0:0|0:3,0:0:0:0:
25,170,260229,1,8,0:3:0:0:
25,170,260377,2,0,L|14:343,2,151.799994904175,10|10|10,0:0|0:0|0:0,0:0:0:0:
54,73,261566,1,2,0:0:0:0:
153,55,261863,6,0,B|205:61|246:73|246:73|270:52|291:40,1,151.799994904175,10|10,0:0|0:0,0:0:0:0:
381,87,262605,1,8,0:3:0:0:
381,87,262754,2,0,B|398:104|415:130|415:130|458:130|511:137,2,151.799994904175,10|8|10,0:0|0:0|0:0,0:0:0:0:
291,39,263942,1,2,0:0:0:0:
228,118,264239,6,0,B|211:174|211:174|218:271,1,151.799994904175,6|10,0:0|0:0,0:0:0:0:
298,337,264981,1,8,0:3:0:0:
298,337,265130,2,0,P|361:331|471:326,2,151.799994904175,10|10|10,0:0|0:0|0:0,0:0:0:0:
197,353,266318,1,2,0:0:0:0:
103,315,266615,6,0,B|81:219|81:219|114:177,1,151.799994904175,14|14,0:0|0:3,0:0:0:0:
214,149,267358,1,8,0:3:0:0:
214,149,267506,2,0,B|310:171|310:171|351:137,1,151.799994904175,14|10,0:3|0:3,0:0:0:0:
237,38,268397,2,0,B|177:25|177:25|123:50,1,101.199996602783,10|10,0:0|0:3,0:0:0:0:
74,118,268991,5,6,0:0:0:0:
