osu file format v14

[General]
AudioFilename: audio.mp3
AudioLeadIn: 0
PreviewTime: 58388
Countdown: 0
SampleSet: Soft
StackLeniency: 0.5
Mode: 0
LetterboxInBreaks: 0
WidescreenStoryboard: 1

[Editor]
Bookmarks: 174244,238305,242089,251889
DistanceSpacing: 1
BeatDivisor: 4
GridSize: 4
TimelineZoom: 1.4

[Metadata]
Title:Cross bouquet
TitleUnicode:Cross bouquet
Artist:Shimotsuki Haruka, Nakae Mitsuki
ArtistUnicode:霜月はるか・中恵光城
Creator:Shizuku-
Version:Normal
Source:
Tags:しちごさん。×ABSOLUTE CASTAWAY _xyliac Hayama Yoshimi 日山 尚 Yabuki Okinawa 幾丹弥吹 戀伊江 梓
BeatmapID:1506779
BeatmapSetID:705344

[Difficulty]
HPDrainRate:2
CircleSize:3
OverallDifficulty:2
ApproachRate:5
SliderMultiplier:1
SliderTickRate:1

[Events]
//Background and Video events
0,0,"62885317_p0.jpg",0,0
//Break Periods
2,83118,92326
2,141461,148017
2,183892,193100
//Storyboard Layer 0 (Background)
//Storyboard Layer 1 (Fail)
//Storyboard Layer 2 (Pass)
//Storyboard Layer 3 (Foreground)
//Storyboard Sound Samples

[TimingPoints]
709,331.491712707182,4,2,1,30,1,0
709,-100,4,2,1,30,0,0
10653,-100,4,2,1,60,0,0
24576,-100,4,2,1,60,0,0
46123,-100,4,2,1,60,0,1
50929,-100,4,2,1,60,0,0
53747,-100,4,2,1,60,0,0
56399,-100,4,2,1,60,0,0
59051,-100,4,2,1,60,0,1
80184,-100,4,2,1,5,0,0
80267,-100,4,2,1,60,0,0
104465,-100,4,2,1,60,0,1
109272,-100,4,2,1,60,0,0
112090,-100,4,2,1,60,0,0
114742,-100,4,2,1,60,0,0
117394,-100,4,2,1,60,0,1
138609,-100,4,2,1,60,0,0
153775,-100,4,2,1,60,0,0
178388,-100,4,2,1,60,0,0
181040,-100,4,2,1,60,0,0
182200,-100,4,2,1,60,0,0
194300,-100,4,2,1,60,0,0
202587,-100,4,2,1,60,0,0
204244,-100,4,2,1,60,0,0
204907,-100,4,2,1,60,0,1
215515,-100,4,2,1,60,0,1
220156,-100,4,2,1,60,0,1
226040,-100,4,2,1,5,0,1
226123,-100,4,2,1,60,0,0
240193,750,4,2,1,30,1,0
240193,-100,4,2,1,30,0,0
241318,821.917808219178,4,2,1,30,1,0
241728,722.89156626506,4,2,1,30,1,0
242450,701.754385964912,4,2,1,30,1,0
244164,718.562874251497,4,2,1,30,1,0
244523,727.272727272727,4,2,1,30,1,0
244886,857.142857142857,4,2,1,30,1,0
245314,821.917808219178,4,2,1,30,1,0
246752,-100,4,2,1,30,0,0
251889,-100,4,2,1,5,0,0

[Colours]
Combo1 : 215,176,207
Combo2 : 125,227,189
Combo3 : 189,172,238
Combo4 : 124,211,137

[HitObjects]
120,144,709,6,0,B|132:76|184:28|256:16|256:16|328:28|380:76|392:144,1,400,2|0,0:0|0:0,0:0:0:0:
304,192,2366,2,0,P|256:180|208:192,2,100,0|2|2,0:0|0:0|0:0,0:0:0:0:
392,240,3360,6,0,B|380:308|328:356|256:368|256:368|184:356|132:308|120:240,1,400,2|0,0:0|0:0,0:0:0:0:
208,192,5018,2,0,P|256:204|304:192,2,100,0|2|2,0:0|0:0|0:0,0:0:0:0:
126,133,6012,6,0,P|82:141|42:177,2,100,2|0|0,0:0|0:0|0:0,0:0:0:0:
172,44,7007,2,0,P|256:90|340:44,1,200,2|0,0:0|0:0,0:0:0:0:
430,0,8001,2,0,P|443:49|426:96,1,100,2|2,0:0|0:0,0:0:0:0:
256,192,8664,12,0,10653,3:0:0:0:
456,144,11316,6,0,P|476:104|464:52,2,100,4|8|0,3:2|0:0|3:2,0:0:0:0:
368,192,12311,1,8,0:0:0:0:
368,192,12476,2,0,P|296:176|236:216,1,150,0|8,3:0|0:0,0:0:0:0:
196,308,13305,2,0,P|152:328|100:320,1,100,0|8,3:0|0:0,0:0:0:0:
44,240,13968,6,0,L|36:140,2,100,0|8|0,3:2|0:0|3:2,0:0:0:0:
102,320,14963,1,8,0:0:0:0:
102,320,15128,2,0,B|179:307|163:369|241:357,1,150,0|8,3:0|0:0,0:0:0:0:
328,308,15957,2,0,P|380:308|416:336,1,100,0|8,3:0|0:0,0:0:0:0:
500,280,16620,6,0,L|492:176,1,100,12|8,0:0|0:0,0:0:0:0:
484,80,17283,2,0,B|440:64|440:64|388:80,1,100,8|8,0:0|0:0,0:0:0:0:
340,96,17780,1,0,3:0:0:0:
340,96,17946,2,0,L|240:84,1,100,12|8,0:0|0:0,0:0:0:0:
169,13,18609,2,0,P|145:49|141:105,1,100,8|8,0:0|0:0,0:0:0:0:
160,204,19272,6,0,L|60:192,2,100,4|0|12,0:0|3:0|0:0,0:0:0:0:
260,212,20267,1,0,3:0:0:0:
260,212,20432,2,0,B|337:199|321:261|399:249,1,150,4|0,0:0|3:0,0:0:0:0:
484,196,21261,2,0,P|500:152|484:104,1,100,8|0,0:0|3:0,0:0:0:0:
408,40,21924,6,0,L|308:52,1,100,12|0,0:0|3:0,0:0:0:0:
264,32,22421,2,0,B|187:19|203:81|125:69,1,150,12|12,0:0|0:0,0:0:0:0:
124,68,24576,6,0,P|100:108|104:160,1,100,4|0,3:2|0:0,0:0:0:0:
84,204,25073,2,0,P|160:204|204:260,1,150,2|0,3:2|0:0,0:0:0:0:
252,344,25902,2,0,B|352:360|352:360|400:344,2,150,2|0|0,0:0|0:0|0:0,0:0:0:0:
156,324,27228,6,0,P|108:316|60:336,1,100,2|0,3:2|0:0,0:0:0:0:
28,372,27725,2,0,P|0:304|28:236,1,150,2|0,3:2|0:0,0:0:0:0:
12,188,28388,2,0,P|84:192|136:140,1,150,2|0,0:0|0:0,0:0:0:0:
156,44,29217,2,0,L|256:56,1,100,2|0,0:0|0:0,0:0:0:0:
352,28,29880,6,0,P|340:76|360:120,1,100,2|0,3:2|0:0,0:0:0:0:
400,148,30377,2,0,P|428:216|400:284,1,150,2|0,3:2|0:0,0:0:0:0:
424,328,31040,2,0,P|364:308|296:352,1,150,2|0,0:0|0:0,0:0:0:0:
244,268,31869,2,0,P|204:296|152:292,1,100,2|0,0:0|0:0,0:0:0:0:
72,236,32532,6,0,L|64:136,1,100,2|0,3:2|0:0,0:0:0:0:
60,86,33029,2,0,B|137:73|121:135|199:123,1,150,2|0,3:2|0:0,0:0:0:0:
240,96,33692,2,0,B|272:68|316:76|316:76|380:112,1,150,2|0,0:0|0:0,0:0:0:0:
456,168,34521,2,0,P|468:220|452:264,1,100,2|0,0:0|0:0,0:0:0:0:
380,332,35184,6,0,L|280:320,1,100,4|0,3:2|0:0,0:0:0:0:
244,284,35681,2,0,B|167:271|183:333|105:321,1,150,2|0,3:2|0:0,0:0:0:0:
20,268,36510,2,0,P|4:220|16:172,1,100,2|0,0:0|0:0,0:0:0:0:
44,132,37007,2,0,P|112:152|168:104,1,150,0|0,0:0|0:0,0:0:0:0:
212,16,37836,6,0,L|312:28,1,100,2|0,3:2|0:0,0:0:0:0:
360,16,38333,2,0,P|344:84|384:148,1,150,2|0,3:2|0:0,0:0:0:0:
428,172,38996,2,0,P|468:233|452:304,1,150,2|0,0:0|0:0,0:0:0:0:
368,360,39825,2,0,L|268:348,1,100,2|0,0:0|0:0,0:0:0:0:
208,268,40488,6,0,P|164:264|116:288,1,100,2|0,3:2|0:0,0:0:0:0:
80,324,40985,2,0,P|44:264|64:188,1,150,2|0,3:2|0:0,0:0:0:0:
40,144,41648,2,0,P|112:160|168:116,1,150,2|0,0:0|0:0,0:0:0:0:
200,20,42476,2,0,L|300:24,1,100,2|0,0:0|0:0,0:0:0:0:
400,24,43139,6,0,B|376:68|392:120,1,100,2|0,3:2|0:0,0:0:0:0:
432,156,43637,2,0,P|364:152|304:204,1,150,2|0,3:2|0:0,0:0:0:0:
292,252,44300,2,0,B|215:239|231:301|153:289,1,150,2|0,0:0|0:0,0:0:0:0:
64,248,45128,2,0,L|56:148,1,100,10|2,0:0|3:2,0:0:0:0:
196,4,46123,6,0,P|256:44|316:4,1,150,12|4,0:0|0:0,0:0:0:0:
400,132,47117,2,0,P|360:192|400:252,1,150,12|4,0:0|0:0,0:0:0:0:
484,300,47946,2,0,P|452:336|404:352,1,100,0|0,3:0|3:0,0:0:0:0:
264,300,48775,6,0,P|192:292|136:340,1,150,12|4,0:0|0:0,0:0:0:0:
44,220,49769,2,0,P|92:228|136:204,1,100,12|8,0:0|0:0,0:0:0:0:
168,168,50267,2,0,L|176:68,1,100,4|8,0:0|0:0,0:0:0:0:
276,52,50929,6,0,L|284:152,1,100,4|0,0:0|3:0,0:0:0:0:
288,200,51427,1,8,0:0:0:0:
300,300,51758,2,0,P|256:288|200:308,1,100,4|8,0:0|0:0,0:0:0:0:
168,336,52255,2,0,P|100:316|72:248,1,150,4|8,0:0|0:0,0:0:0:0:
28,156,53084,2,0,P|76:160|120:132,1,100,0|8,3:0|0:0,0:0:0:0:
168,48,53747,6,0,B|220:48|256:88|256:88|292:48|344:48,1,200,4|8,0:0|0:0,0:0:0:0:
440,80,54742,1,0,3:0:0:0:
480,172,55073,6,0,L|472:280,2,100,0|0|8,0:0|3:0|0:0,0:0:0:0:
440,80,56068,1,0,3:0:0:0:
344,47,56399,2,0,P|300:56|256:88,1,100,4|8,0:0|0:0,0:0:0:0:
228,128,56896,2,0,L|128:120,2,100,8|8|4,0:0|0:0|0:0,0:0:0:0:
228,128,58388,2,0,B|240:176|240:176|224:224,1,100,0|0,0:0|0:0,0:0:0:0:
180,316,59051,6,0,P|140:296|84:300,2,100,4|8|0,3:2|0:0|3:0,0:0:0:0:
260,376,60046,1,8,0:0:0:0:
260,376,60211,2,0,P|336:380|392:336,1,150,0|8,3:0|0:0,0:0:0:0:
424,248,61040,2,0,L|416:148,1,100,0|12,3:0|0:0,0:0:0:0:
376,56,61703,6,0,P|428:48|476:68,2,100,4|8|0,3:2|0:0|3:0,0:0:0:0:
292,112,62697,1,8,0:0:0:0:
292,112,62863,2,0,P|220:124|160:80,1,150,0|8,3:0|0:0,0:0:0:0:
76,28,63692,2,0,P|60:72|72:128,1,100,0|12,3:0|0:0,0:0:0:0:
112,212,64355,6,0,L|12:204,2,100,4|8|0,3:2|0:0|3:0,0:0:0:0:
212,220,65349,1,8,0:0:0:0:
212,220,65515,2,0,B|289:207|273:269|351:257,1,150,4|8,3:2|0:0,0:0:0:0:
432,200,66344,2,0,L|436:100,1,100,0|12,3:0|0:0,0:0:0:0:
396,8,67007,6,0,P|448:0|492:16,2,100,4|8|0,3:2|0:0|0:0,0:0:0:0:
316,68,68001,1,8,0:0:0:0:
316,68,68167,2,0,P|256:106|196:68,1,150,4|8,3:2|0:0,0:0:0:0:
116,8,68996,2,0,P|64:0|20:16,1,100,0|8,3:0|0:0,0:0:0:0:
76,100,69659,6,0,L|80:200,2,100,4|8|0,3:2|0:0|3:0,0:0:0:0:
20,15,70653,1,8,0:0:0:0:
20,15,70819,2,0,P|67:0|116:8,1,100,0|0,3:0|3:0,0:0:0:0:
160,32,71316,1,8,0:0:0:0:
208,120,71648,2,0,P|256:132|304:120,1,100,0|12,3:0|0:0,0:0:0:0:
380,52,72311,6,0,P|432:52|472:80,2,100,4|8|0,3:2|0:0|3:0,0:0:0:0:
304,119,73305,1,8,0:0:0:0:
304,119,73471,2,0,P|272:188|296:256,1,150,0|8,3:0|0:0,0:0:0:0:
364,328,74300,2,0,P|316:320|268:340,1,100,0|8,3:0|0:0,0:0:0:0:
232,372,74797,6,0,P|172:356|136:276,1,150,4|8,3:2|0:0,0:0:0:0:
180,192,75626,2,0,L|168:92,1,100,8|8,0:0|0:0,0:0:0:0:
164,44,76123,2,0,P|236:76|308:64,1,150,4|8,3:2|0:0,0:0:0:0:
396,20,76952,2,0,P|408:72|396:120,1,100,0|8,3:0|0:0,0:0:0:0:
420,160,77449,6,0,P|348:152|288:196,1,150,4|8,3:2|0:0,0:0:0:0:
236,284,78278,2,0,L|136:276,1,100,0|8,3:0|0:0,0:0:0:0:
36,268,78941,1,4,0:0:0:0:
88,76,79604,2,0,P|104:124|100:172,2,100,0|0|4,0:0|0:0|3:2,0:0:0:0:
256,192,80432,12,0,82918,3:2:0:0:
456,192,93526,6,0,P|484:128|460:56,2,150,4|2|0,3:2|3:2|0:0,0:0:0:0:
380,256,94852,2,0,L|280:244,1,100,0|8,0:0|0:0,0:0:0:0:
236,220,95349,2,0,B|159:207|175:269|97:257,1,150,2|8,3:2|0:0,0:0:0:0:
20,192,96178,6,0,L|12:92,2,100,2|8|0,3:2|0:0|0:0,0:0:0:0:
28,344,97338,2,0,P|104:328|164:368,1,150,8|8,0:0|0:0,0:0:0:0:
232,292,98167,2,0,P|276:308|328:292,1,100,0|8,3:0|0:0,0:0:0:0:
376,208,98830,6,0,P|411:238|424:291,2,100,2|8|0,3:2|0:0|0:0,0:0:0:0:
320,68,99990,2,0,P|256:102|192:68,1,150,8|8,0:0|0:0,0:0:0:0:
104,20,100819,2,0,B|88:68|88:68|104:116,1,100,0|10,3:0|0:0,0:0:0:0:
140,208,101482,6,0,P|88:208|48:240,2,100,2|8|0,3:2|0:0|0:0,0:0:0:0:
192,292,102476,1,0,0:0:0:0:
192,292,102642,2,0,P|256:326|320:292,1,150,8|8,0:0|0:0,0:0:0:0:
304,192,103471,2,0,P|256:176|208:192,1,100,8|8,0:0|0:0,0:0:0:0:
92,28,104465,6,0,B|156:60|156:60|232:44,1,150,12|4,0:0|0:0,0:0:0:0:
320,164,105460,2,0,B|256:132|256:132|180:148,1,150,12|4,0:0|0:0,0:0:0:0:
80,168,106289,2,0,P|64:212|76:264,1,100,0|0,3:0|3:0,0:0:0:0:
180,372,107117,6,0,P|244:336|316:356,1,150,12|4,0:0|0:0,0:0:0:0:
428,256,108112,2,0,P|392:192|412:120,1,150,12|4,0:0|0:0,0:0:0:0:
472,40,108941,1,8,0:0:0:0:
472,40,109272,6,0,P|399:20|332:60,1,150,4|8,0:0|0:0,0:0:0:0:
256,112,110101,2,0,P|208:120|164:96,1,100,4|8,0:0|0:0,0:0:0:0:
128,64,110598,2,0,B|88:104|88:104|96:200,1,150,4|8,0:0|0:0,0:0:0:0:
44,284,111427,2,0,P|96:280|132:308,1,100,0|8,3:0|0:0,0:0:0:0:
208,376,112090,6,0,B|257:343|251:279|251:279|242:172,1,200,4|8,0:0|0:0,0:0:0:0:
228,92,113084,1,0,3:0:0:0:
292,16,113416,6,0,P|340:8|384:32,2,100,0|0|8,0:0|3:0|0:0,0:0:0:0:
228,92,114410,1,0,3:0:0:0:
136,56,114742,2,0,L|36:72,1,100,4|8,0:0|0:0,0:0:0:0:
8,112,115239,2,0,P|0:160|20:208,2,100,8|8|4,0:0|0:0|0:0,0:0:0:0:
200,272,116731,2,0,L|100:268,1,100,2|2,0:0|0:0,0:0:0:0:
18,206,117394,6,0,P|0:160|8:112,2,100,4|8|0,3:2|0:0|3:0,0:0:0:0:
100,148,118388,1,8,0:0:0:0:
100,148,118554,2,0,B|177:135|161:197|239:185,1,150,0|8,3:0|0:0,0:0:0:0:
332,148,119383,2,0,L|324:48,1,100,0|12,3:0|0:0,0:0:0:0:
424,56,120046,6,0,L|432:156,2,100,4|8|0,3:2|0:0|3:0,0:0:0:0:
324,48,121040,1,8,0:0:0:0:
324,48,121206,2,0,B|276:44|276:44|232:68|232:68|176:64,1,150,0|8,3:0|0:0,0:0:0:0:
80,56,122034,2,0,P|60:96|68:152,1,100,0|12,3:0|0:0,0:0:0:0:
108,240,122697,6,0,P|64:252|12:232,2,100,4|8|0,3:2|0:0|3:0,0:0:0:0:
188,176,123692,1,8,0:0:0:0:
188,176,123858,2,0,P|260:176|312:228,1,150,4|8,3:2|0:0,0:0:0:0:
336,324,124686,2,0,P|388:336|432:320,1,100,0|12,3:0|0:0,0:0:0:0:
484,236,125349,6,0,L|472:136,1,100,4|8,3:2|0:0,0:0:0:0:
488,88,125847,2,0,P|424:128|352:112,1,150,0|8,0:0|0:0,0:0:0:0:
316,80,126510,2,0,P|244:66|182:105,1,150,4|8,3:2|0:0,0:0:0:0:
120,184,127338,2,0,P|132:232|120:280,1,100,0|8,3:0|0:0,0:0:0:0:
204,332,128001,6,0,P|168:366|120:380,2,100,4|8|0,3:2|0:0|3:0,0:0:0:0:
244,240,128996,1,8,0:0:0:0:
244,240,129162,2,0,P|312:236|364:292,1,150,0|8,3:0|0:0,0:0:0:0:
448,348,129990,2,0,P|460:296|448:252,1,100,0|12,3:0|0:0,0:0:0:0:
484,160,130653,6,0,L|476:60,2,100,4|8|0,3:2|0:0|3:0,0:0:0:0:
388,132,131648,1,8,0:0:0:0:
388,132,131813,2,0,B|311:119|327:181|249:169,1,150,0|8,3:0|0:0,0:0:0:0:
160,120,132642,2,0,P|116:120|72:152,1,100,0|8,3:0|0:0,0:0:0:0:
48,196,133139,6,0,B|40:248|40:248|56:292|56:292|48:344,1,150,4|8,3:2|0:0,0:0:0:0:
148,360,133968,2,0,P|192:336|244:344,1,100,8|8,0:0|0:0,0:0:0:0:
284,368,134465,2,0,P|352:372|400:312,1,150,4|8,3:2|0:0,0:0:0:0:
408,212,135294,6,0,L|400:112,1,100,0|8,3:0|0:0,0:0:0:0:
396,64,135791,2,0,B|319:51|335:113|257:101,1,150,4|8,3:2|0:0,0:0:0:0:
168,52,136620,2,0,P|124:44|76:68,1,100,0|8,3:0|0:0,0:0:0:0:
20,148,137283,6,0,P|64:196|72:280,1,150,4|0,0:0|0:0,0:0:0:0:
64,328,137946,2,0,P|127:313|204:348,1,150,12|0,0:0|0:0,0:0:0:0:
236,384,138609,1,4,3:2:0:0:
256,192,138775,12,0,141261,0:0:0:0:
476,224,149217,6,0,P|496:180|488:128,2,100,0|0|0,3:0|3:0|3:0,0:0:0:0:
388,180,150211,1,0,3:0:0:0:
388,180,150377,2,0,P|316:164|260:208,1,150,0|0,0:0|3:0,0:0:0:0:
180,268,151206,2,0,P|160:224|168:168,1,100,0|0,3:0|3:0,0:0:0:0:
212,88,151869,6,0,P|160:76|108:96,2,100,0|0|0,3:0|3:0|3:0,0:0:0:0:
296,36,152863,1,0,3:0:0:0:
296,36,153029,2,0,P|344:84|424:80,1,150,0|0,0:0|3:0,0:0:0:0:
512,36,153858,2,0,P|524:88|504:148,1,100,0|0,3:0|3:0,0:0:0:0:
460,216,154521,6,0,L|360:200,1,100,12|0,0:0|3:0,0:0:0:0:
320,176,155018,2,0,B|240:160|264:232|184:216,1,150,12|12,0:0|0:0,0:0:0:0:
100,160,155847,2,0,B|84:204|84:204|92:260,1,100,12|0,0:0|3:0,0:0:0:0:
72,304,156344,2,0,P|148:296|204:344,1,150,12|12,0:0|0:0,0:0:0:0:
280,280,157173,6,0,P|320:308|372:316,1,100,8|8,0:0|0:0,0:0:0:0:
456,264,157836,2,0,L|464:164,1,100,8|8,0:0|0:0,0:0:0:0:
468,64,158499,2,0,P|376:40|300:104,1,200,8|0,0:0|3:0,0:0:0:0:
272,196,159493,1,8,0:0:0:0:
200,128,159825,6,0,L|100:136,2,100,4|8|0,3:2|0:0|3:0,0:0:0:0:
272,196,160819,1,8,0:0:0:0:
272,196,160985,2,0,P|272:272|224:328,1,150,4|8,3:2|0:0,0:0:0:0:
128,336,161813,2,0,P|88:300|72:256,1,100,0|12,3:0|0:0,0:0:0:0:
88,160,162476,6,0,L|72:60,2,100,4|8|0,3:2|0:0|3:0,0:0:0:0:
180,120,163471,1,8,0:0:0:0:
180,120,163637,2,0,B|257:107|241:169|319:157,1,150,4|8,3:2|0:0,0:0:0:0:
368,140,164300,2,0,P|412:200|400:272,1,150,0|12,0:0|0:0,0:0:0:0:
352,356,165128,6,0,P|400:372|460:356,2,100,4|8|0,3:2|0:0|3:0,0:0:0:0:
276,288,166123,1,8,0:0:0:0:
276,288,166289,2,0,P|208:268|140:308,1,150,4|8,3:2|0:0,0:0:0:0:
59,359,167117,2,0,P|43:315|55:263,1,100,0|12,3:0|0:0,0:0:0:0:
104,180,167780,6,0,L|88:80,2,100,4|8|8,3:2|0:0|0:0,0:0:0:0:
192,132,168775,1,8,0:0:0:0:
192,132,168941,2,0,B|260:112|268:168|336:148,1,150,4|8,3:2|0:0,0:0:0:0:
416,84,169769,2,0,P|437:128|435:178,1,100,8|0,0:0|3:0,0:0:0:0:
408,276,170432,6,0,B|368:292|368:292|312:280,1,100,4|8,3:2|0:0,0:0:0:0:
220,236,171095,2,0,P|176:224|120:240,1,100,0|8,3:0|0:0,0:0:0:0:
80,260,171592,2,0,B|68:212|68:212|84:164|84:164|72:116,1,150,4|8,3:2|0:0,0:0:0:0:
144,48,172421,2,0,P|192:68|240:56,1,100,0|8,3:0|0:0,0:0:0:0:
324,8,173084,6,0,P|376:8|420:44,2,100,4|8|0,3:2|0:0|3:0,0:0:0:0:
237,57,174079,1,8,0:0:0:0:
237,57,174244,2,0,B|225:105|225:105|241:153|241:153|229:201,1,150,4|8,3:2|0:0,0:0:0:0:
188,292,175073,2,0,P|144:312|92:308,1,100,0|12,3:0|0:0,0:0:0:0:
20,240,175736,6,0,P|8:192|20:144,1,100,4|8,3:2|0:0,0:0:0:0:
96,76,176399,2,0,L|196:88,1,100,8|8,0:0|0:0,0:0:0:0:
316,100,177062,2,0,P|368:104|412:84,1,100,8|8,0:0|0:0,0:0:0:0:
448,52,177559,2,0,P|488:120|476:188,1,150,0|8,3:0|0:0,0:0:0:0:
492,285,178388,6,0,B|436:293|403:250|403:250|392:300|336:320,1,200,4|8,0:0|0:0,0:0:0:0:
256,260,179383,1,0,3:0:0:0:
173,319,179714,2,0,B|120:300|109:250|109:250|76:293|20:285,1,200,0|8,0:0|0:0,0:0:0:0:
35,187,180708,1,8,0:0:0:0:
32,88,181040,6,0,B|76:112|76:112|176:100,1,150,4|4,0:0|0:0,0:0:0:0:
272,84,181869,1,12,0:0:0:0:
372,68,182200,1,4,0:0:0:0:
256,192,182366,12,2,183692,0:0:0:0:
496,296,194300,6,0,P|472:256|424:232,1,100,0|0,3:0|3:0,0:0:0:0:
332,268,194963,2,0,P|264:336|172:312,2,200,0|0|0,3:0|3:0|3:0,0:0:0:0:
352,168,196620,1,0,3:0:0:0:
312,76,196952,6,0,P|264:64|212:84,1,100,0|0,3:0|3:0,0:0:0:0:
140,144,197615,2,0,P|48:120|24:28,2,200,0|0|0,3:0|3:0|3:0,0:0:0:0:
217,79,199272,1,0,3:0:0:0:
217,79,199438,6,0,P|240:144|184:232,1,150,0|0,0:0|3:0,0:0:0:0:
148,296,200267,2,0,P|204:300|240:328,1,100,0|0,3:0|3:0,0:0:0:0:
268,364,200764,2,0,P|336:376|396:328,1,150,0|0,0:0|3:0,0:0:0:0:
388,228,201592,2,0,L|380:128,1,100,0|0,3:0|3:0,0:0:0:0:
376,80,202090,6,0,P|312:68|248:116,1,150,4|8,0:0|0:0,0:0:0:0:
196,204,202918,2,0,L|92:188,2,100,0|8|4,3:0|0:0|0:0,0:0:0:0:
344,336,204244,2,0,L|448:320,1,100,0|0,0:0|0:0,0:0:0:0:
488,232,204907,6,0,P|500:188|484:132,2,100,4|8|0,3:2|0:0|3:0,0:0:0:0:
442,320,205902,1,8,0:0:0:0:
442,320,206068,2,0,P|388:272|312:264,1,150,0|8,3:0|0:0,0:0:0:0:
228,316,206896,2,0,P|179:324|130:311,1,100,0|12,3:0|0:0,0:0:0:0:
64,236,207559,6,0,L|56:128,2,100,4|8|0,3:2|0:0|3:0,0:0:0:0:
130,311,208554,1,8,0:0:0:0:
130,311,208720,2,0,P|228:316|280:276,1,150,0|8,3:0|0:0,0:0:0:0:
320,204,209548,2,0,L|312:100,1,100,0|12,3:0|0:0,0:0:0:0:
408,76,210211,6,0,L|416:180,2,100,4|8|0,3:2|0:0|3:0,0:0:0:0:
312,104,211206,1,8,0:0:0:0:
312,104,211371,2,0,P|248:136|176:112,1,150,4|8,3:2|0:0,0:0:0:0:
104,44,212200,2,0,P|80:84|80:140,1,100,0|12,3:0|0:0,0:0:0:0:
104,232,212863,6,0,L|0:220,2,100,4|8|0,3:2|0:0|0:0,0:0:0:0:
172,308,213858,1,8,0:0:0:0:
172,308,214023,2,0,P|248:328|308:296,1,150,4|8,3:2|0:0,0:0:0:0:
348,204,214852,2,0,L|336:104,1,100,0|8,3:0|0:0,0:0:0:0:
272,28,215515,6,0,P|316:4|372:12,2,100,4|0|12,0:0|0:0|0:0,0:0:0:0:
224,116,216510,1,0,3:0:0:0:
223,116,216675,2,0,P|151:123|100:72,1,150,4|0,0:0|3:0,0:0:0:0:
12,24,217504,2,0,P|0:68|12:120,1,100,12|4,0:0|0:0,0:0:0:0:
56,208,218167,6,0,P|68:252|56:304,2,100,4|0|12,0:0|0:0|0:0,0:0:0:0:
12,120,219162,1,0,3:0:0:0:
12,120,219327,2,0,P|88:132|144:88,1,150,4|0,0:0|3:0,0:0:0:0:
204,12,220156,2,0,P|256:4|300:24,1,100,12|8,0:0|0:0,0:0:0:0:
336,56,220653,6,0,B|360:112|360:112|340:204,1,150,4|8,3:2|0:0,0:0:0:0:
304,292,221482,2,0,P|256:312|212:300,1,100,8|8,0:0|0:0,0:0:0:0:
168,324,221979,2,0,L|156:172,1,150,4|8,3:2|0:0,0:0:0:0:
96,96,222808,2,0,P|148:96|188:64,1,100,0|8,3:0|0:0,0:0:0:0:
212,28,223305,6,0,P|284:12|348:56,1,150,4|8,3:2|0:0,0:0:0:0:
408,168,224134,2,0,L|508:160,2,100,0|8|4,3:0|0:0|0:0,0:0:0:0:
300,336,225460,6,0,P|256:324|204:336,1,100,0|0,0:0|0:0,0:0:0:0:
116,380,226123,6,0,L|108:280,1,100,4|8,3:2|0:0,0:0:0:0:
48,200,226786,2,0,P|92:180|156:192,1,100,0|8,3:2|0:0,0:0:0:0:
184,212,227283,2,0,P|256:212|304:156,1,150,0|8,3:0|0:0,0:0:0:0:
304,56,228112,2,0,P|348:80|400:76,1,100,0|8,3:0|0:0,0:0:0:0:
488,40,228775,6,0,P|496:92|480:136,2,100,0|8|0,3:2|0:0|3:2,0:0:0:0:
396,77,229769,1,8,0:0:0:0:
396,77,229935,2,0,P|316:64|260:104,1,150,0|8,3:0|0:0,0:0:0:0:
220,192,230764,2,0,P|176:204|124:192,1,100,0|8,3:0|0:0,0:0:0:0:
60,116,231427,6,0,L|56:16,2,100,12|8|8,0:0|0:0|0:0,0:0:0:0:
123,191,232421,1,8,0:0:0:0:
100,288,232753,2,0,P|152:288|196:312,1,100,12|8,0:0|0:0,0:0:0:0:
264,380,233416,2,0,P|312:360|360:360,1,100,8|8,0:0|0:0,0:0:0:0:
456,380,234079,6,0,P|476:336|476:280,2,100,4|0|12,0:0|3:0|0:0,0:0:0:0:
359,359,235073,1,0,3:0:0:0:
359,359,235239,2,0,P|284:380|216:360,1,150,4|0,0:0|3:0,0:0:0:0:
148,288,236068,2,0,L|140:188,1,100,8|0,0:0|3:0,0:0:0:0:
92,100,236731,6,0,P|140:88|204:112,1,100,12|0,0:0|3:0,0:0:0:0:
228,132,237228,2,0,L|332:128,1,100,12|0,0:0|3:0,0:0:0:0:
376,124,237725,6,0,P|436:168|444:248,2,150,12|12|12,0:0|0:0|0:0,0:0:0:0:
352,220,239051,1,12,0:0:0:0:
256,192,240193,12,2,246752,0:0:0:0:
