osu file format v14

[General]
AudioFilename: audio.mp3
AudioLeadIn: 0
PreviewTime: 58354
Countdown: 0
SampleSet: Soft
StackLeniency: 0.7
Mode: 0
LetterboxInBreaks: 0
WidescreenStoryboard: 0

[Editor]
DistanceSpacing: 1
BeatDivisor: 4
GridSize: 32
TimelineZoom: 1.6

[Metadata]
Title:Cross bouquet
TitleUnicode:Cross bouquet
Artist:Shimotsuki Haruka, Nakae Mitsuki
ArtistUnicode:霜月はるか・中恵光城
Creator:Lasse
Version:Normal
Source:
Tags:しちごさん。×ABSOLUTE CASTAWAY 753
BeatmapID:1605431
BeatmapSetID:763002

[Difficulty]
HPDrainRate:4
CircleSize:3.2
OverallDifficulty:5
ApproachRate:6
SliderMultiplier:1.1
SliderTickRate:1

[Events]
//Background and Video events
0,0,"a.jpg",0,0
//Break Periods
2,83125,91986
2,141468,148174
2,183899,192925
//Storyboard Layer 0 (Background)
//Storyboard Layer 1 (Fail)
//Storyboard Layer 2 (Pass)
//Storyboard Layer 3 (Foreground)
//Storyboard Sound Samples

[TimingPoints]
716,331.491712707182,4,2,22,24,1,0
716,-142.857142857143,4,2,22,24,0,0
8671,-125,4,2,22,28,0,0
9666,-125,4,2,22,32,0,0
10660,-111.111111111111,4,2,1,50,0,0
10992,-111.111111111111,4,2,1,60,0,0
11323,-100,4,2,1,62,0,0
13892,-100,4,2,99,5,0,0
13975,-100,4,2,1,62,0,0
19279,-125,4,2,1,60,0,0
19528,-125,4,2,99,5,0,0
19611,-125,4,2,1,60,0,0
19942,-125,4,2,1,55,0,0
21931,-125,4,2,1,60,0,0
22428,-111.111111111111,4,2,1,55,0,0
22925,-111.111111111111,4,2,1,50,0,0
23423,-100,4,2,22,30,0,0
23588,-100,4,2,22,35,0,0
24086,-100,4,2,22,40,0,0
24251,-100,4,2,22,60,0,0
24417,-100,4,2,22,30,0,0
24583,-125,4,2,1,40,0,0
35025,-125,4,2,1,30,0,0
35191,-111.111111111111,4,2,1,46,0,0
43146,-111.111111111111,4,2,1,48,0,0
44638,-111.111111111111,4,2,1,50,0,0
45135,-111.111111111111,4,2,1,52,0,0
45467,-111.111111111111,4,2,14,54,0,0
45964,-100,4,2,1,50,0,0
46130,-100,4,2,1,64,0,0
46461,-100,4,2,1,42,0,0
46627,-100,4,2,2,64,0,0
46959,-100,4,2,1,42,0,0
47124,-100,4,2,1,64,0,0
47456,-100,4,2,1,42,0,0
47622,-100,4,2,2,60,0,0
47787,-100,4,2,2,40,0,0
47953,-100,4,2,14,60,0,0
48285,-100,4,2,14,60,0,0
48616,-100,4,2,1,50,0,0
48782,-100,4,2,1,64,0,0
49113,-100,4,2,1,42,0,0
49279,-100,4,2,2,64,0,0
49611,-100,4,2,1,42,0,0
49776,-100,4,2,14,60,0,0
50108,-100,4,2,1,60,0,0
50274,-100,4,2,1,55,0,0
50605,-100,4,2,1,50,0,0
50936,-100,4,2,1,60,0,0
51765,-100,4,2,2,60,0,0
51931,-100,4,2,1,60,0,0
53754,-100,4,2,2,60,0,0
54086,-100,4,2,1,60,0,0
54914,-100,4,2,1,60,0,0
55577,-100,4,2,1,50,0,0
56075,-100,4,2,1,60,0,0
56240,-100,4,2,1,40,0,0
56406,-100,4,2,1,60,0,0
56655,-100,4,2,99,5,0,0
56738,-100,4,2,1,50,0,0
56820,-100,4,2,1,40,0,0
56903,-100,4,2,1,55,0,0
57152,-100,4,2,99,5,0,0
57235,-100,4,2,1,50,0,0
57483,-100,4,2,99,5,0,0
57566,-100,4,2,1,60,0,0
57732,-100,4,2,1,30,0,0
58395,-100,4,2,22,40,0,0
58892,-100,4,2,22,50,0,0
59058,-90.9090909090909,4,2,1,66,0,1
60467,-90.9090909090909,4,2,99,5,0,1
60550,-90.9090909090909,4,2,1,66,0,1
60633,-90.9090909090909,4,2,1,40,0,1
60715,-90.9090909090909,4,2,1,66,0,1
61378,-90.9090909090909,4,2,2,60,0,1
61627,-90.9090909090909,4,2,99,5,0,1
61710,-90.9090909090909,4,2,1,66,0,1
63119,-90.9090909090909,4,2,99,5,0,1
63202,-90.9090909090909,4,2,1,66,0,1
63285,-90.9090909090909,4,2,1,40,0,1
63367,-90.9090909090909,4,2,1,66,0,1
64196,-90.9090909090909,4,2,14,66,0,1
64362,-90.9090909090909,4,2,1,66,0,1
65522,-90.9090909090909,4,2,2,66,0,1
65854,-90.9090909090909,4,2,1,66,0,1
67014,-90.9090909090909,4,2,1,66,0,1
67262,-90.9090909090909,4,2,99,5,0,1
67345,-90.9090909090909,4,2,1,66,0,1
69003,-90.9090909090909,4,2,14,60,0,0
69169,-90.9090909090909,4,2,1,62,0,0
69334,-90.9090909090909,4,2,14,64,0,0
69666,-90.9090909090909,4,2,1,66,0,1
71075,-90.9090909090909,4,2,99,5,0,1
71157,-90.9090909090909,4,2,1,66,0,1
71240,-90.9090909090909,4,2,1,40,0,1
71323,-90.9090909090909,4,2,1,66,0,1
71903,-90.9090909090909,4,2,1,40,0,1
71986,-90.9090909090909,4,2,2,60,0,1
72235,-90.9090909090909,4,2,99,5,0,1
72318,-90.9090909090909,4,2,1,66,0,1
73727,-90.9090909090909,4,2,99,5,0,1
73809,-90.9090909090909,4,2,1,66,0,1
73892,-90.9090909090909,4,2,1,40,0,1
73975,-90.9090909090909,4,2,1,66,0,1
74307,-90.9090909090909,4,2,14,60,0,1
74638,-90.9090909090909,4,2,1,60,0,1
74804,-90.9090909090909,4,2,1,66,0,1
76130,-90.9090909090909,4,2,2,66,0,1
76461,-90.9090909090909,4,2,1,66,0,1
77456,-90.9090909090909,4,2,1,66,0,1
78119,-90.9090909090909,4,2,1,60,0,1
78202,-90.9090909090909,4,2,1,40,0,1
78285,-90.9090909090909,4,2,14,62,0,1
78616,-90.9090909090909,4,2,1,64,0,1
78948,-90.9090909090909,4,2,1,66,0,1
79113,-100,4,2,1,62,0,0
79611,-125,4,2,22,40,0,0
80274,-100,4,2,1,62,0,0
82925,-100,4,2,1,34,0,0
88229,-100,4,2,1,60,0,0
88478,-100,4,2,99,5,0,0
88561,-100,4,2,1,60,0,0
88892,-100,4,2,1,55,0,0
90881,-100,4,2,1,60,0,0
91378,-100,4,2,1,55,0,0
91876,-100,4,2,1,50,0,0
92373,-100,4,2,22,30,0,0
92539,-100,4,2,22,35,0,0
93036,-100,4,2,22,40,0,0
93202,-100,4,2,22,60,0,0
93367,-100,4,2,22,30,0,0
93533,-111.111111111111,4,2,1,50,0,0
103478,-111.111111111111,4,2,1,52,0,0
103561,-111.111111111111,4,2,14,52,0,0
103809,-111.111111111111,4,2,1,54,0,0
104307,-100,4,2,1,50,0,0
104472,-100,4,2,1,64,0,0
104804,-100,4,2,1,42,0,0
104970,-100,4,2,2,64,0,0
105301,-100,4,2,1,42,0,0
105384,-100,4,2,1,42,0,0
105467,-100,4,2,1,64,0,0
105798,-100,4,2,1,42,0,0
105964,-100,4,2,2,60,0,0
106130,-100,4,2,2,40,0,0
106296,-100,4,2,14,60,0,0
106793,-100,4,2,14,60,0,0
106959,-100,4,2,1,50,0,0
107124,-100,4,2,1,64,0,0
107456,-100,4,2,1,42,0,0
107622,-100,4,2,2,64,0,0
107953,-100,4,2,1,42,0,0
108119,-100,4,2,14,60,0,0
108450,-100,4,2,1,60,0,0
108616,-100,4,2,1,55,0,0
108948,-100,4,2,1,50,0,0
109279,-100,4,2,1,60,0,0
110108,-100,4,2,2,60,0,0
110274,-100,4,2,1,60,0,0
112097,-100,4,2,2,60,0,0
112428,-100,4,2,1,60,0,0
113257,-100,4,2,1,60,0,0
113920,-100,4,2,1,50,0,0
114417,-100,4,2,1,60,0,0
114583,-100,4,2,1,40,0,0
114749,-100,4,2,1,60,0,0
114997,-100,4,2,99,5,0,0
115080,-100,4,2,1,50,0,0
115163,-100,4,2,1,40,0,0
115246,-100,4,2,1,55,0,0
115495,-100,4,2,99,5,0,0
115577,-100,4,2,1,50,0,0
115826,-100,4,2,99,5,0,0
115909,-100,4,2,1,60,0,0
116075,-100,4,2,1,30,0,0
116738,-100,4,2,22,40,0,0
117235,-100,4,2,22,50,0,0
117401,-90.9090909090909,4,2,1,66,0,1
118809,-90.9090909090909,4,2,99,5,0,1
118892,-90.9090909090909,4,2,1,66,0,1
118975,-90.9090909090909,4,2,1,40,0,1
119058,-90.9090909090909,4,2,1,66,0,1
119721,-90.9090909090909,4,2,2,60,0,1
119970,-90.9090909090909,4,2,99,5,0,1
120053,-90.9090909090909,4,2,1,66,0,1
121461,-90.9090909090909,4,2,99,5,0,1
121544,-90.9090909090909,4,2,1,66,0,1
121627,-90.9090909090909,4,2,1,40,0,1
121710,-90.9090909090909,4,2,1,66,0,1
122539,-90.9090909090909,4,2,14,66,0,1
122704,-90.9090909090909,4,2,1,66,0,1
123865,-90.9090909090909,4,2,2,66,0,1
124196,-90.9090909090909,4,2,1,66,0,1
125356,-90.9090909090909,4,2,1,66,0,1
125605,-90.9090909090909,4,2,99,5,0,1
125688,-90.9090909090909,4,2,1,66,0,1
127345,-90.9090909090909,4,2,14,60,0,0
127511,-90.9090909090909,4,2,1,62,0,0
127677,-90.9090909090909,4,2,14,64,0,0
128008,-90.9090909090909,4,2,1,66,0,1
129417,-90.9090909090909,4,2,99,5,0,1
129500,-90.9090909090909,4,2,1,66,0,1
129583,-90.9090909090909,4,2,1,40,0,1
129666,-90.9090909090909,4,2,1,66,0,1
130246,-90.9090909090909,4,2,1,40,0,1
130329,-90.9090909090909,4,2,2,60,0,1
130577,-90.9090909090909,4,2,99,5,0,1
130660,-90.9090909090909,4,2,1,66,0,1
132069,-90.9090909090909,4,2,99,5,0,1
132152,-90.9090909090909,4,2,1,66,0,1
132235,-90.9090909090909,4,2,1,40,0,1
132318,-90.9090909090909,4,2,1,66,0,1
132649,-90.9090909090909,4,2,14,60,0,1
132981,-90.9090909090909,4,2,1,60,0,1
133146,-90.9090909090909,4,2,1,66,0,1
134472,-90.9090909090909,4,2,2,66,0,1
134804,-90.9090909090909,4,2,1,66,0,1
135798,-90.9090909090909,4,2,1,66,0,1
136047,-90.9090909090909,4,2,99,5,0,1
136130,-90.9090909090909,4,2,1,66,0,1
136213,-90.9090909090909,4,2,1,40,0,1
136296,-90.9090909090909,4,2,1,60,0,1
136627,-90.9090909090909,4,2,14,62,0,1
136959,-90.9090909090909,4,2,1,64,0,1
137290,-90.9090909090909,4,2,1,66,0,1
137456,-90.9090909090909,4,2,1,64,0,1
137622,-90.9090909090909,4,2,1,62,0,1
137787,-90.9090909090909,4,2,1,58,0,1
137953,-90.9090909090909,4,2,1,60,0,1
138202,-90.9090909090909,4,2,14,62,0,1
138285,-90.9090909090909,4,2,14,64,0,1
138616,-100,4,2,1,60,0,0
138699,-100,4,2,1,20,0,0
141268,-100,4,2,22,20,0,0
149224,-125,4,2,1,42,0,0
153782,-125,4,2,1,42,0,0
153865,-111.111111111111,4,2,1,48,0,0
154030,-111.111111111111,4,2,2,48,0,0
154113,-111.111111111111,4,2,1,48,0,0
154528,-111.111111111111,4,2,1,56,0,0
155025,-111.111111111111,4,2,2,56,0,0
155191,-111.111111111111,4,2,1,56,0,0
155522,-111.111111111111,4,2,2,56,0,0
155688,-111.111111111111,4,2,1,56,0,0
156351,-111.111111111111,4,2,2,56,0,0
156517,-111.111111111111,4,2,1,56,0,0
156848,-111.111111111111,4,2,2,56,0,0
157014,-111.111111111111,4,2,1,56,0,0
157180,-111.111111111111,4,2,1,58,0,0
157511,-111.111111111111,4,2,14,58,0,0
158174,-111.111111111111,4,2,1,58,0,0
158506,-111.111111111111,4,2,2,60,0,0
159003,-111.111111111111,4,2,2,54,0,0
159169,-111.111111111111,4,2,2,56,0,0
159832,-100,4,2,1,62,0,0
163644,-100,4,2,2,62,0,0
163975,-100,4,2,1,62,0,0
166296,-100,4,2,2,62,0,0
166627,-100,4,2,1,62,0,0
170108,-100,4,2,14,62,0,0
170439,-100,4,2,1,62,0,0
170688,-100,4,2,99,5,0,0
170771,-100,4,2,2,62,0,0
170936,-100,4,2,1,62,0,0
171268,-100,4,2,1,62,0,0
171599,-100,4,2,1,62,0,0
171931,-100,4,2,1,62,0,0
173091,-100,4,2,1,62,0,0
173588,-100,4,2,1,62,0,0
174251,-100,4,2,2,62,0,0
174583,-100,4,2,1,62,0,0
174749,-100,4,2,1,62,0,0
175577,-100,4,2,14,62,0,0
175743,-100,4,2,1,64,0,0
175826,-100,4,2,1,40,0,0
175909,-100,4,2,1,64,0,0
175992,-100,4,2,1,40,0,0
176075,-100,4,2,1,64,0,0
176157,-100,4,2,1,40,0,0
176240,-100,4,2,1,64,0,0
176323,-100,4,2,1,40,0,0
176406,-100,4,2,1,64,0,0
176489,-100,4,2,1,40,0,0
176572,-100,4,2,1,64,0,0
176655,-100,4,2,1,40,0,0
176738,-100,4,2,1,64,0,0
176820,-100,4,2,1,40,0,0
176903,-100,4,2,1,64,0,0
176986,-100,4,2,1,40,0,0
177069,-100,4,2,1,64,0,0
177152,-100,4,2,1,40,0,0
177235,-100,4,2,1,64,0,0
177318,-100,4,2,1,40,0,0
177401,-100,4,2,1,64,0,0
177483,-100,4,2,1,40,0,0
177566,-100,4,2,1,64,0,0
177649,-100,4,2,1,40,0,0
177732,-100,4,2,1,62,0,0
178064,-100,4,2,14,60,0,0
178395,-111.111111111111,4,2,1,58,0,0
178727,-111.111111111111,4,2,1,54,0,0
180715,-111.111111111111,4,2,1,58,0,0
181047,-111.111111111111,4,2,2,62,0,0
181213,-111.111111111111,4,2,1,52,0,0
181544,-111.111111111111,4,2,1,62,0,0
181793,-111.111111111111,4,2,99,5,0,0
181876,-111.111111111111,4,2,1,62,0,0
182124,-111.111111111111,4,2,99,5,0,0
182207,-111.111111111111,4,2,1,62,0,0
182290,-111.111111111111,4,2,1,5,0,0
183036,-142.857142857143,4,2,22,20,0,0
183367,-111.111111111111,4,2,22,30,0,0
183699,-111.111111111111,4,2,22,40,0,0
193975,-125,4,2,22,36,0,0
194307,-125,4,2,75,50,0,0
202097,-111.111111111111,4,2,1,58,0,0
202428,-111.111111111111,4,2,1,54,0,0
202594,-111.111111111111,4,2,1,56,0,0
202925,-111.111111111111,4,2,14,58,0,0
203257,-111.111111111111,4,2,1,60,0,0
203588,-111.111111111111,4,2,1,62,0,0
204251,-111.111111111111,4,2,22,40,0,0
204748,-111.111111111111,4,2,22,50,0,0
204914,-90.9090909090909,4,2,1,66,0,1
206323,-90.9090909090909,4,2,99,5,0,1
206406,-90.9090909090909,4,2,1,66,0,1
206489,-90.9090909090909,4,2,1,40,0,1
206572,-90.9090909090909,4,2,1,66,0,1
207235,-90.9090909090909,4,2,2,60,0,1
207483,-90.9090909090909,4,2,99,5,0,1
207566,-90.9090909090909,4,2,1,66,0,1
208975,-90.9090909090909,4,2,99,5,0,1
209058,-90.9090909090909,4,2,1,66,0,1
209141,-90.9090909090909,4,2,1,40,0,1
209224,-90.9090909090909,4,2,1,66,0,1
210053,-90.9090909090909,4,2,14,66,0,1
210218,-90.9090909090909,4,2,1,66,0,1
211378,-90.9090909090909,4,2,2,66,0,1
211710,-90.9090909090909,4,2,1,66,0,1
212870,-90.9090909090909,4,2,1,66,0,1
213119,-90.9090909090909,4,2,99,5,0,1
213202,-90.9090909090909,4,2,1,66,0,1
214859,-90.9090909090909,4,2,14,60,0,1
215025,-90.9090909090909,4,2,1,62,0,1
215191,-90.9090909090909,4,2,14,64,0,1
215522,-111.111111111111,4,2,1,56,0,0
216185,-111.111111111111,4,2,2,56,0,0
216351,-111.111111111111,4,2,1,56,0,0
216848,-111.111111111111,4,2,2,48,0,0
217014,-111.111111111111,4,2,1,56,0,0
217511,-111.111111111111,4,2,2,56,0,0
217677,-111.111111111111,4,2,1,56,0,0
217843,-111.111111111111,4,2,2,56,0,0
218174,-111.111111111111,4,2,1,56,0,0
218837,-111.111111111111,4,2,2,56,0,0
219003,-111.111111111111,4,2,1,56,0,0
219500,-111.111111111111,4,2,2,48,0,0
219666,-111.111111111111,4,2,1,56,0,0
220163,-111.111111111111,4,2,14,56,0,0
220495,-111.111111111111,4,2,1,56,0,0
220660,-90.9090909090909,4,2,1,66,0,1
221986,-90.9090909090909,4,2,2,66,0,1
222318,-90.9090909090909,4,2,1,66,0,1
223312,-90.9090909090909,4,2,1,66,0,1
223561,-90.9090909090909,4,2,99,5,0,1
223644,-90.9090909090909,4,2,1,66,0,1
223727,-90.9090909090909,4,2,1,40,0,1
223809,-90.9090909090909,4,2,1,60,0,1
224141,-90.9090909090909,4,2,14,62,0,1
224472,-90.9090909090909,4,2,1,64,0,1
224804,-90.9090909090909,4,2,1,66,0,1
224970,-125,4,2,1,64,0,0
225467,-125,4,2,22,40,0,0
226130,-100,4,2,1,62,0,0
228699,-100,4,2,99,5,0,0
228782,-100,4,2,1,62,0,0
234086,-125,4,2,1,60,0,0
234335,-125,4,2,99,5,0,0
234417,-125,4,2,1,60,0,0
234749,-125,4,2,1,55,0,0
236738,-125,4,2,1,60,0,0
237235,-125,4,2,1,55,0,0
237732,-125,4,2,1,50,0,0
238229,-125,4,2,2,50,0,0
238561,-125,4,2,1,50,0,0
239058,-125,4,2,14,50,0,0
239390,793.650793650794,4,2,22,40,1,0
240183,759.493670886076,4,2,22,30,1,0
240183,-66.6666666666667,4,2,22,30,0,0
241322,827.586206896552,4,2,22,24,1,0
241322,-66.6666666666667,4,2,22,24,0,0
241735,722.89156626506,4,2,22,23,1,0
242096,689.655172413793,4,2,22,22,1,0
242096,-66.6666666666667,4,2,22,22,0,0
242440,701.754385964912,4,2,22,21,1,0
242790,731.707317073171,4,2,22,20,1,0
243155,800,4,2,22,19,1,0
243355,792.602377807133,4,2,22,18,1,0
244147,769.230769230769,4,2,22,17,1,0
244531,746.268656716418,4,2,22,16,1,0
244904,872.093023255814,4,2,22,15,1,0
245340,1428.57142857143,4,2,22,14,1,0
245697,1791.0447761194,4,2,22,13,1,0
246144,1714.28571428571,4,2,22,12,1,0
246572,821.917808219178,4,2,22,11,1,0

[Colours]
Combo1 : 250,192,230
Combo2 : 165,220,175
Combo3 : 255,170,170
Combo4 : 255,220,155

[HitObjects]
30,77,716,6,0,B|71:82|105:60|105:60|143:63|171:90|171:90|204:73|247:73,1,230.99999295044,6|2,0:1|0:2,0:0:0:0:
339,79,2041,1,2,0:1:0:0:
419,210,2704,1,2,0:1:0:0:
315,323,3367,6,0,B|277:328|240:306|240:306|202:309|172:337|172:337|131:342|98:308,1,230.99999295044,6|2,0:1|0:2,0:0:0:0:
71,224,4693,1,2,0:1:0:0:
193,131,5356,1,2,0:1:0:0:
322,213,6019,6,0,B|360:236|394:227|394:227|414:196|398:152|398:152|427:124|418:71,1,230.99999295044,6|2,0:1|0:0,0:0:0:0:
347,23,7345,1,2,0:1:0:0:
236,130,8008,1,2,0:1:0:0:
87,34,8671,6,0,B|63:38|48:54|48:54|43:80|53:99|53:99|38:111|33:139,1,132,2|2,0:0|0:1,0:0:0:0:
102,247,9666,2,0,B|117:265|138:270|138:270|163:262|175:243|175:243|193:250|219:241,1,132,2|2,0:2|0:1,0:0:0:0:
341,321,10660,6,0,L|398:318,1,49.4999984893799,10|8,0:3|0:0,0:0:0:0:
439,327,10992,2,0,L|460:277,1,49.4999984893799,10|8,0:0|0:0,0:0:0:0:
492,238,11323,6,0,L|487:107,1,110,14|10,0:3|0:0,0:0:0:0:
477,18,11986,1,10,0:3:0:0:
379,64,12318,1,10,0:0:0:0:
379,64,12483,1,10,0:3:0:0:
283,19,12815,1,8,0:3:0:0:
283,19,12981,1,8,0:0:0:0:
216,106,13312,2,0,L|213:227,1,110,10|10,0:3|0:0,0:0:0:0:
150,305,13975,6,0,P|96:321|40:289,1,110,10|10,0:3|0:0,0:0:0:0:
3,199,14638,1,10,0:3:0:0:
45,97,14970,1,10,0:0:0:0:
45,97,15135,2,0,B|91:60|149:88|149:88|172:67|201:63,1,165,10|8,0:3|0:0,0:0:0:0:
249,79,15798,2,0,L|368:63,2,110,2|8|10,0:0|0:3|0:0,0:0:0:0:
203,110,16627,6,0,P|184:148|216:225,1,110,14|10,0:3|0:0,0:0:0:0:
245,242,17124,2,0,L|369:264,1,110,10|10,0:3|0:3,0:0:0:0:
387,304,17622,1,10,0:0:0:0:
471,233,17953,2,0,P|490:195|469:114,1,110,10|10,0:0|0:0,0:0:0:0:
442,87,18450,2,0,L|318:65,1,110,10|10,0:3|0:3,0:0:0:0:
290,102,18948,1,14,0:0:0:0:
207,42,19279,6,0,B|172:43|149:32|149:32|123:47|123:47|72:32|36:71,1,176,14|14,0:3|0:0,0:0:0:0:
7,192,20439,2,0,L|19:293,1,88,2|8,0:0|0:3,0:0:0:0:
47,311,20936,2,0,P|104:307|137:317,1,88,10|8,0:3|0:0,0:0:0:0:
206,364,21599,1,2,0:0:0:0:
273,306,21931,6,0,L|279:174,2,132,14|10|14,0:0|0:0|0:3,0:0:0:0:
417,377,24086,2,0,L|480:369,1,55,10|8,0:3|0:0,0:0:0:0:
496,285,24583,6,0,L|488:146,1,132,14|10,0:3|0:3,0:0:0:0:
334,77,25743,1,2,0:0:0:0:
334,77,25909,2,0,B|301:68|263:90|263:90|223:96|193:75,1,132,2|2,0:0|0:0,0:0:0:0:
89,21,26903,1,2,0:0:0:0:
36,91,27235,6,0,L|48:240,1,132,10|10,0:3|0:3,0:0:0:0:
315,278,28892,2,0,L|322:185,2,88,2|2|2,0:0|0:0|0:0,0:0:0:0:
254,342,29887,6,0,P|179:353|123:327,1,132,10|10,0:3|0:3,0:0:0:0:
41,232,30881,1,2,0:0:0:0:
41,232,31047,2,0,L|48:95,1,132,2|2,0:0|0:0,0:0:0:0:
115,43,31876,2,0,P|150:34|207:48,1,88,2|2,0:0|0:0,0:0:0:0:
264,104,32539,6,0,P|334:124|399:97,1,132,10|10,0:3|0:3,0:0:0:0:
479,19,34859,1,2,0:0:0:0:
488,117,35191,6,0,L|474:279,1,148.49999546814,14|10,0:3|0:3,0:0:0:0:
291,339,36351,1,2,0:0:0:0:
291,339,36517,2,0,L|278:191,1,148.49999546814,2|2,0:0|0:0,0:0:0:0:
254,44,37511,1,2,0:0:0:0:
160,77,37843,6,0,B|135:78|109:70|109:70|71:83|71:83|43:75|7:82,1,148.49999546814,10|10,0:3|0:3,0:0:0:0:
0,365,39500,1,2,0:0:0:0:
84,312,39832,2,0,P|131:298|185:303,1,98.9999969787599,2|2,0:0|0:0,0:0:0:0:
268,342,40495,6,0,P|340:357|408:329,1,148.49999546814,10|10,0:3|0:3,0:0:0:0:
478,198,41489,2,0,L|464:93,1,98.9999969787599,2|2,0:0|0:0,0:0:0:0:
392,31,42152,2,0,P|343:21|296:33,1,98.9999969787599,2|2,0:0|0:0,0:0:0:0:
264,127,42815,1,2,0:0:0:0:
204,206,43146,6,0,P|150:224|69:189,1,148.49999546814,10|2,0:3|0:0,0:0:0:0:
67,90,43975,2,0,P|103:69|164:73,1,98.9999969787599,2|2,0:0|0:0,0:0:0:0:
249,110,44638,2,0,L|347:99,1,98.9999969787599,10|10,0:3|0:0,0:0:0:0:
390,73,45135,2,0,L|458:78,1,49.4999984893799,8|8,0:0|0:0,0:0:0:0:
478,107,45467,2,0,L|489:173,1,49.4999984893799,8|8,0:3|0:3,0:0:0:0:
500,270,45964,5,8,0:3:0:0:
499,269,46130,2,0,P|428:231|347:240,1,165,14|14,0:3|0:3,0:0:0:0:
212,334,47124,2,0,P|131:342|59:304,1,165,14|12,0:3|0:3,0:0:0:0:
51,194,47953,2,0,L|160:175,1,110,8|8,0:3|0:3,0:0:0:0:
262,239,48616,5,8,0:3:0:0:
262,239,48782,2,0,L|447:253,1,165,14|14,0:3|0:3,0:0:0:0:
499,103,49776,2,0,P|457:67|406:46,1,110,10|10,0:3|0:0,0:0:0:0:
351,45,50274,1,10,0:3:0:0:
278,127,50605,1,10,0:3:0:0:
198,51,50936,6,0,B|143:29|89:49|89:49|64:34|37:37,1,165,14|10,0:3|0:0,0:0:0:0:
8,144,51765,2,0,L|15:329,1,165,14|14,0:3|0:3,0:0:0:0:
121,352,52594,1,10,0:3:0:0:
121,352,52760,2,0,P|171:324|231:323,1,110,10|10,0:0|0:3,0:0:0:0:
329,348,53423,1,8,0:0:0:0:
422,291,53754,6,0,L|433:161,1,110,14|0,0:3|0:0,0:0:0:0:
442,131,54251,1,10,0:3:0:0:
442,131,54417,2,0,P|368:172|310:123,1,165,8|14,0:0|0:3,0:0:0:0:
260,30,55246,1,8,0:0:0:0:
152,38,55577,1,8,0:3:0:0:
152,38,55743,1,12,0:0:0:0:
98,134,56075,2,0,L|93:197,1,55,10|8,0:3|0:0,0:0:0:0:
127,232,56406,6,0,P|188:244|239:208,1,110,14|10,0:3|0:3,0:0:0:0:
269,186,56903,1,14,0:3:0:0:
378,171,57235,1,14,0:3:0:0:
422,272,57566,1,14,0:3:0:0:
496,129,59058,6,0,L|500:-8,2,121.000003692627,14|10|10,0:3|0:0|0:3,0:0:0:0:
453,172,59887,2,0,P|425:172|384:155,1,60.5000018463135,10|10,0:3|0:0,0:0:0:0:
360,111,60218,2,0,P|302:77|227:92,1,121.000003692627,10|10,0:3|0:3,0:0:0:0:
193,102,60715,1,10,0:0:0:0:
208,222,61047,1,10,0:3:0:0:
107,288,61378,1,14,0:3:0:0:
12,212,61710,6,0,L|5:72,2,121.000003692627,14|10|10,0:3|0:0|0:3,0:0:0:0:
47,261,62539,2,0,P|68:270|116:269,1,60.5000018463135,10|10,0:3|0:0,0:0:0:0:
155,237,62870,2,0,P|208:219|282:248,1,121.000003692627,10|10,0:3|0:3,0:0:0:0:
313,277,63367,1,10,0:0:0:0:
423,228,63699,2,0,L|434:103,1,121.000003692627,10|10,0:3|0:0,0:0:0:0:
339,43,64362,6,0,B|280:27|220:49|220:49|186:32|186:32|143:29|93:47,1,242.000007385254,14|8,0:3|0:3,0:0:0:0:
64,89,65191,2,0,L|50:167,1,60.5000018463135,10|10,0:3|0:0,0:0:0:0:
87,198,65522,2,0,P|134:216|221:210,1,121.000003692627,14|8,0:3|0:3,0:0:0:0:
252,178,66019,1,10,0:0:0:0:
314,74,66351,1,10,0:3:0:0:
434,79,66682,1,10,0:0:0:0:
474,193,67014,6,0,L|469:341,1,121.000003692627,14|10,0:3|0:0,0:0:0:0:
420,345,67511,1,2,0:0:0:0:
420,345,67677,2,0,P|360:320|300:321,1,121.000003692627,8|8,0:3|0:0,0:0:0:0:
248,342,68174,1,2,0:0:0:0:
248,342,68340,2,0,L|126:331,1,121.000003692627,10|10,0:3|0:0,0:0:0:0:
19,276,69003,1,10,0:3:0:0:
22,155,69334,1,10,0:3:0:0:
122,87,69666,6,0,L|266:70,2,121.000003692627,14|10|10,0:3|0:0|0:3,0:0:0:0:
72,122,70495,2,0,P|65:151|62:192,1,60.5000018463135,10|10,0:3|0:0,0:0:0:0:
105,223,70826,2,0,L|247:250,1,121.000003692627,10|10,0:3|0:3,0:0:0:0:
259,294,71323,1,10,0:0:0:0:
349,213,71655,1,10,0:3:0:0:
445,285,71986,1,14,0:0:0:0:
498,176,72318,6,0,L|503:35,2,121.000003692627,14|10|10,0:3|0:0|0:3,0:0:0:0:
484,235,73146,2,0,P|454:242|424:239,1,60.5000018463135,10|10,0:3|0:0,0:0:0:0:
378,201,73478,2,0,L|367:72,1,121.000003692627,10|8,0:3|0:3,0:0:0:0:
338,27,73975,1,10,0:0:0:0:
253,114,74307,2,0,L|242:234,1,121.000003692627,10|10,0:3|0:2,0:0:0:0:
231,294,74804,6,0,B|213:317|180:329|180:329|154:310|136:265,1,121.000003692627,14|8,0:3|0:3,0:0:0:0:
135,223,75301,2,0,L|134:91,1,121.000003692627,8|8,0:0|0:0,0:0:0:0:
112,44,75798,2,0,P|76:37|39:42,1,60.5000018463135,10|10,0:3|0:0,0:0:0:0:
16,87,76130,2,0,L|7:220,1,121.000003692627,14|8,0:3|0:3,0:0:0:0:
4,268,76627,1,10,0:0:0:0:
72,367,76959,1,10,0:0:0:0:
173,301,77290,1,8,0:0:0:0:
173,301,77456,6,0,L|312:292,1,121.000003692627,14|8,0:3|0:3,0:0:0:0:
346,322,77953,1,8,0:0:0:0:
430,235,78285,2,0,L|431:95,1,121.000003692627,10|14,0:3|0:3,0:0:0:0:
347,26,78948,1,14,0:3:0:0:
347,26,79113,1,14,0:3:0:0:
203,91,79611,6,0,L|115:80,2,88,2|2|14,0:1|0:2|0:3,0:0:0:0:
256,192,80356,12,10,82925,0:3:0:0:
0,27,93036,6,0,L|2:84,1,55,10|8,0:3|0:0,0:0:0:0:
83,138,93533,6,0,L|77:251,1,98.9999969787599,14|10,0:3|0:0,0:0:0:0:
104,278,94030,2,0,P|129:284|157:285,1,49.4999984893799,2|8,0:0|0:3,0:0:0:0:
229,158,94693,1,10,0:0:0:0:
229,158,94859,2,0,P|275:147|337:160,1,98.9999969787599,2|10,0:0|0:0,0:0:0:0:
364,185,95356,2,0,L|375:296,1,98.9999969787599,2|8,0:2|0:3,0:0:0:0:
406,320,95854,1,10,0:0:0:0:
477,239,96185,6,0,L|487:117,1,98.9999969787599,10|8,0:3|0:0,0:0:0:0:
483,90,96682,2,0,P|453:78|432:75,1,49.4999984893799,2|8,0:0|0:3,0:0:0:0:
295,124,97345,2,0,P|253:133|183:104,1,98.9999969787599,10|8,0:0|0:3,0:0:0:0:
166,80,97843,2,0,P|119:64|71:73,2,98.9999969787599,10|10|10,0:0|0:3|0:0,0:0:0:0:
204,171,98837,6,0,L|206:288,1,98.9999969787599,14|10,0:3|0:0,0:0:0:0:
239,306,99334,2,0,P|286:309|298:307,1,49.4999984893799,2|8,0:0|0:3,0:0:0:0:
410,223,99997,2,0,L|414:105,1,98.9999969787599,10|8,0:0|0:3,0:0:0:0:
393,78,100495,2,0,P|348:58|291:64,1,98.9999969787599,10|10,0:0|0:3,0:0:0:0:
208,100,101157,1,10,0:0:0:0:
253,188,101489,6,0,P|261:245|248:300,1,98.9999969787599,10|10,0:3|0:0,0:0:0:0:
216,318,101986,1,2,0:0:0:0:
216,318,102152,2,0,L|53:301,1,148.49999546814,8|10,0:3|0:0,0:0:0:0:
16,218,102981,2,0,L|15:113,1,98.9999969787599,10|10,0:3|0:3,0:0:0:0:
48,81,103478,2,0,P|71:74|104:72,1,49.4999984893799,10|8,0:0|0:3,0:0:0:0:
141,90,103809,2,0,P|165:87|188:79,1,49.4999984893799,10|8,0:0|0:0,0:0:0:0:
280,21,104307,5,8,0:3:0:0:
280,21,104472,2,0,L|272:197,1,165,14|14,0:3|0:3,0:0:0:0:
361,324,105467,2,0,P|437:338|484:275,1,165,14|12,0:3|0:3,0:0:0:0:
417,187,106296,2,0,L|405:62,1,110,8|8,0:3|0:3,0:0:0:0:
309,25,106959,5,8,0:3:0:0:
309,25,107124,2,0,B|251:21|251:21|208:51|208:51|150:47,1,165,14|14,0:3|0:3,0:0:0:0:
25,150,108119,2,0,P|8:204|20:260,1,110,10|10,0:3|0:0,0:0:0:0:
48,301,108616,1,10,0:3:0:0:
143,246,108948,1,10,0:3:0:0:
220,324,109279,6,0,B|252:325|275:312|275:312|295:323|295:323|331:304|382:315,1,165,14|10,0:3|0:0,0:0:0:0:
482,347,110108,2,0,L|490:175,1,165,14|14,0:3|0:3,0:0:0:0:
458,82,110936,1,10,0:3:0:0:
458,82,111102,2,0,P|402:66|348:74,1,110,10|10,0:0|0:3,0:0:0:0:
301,171,111765,1,8,0:0:0:0:
245,265,112097,6,0,P|190:271|138:255,1,110,14|0,0:3|0:0,0:0:0:0:
97,229,112594,1,10,0:3:0:0:
97,229,112760,2,0,L|109:60,1,165,8|14,0:0|0:3,0:0:0:0:
208,18,113588,1,8,0:0:0:0:
309,76,113920,1,8,0:3:0:0:
309,76,114086,1,12,0:0:0:0:
410,32,114417,2,0,P|437:32|468:41,1,55,10|8,0:3|0:0,0:0:0:0:
493,85,114749,6,0,L|488:212,1,110,14|10,0:3|0:3,0:0:0:0:
474,248,115246,1,14,0:3:0:0:
366,271,115577,1,14,0:3:0:0:
309,176,115909,1,14,0:3:0:0:
4,247,117401,6,0,L|1:384,2,121.000003692627,14|10|10,0:3|0:0|0:3,0:0:0:0:
33,193,118229,2,0,P|61:183|91:182,1,60.5000018463135,10|10,0:3|0:0,0:0:0:0:
140,218,118561,2,0,P|189:232|259:208,1,121.000003692627,10|10,0:3|0:3,0:0:0:0:
286,160,119058,1,10,0:0:0:0:
321,43,119390,1,10,0:3:0:0:
441,47,119721,1,14,0:3:0:0:
479,161,120053,6,0,L|486:306,2,121.000003692627,14|10|10,0:3|0:0|0:3,0:0:0:0:
451,106,120881,2,0,P|430:97|382:98,1,60.5000018463135,10|10,0:3|0:0,0:0:0:0:
353,141,121213,2,0,L|336:285,1,121.000003692627,10|10,0:3|0:3,0:0:0:0:
328,320,121710,1,10,0:0:0:0:
213,360,122041,2,0,L|83:346,1,121.000003692627,10|10,0:3|0:0,0:0:0:0:
10,257,122704,6,0,B|-10:222|0:176|0:176|20:144|20:144|14:111|14:111|30:70|75:46,1,242.000007385254,14|8,0:3|0:3,0:0:0:0:
131,60,123533,2,0,L|200:54,1,60.5000018463135,10|10,0:3|0:0,0:0:0:0:
241,87,123865,2,0,L|375:98,1,121.000003692627,14|8,0:3|0:3,0:0:0:0:
419,80,124362,1,10,0:0:0:0:
510,159,124693,1,10,0:3:0:0:
483,276,125025,1,10,0:0:0:0:
371,324,125356,6,0,L|238:311,1,121.000003692627,14|10,0:3|0:0,0:0:0:0:
199,344,125854,1,2,0:0:0:0:
199,344,126019,2,0,L|190:214,1,121.000003692627,8|8,0:3|0:0,0:0:0:0:
183,163,126517,1,2,0:0:0:0:
183,163,126682,2,0,P|133:141|61:152,1,121.000003692627,10|10,0:3|0:0,0:0:0:0:
3,250,127345,1,10,0:3:0:0:
68,351,127677,1,10,0:3:0:0:
184,317,128008,6,0,L|323:307,2,121.000003692627,14|10|10,0:3|0:0|0:3,0:0:0:0:
131,286,128837,2,0,P|124:257|126:215,1,60.5000018463135,10|10,0:3|0:0,0:0:0:0:
168,184,129169,2,0,P|186:124|157:56,1,121.000003692627,10|10,0:3|0:3,0:0:0:0:
121,32,129666,1,10,0:0:0:0:
12,84,129997,1,10,0:3:0:0:
35,202,130329,1,14,0:0:0:0:
168,184,130660,6,0,L|300:177,2,121.000003692627,14|10|10,0:3|0:0|0:3,0:0:0:0:
128,230,131489,2,0,P|124:266|129:295,1,60.5000018463135,10|10,0:3|0:0,0:0:0:0:
176,324,131820,2,0,L|308:331,1,121.000003692627,10|8,0:3|0:3,0:0:0:0:
350,358,132318,1,10,0:0:0:0:
452,292,132649,2,0,P|467:235|458:175,1,121.000003692627,10|10,0:3|0:2,0:0:0:0:
416,130,133146,6,0,B|284:121,1,121.000003692627,14|8,0:3|0:3,0:0:0:0:
254,167,133644,2,0,B|120:166,1,121.000003692627,8|8,0:0|0:0,0:0:0:0:
82,132,134141,2,0,P|76:98|83:57,1,60.5000018463135,10|10,0:3|0:0,0:0:0:0:
124,33,134472,2,0,B|246:28,1,121.000003692627,14|8,0:3|0:3,0:0:0:0:
291,67,134970,1,10,0:0:0:0:
403,22,135301,1,10,0:0:0:0:
487,116,135633,1,8,0:0:0:0:
487,116,135798,6,0,L|480:247,1,121.000003692627,14|8,0:3|0:3,0:0:0:0:
458,292,136296,2,0,P|429:301|399:297,1,60.5000018463135,8|8,0:2|0:2,0:0:0:0:
351,260,136627,2,0,L|334:141,1,121.000003692627,10|14,0:3|0:3,0:0:0:0:
250,51,137290,2,0,P|201:34|129:60,1,121.000003692627,14|10,0:3|0:3,0:0:0:0:
101,102,137787,1,10,0:3:0:0:
101,102,137953,2,0,L|80:240,1,121.000003692627,10|8,0:2|0:3,0:0:0:0:
67,280,138450,2,0,L|75:346,1,60.5000018463135,10|14,0:3|0:3,0:0:0:0:
256,192,138699,12,2,141268,0:1:0:0:
39,57,149224,6,0,P|80:44|124:49,1,88,12|10,0:3|0:3,0:0:0:0:
179,117,149887,2,0,L|183:215,1,88,10|8,0:3|0:3,0:0:0:0:
229,279,150550,2,0,P|269:294|314:290,1,88,8|10,0:3|0:3,0:0:0:0:
384,237,151213,2,0,L|394:142,1,88,10|10,0:3|0:3,0:0:0:0:
351,72,151876,6,0,P|301:55|260:64,2,88,10|8|8,0:3|0:3|0:3,0:0:0:0:
393,149,152870,2,0,P|443:166|484:157,2,88,10|8|8,0:3|0:3|0:3,0:0:0:0:
325,75,153865,6,0,L|328:24,2,49.4999984893799,8|12|10,0:3|0:3|0:3,0:0:0:0:
269,157,154528,2,0,P|222:166|139:105,1,148.49999546814,14|12,0:3|0:2,0:0:0:0:
121,68,155191,2,0,P|76:47|24:80,1,98.9999969787599,10|14,0:3|0:0,0:0:0:0:
8,161,155854,6,0,L|15:319,1,148.49999546814,12|12,0:0|0:2,0:0:0:0:
51,342,156517,2,0,P|94:352|143:315,1,98.9999969787599,10|14,0:3|0:2,0:0:0:0:
177,233,157180,2,0,L|173:130,2,98.9999969787599,14|10|10,0:0|0:3|0:3,0:0:0:0:
246,304,158174,1,10,0:0:0:0:
336,262,158506,5,14,0:0:0:0:
416,319,158837,1,12,0:0:0:0:
489,252,159169,2,0,L|492:133,1,98.9999969787599,8|8,0:0|0:0,0:0:0:0:
424,65,159832,6,0,P|381:45|308:76,2,110,14|8|8,0:3|0:0|0:3,0:0:0:0:
458,107,160660,2,0,L|467:168,1,55,10|8,0:3|0:0,0:0:0:0:
429,203,160992,2,0,P|380:227|328:214,1,110,6|8,0:0|0:3,0:0:0:0:
289,175,161489,1,10,0:0:0:0:
185,211,161820,1,10,0:3:0:0:
85,160,162152,1,10,0:0:0:0:
8,240,162483,6,0,L|1:370,2,110,14|10|10,0:3|0:0|0:3,0:0:0:0:
24,134,163478,1,10,0:0:0:0:
24,134,163644,2,0,P|80:107|145:128,1,110,14|10,0:3|0:3,0:0:0:0:
164,153,164141,1,10,0:0:0:0:
164,153,164307,2,0,P|209:169|267:153,1,110,2|10,0:0|0:3,0:0:0:0:
307,114,164804,1,10,0:0:0:0:
387,38,165135,6,0,P|434:26|502:49,2,110,14|10|8,0:3|0:0|0:3,0:0:0:0:
311,118,166130,1,10,0:0:0:0:
311,118,166296,2,0,L|301:227,1,110,14|8,0:3|0:3,0:0:0:0:
283,282,166793,1,10,0:0:0:0:
283,282,166959,2,0,P|238:298|180:282,1,110,2|2,0:0|0:0,0:0:0:0:
134,250,167456,1,10,0:0:0:0:
163,144,167787,6,0,P|211:120|265:129,1,110,14|8,0:3|0:0,0:0:0:0:
303,168,168285,2,0,P|352:190|405:180,1,110,10|10,0:3|0:3,0:0:0:0:
431,130,168782,2,0,L|441:21,2,110,10|8|8,0:0|0:0|0:0,0:0:0:0:
403,236,169776,1,10,0:0:0:0:
403,236,169942,2,0,P|358:256|284:233,1,110,10|8,0:0|0:3,0:0:0:0:
264,202,170439,6,0,L|254:79,1,110,14|12,0:3|0:0,0:0:0:0:
170,32,171102,1,10,0:3:0:0:
170,32,171268,2,0,L|98:27,1,55,10|8,0:3|0:0,0:0:0:0:
67,56,171599,2,0,L|56:231,1,165,14|10,0:3|0:0,0:0:0:0:
124,315,172428,1,2,0:3:0:0:
124,315,172594,2,0,P|154:325|186:319,1,55,10|8,0:3|0:0,0:0:0:0:
264,202,173091,6,0,L|270:77,1,110,14|10,0:3|0:0,0:0:0:0:
303,48,173588,2,0,P|349:36|411:57,1,110,2|8,0:0|0:3,0:0:0:0:
435,101,174086,1,10,0:0:0:0:
435,101,174251,2,0,L|445:224,1,110,14|8,0:3|0:3,0:0:0:0:
468,260,174749,2,0,L|460:328,1,55,10|2,0:0|0:0,0:0:0:0:
356,282,175246,2,0,L|350:217,2,55,10|10|10,0:3|0:0|0:3,0:0:0:0:
334,332,175743,6,0,P|283:347|228:325,1,110,14|10,0:0|0:0,0:0:0:0:
205,286,176240,1,10,0:3:0:0:
205,286,176406,2,0,L|200:160,1,110,10|10,0:0|0:2,0:0:0:0:
142,82,177069,2,0,P|91:62|39:77,1,110,10|10,0:2|0:2,0:0:0:0:
6,122,177566,1,10,0:3:0:0:
6,122,177732,1,10,0:0:0:0:
28,229,178064,2,0,L|32:304,1,55,10|10,0:3|0:3,0:0:0:0:
71,329,178395,6,0,B|109:334|144:328|144:328|184:345|184:345|225:333|271:340,1,197.99999395752,14|8,0:3|0:0,0:0:0:0:
311,354,179224,2,0,P|337:357|372:350,1,49.4999984893799,2|10,0:0|0:3,0:0:0:0:
394,318,179555,2,0,L|402:200,1,98.9999969787599,10|8,0:3|0:0,0:0:0:0:
434,126,180218,1,8,0:3:0:0:
434,126,180384,1,8,0:0:0:0:
362,57,180715,2,0,L|305:51,1,49.4999984893799,2|8,0:0|0:0,0:0:0:0:
268,74,181047,6,0,P|246:128|257:186,1,98.9999969787599,14|8,0:3|0:3,0:0:0:0:
274,210,181544,2,0,P|276:258|255:303,1,98.9999969787599,6|14,0:3|0:3,0:0:0:0:
168,351,182207,2,0,P|88:336|62:179,1,247.4999924469,10|2,0:3|0:1,0:0:0:0:
110,110,183367,1,2,0:1:0:0:
196,161,183699,5,6,0:2:0:0:
0,305,193975,6,0,L|4:255,1,44,6|4,0:3|0:3,0:0:0:0:
36,230,194307,6,0,L|42:129,1,88,10|8,0:3|0:0,0:0:0:0:
95,72,194970,2,0,B|132:48|178:55|178:55|210:93|257:91|257:91|296:58|346:63,1,264,8|8,0:0|0:0,0:0:0:0:
412,108,196296,2,0,L|431:204,1,88,10|8,0:0|0:0,0:0:0:0:
445,241,196793,1,10,0:3:0:0:
445,241,196959,6,0,L|427:344,1,88,10|10,0:3|0:0,0:0:0:0:
341,327,197622,2,0,B|304:303|258:310|258:310|226:348|179:346|179:346|140:313|90:318,1,264,8|8,0:0|0:0,0:0:0:0:
26,267,198948,2,0,L|28:171,1,88,10|10,0:0|0:0,0:0:0:0:
46,139,199445,6,0,P|85:125|131:132,1,88,10|8,0:3|0:3,0:0:0:0:
168,154,199942,2,0,P|211:160|252:146,1,88,10|10,0:0|0:0,0:0:0:0:
327,98,200605,1,10,0:0:0:0:
327,98,200771,2,0,P|368:83|458:109,1,132,10|10,0:3|0:0,0:0:0:0:
476,187,201599,1,10,0:0:0:0:
476,187,201765,2,0,L|470:243,1,44,2|0,0:0|0:0,0:0:0:0:
454,277,202097,6,0,P|397:286|345:259,1,98.9999969787599,12|8,0:3|0:3,0:0:0:0:
329,232,202594,1,8,0:2:0:0:
249,290,202925,1,10,0:3:0:0:
167,233,203257,1,14,0:3:0:0:
96,302,203588,5,14,0:3:0:0:
96,302,203754,1,14,0:3:0:0:
3,131,204914,6,0,L|-1:-6,2,121.000003692627,14|10|10,0:3|0:0|0:3,0:0:0:0:
44,176,205743,2,0,P|72:176|117:164,1,60.5000018463135,10|10,0:3|0:0,0:0:0:0:
151,131,206075,2,0,P|212:109|282:137,1,121.000003692627,10|10,0:3|0:3,0:0:0:0:
312,159,206572,1,10,0:0:0:0:
426,119,206903,1,10,0:3:0:0:
466,233,207235,1,14,0:3:0:0:
352,273,207566,6,0,L|219:261,2,121.000003692627,14|10|10,0:3|0:0|0:3,0:0:0:0:
409,254,208395,2,0,P|420:228|419:190,1,60.5000018463135,10|10,0:3|0:0,0:0:0:0:
388,144,208727,2,0,L|258:124,1,121.000003692627,10|10,0:3|0:3,0:0:0:0:
224,84,209224,1,10,0:0:0:0:
138,169,209555,2,0,P|109:224|127:294,1,121.000003692627,10|10,0:3|0:0,0:0:0:0:
220,345,210218,6,0,B|277:326|339:351|339:351|373:334|373:334|412:352|465:336,1,242.000007385254,14|8,0:3|0:3,0:0:0:0:
490,290,211047,2,0,L|497:208,1,60.5000018463135,10|10,0:3|0:0,0:0:0:0:
491,169,211378,2,0,P|436:143|376:161,1,121.000003692627,14|8,0:3|0:3,0:0:0:0:
341,204,211876,1,10,0:0:0:0:
231,151,212207,1,10,0:3:0:0:
142,233,212539,1,10,0:0:0:0:
45,159,212870,6,0,P|30:103|74:32,1,121.000003692627,14|10,0:3|0:0,0:0:0:0:
116,32,213367,1,2,0:0:0:0:
116,32,213533,2,0,L|244:40,1,121.000003692627,8|8,0:3|0:0,0:0:0:0:
291,77,214030,1,2,0:0:0:0:
291,77,214196,2,0,L|413:66,1,121.000003692627,10|10,0:3|0:0,0:0:0:0:
501,147,214859,1,10,0:3:0:0:
459,260,215191,1,10,0:3:0:0:
357,184,215522,6,0,B|291:164|291:164|248:186|248:186|162:162,2,197.99999395752,14|12|4,0:3|0:0|0:0,0:0:0:0:
418,262,217180,1,10,0:3:0:0:
344,327,217511,2,0,P|296:337|238:328,1,98.9999969787599,14|14,0:0|0:3,0:0:0:0:
190,249,218174,6,0,L|196:46,2,197.99999395752,14|12|4,0:3|0:0|0:0,0:0:0:0:
119,318,219832,1,10,0:3:0:0:
39,259,220163,2,0,L|43:155,1,98.9999969787599,10|8,0:3|0:2,0:0:0:0:
73,107,220660,6,0,P|133:83|207:105,1,121.000003692627,14|8,0:3|0:3,0:0:0:0:
230,134,221157,2,0,P|287:151|345:137,1,121.000003692627,8|8,0:0|0:0,0:0:0:0:
390,96,221655,2,0,P|416:83|474:85,1,60.5000018463135,10|10,0:3|0:0,0:0:0:0:
487,123,221986,2,0,B|476:265,1,121.000003692627,14|8,0:3|0:3,0:0:0:0:
487,303,222483,1,10,0:2:0:0:
370,269,222815,1,10,0:0:0:0:
269,336,223146,1,10,0:0:0:0:
269,336,223312,6,0,L|145:325,1,121.000003692627,14|8,0:3|0:3,0:0:0:0:
90,308,223809,2,0,P|80:279|82:249,1,60.5000018463135,8|8,0:2|0:2,0:0:0:0:
129,211,224141,2,0,L|257:202,1,121.000003692627,10|14,0:3|0:3,0:0:0:0:
371,238,224804,1,14,0:3:0:0:
371,238,224970,1,14,0:3:0:0:
471,151,225467,6,0,P|477:107|471:64,1,88,2|2,0:1|0:2,0:0:0:0:
366,29,226130,6,0,L|250:20,1,110,14|10,0:3|0:0,0:0:0:0:
173,92,226793,1,10,0:3:0:0:
83,39,227124,1,10,0:0:0:0:
83,39,227290,1,10,0:3:0:0:
13,124,227622,1,8,0:3:0:0:
13,124,227787,1,8,0:0:0:0:
104,184,228119,2,0,L|107:309,1,110,10|10,0:3|0:0,0:0:0:0:
202,348,228782,6,0,P|251:332|312:332,1,110,10|10,0:3|0:0,0:0:0:0:
414,362,229445,1,10,0:3:0:0:
478,272,229776,1,10,0:0:0:0:
478,272,229942,2,0,B|471:218|488:165|488:165|479:134|440:112,1,165,10|8,0:3|0:0,0:0:0:0:
399,126,230605,2,0,L|275:103,2,110,2|8|10,0:0|0:3|0:0,0:0:0:0:
425,174,231434,6,0,P|442:224|422:274,1,110,14|10,0:3|0:0,0:0:0:0:
381,311,231931,2,0,L|254:317,1,110,10|10,0:3|0:3,0:0:0:0:
228,351,232428,1,10,0:0:0:0:
141,282,232760,2,0,P|124:230|136:177,1,110,10|10,0:0|0:0,0:0:0:0:
178,142,233257,2,0,L|303:123,1,110,10|10,0:3|0:3,0:0:0:0:
332,93,233754,1,14,0:0:0:0:
411,155,234086,6,0,B|403:200|414:228|414:228|406:238|404:255|404:255|418:290|402:339,1,176,14|14,0:3|0:0,0:0:0:0:
275,347,235246,2,0,L|182:342,1,88,2|8,0:0|0:3,0:0:0:0:
150,317,235743,2,0,P|140:275|150:220,1,88,10|8,0:3|0:0,0:0:0:0:
208,168,236406,1,2,0:0:0:0:
294,191,236738,6,0,L|438:178,2,132,14|14|14,0:0|0:0|0:3,0:0:0:0:
191,273,238229,2,0,P|110:280|58:256,1,132,12|8,0:3|0:0,0:0:0:0:
16,187,239058,2,0,L|14:136,1,44,8|8,0:3|0:3,0:0:0:0:
210,26,240183,5,6,0:2:0:0:
