osu file format v14

[General]
AudioFilename: audio.mp3
AudioLeadIn: 0
PreviewTime: 58354
Countdown: 0
SampleSet: Soft
StackLeniency: 0.5
Mode: 0
LetterboxInBreaks: 0
WidescreenStoryboard: 0

[Editor]
DistanceSpacing: 0.7
BeatDivisor: 4
GridSize: 32
TimelineZoom: 2.4

[Metadata]
Title:Cross bouquet
TitleUnicode:Cross bouquet
Artist:Shimotsuki Haruka, Nakae Mitsuki
ArtistUnicode:霜月はるか・中恵光城
Creator:Lasse
Version:Insane
Source:
Tags:しちごさん。×ABSOLUTE CASTAWAY 753
BeatmapID:1607678
BeatmapSetID:763002

[Difficulty]
HPDrainRate:6
CircleSize:4
OverallDifficulty:8
ApproachRate:9
SliderMultiplier:1.6
SliderTickRate:1

[Events]
//Background and Video events
0,0,"a.jpg",0,0
//Break Periods
2,141468,148624
2,183899,193375
//Storyboard Layer 0 (Background)
//Storyboard Layer 1 (Fail)
//Storyboard Layer 2 (Pass)
//Storyboard Layer 3 (Foreground)
//Storyboard Sound Samples

[TimingPoints]
716,331.491712707182,4,2,22,24,1,0
716,-200,4,2,22,24,0,0
8671,-200,4,2,22,28,0,0
9666,-200,4,2,22,32,0,0
10495,-200,4,2,1,40,0,0
10660,-100,4,2,1,50,0,0
10992,-100,4,2,1,60,0,0
11323,-100,4,2,1,62,0,0
13892,-100,4,2,99,5,0,0
13975,-100,4,2,1,62,0,0
19279,-142.857142857143,4,2,1,60,0,0
19528,-142.857142857143,4,2,99,5,0,0
19611,-83.3333333333333,4,2,1,60,0,0
19942,-100,4,2,1,55,0,0
21931,-100,4,2,1,60,0,0
22428,-200,4,2,1,55,0,0
22925,-200,4,2,1,50,0,0
23423,-200,4,2,22,30,0,0
23588,-200,4,2,22,35,0,0
24086,-200,4,2,22,40,0,0
24251,-100,4,2,22,60,0,0
24417,-100,4,2,22,30,0,0
24583,-200,4,2,1,40,0,0
35025,-200,4,2,1,30,0,0
35191,-133.333333333333,4,2,1,46,0,0
43146,-133.333333333333,4,2,1,48,0,0
44638,-133.333333333333,4,2,1,50,0,0
45135,-133.333333333333,4,2,1,52,0,0
45467,-133.333333333333,4,2,14,54,0,0
45964,-133.333333333333,4,2,1,50,0,0
46130,-62.5,4,2,1,64,0,0
46461,-62.5,4,2,1,42,0,0
46627,-62.5,4,2,2,64,0,0
46959,-62.5,4,2,1,42,0,0
47124,-62.5,4,2,1,64,0,0
47456,-62.5,4,2,1,42,0,0
47622,-62.5,4,2,2,60,0,0
47787,-62.5,4,2,2,40,0,0
47953,-62.5,4,2,14,60,0,0
48285,-62.5,4,2,14,60,0,0
48616,-62.5,4,2,1,50,0,0
48782,-62.5,4,2,1,64,0,0
49113,-62.5,4,2,1,42,0,0
49279,-62.5,4,2,2,64,0,0
49611,-62.5,4,2,1,42,0,0
49776,-62.5,4,2,14,60,0,0
50108,-62.5,4,2,1,60,0,0
50274,-62.5,4,2,1,55,0,0
50605,-62.5,4,2,1,50,0,0
50936,-100,4,2,1,60,0,0
51765,-100,4,2,2,60,0,0
51931,-100,4,2,1,60,0,0
53754,-125,4,2,2,60,0,0
54086,-125,4,2,1,60,0,0
54914,-111.111111111111,4,2,1,60,0,0
55577,-111.111111111111,4,2,1,50,0,0
56075,-166.666666666667,4,2,1,60,0,0
56240,-166.666666666667,4,2,1,40,0,0
56406,-83.3333333333333,4,2,1,60,0,0
56572,-125,4,2,1,40,0,0
56738,-125,4,2,1,50,0,0
56820,-166.666666666667,4,2,1,40,0,0
56903,-83.3333333333333,4,2,1,55,0,0
57152,-83.3333333333333,4,2,99,5,0,0
57235,-83.3333333333333,4,2,1,50,0,0
57483,-83.3333333333333,4,2,99,5,0,0
57566,-55.5555555555556,4,2,1,60,0,0
57732,-55.5555555555556,4,2,1,30,0,0
58395,-200,4,2,22,40,0,0
58892,-200,4,2,22,50,0,0
59058,-83.3333333333333,4,2,1,66,0,1
60467,-83.3333333333333,4,2,99,5,0,1
60550,-83.3333333333333,4,2,1,66,0,1
60633,-83.3333333333333,4,2,1,40,0,1
60715,-83.3333333333333,4,2,1,66,0,1
61378,-83.3333333333333,4,2,2,60,0,1
61627,-83.3333333333333,4,2,99,5,0,1
61710,-83.3333333333333,4,2,1,66,0,1
63119,-83.3333333333333,4,2,99,5,0,1
63202,-83.3333333333333,4,2,1,66,0,1
63285,-83.3333333333333,4,2,1,40,0,1
63367,-83.3333333333333,4,2,1,66,0,1
64196,-83.3333333333333,4,2,14,66,0,1
64362,-83.3333333333333,4,2,1,66,0,1
65522,-83.3333333333333,4,2,2,66,0,1
65854,-83.3333333333333,4,2,1,66,0,1
67014,-62.5,4,2,1,66,0,1
67262,-62.5,4,2,99,5,0,1
67345,-83.3333333333333,4,2,1,66,0,1
69003,-83.3333333333333,4,2,14,60,0,0
69169,-83.3333333333333,4,2,1,62,0,0
69334,-83.3333333333333,4,2,14,64,0,0
69666,-83.3333333333333,4,2,1,66,0,1
71075,-83.3333333333333,4,2,99,5,0,1
71157,-83.3333333333333,4,2,1,66,0,1
71240,-83.3333333333333,4,2,1,40,0,1
71323,-83.3333333333333,4,2,1,66,0,1
71903,-83.3333333333333,4,2,1,40,0,1
71986,-83.3333333333333,4,2,2,60,0,1
72235,-83.3333333333333,4,2,99,5,0,1
72318,-83.3333333333333,4,2,1,66,0,1
73727,-83.3333333333333,4,2,99,5,0,1
73809,-83.3333333333333,4,2,1,66,0,1
73892,-83.3333333333333,4,2,1,40,0,1
73975,-83.3333333333333,4,2,1,66,0,1
74307,-83.3333333333333,4,2,14,60,0,1
74638,-83.3333333333333,4,2,1,60,0,1
74804,-83.3333333333333,4,2,1,66,0,1
76130,-83.3333333333333,4,2,2,66,0,1
76461,-83.3333333333333,4,2,1,66,0,1
77456,-62.5,4,2,1,66,0,1
78119,-100,4,2,1,60,0,1
78202,-100,4,2,1,40,0,1
78285,-100,4,2,14,62,0,1
78616,-100,4,2,1,64,0,1
78948,-100,4,2,1,66,0,1
79113,-62.5,4,2,1,62,0,0
79611,-200,4,2,22,40,0,0
80274,-100,4,2,1,62,0,0
82843,-100,4,2,99,5,0,0
82925,-100,4,2,1,62,0,0
88229,-142.857142857143,4,2,1,60,0,0
88478,-142.857142857143,4,2,99,5,0,0
88561,-83.3333333333333,4,2,1,60,0,0
88892,-100,4,2,1,55,0,0
90881,-100,4,2,1,60,0,0
91378,-200,4,2,1,55,0,0
91876,-200,4,2,1,50,0,0
92373,-200,4,2,22,30,0,0
92539,-200,4,2,22,35,0,0
93036,-200,4,2,22,40,0,0
93202,-100,4,2,22,60,0,0
93367,-100,4,2,22,30,0,0
93533,-125,4,2,1,50,0,0
103478,-125,4,2,1,52,0,0
103561,-125,4,2,14,52,0,0
103809,-125,4,2,1,54,0,0
104307,-125,4,2,1,50,0,0
104472,-62.5,4,2,1,64,0,0
104804,-62.5,4,2,1,42,0,0
104970,-62.5,4,2,2,64,0,0
105301,-62.5,4,2,1,42,0,0
105384,-62.5,4,2,1,42,0,0
105467,-62.5,4,2,1,64,0,0
105798,-62.5,4,2,1,42,0,0
105964,-62.5,4,2,2,60,0,0
106130,-62.5,4,2,2,40,0,0
106296,-62.5,4,2,14,60,0,0
106793,-62.5,4,2,14,60,0,0
106959,-62.5,4,2,1,50,0,0
107124,-62.5,4,2,1,64,0,0
107456,-62.5,4,2,1,42,0,0
107622,-62.5,4,2,2,64,0,0
107953,-62.5,4,2,1,42,0,0
108119,-62.5,4,2,14,60,0,0
108450,-62.5,4,2,1,60,0,0
108616,-62.5,4,2,1,55,0,0
108948,-62.5,4,2,1,50,0,0
109279,-100,4,2,1,60,0,0
110108,-100,4,2,2,60,0,0
110274,-100,4,2,1,60,0,0
112097,-125,4,2,2,60,0,0
112428,-125,4,2,1,60,0,0
113257,-111.111111111111,4,2,1,60,0,0
113920,-111.111111111111,4,2,1,50,0,0
114417,-166.666666666667,4,2,1,60,0,0
114583,-166.666666666667,4,2,1,40,0,0
114749,-83.3333333333333,4,2,1,60,0,0
114914,-125,4,2,1,40,0,0
115080,-125,4,2,1,50,0,0
115163,-166.666666666667,4,2,1,40,0,0
115246,-83.3333333333333,4,2,1,55,0,0
115495,-83.3333333333333,4,2,99,5,0,0
115577,-83.3333333333333,4,2,1,50,0,0
115826,-83.3333333333333,4,2,99,5,0,0
115909,-55.5555555555556,4,2,1,60,0,0
116075,-55.5555555555556,4,2,1,30,0,0
116738,-200,4,2,22,40,0,0
117235,-200,4,2,22,50,0,0
117401,-83.3333333333333,4,2,1,66,0,1
118809,-83.3333333333333,4,2,99,5,0,1
118892,-83.3333333333333,4,2,1,66,0,1
118975,-83.3333333333333,4,2,1,40,0,1
119058,-83.3333333333333,4,2,1,66,0,1
119721,-83.3333333333333,4,2,2,60,0,1
119970,-83.3333333333333,4,2,99,5,0,1
120053,-83.3333333333333,4,2,1,66,0,1
121461,-83.3333333333333,4,2,99,5,0,1
121544,-83.3333333333333,4,2,1,66,0,1
121627,-83.3333333333333,4,2,1,40,0,1
121710,-83.3333333333333,4,2,1,66,0,1
122539,-83.3333333333333,4,2,14,66,0,1
122704,-83.3333333333333,4,2,1,66,0,1
123865,-83.3333333333333,4,2,2,66,0,1
124196,-83.3333333333333,4,2,1,66,0,1
125356,-62.5,4,2,1,66,0,1
125605,-62.5,4,2,99,5,0,1
125688,-83.3333333333333,4,2,1,66,0,1
127345,-83.3333333333333,4,2,14,60,0,0
127511,-83.3333333333333,4,2,1,62,0,0
127677,-83.3333333333333,4,2,14,64,0,0
128008,-83.3333333333333,4,2,1,66,0,1
129417,-83.3333333333333,4,2,99,5,0,1
129500,-83.3333333333333,4,2,1,66,0,1
129583,-83.3333333333333,4,2,1,40,0,1
129666,-83.3333333333333,4,2,1,66,0,1
130246,-83.3333333333333,4,2,1,40,0,1
130329,-83.3333333333333,4,2,2,60,0,1
130577,-83.3333333333333,4,2,99,5,0,1
130660,-83.3333333333333,4,2,1,66,0,1
132069,-83.3333333333333,4,2,99,5,0,1
132152,-83.3333333333333,4,2,1,66,0,1
132235,-83.3333333333333,4,2,1,40,0,1
132318,-83.3333333333333,4,2,1,66,0,1
132649,-83.3333333333333,4,2,14,60,0,1
132981,-83.3333333333333,4,2,1,60,0,1
133146,-83.3333333333333,4,2,1,66,0,1
134472,-83.3333333333333,4,2,2,66,0,1
134804,-83.3333333333333,4,2,1,66,0,1
135798,-62.5,4,2,1,66,0,1
136047,-62.5,4,2,99,5,0,1
136130,-62.5,4,2,1,66,0,1
136213,-62.5,4,2,1,40,0,1
136296,-62.5,4,2,1,60,0,1
136627,-62.5,4,2,14,62,0,1
136959,-62.5,4,2,1,64,0,1
137290,-62.5,4,2,1,66,0,1
137456,-62.5,4,2,1,64,0,1
137622,-62.5,4,2,1,62,0,1
137787,-62.5,4,2,1,58,0,1
137953,-62.5,4,2,1,60,0,1
138202,-62.5,4,2,14,62,0,1
138285,-62.5,4,2,14,64,0,1
138616,-200,4,2,1,60,0,0
138699,-200,4,2,1,20,0,0
141268,-200,4,2,22,20,0,0
149224,-166.666666666667,4,2,1,42,0,0
153782,-100,4,2,1,42,0,0
153865,-111.111111111111,4,2,1,48,0,0
154030,-111.111111111111,4,2,2,48,0,0
154113,-111.111111111111,4,2,1,48,0,0
154528,-111.111111111111,4,2,1,56,0,0
155025,-111.111111111111,4,2,2,56,0,0
155191,-111.111111111111,4,2,1,56,0,0
155522,-111.111111111111,4,2,2,56,0,0
155688,-111.111111111111,4,2,1,56,0,0
156351,-111.111111111111,4,2,2,56,0,0
156517,-111.111111111111,4,2,1,56,0,0
156848,-111.111111111111,4,2,2,56,0,0
157014,-111.111111111111,4,2,1,56,0,0
157180,-111.111111111111,4,2,1,58,0,0
157511,-111.111111111111,4,2,14,58,0,0
158174,-111.111111111111,4,2,1,58,0,0
158506,-111.111111111111,4,2,2,60,0,0
159003,-111.111111111111,4,2,2,54,0,0
159169,-111.111111111111,4,2,2,56,0,0
159832,-100,4,2,1,62,0,0
163644,-100,4,2,2,62,0,0
163975,-100,4,2,1,62,0,0
166296,-100,4,2,2,62,0,0
166627,-100,4,2,1,62,0,0
170108,-100,4,2,14,62,0,0
170439,-142.857142857143,4,2,1,62,0,0
170688,-142.857142857143,4,2,99,5,0,0
170771,-83.3333333333333,4,2,2,62,0,0
170936,-83.3333333333333,4,2,1,62,0,0
171268,-100,4,2,1,62,0,0
171599,-142.857142857143,4,2,1,62,0,0
171931,-100,4,2,1,62,0,0
173091,-83.3333333333333,4,2,1,62,0,0
173588,-100,4,2,1,62,0,0
174251,-83.3333333333333,4,2,2,62,0,0
174583,-83.3333333333333,4,2,1,62,0,0
174749,-100,4,2,1,62,0,0
175577,-100,4,2,14,62,0,0
175743,-100,4,2,1,64,0,0
175826,-100,4,2,1,40,0,0
175909,-100,4,2,1,64,0,0
175992,-100,4,2,1,40,0,0
176075,-100,4,2,1,64,0,0
176157,-100,4,2,1,40,0,0
176240,-100,4,2,1,64,0,0
176323,-100,4,2,1,40,0,0
176406,-100,4,2,1,64,0,0
176489,-100,4,2,1,40,0,0
176572,-100,4,2,1,64,0,0
176655,-100,4,2,1,40,0,0
176738,-100,4,2,1,64,0,0
176820,-100,4,2,1,40,0,0
176903,-100,4,2,1,64,0,0
176986,-100,4,2,1,40,0,0
177069,-100,4,2,1,64,0,0
177152,-100,4,2,1,40,0,0
177235,-100,4,2,1,64,0,0
177318,-100,4,2,1,40,0,0
177401,-100,4,2,1,64,0,0
177483,-100,4,2,1,40,0,0
177566,-100,4,2,1,64,0,0
177649,-100,4,2,1,40,0,0
177732,-100,4,2,1,62,0,0
178064,-100,4,2,14,60,0,0
178395,-125,4,2,1,58,0,0
178727,-125,4,2,1,54,0,0
180715,-125,4,2,1,58,0,0
181047,-100,4,2,2,62,0,0
181213,-100,4,2,1,52,0,0
181544,-66.6666666666667,4,2,1,62,0,0
181793,-66.6666666666667,4,2,99,5,0,0
181876,-66.6666666666667,4,2,1,62,0,0
182124,-66.6666666666667,4,2,99,5,0,0
182207,-142.857142857143,4,2,1,62,0,0
182290,-142.857142857143,4,2,1,5,0,0
183036,-142.857142857143,4,2,22,20,0,0
183367,-142.857142857143,4,2,22,30,0,0
183699,-142.857142857143,4,2,22,40,0,0
193975,-142.857142857143,4,2,22,44,0,0
194307,-133.333333333333,4,2,75,50,0,0
202097,-76.9230769230769,4,2,1,58,0,0
202428,-76.9230769230769,4,2,1,54,0,0
202594,-100,4,2,1,56,0,0
202925,-100,4,2,14,58,0,0
203257,-100,4,2,1,60,0,0
203588,-100,4,2,1,62,0,0
204251,-200,4,2,22,40,0,0
204748,-200,4,2,22,50,0,0
204914,-83.3333333333333,4,2,1,66,0,1
206323,-83.3333333333333,4,2,99,5,0,1
206406,-83.3333333333333,4,2,1,66,0,1
206489,-83.3333333333333,4,2,1,40,0,1
206572,-83.3333333333333,4,2,1,66,0,1
207235,-83.3333333333333,4,2,2,60,0,1
207483,-83.3333333333333,4,2,99,5,0,1
207566,-83.3333333333333,4,2,1,66,0,1
208975,-83.3333333333333,4,2,99,5,0,1
209058,-83.3333333333333,4,2,1,66,0,1
209141,-83.3333333333333,4,2,1,40,0,1
209224,-83.3333333333333,4,2,1,66,0,1
210053,-83.3333333333333,4,2,14,66,0,1
210218,-83.3333333333333,4,2,1,66,0,1
211378,-83.3333333333333,4,2,2,66,0,1
211710,-83.3333333333333,4,2,1,66,0,1
212870,-62.5,4,2,1,66,0,1
213119,-62.5,4,2,99,5,0,1
213202,-83.3333333333333,4,2,1,66,0,1
214859,-83.3333333333333,4,2,14,60,0,1
215025,-83.3333333333333,4,2,1,62,0,1
215191,-83.3333333333333,4,2,14,64,0,1
215522,-125,4,2,1,56,0,0
216185,-125,4,2,2,56,0,0
216351,-125,4,2,1,56,0,0
216848,-125,4,2,2,50,0,0
217014,-125,4,2,1,56,0,0
217511,-166.666666666667,4,2,2,56,0,0
217677,-166.666666666667,4,2,1,56,0,0
217843,-166.666666666667,4,2,2,56,0,0
218174,-200,4,2,1,56,0,0
218837,-200,4,2,2,56,0,0
219003,-125,4,2,1,56,0,0
219500,-125,4,2,2,48,0,0
219666,-125,4,2,1,56,0,0
220163,-125,4,2,14,56,0,0
220495,-125,4,2,1,56,0,0
220660,-83.3333333333333,4,2,1,66,0,1
221986,-83.3333333333333,4,2,2,66,0,1
222318,-83.3333333333333,4,2,1,66,0,1
223312,-62.5,4,2,1,66,0,1
223561,-62.5,4,2,99,5,0,1
223644,-62.5,4,2,1,66,0,1
223727,-62.5,4,2,1,40,0,1
223809,-62.5,4,2,1,60,0,1
224141,-62.5,4,2,14,62,0,1
224472,-62.5,4,2,1,64,0,1
224804,-62.5,4,2,1,66,0,1
224970,-83.3333333333333,4,2,1,64,0,0
225467,-200,4,2,22,40,0,0
226130,-100,4,2,1,62,0,0
228699,-100,4,2,99,5,0,0
228782,-100,4,2,1,62,0,0
234086,-142.857142857143,4,2,1,60,0,0
234335,-142.857142857143,4,2,99,5,0,0
234417,-83.3333333333333,4,2,1,60,0,0
234749,-100,4,2,1,55,0,0
236738,-100,4,2,1,60,0,0
237235,-200,4,2,1,55,0,0
237732,-200,4,2,1,50,0,0
238229,-200,4,2,2,50,0,0
238561,-200,4,2,1,50,0,0
239058,-100,4,2,14,50,0,0
239390,793.650793650794,4,2,22,40,1,0
240183,759.493670886076,4,2,22,30,1,0
241322,827.586206896552,4,2,22,24,1,0
241735,722.89156626506,4,2,22,23,1,0
242096,689.655172413793,4,2,22,22,1,0
242440,701.754385964912,4,2,22,21,1,0
242790,731.707317073171,4,2,22,20,1,0
243155,800,4,2,22,19,1,0
243355,792.602377807133,4,2,22,18,1,0
244147,769.230769230769,4,2,22,17,1,0
244531,746.268656716418,4,2,22,16,1,0
244904,872.093023255814,4,2,22,15,1,0
245340,1428.57142857143,4,2,22,14,1,0
245697,1791.0447761194,4,2,22,13,1,0
246144,1714.28571428571,4,2,22,12,1,0
246572,821.917808219178,4,2,22,11,1,0
246623,-100,4,2,22,10,0,0
246674,-100,4,2,22,9,0,0
246726,-100,4,2,22,8,0,0

[Colours]
Combo1 : 250,192,230
Combo2 : 165,220,175
Combo3 : 255,170,170
Combo4 : 255,220,155

[HitObjects]
36,118,716,6,0,B|157:165|70:243|188:290,1,240,6|2,0:1|0:2,0:0:0:0:
202,292,2041,1,2,0:1:0:0:
210,278,2373,1,2,0:1:0:0:
200,267,2704,1,2,0:1:0:0:
186,273,3036,1,2,0:1:0:0:
196,279,3367,6,0,B|317:232|230:154|348:107,1,240,6|2,0:1|0:2,0:0:0:0:
362,105,4693,1,2,0:1:0:0:
370,119,5025,1,2,0:1:0:0:
360,130,5356,1,2,0:1:0:0:
346,124,5688,2,0,P|321:115|292:115,1,40,2|2,0:1|0:0,0:0:0:0:
300,120,5936,1,2,0:1:0:0:
293,127,6019,6,0,B|217:232|332:250|259:354,1,240,6|2,0:1|0:0,0:0:0:0:
248,362,7345,1,2,0:1:0:0:
234,355,7677,1,2,0:1:0:0:
236,340,8008,1,2,0:1:0:0:
250,338,8340,2,0,P|275:331|300:316,1,40,0|2,0:0|0:3,0:0:0:0:
341,237,8671,5,2,0:0:0:0:
408,186,8837,1,2,0:0:0:0:
489,209,9003,1,2,0:0:0:0:
432,314,9169,1,2,0:1:0:0:
316,109,9666,5,2,0:2:0:0:
384,58,9832,1,2,0:2:0:0:
465,81,9997,1,2,0:2:0:0:
408,186,10163,1,2,0:1:0:0:
234,33,10495,5,2,0:0:0:0:
234,33,10577,1,2,0:0:0:0:
234,33,10660,5,10,0:3:0:0:
208,27,10743,1,8,0:3:0:0:
187,38,10826,1,8,0:0:0:0:
178,62,10909,1,8,0:0:0:0:
187,85,10992,1,10,0:0:0:0:
195,108,11075,1,8,0:0:0:0:
186,132,11157,1,8,0:0:0:0:
164,144,11240,1,8,0:0:0:0:
139,137,11323,6,0,P|103:123|63:122,1,80,14|8,0:3|0:3,0:0:0:0:
144,275,11655,2,0,P|107:289|67:290,1,80,10|0,0:0|0:0,0:0:0:0:
246,142,11986,2,0,P|240:102|220:67,1,80,10|8,0:3|0:3,0:0:0:0:
315,266,12318,1,10,0:0:0:0:
453,170,12483,6,0,P|398:139|315:192,1,160,10|8,0:3|0:3,0:0:0:0:
225,276,12981,2,0,P|239:326|238:364,1,80,8|0,0:0|0:0,0:0:0:0:
60,238,13312,5,10,0:3:0:0:
60,238,13478,1,8,0:3:0:0:
113,297,13644,2,0,P|171:302|225:276,1,120,10|0,0:0|0:0,0:0:0:0:
278,256,13975,6,0,P|253:227|214:221,1,80,10|8,0:3|0:3,0:0:0:0:
378,114,14307,2,0,P|365:150|379:187,1,80,10|0,0:0|0:0,0:0:0:0:
204,99,14638,2,0,P|242:91|266:60,1,80,10|8,0:3|0:3,0:0:0:0:
144,19,14970,1,10,0:0:0:0:
47,129,15135,6,0,P|67:185|78:310,1,160,10|8,0:3|0:3,0:0:0:0:
113,171,15633,1,8,0:0:0:0:
175,328,15798,5,2,0:0:0:0:
175,328,15881,1,2,0:0:0:0:
175,328,15964,2,0,P|211:323|260:323,1,80,10|8,0:3|0:3,0:0:0:0:
113,171,16296,2,0,P|77:176|28:176,1,80,10|10,0:0|0:0,0:0:0:0:
33,176,16544,1,10,0:0:0:0:
33,176,16627,5,14,0:3:0:0:
111,260,16793,2,0,P|149:245|199:235,1,80,10|10,0:3|0:0,0:0:0:0:
337,38,17124,5,10,0:3:0:0:
234,57,17290,2,0,P|227:97|211:145,1,80,10|10,0:0|0:3,0:0:0:0:
39,98,17622,5,10,0:0:0:0:
112,66,17787,1,10,0:3:0:0:
187,236,17953,5,10,0:0:0:0:
87,262,18119,2,0,P|55:236|21:198,1,80,10|10,0:3|0:0,0:0:0:0:
234,57,18450,5,10,0:3:0:0:
250,136,18616,1,10,0:0:0:0:
311,83,18782,5,10,0:3:0:0:
173,110,18948,2,0,L|123:108,1,40,14|8,0:0|0:0,0:0:0:0:
327,162,19113,2,0,L|377:164,1,40,10|8,0:3|0:3,0:0:0:0:
247,220,19279,6,0,L|250:136,1,83.9999974365235,14|0,0:3|0:0,0:0:0:0:
255,40,19611,2,0,L|250:135,1,95.9999970703126,2|8,0:0|0:3,0:0:0:0:
241,152,19859,1,8,0:3:0:0:
232,165,19942,6,0,B|159:140|157:204|77:173,1,160,14|2,0:0|0:0,0:0:0:0:
77,174,20439,2,0,B|146:140|158:200|233:165,1,160,2|8,0:0|0:3,0:0:0:0:
313,110,20936,6,0,P|352:109|391:120,1,80,10|8,0:3|0:3,0:0:0:0:
231,165,21268,2,0,P|189:165|143:149,1,80,8|8,0:0|0:3,0:0:0:0:
313,110,21599,6,0,L|328:15,1,80,2|8,0:0|0:3,0:0:0:0:
443,147,21931,5,14,0:0:0:0:
512,107,22097,1,8,0:3:0:0:
512,107,22262,1,8,0:3:0:0:
402,42,22428,6,0,P|368:30|316:33,1,80,10|0,0:0|0:0,0:0:0:0:
317,44,22925,5,14,0:3:0:0:
317,44,23423,5,2,0:0:0:0:
318,55,23506,1,2,0:0:0:0:
319,66,23588,2,0,L|314:117,2,40,2|2|2,0:0|0:0|0:0,0:0:0:0:
463,20,24086,5,10,0:3:0:0:
486,111,24251,2,0,P|447:100|407:94,1,80,8|0,0:0|0:0,0:0:0:0:
218,47,24583,6,0,P|225:91|228:140,1,80,14|0,0:3|0:1,0:0:0:0:
227,126,25080,2,0,P|174:114|108:112,1,120,10|0,0:3|0:0,0:0:0:0:
19,169,25743,5,2,0:0:0:0:
19,169,25909,2,0,P|28:204|34:261,1,80,2|0,0:0|0:0,0:0:0:0:
86,303,26406,2,0,L|134:310,1,40,2|2,0:0|0:0,0:0:0:0:
125,308,26903,2,0,L|165:314,1,40,2|0,0:0|0:0,0:0:0:0:
248,247,27235,6,0,P|255:208|258:168,1,80,10|0,0:3|0:0,0:0:0:0:
258,167,27732,2,0,P|220:181|185:200,1,80,10|0,0:3|0:0,0:0:0:0:
185,199,28395,2,0,P|217:225|250:248,1,80,2|0,0:0|0:0,0:0:0:0:
348,267,28892,6,0,P|393:253|438:250,2,80,2|2|2,0:0|0:0|0:0,0:0:0:0:
348,267,29887,6,0,P|352:229|354:185,1,80,10|0,0:3|0:0,0:0:0:0:
354,187,30384,2,0,P|318:203|279:223,1,80,10|0,0:3|0:0,0:0:0:0:
345,305,30881,5,2,0:0:0:0:
345,305,31047,2,0,P|354:246|353:186,1,120,2|2,0:0|0:0,0:0:0:0:
343,173,31876,1,2,0:0:0:0:
328,165,32207,1,2,0:0:0:0:
172,105,32539,6,0,P|130:105|80:93,1,80,10|0,0:3|0:0,0:0:0:0:
92,97,33036,2,0,P|188:75|260:88,1,160,10|2,0:3|0:0,0:0:0:0:
248,84,34030,5,2,0:0:0:0:
325,77,34196,2,0,P|317:118|315:157,1,80,2|2,0:0|0:0,0:0:0:0:
314,156,34859,2,0,P|342:155|369:151,1,40,2|2,0:0|0:0,0:0:0:0:
471,82,35191,6,0,P|463:143|458:216,1,120.000004577637,14|2,0:3|0:0,0:0:0:0:
458,201,35688,2,0,P|476:279|394:274,1,180.000006866455,10|0,0:3|0:0,0:0:0:0:
309,199,36351,5,2,0:0:0:0:
265,262,36517,2,0,P|272:287|276:332,1,60.0000022888184,2|0,0:0|0:0,0:0:0:0:
161,241,36848,1,2,0:0:0:0:
205,178,37014,2,0,P|198:153|194:108,1,60.0000022888184,2|2,0:0|0:0,0:0:0:0:
194,119,37511,2,0,P|207:141|222:183,1,60.0000022888184,2|0,0:0|0:0,0:0:0:0:
131,74,37843,6,0,P|186:78|266:47,1,120.000004577637,10|2,0:3|0:0,0:0:0:0:
248,59,38340,2,0,P|193:55|83:118,1,180.000006866455,10|0,0:3|0:0,0:0:0:0:
31,172,39003,2,0,P|90:157|147:168,1,120.000004577637,2|0,0:0|0:0,0:0:0:0:
210,244,39500,6,0,L|196:369,2,120.000004577637,2|2|2,0:0|0:0|0:0,0:0:0:0:
210,244,40495,6,0,P|271:237|316:295,1,120.000004577637,10|2,0:3|0:0,0:0:0:0:
311,275,40992,2,0,P|354:313|411:305,1,120.000004577637,10|0,0:3|0:0,0:0:0:0:
501,236,41489,6,0,P|494:265|493:295,1,60.0000022888184,2|0,0:0|0:0,0:0:0:0:
423,223,41820,2,0,P|420:194|414:164,1,60.0000022888184,2|0,0:0|0:0,0:0:0:0:
358,107,42152,6,0,B|317:155|354:169|315:217,2,120.000004577637,2|2|2,0:0|0:0|0:0,0:0:0:0:
358,107,43146,5,10,0:3:0:0:
414,164,43312,1,2,0:3:0:0:
489,86,43478,1,2,0:3:0:0:
433,29,43644,6,0,P|384:28|308:21,1,120.000004577637,2|2,0:0|0:0,0:0:0:0:
305,31,44058,1,2,0:0:0:0:
298,40,44141,2,0,L|291:111,2,60.0000022888184,2|2|2,0:0|0:0|0:0,0:0:0:0:
107,119,44638,5,10,0:3:0:0:
128,47,44804,1,10,0:3:0:0:
200,141,44970,5,10,0:0:0:0:
196,152,45053,1,8,0:0:0:0:
192,163,45135,1,8,0:0:0:0:
213,237,45301,1,8,0:0:0:0:
337,111,45467,5,8,0:3:0:0:
262,86,45633,1,8,0:3:0:0:
361,306,45964,5,8,0:3:0:0:
371,299,46047,1,8,0:3:0:0:
381,291,46130,6,0,B|419:246|423:176|407:142|374:122|321:132|287:161|310:223|333:230,1,256,14|8,0:3|0:3,0:0:0:0:
438,342,46627,6,0,B|489:313|518:249|515:212|492:181|438:172|396:186|396:253|415:267,1,256,14|8,0:3|0:3,0:0:0:0:
405,243,47041,1,8,0:3:0:0:
409,254,47124,6,0,B|466:264|529:232|551:202|551:163|516:122|474:107|432:158|437:181,1,256,14|8,0:3|0:3,0:0:0:0:
414,264,47622,6,0,P|473:272|513:215,1,128,12|8,0:3|0:3,0:0:0:0:
374,105,47953,5,8,0:3:0:0:
349,99,48036,1,8,0:3:0:0:
325,94,48119,1,8,0:3:0:0:
301,88,48202,1,8,0:3:0:0:
277,84,48285,1,8,0:3:0:0:
129,203,48616,5,8,0:3:0:0:
119,196,48699,1,8,0:3:0:0:
110,189,48782,6,0,B|79:138|86:68|107:37|143:23|194:41|223:75|190:132|166:136,1,256,14|8,0:3|0:3,0:0:0:0:
65,258,49279,6,0,B|13:229|-15:165|-12:128|10:97|64:88|106:102|106:169|87:183,1,256,14|8,0:3|0:3,0:0:0:0:
96,159,49693,1,8,0:3:0:0:
100,171,49776,6,0,P|129:187|159:186,3,64,10|8|8|8,0:3|0:3|0:3|0:3,0:0:0:0:
191,106,50108,5,10,0:0:0:0:
230,332,50274,1,10,0:3:0:0:
191,106,50605,5,10,0:3:0:0:
230,332,50936,6,0,P|291:301|416:320,1,160,14|8,0:3|0:3,0:0:0:0:
491,210,51434,1,10,0:0:0:0:
437,152,51599,1,2,0:0:0:0:
330,215,51765,5,14,0:3:0:0:
412,228,51931,1,10,0:3:0:0:
412,228,52097,1,10,0:0:0:0:
294,128,52262,2,0,P|302:180|306:297,1,160,14|10,0:3|0:3,0:0:0:0:
134,313,52760,5,10,0:0:0:0:
132,233,52925,1,2,0:0:0:0:
249,211,53091,1,10,0:3:0:0:
255,290,53257,5,10,0:3:0:0:
253,308,53340,1,8,0:3:0:0:
250,328,53423,1,8,0:0:0:0:
401,366,53588,1,10,0:0:0:0:
445,303,53754,6,0,P|405:250|410:166,1,128,14|0,0:3|0:0,0:0:0:0:
445,103,54251,2,0,L|513:85,1,64,10|8,0:3|0:0,0:0:0:0:
381,33,54583,1,10,0:3:0:0:
327,164,54749,1,10,0:3:0:0:
259,112,54914,6,0,B|202:94|188:140|118:113,1,143.999995605469,14|8,0:3|0:0,0:0:0:0:
119,114,55577,5,8,0:3:0:0:
119,130,55660,1,8,0:3:0:0:
120,147,55743,2,0,L|113:243,1,71.9999978027344,12|8,0:0|0:3,0:0:0:0:
33,274,56075,6,0,P|30:250|23:227,1,47.9999985351563,10|8,0:3|0:0,0:0:0:0:
178,29,56406,6,0,P|197:72|194:119,1,95.9999970703126,14|8,0:3|0:0,0:0:0:0:
174,135,56655,1,8,0:0:0:0:
151,143,56738,2,0,L|109:147,1,32,10|8,0:3|0:3,0:0:0:0:
34,187,56903,6,0,B|9:224|38:268|72:269|72:269|103:252,1,143.999995605469,14|0,0:3|0:0,0:0:0:0:
178,220,57235,6,0,B|209:203|209:203|243:204|272:248|247:285,1,143.999995605469,14|0,0:3|0:0,0:0:0:0:
308,344,57566,6,0,B|339:360|339:360|373:359|402:316|377:278,1,143.999995605469,14|8,0:3|0:3,0:0:0:0:
378,279,58395,6,0,L|383:196,1,80,2|2,0:1|0:2,0:0:0:0:
470,97,58892,5,2,0:1:0:0:
466,106,58975,1,2,0:1:0:0:
461,115,59058,6,0,P|415:123|373:102,1,95.9999970703126,14|8,0:3|0:3,0:0:0:0:
290,267,59390,2,0,P|337:258|379:280,1,95.9999970703126,10|0,0:0|0:0,0:0:0:0:
378,279,59638,1,8,0:0:0:0:
378,279,59721,1,10,0:3:0:0:
448,234,59887,5,10,0:3:0:0:
325,338,60053,1,10,0:0:0:0:
290,267,60218,2,0,P|291:204|281:113,1,143.999995605469,10|0,0:3|0:0,0:0:0:0:
267,101,60550,6,0,P|244:101|203:92,1,47.9999985351563,10|8,0:3|0:3,0:0:0:0:
329,177,60715,2,0,P|382:167|438:160,1,95.9999970703126,10|8,0:0|0:3,0:0:0:0:
512,303,61047,5,10,0:3:0:0:
512,303,61213,1,8,0:3:0:0:
461,230,61378,2,0,B|480:175|442:153|465:88,1,143.999995605469,14|0,0:3|0:0,0:0:0:0:
471,39,61710,6,0,P|506:69|511:115,1,95.9999970703126,14|8,0:3|0:3,0:0:0:0:
315,111,62041,2,0,P|319:64|355:34,1,95.9999970703126,10|0,0:0|0:0,0:0:0:0:
355,34,62290,1,8,0:0:0:0:
355,34,62373,1,10,0:3:0:0:
246,6,62539,5,10,0:3:0:0:
192,148,62704,1,10,0:0:0:0:
251,87,62870,2,0,B|321:85|310:140|381:140,1,143.999995605469,10|0,0:3|0:0,0:0:0:0:
403,133,63202,6,0,P|439:129|474:136,1,47.9999985351563,10|8,0:3|0:3,0:0:0:0:
335,212,63367,2,0,P|321:263|332:308,1,95.9999970703126,10|8,0:0|0:3,0:0:0:0:
150,122,63699,6,0,P|164:71|153:26,1,95.9999970703126,10|8,0:3|0:3,0:0:0:0:
0,177,64030,1,10,0:0:0:0:
30,171,64113,1,8,0:0:0:0:
51,187,64196,1,8,0:3:0:0:
86,187,64279,1,8,0:3:0:0:
86,187,64362,6,0,B|178:226|109:283|200:330,2,191.999994140625,14|8|8,0:3|0:0|0:3,0:0:0:0:
59,278,65191,5,10,0:3:0:0:
236,241,65356,1,10,0:0:0:0:
283,324,65522,2,0,P|191:325|142:245,1,191.999994140625,14|8,0:3|0:3,0:0:0:0:
149,224,65936,1,8,0:3:0:0:
161,203,66019,6,0,P|182:152|179:87,1,95.9999970703126,10|0,0:0|0:0,0:0:0:0:
368,217,66351,2,0,P|320:222|277:242,1,95.9999970703126,10|8,0:3|0:3,0:0:0:0:
277,31,66682,2,0,P|310:74|368:104,1,95.9999970703126,10|0,0:0|0:0,0:0:0:0:
148,25,67014,6,0,P|60:58|49:152,1,192,14|0,0:3|0:0,0:0:0:0:
46,146,67345,1,10,0:0:0:0:
128,136,67511,1,2,0:0:0:0:
0,227,67677,5,8,0:3:0:0:
0,227,67843,1,8,0:3:0:0:
101,239,68008,1,8,0:0:0:0:
126,319,68174,5,2,0:0:0:0:
127,335,68257,1,2,0:0:0:0:
128,352,68340,1,10,0:3:0:0:
204,370,68506,1,10,0:3:0:0:
248,212,68671,5,10,0:0:0:0:
176,182,68837,1,10,0:3:0:0:
288,308,69003,5,10,0:3:0:0:
309,316,69086,1,8,0:3:0:0:
333,317,69169,1,8,0:0:0:0:
355,309,69251,1,8,0:0:0:0:
373,292,69334,5,10,0:3:0:0:
394,272,69417,1,8,0:3:0:0:
421,262,69500,1,8,0:3:0:0:
449,262,69583,1,8,0:3:0:0:
475,273,69666,6,0,L|483:386,1,95.9999970703126,14|8,0:3|0:3,0:0:0:0:
317,234,69997,2,0,L|309:121,1,95.9999970703126,10|0,0:0|0:0,0:0:0:0:
310,138,70246,1,8,0:0:0:0:
310,138,70329,1,10,0:3:0:0:
236,183,70495,5,10,0:3:0:0:
394,201,70660,1,10,0:0:0:0:
450,146,70826,2,0,P|440:100|460:2,1,143.999995605469,10|0,0:3|0:0,0:0:0:0:
478,18,71157,6,0,P|488:46|489:82,1,47.9999985351563,10|8,0:3|0:3,0:0:0:0:
358,64,71323,2,0,L|250:43,1,95.9999970703126,10|8,0:0|0:3,0:0:0:0:
123,109,71655,5,10,0:3:0:0:
123,109,71820,1,10,0:3:0:0:
182,56,71986,2,0,P|175:128|184:200,1,143.999995605469,14|0,0:0|0:0,0:0:0:0:
190,249,72318,6,0,P|225:219|230:173,1,95.9999970703126,14|8,0:3|0:3,0:0:0:0:
44,178,72649,2,0,P|48:225|84:255,1,95.9999970703126,10|0,0:0|0:0,0:0:0:0:
83,254,72898,1,8,0:0:0:0:
83,254,72981,1,10,0:3:0:0:
103,341,73146,5,10,0:3:0:0:
1,234,73312,1,10,0:0:0:0:
71,176,73478,2,0,B|144:166|133:220|207:207,1,143.999995605469,10|0,0:3|0:0,0:0:0:0:
224,194,73809,6,0,L|239:133,1,47.9999985351563,8|8,0:3|0:3,0:0:0:0:
197,63,73975,2,0,P|165:43|90:41,1,95.9999970703126,10|8,0:0|0:3,0:0:0:0:
107,36,74224,1,8,0:3:0:0:
107,36,74307,2,0,L|95:86,1,47.9999985351563,10|8,0:3|0:3,0:0:0:0:
71,176,74472,2,0,L|58:233,2,47.9999985351563,10|10|10,0:3|0:3|0:2,0:0:0:0:
107,36,74804,6,0,B|199:26|185:91|290:72,1,191.999994140625,14|8,0:3|0:3,0:0:0:0:
457,23,75301,2,0,P|364:14|290:71,1,191.999994140625,8|8,0:0|0:0,0:0:0:0:
362,112,75798,5,10,0:3:0:0:
207,87,75964,1,10,0:0:0:0:
150,28,76130,2,0,P|171:110|182:230,1,191.999994140625,14|8,0:3|0:3,0:0:0:0:
284,321,76627,6,0,L|399:318,1,95.9999970703126,10|8,0:0|0:3,0:0:0:0:
182,217,76959,2,0,L|67:220,1,95.9999970703126,10|8,0:0|0:3,0:0:0:0:
0,84,77290,1,8,0:0:0:0:
46,14,77456,6,0,B|170:87|69:147|183:218,1,256,14|8,0:3|0:3,0:0:0:0:
205,220,77870,1,8,0:3:0:0:
229,213,77953,2,0,P|290:186|367:203,1,128,8|8,0:0|0:3,0:0:0:0:
510,337,78285,5,10,0:3:0:0:
489,332,78367,1,10,0:3:0:0:
470,328,78450,1,10,0:3:0:0:
450,325,78533,1,10,0:3:0:0:
431,320,78616,5,14,0:3:0:0:
403,290,78699,1,10,0:3:0:0:
401,248,78782,1,10,0:3:0:0:
424,214,78865,1,10,0:3:0:0:
462,201,78948,5,14,0:3:0:0:
512,117,79113,1,14,0:3:0:0:
261,37,79611,6,0,L|173:31,1,80,2|2,0:1|0:2,0:0:0:0:
64,218,80274,6,0,P|41:186|31:147,1,80,14|8,0:3|0:3,0:0:0:0:
198,188,80605,2,0,P|202:148|193:109,1,80,10|0,0:0|0:0,0:0:0:0:
94,308,80936,2,0,P|53:311|14:300,1,80,10|8,0:3|0:3,0:0:0:0:
197,383,81268,1,10,0:0:0:0:
273,226,81434,6,0,P|340:176|417:188,1,160,10|8,0:3|0:3,0:0:0:0:
498,296,81931,2,0,L|504:392,1,80,8|0,0:0|0:0,0:0:0:0:
473,134,82262,5,10,0:3:0:0:
473,134,82428,1,8,0:3:0:0:
412,185,82594,2,0,P|355:199|298:181,1,120,10|0,0:0|0:0,0:0:0:0:
259,152,82925,6,0,P|299:144|330:166,1,80,10|8,0:3|0:3,0:0:0:0:
207,301,83257,2,0,P|180:270|183:231,1,80,10|0,0:0|0:0,0:0:0:0:
363,272,83588,2,0,P|349:310|314:326,1,80,10|8,0:3|0:3,0:0:0:0:
278,238,83920,1,10,0:0:0:0:
386,107,84086,6,0,B|452:142|409:199|481:236,1,160,10|8,0:3|0:3,0:0:0:0:
465,122,84583,1,8,0:0:0:0:
306,209,84749,5,2,0:0:0:0:
306,209,84832,1,2,0:0:0:0:
306,209,84914,2,0,P|259:199|215:192,1,80,10|8,0:3|0:3,0:0:0:0:
386,107,85246,2,0,P|433:117|476:123,1,80,10|10,0:0|0:0,0:0:0:0:
464,121,85495,1,10,0:0:0:0:
464,121,85577,5,14,0:3:0:0:
440,228,85743,2,0,P|448:263|453:315,1,80,10|10,0:3|0:0,0:0:0:0:
283,108,86075,5,10,0:3:0:0:
387,75,86240,2,0,P|413:50|455:20,1,80,10|10,0:0|0:3,0:0:0:0:
284,236,86572,5,10,0:0:0:0:
207,217,86738,1,10,0:3:0:0:
112,42,86903,5,10,0:0:0:0:
221,57,87069,2,0,P|253:80|282:107,1,80,10|10,0:3|0:0,0:0:0:0:
65,183,87401,5,10,0:3:0:0:
42,107,87566,1,10,0:0:0:0:
147,204,87732,5,10,0:3:0:0:
49,204,87898,2,0,L|-1:202,1,40,14|8,0:0|0:0,0:0:0:0:
127,116,88064,2,0,L|177:118,1,40,10|8,0:3|0:3,0:0:0:0:
27,92,88229,6,0,P|19:68|32:9,1,83.9999974365235,14|0,0:3|0:0,0:0:0:0:
125,24,88561,2,0,L|0:7,1,95.9999970703126,2|8,0:0|0:3,0:0:0:0:
22,28,88809,1,8,0:3:0:0:
19,43,88892,6,0,B|11:119|73:107|61:192,1,160,14|2,0:0|0:0,0:0:0:0:
62,192,89390,2,0,B|5:125|65:102|18:42,1,160,2|8,0:0|0:3,0:0:0:0:
128,39,89887,6,0,L|212:26,1,80,10|8,0:3|0:3,0:0:0:0:
141,179,90218,2,0,L|57:192,1,80,8|8,0:0|0:3,0:0:0:0:
279,207,90550,6,0,P|307:240|320:286,1,80,2|8,0:0|0:3,0:0:0:0:
434,377,90881,5,14,0:0:0:0:
460,303,91047,1,8,0:3:0:0:
460,303,91213,1,8,0:3:0:0:
356,218,91378,6,0,P|322:206|270:209,1,80,10|0,0:0|0:0,0:0:0:0:
271,220,91876,5,14,0:3:0:0:
271,220,92373,5,2,0:0:0:0:
272,231,92456,1,2,0:0:0:0:
273,242,92539,2,0,L|268:293,2,40,2|2|2,0:0|0:0|0:0,0:0:0:0:
161,93,93036,5,10,0:3:0:0:
217,155,93202,2,0,P|254:140|299:141,1,80,8|0,0:0|0:0,0:0:0:0:
415,154,93533,6,0,P|348:163|282:130,1,128,14|10,0:3|0:0,0:0:0:0:
259,57,94030,1,2,0:0:0:0:
259,57,94196,2,0,P|326:66|392:33,1,128,8|2,0:3|0:0,0:0:0:0:
380,43,94693,1,10,0:0:0:0:
451,91,94859,6,0,L|454:159,1,64,2|8,0:0|0:3,0:0:0:0:
360,217,95191,1,10,0:0:0:0:
330,145,95356,2,0,P|368:136|471:167,1,128,2|8,0:2|0:3,0:0:0:0:
508,226,95854,2,0,L|513:294,1,64,10|0,0:0|0:0,0:0:0:0:
428,351,96185,6,0,P|361:326|295:335,1,128,10|8,0:3|0:0,0:0:0:0:
225,358,96682,1,2,0:0:0:0:
225,358,96848,2,0,B|236:217,1,128,8|2,0:3|0:0,0:0:0:0:
303,181,97345,6,0,P|240:192|183:165,1,128,10|8,0:0|0:3,0:0:0:0:
65,151,97843,2,0,P|127:139|184:166,1,128,10|10,0:0|0:3,0:0:0:0:
183,165,98340,1,8,0:3:0:0:
255,100,98506,2,0,L|264:19,1,64,10|0,0:0|0:0,0:0:0:0:
382,52,98837,6,0,P|319:63|262:36,1,128,14|10,0:3|0:0,0:0:0:0:
174,21,99334,1,2,0:0:0:0:
174,21,99500,2,0,L|180:164,1,128,8|2,0:3|0:0,0:0:0:0:
140,252,99997,1,10,0:0:0:0:
79,201,100163,6,0,L|75:137,1,64,2|8,0:0|0:3,0:0:0:0:
21,253,100495,2,0,P|80:233|140:252,1,128,10|10,0:0|0:3,0:0:0:0:
205,315,100992,1,2,0:0:0:0:
271,255,101157,2,0,L|279:183,1,64,10|0,0:0|0:0,0:0:0:0:
336,70,101489,5,10,0:3:0:0:
336,70,101655,1,2,0:0:0:0:
433,53,101820,1,10,0:0:0:0:
474,119,101986,2,0,P|468:148|462:205,1,64,2|8,0:0|0:3,0:0:0:0:
380,229,102318,1,10,0:3:0:0:
380,229,102401,1,2,0:0:0:0:
380,229,102483,2,0,P|375:197|369:165,2,64,2|10|2,0:0|0:0|0:0,0:0:0:0:
416,365,102981,5,10,0:3:0:0:
479,320,103146,1,10,0:0:0:0:
380,229,103312,1,10,0:3:0:0:
312,265,103478,6,0,L|254:251,3,32,10|8|8|8,0:0|0:3|0:3|0:3,0:0:0:0:
244,277,103809,5,10,0:0:0:0:
216,98,103975,1,8,0:0:0:0:
107,304,104307,5,8,0:3:0:0:
97,297,104390,1,8,0:3:0:0:
87,289,104472,6,0,B|45:264|43:196|64:161|96:148|96:148|131:157|151:185|149:214|135:240,1,256,14|8,0:3|0:3,0:0:0:0:
69,373,104970,6,0,B|20:372|-15:314|-14:273|6:246|6:246|42:237|72:250|85:277|86:307,1,256,14|8,0:3|0:3,0:0:0:0:
87,289,105384,1,8,0:3:0:0:
97,297,105467,6,0,B|134:326|198:305|223:273|223:238|223:238|203:209|177:202|147:207|121:221,1,256,14|8,0:3|0:3,0:0:0:0:
108,319,105964,6,0,P|166:332|202:268,1,128,12|8,0:3|0:3,0:0:0:0:
181,109,106296,5,8,0:3:0:0:
156,103,106378,1,8,0:3:0:0:
132,98,106461,1,8,0:3:0:0:
108,92,106544,1,8,0:3:0:0:
84,88,106627,1,8,0:3:0:0:
288,271,106959,5,8,0:3:0:0:
298,264,107041,1,8,0:3:0:0:
308,256,107124,6,0,B|350:231|352:163|331:128|299:115|299:115|264:124|244:152|246:181|260:207,1,256,14|8,0:3|0:3,0:0:0:0:
326,340,107622,6,0,B|375:339|410:281|409:240|389:213|389:213|353:204|323:217|310:244|309:274,1,256,14|8,0:3|0:3,0:0:0:0:
308,256,108036,1,8,0:3:0:0:
298,264,108119,6,0,P|260:278|224:267,3,64,10|8|8|8,0:3|0:3|0:3|0:3,0:0:0:0:
175,201,108450,5,10,0:0:0:0:
98,379,108616,1,10,0:3:0:0:
175,201,108948,5,10,0:3:0:0:
98,379,109279,6,0,P|100:287|93:215,1,160,14|8,0:3|0:3,0:0:0:0:
16,76,109776,1,10,0:0:0:0:
0,151,109942,1,2,0:0:0:0:
160,86,110108,5,14,0:3:0:0:
101,40,110274,1,10,0:3:0:0:
101,40,110439,1,10,0:0:0:0:
221,23,110605,2,0,P|209:85|209:197,1,160,14|10,0:3|0:3,0:0:0:0:
320,324,111102,5,10,0:0:0:0:
322,244,111268,1,2,0:0:0:0:
207,181,111434,1,10,0:3:0:0:
190,259,111599,5,10,0:3:0:0:
188,277,111682,1,8,0:3:0:0:
185,297,111765,1,8,0:0:0:0:
69,354,111931,1,10,0:0:0:0:
18,289,112097,6,0,B|35:228|0:222|21:162,1,128,14|0,0:3|0:0,0:0:0:0:
117,107,112594,2,0,L|189:95,1,64,10|8,0:3|0:0,0:0:0:0:
53,31,112925,1,10,0:3:0:0:
20,163,113091,1,10,0:3:0:0:
102,187,113257,6,0,B|182:179|152:224|238:217,1,143.999995605469,14|8,0:3|0:0,0:0:0:0:
239,217,113920,5,8,0:3:0:0:
239,233,114003,1,8,0:3:0:0:
238,250,114086,2,0,L|245:346,1,71.9999978027344,12|8,0:0|0:3,0:0:0:0:
322,366,114417,6,0,P|325:342|332:319,1,47.9999985351563,10|8,0:3|0:0,0:0:0:0:
459,139,114749,6,0,P|448:183|425:230,1,95.9999970703126,14|8,0:3|0:0,0:0:0:0:
411,245,114997,1,8,0:0:0:0:
389,249,115080,2,0,L|345:234,1,32,10|8,0:3|0:3,0:0:0:0:
305,177,115246,6,0,B|280:138|296:85|296:85|267:92|258:114,1,143.999995605469,14|0,0:3|0:0,0:0:0:0:
211,208,115577,6,0,B|202:230|173:237|173:237|189:184|164:145,1,143.999995605469,14|0,0:3|0:0,0:0:0:0:
99,78,115909,6,0,B|90:56|61:49|61:49|77:102|52:140,1,143.999995605469,14|8,0:3|0:3,0:0:0:0:
52,139,116738,6,0,L|46:229,1,80,2|2,0:1|0:2,0:0:0:0:
129,342,117235,5,2,0:1:0:0:
133,333,117318,1,2,0:1:0:0:
138,324,117401,6,0,P|185:317|237:322,1,95.9999970703126,14|8,0:3|0:3,0:0:0:0:
147,141,117732,2,0,P|99:145|51:138,1,95.9999970703126,10|0,0:0|0:0,0:0:0:0:
51,138,117981,1,8,0:0:0:0:
51,138,118064,1,10,0:3:0:0:
54,229,118229,5,10,0:3:0:0:
112,70,118395,1,10,0:0:0:0:
147,141,118561,2,0,P|208:136|308:138,1,143.999995605469,10|0,0:3|0:0,0:0:0:0:
301,158,118892,6,0,P|308:183|313:221,1,47.9999985351563,10|8,0:3|0:3,0:0:0:0:
214,107,119058,2,0,P|206:54|235:-3,1,95.9999970703126,10|8,0:0|0:3,0:0:0:0:
418,29,119390,5,10,0:3:0:0:
418,29,119555,1,8,0:3:0:0:
347,64,119721,2,0,B|283:46|267:84|205:60,1,143.999995605469,14|0,0:3|0:0,0:0:0:0:
157,74,120053,6,0,P|176:31|220:15,1,95.9999970703126,14|8,0:3|0:3,0:0:0:0:
257,179,120384,2,0,P|210:187|173:159,1,95.9999970703126,10|0,0:0|0:0,0:0:0:0:
172,159,120633,1,8,0:0:0:0:
172,159,120715,1,10,0:3:0:0:
180,260,120881,5,10,0:3:0:0:
231,105,121047,1,10,0:0:0:0:
257,179,121213,2,0,B|328:181|302:244|383:238,1,143.999995605469,10|0,0:3|0:0,0:0:0:0:
402,227,121544,6,0,P|412:195|411:164,1,47.9999985351563,10|8,0:3|0:3,0:0:0:0:
305,247,121710,2,0,P|288:296|302:343,1,95.9999970703126,10|8,0:0|0:3,0:0:0:0:
169,107,122041,6,0,P|186:58|172:11,1,95.9999970703126,10|8,0:3|0:3,0:0:0:0:
2,85,122373,1,10,0:0:0:0:
32,79,122456,1,8,0:0:0:0:
53,95,122539,1,8,0:3:0:0:
88,95,122622,1,8,0:3:0:0:
88,95,122704,6,0,P|149:140|129:261,2,191.999994140625,14|8|8,0:3|0:0|0:3,0:0:0:0:
67,188,123533,5,10,0:3:0:0:
244,117,123699,1,10,0:0:0:0:
231,213,123865,2,0,B|138:193|180:126|88:95,1,191.999994140625,14|8,0:3|0:3,0:0:0:0:
63,96,124279,1,8,0:3:0:0:
39,100,124362,6,0,P|13:141|20:204,1,95.9999970703126,10|0,0:0|0:0,0:0:0:0:
226,104,124693,2,0,P|203:60|145:35,1,95.9999970703126,10|8,0:3|0:3,0:0:0:0:
129,263,125025,2,0,P|177:265|228:227,1,95.9999970703126,10|0,0:0|0:0,0:0:0:0:
326,37,125356,6,0,P|392:12|416:124,1,192,14|0,0:3|0:0,0:0:0:0:
432,104,125688,1,10,0:0:0:0:
358,127,125854,1,2,0:0:0:0:
494,171,126019,5,8,0:3:0:0:
494,171,126185,1,8,0:3:0:0:
413,248,126351,1,8,0:0:0:0:
331,210,126517,5,2,0:0:0:0:
316,202,126599,1,2,0:0:0:0:
301,195,126682,1,10,0:3:0:0:
216,211,126848,1,10,0:3:0:0:
301,354,127014,5,10,0:0:0:0:
387,340,127180,1,10,0:3:0:0:
301,195,127345,5,10,0:3:0:0:
280,187,127428,1,8,0:3:0:0:
256,186,127511,1,8,0:0:0:0:
234,194,127594,1,8,0:0:0:0:
216,211,127677,5,10,0:3:0:0:
195,231,127760,1,8,0:3:0:0:
168,241,127843,1,8,0:3:0:0:
140,241,127925,1,8,0:3:0:0:
114,230,128008,6,0,P|107:181|113:117,1,95.9999970703126,14|8,0:3|0:3,0:0:0:0:
275,274,128340,2,0,P|282:323|276:387,1,95.9999970703126,10|0,0:0|0:0,0:0:0:0:
279,369,128588,1,8,0:0:0:0:
279,369,128671,1,10,0:3:0:0:
358,287,128837,5,10,0:3:0:0:
202,335,129003,1,10,0:0:0:0:
155,271,129169,2,0,P|165:225|145:127,1,143.999995605469,10|0,0:3|0:0,0:0:0:0:
125,120,129500,6,0,P|97:116|57:120,1,47.9999985351563,10|8,0:3|0:3,0:0:0:0:
199,192,129666,2,0,P|242:195|307:171,1,95.9999970703126,10|8,0:0|0:3,0:0:0:0:
107,43,129997,5,10,0:3:0:0:
107,43,130163,1,10,0:3:0:0:
77,116,130329,2,0,P|95:216|91:269,1,143.999995605469,14|0,0:0|0:0,0:0:0:0:
83,303,130660,6,0,P|56:264|64:217,1,95.9999970703126,14|8,0:3|0:3,0:0:0:0:
220,238,130992,2,0,P|215:284|180:315,1,95.9999970703126,10|0,0:0|0:0,0:0:0:0:
180,315,131240,1,8,0:0:0:0:
180,315,131323,1,10,0:3:0:0:
141,246,131489,5,10,0:3:0:0:
294,314,131655,1,10,0:0:0:0:
352,260,131820,2,0,B|331:202|382:190|354:120,1,143.999995605469,10|0,0:3|0:0,0:0:0:0:
332,109,132152,6,0,L|263:99,1,47.9999985351563,8|8,0:3|0:3,0:0:0:0:
395,197,132318,2,0,P|431:208|490:187,1,95.9999970703126,10|8,0:0|0:3,0:0:0:0:
485,191,132566,1,8,0:3:0:0:
485,191,132649,2,0,L|497:141,1,47.9999985351563,10|8,0:3|0:3,0:0:0:0:
446,55,132815,2,0,L|458:5,2,47.9999985351563,10|10|10,0:3|0:3|0:2,0:0:0:0:
388,190,133146,6,0,B|303:228|349:277|249:315,1,191.999994140625,14|8,0:3|0:3,0:0:0:0:
91,232,133644,2,0,P|157:171|235:217,1,191.999994140625,8|8,0:0|0:0,0:0:0:0:
178,367,134141,5,10,0:3:0:0:
43,297,134307,1,10,0:0:0:0:
91,232,134472,2,0,B|132:122|66:164|109:33,1,191.999994140625,14|8,0:3|0:3,0:0:0:0:
308,22,134970,6,0,P|266:24|187:9,1,95.9999970703126,10|8,0:0|0:3,0:0:0:0:
384,122,135301,2,0,P|426:120|505:135,1,95.9999970703126,10|8,0:0|0:3,0:0:0:0:
221,215,135633,1,8,0:0:0:0:
270,126,135798,6,0,B|374:234|253:260|349:358,1,256,14|8,0:3|0:3,0:0:0:0:
512,289,136296,1,8,0:2:0:0:
512,289,136378,1,8,0:2:0:0:
512,289,136461,1,8,0:2:0:0:
512,289,136544,1,8,0:2:0:0:
512,289,136627,5,10,0:3:0:0:
491,284,136710,1,10,0:3:0:0:
472,280,136793,1,10,0:3:0:0:
452,277,136876,1,10,0:3:0:0:
433,272,136959,5,14,0:3:0:0:
405,242,137041,1,10,0:3:0:0:
403,200,137124,1,10,0:3:0:0:
426,166,137207,1,10,0:3:0:0:
464,153,137290,6,0,P|487:93|461:21,1,128,14|10,0:3|0:3,0:0:0:0:
346,1,137622,1,10,0:3:0:0:
275,97,137787,5,10,0:3:0:0:
266,114,137870,1,10,0:3:0:0:
256,130,137953,2,0,P|187:142|139:100,1,128,10|0,0:2|0:0,0:0:0:0:
73,8,138285,5,8,0:3:0:0:
0,170,138450,1,10,0:3:0:0:
70,271,138616,1,14,0:3:0:0:
256,192,138699,12,2,141268,0:1:0:0:
37,83,149224,6,0,P|43:134|47:196,1,95.9999970703126,12|10,0:3|0:3,0:0:0:0:
47,179,149887,1,10,0:3:0:0:
107,226,150053,2,0,P|139:227|166:224,1,47.9999985351563,2|8,0:0|0:3,0:0:0:0:
270,258,150384,2,0,P|246:257|223:259,1,47.9999985351563,2|8,0:0|0:3,0:0:0:0:
404,360,150881,2,0,P|427:361|451:359,1,47.9999985351563,10|0,0:3|0:0,0:0:0:0:
464,233,151213,5,10,0:3:0:0:
464,233,151378,1,8,0:0:0:0:
512,306,151544,5,10,0:3:0:0:
512,306,151710,1,8,0:0:0:0:
464,233,151876,6,0,B|354:222,1,95.9999970703126,10|8,0:3|0:3,0:0:0:0:
287,200,152373,2,0,P|293:229|291:254,1,47.9999985351563,2|8,0:0|0:3,0:0:0:0:
292,247,152870,1,10,0:3:0:0:
231,298,153036,2,0,P|206:293|182:292,1,47.9999985351563,2|8,0:0|0:3,0:0:0:0:
299,114,153533,2,0,P|324:119|348:120,1,47.9999985351563,8|0,0:3|0:0,0:0:0:0:
410,52,153865,5,8,0:3:0:0:
398,44,153948,1,8,0:3:0:0:
386,35,154030,2,0,P|359:30|339:33,1,35.9999989013672,12|8,0:3|0:3,0:0:0:0:
299,114,154196,2,0,P|281:114|263:110,1,35.9999989013672,10|8,0:3|0:3,0:0:0:0:
211,40,154362,1,8,0:3:0:0:
196,37,154445,1,8,0:3:0:0:
181,33,154528,6,0,P|141:28|95:47,1,71.9999978027344,14|8,0:3|0:3,0:0:0:0:
155,143,154859,1,10,0:3:0:0:
4,178,155025,1,12,0:2:0:0:
29,101,155191,5,10,0:3:0:0:
72,223,155356,1,10,0:3:0:0:
19,280,155522,1,14,0:0:0:0:
4,178,155688,1,10,0:3:0:0:
7,166,155771,1,10,0:3:0:0:
11,154,155854,6,0,P|43:142|90:136,1,71.9999978027344,12|8,0:0|0:3,0:0:0:0:
84,237,156185,1,10,0:3:0:0:
174,105,156351,1,12,0:2:0:0:
106,62,156517,5,10,0:3:0:0:
114,161,156682,1,10,0:3:0:0:
291,143,156848,1,14,0:2:0:0:
317,67,157014,1,10,0:3:0:0:
328,62,157097,1,10,0:3:0:0:
339,57,157180,6,0,P|376:46|437:52,1,71.9999978027344,14|8,0:0|0:3,0:0:0:0:
502,141,157511,1,10,0:3:0:0:
499,156,157594,1,8,0:3:0:0:
496,171,157677,1,8,0:3:0:0:
493,187,157760,1,8,0:3:0:0:
491,202,157843,6,0,P|485:229|486:251,1,35.9999989013672,10|8,0:3|0:3,0:0:0:0:
412,268,158008,2,0,P|408:250|409:233,1,35.9999989013672,10|8,0:3|0:3,0:0:0:0:
337,284,158174,6,0,P|345:310|357:328,1,35.9999989013672,10|8,0:0|0:0,0:0:0:0:
300,380,158340,2,0,P|288:366|280:351,1,35.9999989013672,10|8,0:3|0:3,0:0:0:0:
232,280,158506,6,0,P|172:263|139:273,1,71.9999978027344,14|8,0:0|0:3,0:0:0:0:
15,359,158837,2,0,P|50:358|83:343,1,71.9999978027344,12|8,0:0|0:3,0:0:0:0:
194,177,159169,5,8,0:0:0:0:
221,179,159251,1,8,0:0:0:0:
242,198,159334,1,8,0:0:0:0:
250,226,159417,1,8,0:0:0:0:
241,253,159500,1,8,0:0:0:0:
232,280,159583,1,8,0:0:0:0:
238,308,159666,1,8,0:0:0:0:
259,327,159749,1,8,0:0:0:0:
286,337,159832,6,0,L|450:328,2,160,14|8|8,0:3|0:0|0:3,0:0:0:0:
184,141,160660,6,0,P|197:178|200:218,1,80,10|8,0:3|0:0,0:0:0:0:
56,313,160992,2,0,P|42:275|39:235,1,80,6|2,0:0|0:0,0:0:0:0:
48,218,161240,1,2,0:3:0:0:
59,201,161323,1,2,0:3:0:0:
70,184,161406,1,2,0:3:0:0:
81,166,161489,6,0,P|86:126|77:79,1,80,10|2,0:0|0:0,0:0:0:0:
14,45,161820,5,10,0:3:0:0:
82,7,161986,1,2,0:0:0:0:
169,102,162152,5,10,0:0:0:0:
99,129,162318,1,2,0:0:0:0:
36,236,162483,6,0,P|48:273|52:313,1,80,14|2,0:3|0:0,0:0:0:0:
185,179,162815,2,0,P|172:141|168:101,1,80,10|2,0:0|0:0,0:0:0:0:
342,63,163146,6,0,P|338:103|325:141,1,80,10|8,0:3|0:3,0:0:0:0:
252,110,163478,1,10,0:0:0:0:
396,0,163644,6,0,B|458:61|392:88|450:145,1,160,14|10,0:3|0:3,0:0:0:0:
387,193,164141,1,10,0:0:0:0:
252,110,164307,2,0,B|171:126|207:186|129:201,1,160,2|10,0:0|0:3,0:0:0:0:
111,201,164721,1,10,0:3:0:0:
93,200,164804,2,0,L|12:188,1,80,10|2,0:0|0:0,0:0:0:0:
134,11,165135,6,0,B|213:32|174:89|251:109,1,160,14|10,0:3|0:0,0:0:0:0:
420,48,165633,2,0,P|396:36|330:43,2,80,2|8|8,0:0|0:3|0:3,0:0:0:0:
370,128,166130,5,10,0:0:0:0:
512,122,166296,2,0,B|433:143|472:200|395:220,1,160,14|8,0:3|0:3,0:0:0:0:
370,128,166793,5,10,0:0:0:0:
466,233,166959,2,0,P|477:263|473:327,1,80,2|8,0:0|0:3,0:0:0:0:
416,363,167290,5,2,0:0:0:0:
288,304,167456,2,0,P|244:297|204:301,1,80,10|2,0:0|0:0,0:0:0:0:
50,353,167787,5,14,0:3:0:0:
145,372,167953,1,10,0:3:0:0:
208,300,168119,1,8,0:0:0:0:
242,138,168285,5,10,0:3:0:0:
178,210,168450,1,10,0:0:0:0:
208,300,168616,2,0,P|223:342|228:378,1,80,10|10,0:3|0:0,0:0:0:0:
75,220,168948,5,10,0:3:0:0:
75,220,169030,1,10,0:3:0:0:
75,220,169113,2,0,P|81:180|94:143,1,80,8|2,0:0|0:0,0:0:0:0:
227,57,169445,2,0,P|240:94|246:134,1,80,8|8,0:0|0:3,0:0:0:0:
242,153,169693,1,8,0:3:0:0:
237,172,169776,6,0,P|234:197|238:223,1,40,10|8,0:0|0:0,0:0:0:0:
314,256,169942,2,0,P|333:240|349:219,1,40,10|8,0:0|0:0,0:0:0:0:
405,148,170108,5,8,0:3:0:0:
425,140,170191,1,8,0:3:0:0:
447,143,170274,1,8,0:3:0:0:
465,156,170356,1,8,0:3:0:0:
475,175,170439,6,0,L|482:270,1,83.9999974365235,14|0,0:3|0:0,0:0:0:0:
489,354,170771,2,0,L|481:258,1,95.9999970703126,12|0,0:0|0:0,0:0:0:0:
419,63,171102,5,10,0:3:0:0:
360,109,171268,2,0,P|320:94|281:97,1,80,10|8,0:3|0:0,0:0:0:0:
127,144,171599,6,0,B|118:20,1,111.999996582031,14|8,0:3|0:3,0:0:0:0:
127,144,172097,2,0,B|134:256,1,80,10|0,0:0|0:0,0:0:0:0:
10,353,172428,5,2,0:3:0:0:
83,301,172594,2,0,P|121:315|165:309,1,80,10|8,0:3|0:0,0:0:0:0:
238,124,172925,5,2,0:0:0:0:
228,141,173008,1,2,0:0:0:0:
223,160,173091,2,0,B|199:260|280:248|249:357,1,191.999994140625,14|10,0:3|0:0,0:0:0:0:
86,332,173588,2,0,P|120:312|160:310,2,80,2|8|8,0:0|0:3|0:3,0:0:0:0:
0,298,174086,5,10,0:0:0:0:
73,146,174251,2,0,B|152:211|79:251|171:319,1,191.999994140625,14|8,0:3|0:3,0:0:0:0:
349,363,174749,5,10,0:0:0:0:
246,371,174914,2,0,P|256:334|271:284,1,80,2|8,0:0|0:3,0:0:0:0:
340,170,175246,5,10,0:3:0:0:
358,163,175329,1,10,0:3:0:0:
378,160,175412,1,10,0:0:0:0:
398,161,175495,1,10,0:0:0:0:
417,166,175577,1,10,0:3:0:0:
435,174,175660,1,10,0:3:0:0:
454,187,175743,6,0,L|477:281,1,80,14|10,0:0|0:3,0:0:0:0:
350,284,176075,5,10,0:0:0:0:
423,324,176240,1,10,0:3:0:0:
288,221,176406,5,10,0:0:0:0:
276,308,176572,1,10,0:3:0:0:
360,164,176738,5,10,0:2:0:0:
259,131,176903,1,10,0:3:0:0:
209,255,177069,5,10,0:2:0:0:
288,221,177235,1,10,0:3:0:0:
180,106,177401,5,10,0:2:0:0:
158,187,177566,1,10,0:3:0:0:
259,131,177732,6,0,P|260:92|253:15,1,80,10|8,0:0|0:3,0:0:0:0:
2,165,178064,5,10,0:3:0:0:
28,152,178146,1,10,0:3:0:0:
60,162,178229,1,10,0:3:0:0:
91,153,178312,1,10,0:3:0:0:
91,153,178395,6,0,P|120:191|104:272,2,128,14|2|8,0:3|0:0|0:0,0:0:0:0:
33,207,179224,1,2,0:0:0:0:
33,207,179390,1,10,0:3:0:0:
4,69,179555,6,0,P|45:77|127:16,1,128,10|8,0:3|0:0,0:0:0:0:
234,137,180053,2,0,P|200:126|164:133,1,64,2|8,0:0|0:3,0:0:0:0:
168,144,180301,1,8,0:3:0:0:
164,159,180384,2,0,P|164:190|160:222,1,64,8|8,0:0|0:3,0:0:0:0:
356,83,180715,6,0,P|355:51|359:19,1,64,2|8,0:0|0:0,0:0:0:0:
512,197,181047,6,0,P|477:187|418:187,1,80,14|8,0:3|0:3,0:0:0:0:
415,193,181296,1,8,0:3:0:0:
403,209,181378,2,0,P|402:239|395:278,1,40,8|8,0:3|0:3,0:0:0:0:
372,327,181544,6,0,B|285:290|350:236|264:192,1,180.000006866455,6|0,0:3|0:0,0:0:0:0:
233,284,181876,6,0,B|327:305|311:222|401:249,1,180.000006866455,14|0,0:3|0:0,0:0:0:0:
401,249,182207,6,0,B|330:280|255:229|308:192|227:137|137:178,1,279.999991455078,10|2,0:3|0:1,0:0:0:0:
116,241,183367,5,2,0:1:0:0:
63,87,183699,5,6,0:2:0:0:
34,99,193975,5,6,0:3:0:0:
11,214,194141,1,4,0:3:0:0:
86,170,194307,5,10,0:3:0:0:
86,170,194472,1,8,0:3:0:0:
146,256,194638,5,8,0:0:0:0:
162,253,194970,1,8,0:0:0:0:
178,249,195301,1,8,0:0:0:0:
195,246,195633,1,8,0:0:0:0:
211,242,195964,1,8,0:0:0:0:
228,239,196296,5,10,0:0:0:0:
243,276,196461,1,2,0:3:0:0:
281,261,196627,1,8,0:0:0:0:
265,223,196793,1,10,0:3:0:0:
254,254,196959,5,10,0:3:0:0:
254,254,197124,1,8,0:3:0:0:
346,319,197290,5,10,0:0:0:0:
350,303,197622,1,8,0:0:0:0:
354,287,197953,1,8,0:0:0:0:
359,270,198285,1,8,0:0:0:0:
363,254,198616,1,8,0:0:0:0:
368,238,198948,5,10,0:0:0:0:
407,241,199113,1,2,0:0:0:0:
411,200,199279,1,10,0:0:0:0:
370,198,199445,1,10,0:3:0:0:
370,198,199776,5,8,0:3:0:0:
359,124,199942,1,10,0:0:0:0:
359,124,200274,5,10,0:0:0:0:
359,124,200605,5,10,0:0:0:0:
269,95,200771,1,10,0:3:0:0:
269,95,201102,5,8,0:3:0:0:
254,201,201268,1,10,0:0:0:0:
254,201,201599,5,10,0:0:0:0:
171,160,201765,2,0,L|100:152,1,60.0000022888184,2|0,0:0|0:0,0:0:0:0:
6,21,202097,6,0,B|77:105|-19:127|46:218,1,207.999990478516,12|8,0:3|0:3,0:0:0:0:
221,247,202594,1,8,0:2:0:0:
221,247,202677,1,8,0:2:0:0:
221,247,202760,1,8,0:2:0:0:
221,247,202843,1,8,0:2:0:0:
221,247,202925,5,10,0:3:0:0:
223,225,203008,1,10,0:3:0:0:
226,206,203091,1,10,0:3:0:0:
231,186,203174,1,10,0:3:0:0:
233,167,203257,5,14,0:3:0:0:
215,130,203340,1,10,0:3:0:0:
176,113,203423,1,10,0:3:0:0:
136,122,203506,1,10,0:3:0:0:
111,153,203588,5,14,0:3:0:0:
87,55,203754,1,14,0:3:0:0:
87,55,204251,6,0,L|82:138,1,80,2|2,0:1|0:2,0:0:0:0:
0,259,204749,5,2,0:1:0:0:
4,250,204832,1,2,0:1:0:0:
9,241,204914,6,0,P|55:233|97:254,1,95.9999970703126,14|8,0:3|0:3,0:0:0:0:
265,98,205246,2,0,P|218:107|176:85,1,95.9999970703126,10|0,0:0|0:0,0:0:0:0:
177,86,205495,1,8,0:0:0:0:
177,86,205577,1,10,0:3:0:0:
167,174,205743,5,10,0:3:0:0:
227,30,205909,1,10,0:0:0:0:
265,98,206075,2,0,B|336:83|330:139|415:125,1,143.999995605469,10|0,0:3|0:0,0:0:0:0:
422,112,206406,6,0,P|429:93|434:57,1,47.9999985351563,10|8,0:3|0:3,0:0:0:0:
332,156,206572,2,0,P|314:201|335:276,1,95.9999970703126,10|8,0:0|0:3,0:0:0:0:
417,359,206903,5,10,0:3:0:0:
417,359,207069,1,8,0:3:0:0:
337,330,207235,2,0,B|263:342|271:290|200:296,1,143.999995605469,14|0,0:3|0:0,0:0:0:0:
153,291,207566,6,0,P|172:332|216:349,1,95.9999970703126,14|8,0:3|0:3,0:0:0:0:
244,169,207898,2,0,P|197:160|159:187,1,95.9999970703126,10|0,0:0|0:0,0:0:0:0:
159,186,208146,1,8,0:0:0:0:
159,186,208229,1,10,0:3:0:0:
235,84,208395,5,10,0:3:0:0:
307,272,208561,1,10,0:0:0:0:
373,221,208727,2,0,B|320:167|296:214|242:167,1,143.999995605469,10|0,0:3|0:0,0:0:0:0:
238,145,209058,6,0,P|242:123|238:90,1,47.9999985351563,10|8,0:3|0:3,0:0:0:0:
141,53,209224,2,0,P|96:59|41:42,1,95.9999970703126,10|8,0:0|0:3,0:0:0:0:
126,271,209555,6,0,P|171:265|226:282,1,95.9999970703126,10|8,0:3|0:3,0:0:0:0:
40,384,209887,1,10,0:0:0:0:
21,357,209970,1,8,0:0:0:0:
38,326,210053,1,8,0:3:0:0:
19,297,210135,1,8,0:3:0:0:
19,297,210218,6,0,B|-2:206|78:207|56:111,2,191.999994140625,14|8|8,0:3|0:0|0:3,0:0:0:0:
126,271,211047,5,10,0:3:0:0:
56,115,211213,1,10,0:0:0:0:
8,192,211378,2,0,P|100:191|143:109,1,191.999994140625,14|8,0:3|0:3,0:0:0:0:
143,86,211793,1,8,0:3:0:0:
136,61,211876,6,0,P|100:32|53:22,1,95.9999970703126,10|0,0:0|0:0,0:0:0:0:
228,141,212207,2,0,P|272:124|303:88,1,95.9999970703126,10|8,0:3|0:3,0:0:0:0:
114,180,212539,2,0,P|106:226|121:271,1,95.9999970703126,10|0,0:0|0:0,0:0:0:0:
319,208,212870,6,0,P|406:173|402:278,1,192,14|0,0:3|0:0,0:0:0:0:
431,246,213202,1,10,0:0:0:0:
366,288,213367,1,2,0:0:0:0:
482,318,213533,5,8,0:3:0:0:
482,318,213699,1,8,0:3:0:0:
372,364,213865,1,8,0:0:0:0:
283,311,214030,5,2,0:0:0:0:
282,295,214113,1,2,0:0:0:0:
281,278,214196,1,10,0:3:0:0:
194,256,214362,1,10,0:3:0:0:
91,353,214528,5,10,0:0:0:0:
178,376,214693,1,10,0:3:0:0:
281,278,214859,5,10,0:3:0:0:
286,254,214942,1,8,0:3:0:0:
283,231,215025,1,8,0:0:0:0:
273,210,215108,1,8,0:0:0:0:
252,195,215191,5,10,0:3:0:0:
229,178,215274,1,8,0:3:0:0:
216,152,215356,1,8,0:3:0:0:
210,125,215439,1,8,0:3:0:0:
217,97,215522,6,0,L|348:74,1,128,14|2,0:3|0:0,0:0:0:0:
463,46,216019,1,8,0:3:0:0:
413,108,216185,2,0,B|413:189|440:161|437:232,1,128,12|2,0:0|0:0,0:0:0:0:
437,232,216848,6,0,P|402:226|348:231,1,64,4|10,0:0|0:0,0:0:0:0:
255,130,217180,2,0,P|286:130|318:124,1,64,10|8,0:3|0:3,0:0:0:0:
131,69,217511,6,0,P|122:46|119:22,1,47.9999985351563,14|0,0:0|0:0,0:0:0:0:
99,182,217843,2,0,P|107:204|110:228,1,47.9999985351563,14|0,0:3|0:0,0:0:0:0:
80,314,218174,6,0,P|119:306|158:309,1,80,14|2,0:3|0:0,0:0:0:0:
303,351,218671,1,8,0:3:0:0:
225,362,218837,2,0,L|238:269,1,80,12|2,0:0|0:0,0:0:0:0:
236,283,219500,6,0,P|234:241|225:211,1,64,4|10,0:0|0:0,0:0:0:0:
361,103,219832,2,0,P|363:145|372:175,1,64,10|8,0:3|0:3,0:0:0:0:
266,37,220163,5,10,0:3:0:0:
197,72,220329,2,0,L|149:69,2,32,10|8|8,0:3|0:3|0:2,0:0:0:0:
361,103,220660,6,0,B|426:168|366:198|445:269,1,191.999994140625,14|8,0:3|0:3,0:0:0:0:
504,119,221157,2,0,P|438:58|360:104,1,191.999994140625,8|8,0:0|0:0,0:0:0:0:
334,261,221655,5,10,0:3:0:0:
156,188,221820,1,10,0:0:0:0:
237,131,221986,2,0,B|278:241|213:211|255:330,1,191.999994140625,14|8,0:3|0:3,0:0:0:0:
431,348,222483,6,0,P|386:343|310:361,1,95.9999970703126,10|8,0:2|0:3,0:0:0:0:
156,188,222815,2,0,P|201:193|277:175,1,95.9999970703126,10|0,0:0|0:3,0:0:0:0:
365,74,223146,1,10,0:0:0:0:
279,52,223312,6,0,B|190:152|312:184|200:291,1,256,14|8,0:3|0:3,0:0:0:0:
0,245,223809,1,8,0:2:0:0:
0,245,223892,1,8,0:2:0:0:
0,245,223975,1,8,0:2:0:0:
0,245,224058,1,8,0:2:0:0:
0,245,224141,5,10,0:3:0:0:
5,220,224224,1,10,0:3:0:0:
10,197,224307,1,10,0:3:0:0:
13,174,224390,1,10,0:3:0:0:
19,152,224472,5,14,0:3:0:0:
54,120,224555,1,10,0:3:0:0:
102,118,224638,1,10,0:3:0:0:
141,144,224721,1,10,0:3:0:0:
156,188,224804,5,14,0:3:0:0:
204,57,224970,1,14,0:3:0:0:
285,311,225467,6,0,L|370:322,1,80,2|2,0:1|0:2,0:0:0:0:
494,166,226130,6,0,P|506:129|505:89,1,80,14|8,0:3|0:3,0:0:0:0:
356,178,226461,2,0,P|340:141|336:101,1,80,10|0,0:0|0:0,0:0:0:0:
435,271,226793,2,0,P|473:283|513:281,1,80,10|8,0:3|0:3,0:0:0:0:
420,120,227124,1,10,0:0:0:0:
343,267,227290,6,0,P|281:281|236:177,1,160,10|8,0:3|0:3,0:0:0:0:
295,49,227787,2,0,P|310:97|317:139,1,80,8|0,0:0|0:0,0:0:0:0:
113,18,228119,5,10,0:3:0:0:
113,18,228285,1,8,0:3:0:0:
179,63,228450,2,0,B|235:73|236:36|295:48,1,120,10|0,0:0|0:0,0:0:0:0:
330,87,228782,6,0,P|291:93|256:74,1,80,10|8,0:3|0:3,0:0:0:0:
372,210,229113,2,0,P|386:173|420:153,1,80,10|0,0:0|0:0,0:0:0:0:
245,185,229445,2,0,P|269:215|270:255,1,80,10|8,0:3|0:3,0:0:0:0:
193,344,229776,1,10,0:0:0:0:
76,199,229942,6,0,P|117:262|188:240,1,160,10|8,0:3|0:3,0:0:0:0:
167,113,230439,1,8,0:0:0:0:
84,206,230605,5,2,0:0:0:0:
84,206,230688,1,2,0:0:0:0:
84,206,230771,2,0,P|81:249|76:290,1,80,10|8,0:3|0:3,0:0:0:0:
252,164,231102,2,0,P|255:121|260:80,1,80,10|10,0:0|0:0,0:0:0:0:
259,84,231351,1,10,0:0:0:0:
259,84,231434,5,14,0:3:0:0:
369,117,231599,2,0,P|407:103|465:97,1,80,10|10,0:3|0:0,0:0:0:0:
303,264,231931,5,10,0:3:0:0:
413,230,232097,2,0,P|451:244|509:250,1,80,10|10,0:0|0:3,0:0:0:0:
393,21,232428,5,10,0:0:0:0:
369,117,232594,1,10,0:3:0:0:
205,40,232760,5,10,0:0:0:0:
307,66,232925,2,0,P|339:89|368:116,1,80,10|10,0:3|0:0,0:0:0:0:
281,250,233257,5,10,0:3:0:0:
184,210,233423,1,10,0:0:0:0:
258,172,233588,5,10,0:3:0:0:
285,274,233754,2,0,L|276:332,1,40,14|8,0:0|0:0,0:0:0:0:
178,249,233920,2,0,L|183:209,1,40,10|8,0:3|0:3,0:0:0:0:
126,337,234086,6,0,P|86:347|46:334,1,83.9999974365235,14|0,0:3|0:0,0:0:0:0:
39,239,234417,2,0,L|46:334,1,95.9999970703126,2|8,0:0|0:3,0:0:0:0:
55,346,234666,1,8,0:3:0:0:
67,357,234749,6,0,B|139:377|139:314|220:340,1,160,14|2,0:0|0:0,0:0:0:0:
220,341,235246,2,0,B|151:376|140:314|65:357,1,160,2|8,0:0|0:3,0:0:0:0:
2,251,235743,6,0,P|2:212|0:172,1,80,10|8,0:3|0:3,0:0:0:0:
144,266,236075,2,0,P|140:305|141:345,1,80,8|8,0:0|0:3,0:0:0:0:
228,176,236406,6,0,P|263:168|320:163,1,80,2|8,0:0|0:3,0:0:0:0:
460,248,236738,5,14,0:0:0:0:
384,240,236903,1,8,0:3:0:0:
384,240,237069,1,8,0:3:0:0:
430,129,237235,6,0,P|428:97|435:47,1,80,14|8,0:0|0:3,0:0:0:0:
442,43,237649,1,8,0:3:0:0:
451,39,237732,5,14,0:3:0:0:
502,95,237898,1,8,0:3:0:0:
512,170,238064,1,8,0:3:0:0:
384,192,238229,6,0,L|300:180,1,80,12|8,0:3|0:3,0:0:0:0:
294,186,238644,1,8,0:3:0:0:
284,193,238727,5,8,0:0:0:0:
236,66,238892,1,8,0:0:0:0:
169,223,239058,5,8,0:3:0:0:
276,274,239224,1,8,0:3:0:0:
70,39,240183,5,6,0:2:0:0:
70,39,241322,5,2,0:0:0:0:
30,176,241735,5,2,0:0:0:0:
92,283,242096,5,2,0:0:0:0:
218,297,242440,5,2,0:0:0:0:
294,232,242790,5,2,0:0:0:0:
319,148,243155,5,2,0:0:0:0:
319,148,243355,1,2,0:0:0:0:
319,148,244147,5,2,0:0:0:0:
294,232,244531,5,2,0:0:0:0:
335,297,244904,5,2,0:0:0:0:
375,313,245340,5,2,0:0:0:0:
401,311,245697,5,2,0:0:0:0:
418,303,246144,5,2,0:0:0:0:
426,289,246572,6,0,L|430:271,3,10,6|2|2|2,0:1|0:1|0:1|0:1,0:0:0:0:
