osu file format v14

[General]
AudioFilename: audio.mp3
AudioLeadIn: 0
PreviewTime: 57429
Countdown: 0
SampleSet: Soft
StackLeniency: 0.3
Mode: 0
LetterboxInBreaks: 0
WidescreenStoryboard: 1

[Editor]
Bookmarks: 12895,24970,40065,55725
DistanceSpacing: 0.5
BeatDivisor: 4
GridSize: 16
TimelineZoom: 1.7

[Metadata]
Title:Shinsou Noise
TitleUnicode:シンソウノイズ
Artist:Shimotsuki Haruka x Ceui
ArtistUnicode:霜月はるか x Ceui
Creator:Bellicose
Version:Shurelia's Insane
Source:シンソウノイズ~受信探偵の事件簿~
Tags:Shinsou Noise ~Jushin Tantei no Jikenbo~ Azurite DiGination eroge video game vn visual novel short version japanese pop shurelia
BeatmapID:3607058
BeatmapSetID:1756879

[Difficulty]
HPDrainRate:6
CircleSize:4
OverallDifficulty:7.5
ApproachRate:8
SliderMultiplier:2
SliderTickRate:1

[Events]
//Background and Video events
0,0,"bg.png",0,0
//Break Periods
//Storyboard Layer 0 (Background)
//Storyboard Layer 1 (Fail)
//Storyboard Layer 2 (Pass)
//Storyboard Layer 3 (Foreground)
//Storyboard Layer 4 (Overlay)
//Storyboard Sound Samples

[TimingPoints]
166,377.358490566038,4,2,3,30,1,0
166,-125,4,2,3,30,0,0
24316,-100,4,2,4,50,0,0
24694,-100,4,2,4,40,0,0
26109,-100,4,2,4,5,0,0
26203,-100,4,2,4,40,0,0
39411,377.358490566038,4,2,4,50,1,0
39411,-90.9090909090909,4,2,4,50,0,0
39694,-90.9090909090909,4,2,4,5,0,0
39788,-90.9090909090909,4,2,1,50,0,0
42713,-90.9090909090909,4,2,1,5,0,0
42807,-90.9090909090909,4,2,1,50,0,0
43939,-90.9090909090909,4,2,1,50,0,0
44222,-90.9090909090909,4,2,3,5,0,0
44316,-90.9090909090909,4,2,1,50,0,0
45732,-90.9090909090909,4,2,1,5,0,0
45826,-90.9090909090909,4,2,1,50,0,0
48939,-90.9090909090909,4,2,1,5,0,0
49033,-90.9090909090909,4,2,1,50,0,0
49977,-90.9090909090909,4,2,3,50,0,0
50166,-90.9090909090909,4,2,1,50,0,0
51486,-90.9090909090909,4,2,1,60,0,0
52052,-90.9090909090909,4,2,1,50,0,0
54505,-90.9090909090909,4,2,1,60,0,0
54788,-90.9090909090909,4,2,1,5,0,0
54882,-90.9090909090909,4,2,1,60,0,0
56298,-90.9090909090909,4,2,3,60,0,0
57147,-90.9090909090909,4,2,1,60,0,0
57524,-83.3333333333333,4,2,1,70,0,1
59505,-83.3333333333333,4,2,1,5,0,1
59599,-83.3333333333333,4,2,1,70,0,1
62524,-83.3333333333333,4,2,1,5,0,1
62618,-83.3333333333333,4,2,1,70,0,1
63562,-83.3333333333333,4,2,3,70,0,1
63750,-83.3333333333333,4,2,1,70,0,1
63939,-83.3333333333333,4,2,1,70,0,1
64977,-83.3333333333333,4,2,1,5,0,1
65071,-83.3333333333333,4,2,1,70,0,1
66864,-83.3333333333333,4,2,1,5,0,1
66958,-83.3333333333333,4,2,1,70,0,1
68279,-83.3333333333333,4,2,2,60,0,1
69505,-83.3333333333333,4,2,2,60,0,0
69599,-83.3333333333333,4,2,1,70,0,1
71581,-83.3333333333333,4,2,1,5,0,1
71675,-83.3333333333333,4,2,1,70,0,1
72618,-83.3333333333333,4,2,3,70,0,1
72901,-83.3333333333333,4,2,1,5,0,1
72996,-83.3333333333333,4,2,1,70,0,1
75920,-83.3333333333333,4,2,1,5,0,1
76015,-83.3333333333333,4,2,1,70,0,1
78939,-83.3333333333333,4,2,1,5,0,1
79033,-83.3333333333333,4,2,1,70,0,1
80354,-83.3333333333333,4,2,2,60,0,1
81580,-83.3333333333333,4,2,2,60,0,0
81675,-83.3333333333333,4,2,1,70,0,1
81958,-83.3333333333333,4,2,1,5,0,1
82052,-83.3333333333333,4,2,1,70,0,1
83184,-83.3333333333333,4,2,3,70,0,1
83373,-83.3333333333333,4,2,1,70,0,1
84222,-83.3333333333333,4,2,1,5,0,1
84316,-83.3333333333333,4,2,1,70,0,1
84694,-83.3333333333333,4,2,1,70,0,1
84977,-83.3333333333333,4,2,1,5,0,1
85071,-83.3333333333333,4,2,1,70,0,1
86203,-83.3333333333333,4,2,3,70,0,1
86392,-83.3333333333333,4,2,1,70,0,1
87241,-83.3333333333333,4,2,1,5,0,1
87335,-83.3333333333333,4,2,1,70,0,1
87713,-83.3333333333333,4,2,1,70,0,1
87996,-83.3333333333333,4,2,1,5,0,1
88090,-83.3333333333333,4,2,1,70,0,1
89222,-83.3333333333333,4,2,3,70,0,1
89411,-83.3333333333333,4,2,1,70,0,1
91015,-83.3333333333333,4,2,1,5,0,1
91109,-83.3333333333333,4,2,1,70,0,1
92147,-83.3333333333333,4,2,1,5,0,1
92241,-83.3333333333333,4,2,1,70,0,1
92430,-83.3333333333333,4,2,2,60,0,1
93656,-83.3333333333333,4,2,2,60,0,0
93750,-83.3333333333333,4,2,1,70,0,1
95732,-83.3333333333333,4,2,1,5,0,1
95826,-83.3333333333333,4,2,1,70,0,1
96769,-83.3333333333333,4,2,3,70,0,1
96958,-83.3333333333333,4,2,1,70,0,1
97052,-83.3333333333333,4,2,1,5,0,1
97147,-83.3333333333333,4,2,1,70,0,1
100071,-83.3333333333333,4,2,1,5,0,1
100166,-83.3333333333333,4,2,1,70,0,1
103090,-83.3333333333333,4,2,1,5,0,1
103184,-83.3333333333333,4,2,1,70,0,1
104505,-83.3333333333333,4,2,2,60,0,1
105826,-83.3333333333333,4,2,1,50,0,0
106392,-83.3333333333333,4,2,1,40,0,0
107147,-83.3333333333333,4,2,1,30,0,0
108090,-83.3333333333333,4,2,1,40,0,0
108750,-83.3333333333333,4,2,1,5,0,0
108845,-83.3333333333333,4,2,1,70,0,0
109694,-83.3333333333333,4,2,1,5,0,0
109788,-83.3333333333333,4,2,1,70,0,0
111203,-83.3333333333333,4,2,1,5,0,0
111298,-83.3333333333333,4,2,1,70,0,0
114882,377.358490566038,4,2,3,20,1,0
114882,-83.3333333333333,4,2,3,20,0,0
116203,-83.3333333333333,4,2,3,5,0,0
116392,-83.3333333333333,4,2,3,20,0,0
119222,-83.3333333333333,4,2,3,5,0,0
119411,-83.3333333333333,4,2,3,20,0,0
122241,-83.3333333333333,4,2,3,5,0,0
122430,-83.3333333333333,4,2,3,20,0,0
128279,-83.3333333333333,4,2,3,5,0,0
128467,-83.3333333333333,4,2,3,20,0,0
131298,-83.3333333333333,4,2,3,5,0,0
131486,-83.3333333333333,4,2,3,20,0,0
134316,-83.3333333333333,4,2,3,5,0,0
134505,-83.3333333333333,4,2,3,20,0,0
136015,-83.3333333333333,4,2,3,15,0,0

[Colours]
Combo1 : 226,143,243
Combo2 : 139,222,254
Combo3 : 253,206,240
Combo4 : 150,166,254

[HitObjects]
123,66,166,6,0,P|124:105|128:145,2,80,2|0|0,3:2|0:0|3:0,0:0:0:0:
195,31,732,1,2,3:2:0:0:
195,31,1675,2,0,P|233:42|272:46,1,80,2|0,3:2|0:0,0:0:0:0:
352,40,2052,1,0,3:0:0:0:
392,109,2241,1,2,3:2:0:0:
466,80,2618,1,2,3:2:0:0:
466,80,3184,6,0,P|474:118|476:158,1,80,2|0,3:2|0:0,0:0:0:0:
403,193,3562,1,0,3:0:0:0:
431,267,3750,1,2,3:2:0:0:
430,267,4694,2,0,P|392:276|361:301,1,80,2|0,3:2|3:2,0:0:0:0:
349,380,5071,1,2,0:2:0:0:
289,326,5260,1,2,3:2:0:0:
209,339,5637,1,2,0:0:0:0:
209,339,6203,6,0,P|208:299|216:259,2,80,2|0|2,3:2|0:0|0:0,0:0:0:0:
129,351,6769,1,2,3:2:0:0:
129,351,7713,2,0,P|89:357|50:365,1,80,2|0,3:2|0:0,0:0:0:0:
17,292,8090,1,2,3:2:0:0:
70,232,8279,1,2,3:2:0:0:
139,272,8656,1,2,3:2:0:0:
139,272,9222,6,0,P|146:232|145:192,1,80,2|0,3:2|0:0,0:0:0:0:
132,113,9599,1,2,3:2:0:0:
199,69,9788,1,2,3:2:0:0:
257,127,10166,1,2,0:0:0:0:
257,127,10732,5,2,3:2:0:0:
301,193,10920,1,2,0:0:0:0:
288,294,11109,1,2,0:0:0:0:
349,344,11298,1,2,3:2:0:0:
430,338,11675,1,2,0:0:0:0:
430,338,12241,6,0,P|438:218|459:100,1,240,2|0,3:1|3:0,0:0:0:0:
459,100,13373,1,2,3:2:0:0:
427,25,13562,2,0,P|348:26|269:13,1,160,2|2,0:0|0:0,0:0:0:0:
89,121,14316,2,0,P|168:122|247:109,1,160,2|0,3:2|3:0,0:0:0:0:
297,172,14882,1,2,3:2:0:0:
297,172,15071,1,0,3:0:0:0:
238,226,15260,2,0,P|249:305|257:384,1,160,2|0,3:1|0:0,0:0:0:0:
257,384,16203,5,2,0:2:0:0:
183,352,16392,1,0,3:2:0:0:
103,340,16581,1,2,0:0:0:0:
3,226,16769,1,2,3:1:0:0:
75,183,16958,2,0,P|60:104|28:31,1,160,2|0,0:0|3:0,0:0:0:0:
28,31,17713,1,2,0:0:0:0:
92,77,17901,1,0,3:0:0:0:
161,116,18090,2,0,P|237:136|316:125,1,160,0|0,3:0|0:0,0:0:0:0:
383,81,18656,1,2,0:0:0:0:
383,81,19411,1,0,3:0:0:0:
161,38,19788,1,2,3:1:0:0:
162,239,20354,1,0,3:0:0:0:
218,299,20543,2,0,B|296:324|374:244|450:258,1,240,2|0,3:2|3:0,0:0:0:0:
497,348,21298,6,0,P|492:268|481:188,1,160,2|0,3:1|0:0,0:0:0:0:
375,47,21864,2,0,P|379:126|390:206,1,160,2|0,3:2|0:0,0:0:0:0:
503,94,22430,2,0,P|487:57|458:30,1,80,2|0,3:2|3:0,0:0:0:0:
287,116,22807,2,0,P|300:194|320:272,1,160,2|0,3:1|3:0,0:0:0:0:
397,349,23373,1,2,3:2:0:0:
396,349,24316,6,0,P|347:353|298:365,1,100,4|0,1:0|3:0,0:0:0:0:
220,319,24694,2,0,P|121:336|22:347,1,200,2|0,1:2|1:0,0:0:0:0:
22,347,25448,1,2,1:2:0:0:
79,261,25637,2,0,P|90:212|104:164,1,100,2|2,3:2|1:2,0:0:0:0:
249,70,26015,2,0,P|201:84|152:95,1,100,2|0,3:2|1:0,0:0:0:0:
0,20,26392,2,0,P|36:54|70:90,1,100,2|0,3:2|0:0,0:0:0:0:
213,223,26769,1,0,3:0:0:0:
307,232,26958,2,0,P|308:182|313:132,1,100,2|0,1:2|3:0,0:0:0:0:
313,11,27335,6,0,P|412:23|511:31,1,200,2|0,1:2|1:0,0:0:0:0:
512,32,28279,1,2,3:2:0:0:
471,122,28467,1,2,1:2:0:0:
447,219,28656,1,2,3:2:0:0:
465,317,28845,2,0,P|367:336|269:354,1,200,2|2,1:2|1:2,0:0:0:0:
43,79,29599,2,0,P|141:59|239:41,1,200,2|2,1:2|1:2,0:0:0:0:
134,350,30354,6,0,P|132:250|116:151,1,200,6|0,1:2|1:0,0:0:0:0:
43,79,30920,1,2,3:2:0:0:
32,239,31109,2,0,P|128:261|226:243,1,200,2|0,1:2|1:0,0:0:0:0:
512,166,31864,2,0,P|430:108|361:36,1,200,2|0,1:2|1:0,0:0:0:0:
269,8,32430,1,0,3:0:0:0:
268,8,32618,2,0,P|168:14|69:3,1,200,2|2,1:2|1:2,0:0:0:0:
26,360,33373,6,0,P|82:278|163:220,1,200,2|0,1:2|1:0,0:0:0:0:
92,118,33939,2,0,P|191:125|281:167,1,200,2|0,3:2|3:0,0:0:0:0:
382,259,34505,1,2,1:2:0:0:
382,259,34882,2,0,P|325:177|244:119,1,200,2|0,1:2|1:0,0:0:0:0:
316,17,35448,2,0,P|216:24|126:66,1,200,2|0,3:2|3:0,0:0:0:0:
73,0,36015,2,0,P|40:37|14:80,1,100,2|0,1:2|3:0,0:0:0:0:
127,221,36392,6,0,P|274:193|414:140,1,300,2|2,1:2|3:2,0:0:0:0:
512,0,37147,2,0,P|497:98|492:198,1,200,2|0,1:2|1:0,0:0:0:0:
509,297,37713,1,0,3:0:0:0:
431,359,37901,1,0,1:0:0:0:
431,359,38279,1,0,1:0:0:0:
431,359,38656,1,0,1:0:0:0:
431,359,39033,1,0,1:0:0:0:
88,339,39411,6,0,P|66:231|29:127,1,220.000006713867,6|0,1:2|1:0,0:0:0:0:
0,26,39977,2,0,P|103:33|136:132,2,220.000006713867,2|2|0,3:2|3:2|3:0,0:0:0:0:
33,228,40920,2,0,P|35:282|30:337,1,110.000003356934,2|0,1:2|3:0,0:0:0:0:
130,221,41298,2,0,P|146:273|155:327,1,110.000003356934,2|0,1:2|3:0,0:0:0:0:
219,175,41675,2,0,P|248:221|271:271,1,110.000003356934,2|0,1:2|3:0,0:0:0:0:
266,94,42052,1,2,1:2:0:0:
266,94,42241,1,0,3:0:0:0:
211,0,42430,6,0,P|319:20|428:29,1,220.000006713867,2|2,1:2|1:2,0:0:0:0:
344,128,42996,2,0,P|447:135|452:247,2,220.000006713867,2|2|0,3:2|3:2|3:0,0:0:0:0:
344,128,44128,1,0,3:0:0:0:
274,233,44316,2,0,P|326:218|380:208,1,110.000003356934,2|0,1:2|3:0,0:0:0:0:
153,334,44694,2,0,P|205:349|259:359,1,110.000003356934,2|0,1:2|3:0,0:0:0:0:
19,254,45071,2,0,P|71:238|125:228,1,110.000003356934,0|2,1:0|3:2,0:0:0:0:
205,188,45449,6,0,P|168:90|65:77,1,220.000006713867,6|2,1:2|1:2,0:0:0:0:
0,340,46015,2,0,P|108:336|203:283,1,220.000006713867,0|2,3:0|3:2,0:0:0:0:
332,309,46581,2,0,P|385:322|439:331,1,110.000003356934,0|0,1:0|3:0,0:0:0:0:
314,217,46958,2,0,P|368:216|423:210,1,110.000003356934,2|0,1:2|3:0,0:0:0:0:
383,99,47335,2,0,P|331:119|279:134,1,110.000003356934,2|0,1:2|3:0,0:0:0:0:
308,2,47712,2,0,P|264:35|217:63,1,110.000003356934,2|0,1:2|3:0,0:0:0:0:
139,39,48090,1,2,1:2:0:0:
139,39,48279,1,0,3:0:0:0:
25,0,48467,6,0,P|63:103|85:213,1,220.000006713867,2|0,1:2|1:0,0:0:0:0:
48,314,49033,1,2,3:2:0:0:
48,314,49222,1,2,1:2:0:0:
140,374,49411,2,0,P|146:320|161:267,1,110.000003356934,2|0,3:2|1:0,0:0:0:0:
241,148,49788,2,0,P|258:200|263:255,1,110.000003356934,2|2,3:2|1:0,0:0:0:0:
349,360,50166,1,2,3:2:0:0:
441,363,50354,2,0,P|469:316|516:288,1,110.000003356934,2|0,1:2|3:0,0:0:0:0:
387,200,50732,2,0,P|362:253|404:288,1,110.000003356934,2|0,1:2|3:0,0:0:0:0:
511,156,51109,2,0,P|459:140|411:113,1,110.000003356934,2|0,1:2|3:0,0:0:0:0:
512,5,51486,6,0,P|403:23|294:35,1,220.000006713867,6|0,1:2|1:0,0:0:0:0:
185,55,52052,1,0,3:0:0:0:
251,142,52241,2,0,P|142:123|33:111,1,220.000006713867,0|0,1:0|1:0,0:0:0:0:
35,221,52807,1,0,3:0:0:0:
119,292,52996,1,2,1:2:0:0:
217,243,53185,2,0,P|269:225|323:218,1,110.000003356934,0|0,3:0|1:0,0:0:0:0:
444,336,53562,2,0,P|391:353|337:360,1,110.000003356934,2|0,3:2|1:0,0:0:0:0:
138,384,53939,1,2,3:2:0:0:
233,343,54128,1,0,1:0:0:0:
19,324,54316,1,2,3:2:0:0:
119,292,54505,6,0,P|103:183|92:73,1,220.000006713867,2|2,1:2|1:2,0:0:0:0:
388,0,55071,2,0,P|377:109|361:218,1,220.000006713867,0|0,3:0|3:0,0:0:0:0:
297,291,55637,1,0,1:0:0:0:
297,291,56015,2,0,P|256:255|249:201,1,110.000003356934,4|0,1:3|0:0,0:0:0:0:
259,184,56298,1,0,3:0:0:0:
279,181,56392,1,0,3:0:0:0:
279,181,56581,5,0,3:0:0:0:
321,146,56675,1,0,3:0:0:0:
323,91,56769,1,8,3:0:0:0:
287,48,56864,1,0,3:0:0:0:
232,56,56958,1,4,3:0:0:0:
163,131,57147,2,0,P|80:124|0:110,1,165.000005035401,12|0,0:0|0:0,0:0:0:0:
1,88,57524,5,6,1:0:0:0:
35,252,57713,2,0,P|38:311|44:371,1,119.999996337891,2|8,3:2|0:0,0:0:0:0:
172,211,58090,2,0,P|168:270|162:330,1,119.999996337891,2|0,3:2|1:0,0:0:0:0:
45,252,58467,2,0,P|48:311|54:371,1,119.999996337891,0|8,3:0|0:0,0:0:0:0:
182,211,58844,2,0,P|178:270|172:330,1,119.999996337891,2|0,3:2|1:0,0:0:0:0:
55,252,59222,2,0,P|58:311|64:371,1,119.999996337891,2|8,3:2|0:0,0:0:0:0:
192,211,59599,2,0,P|188:270|182:330,1,119.999996337891,2|0,3:2|1:0,0:0:0:0:
65,252,59977,1,2,3:2:0:0:
184,265,60166,1,8,0:0:0:0:
302,277,60354,1,0,3:0:0:0:
421,292,60543,5,2,1:2:0:0:
366,202,60732,2,0,P|359:142|371:84,1,119.999996337891,2|8,3:2|0:0,0:0:0:0:
512,168,61109,2,0,P|518:108|506:50,1,119.999996337891,2|0,3:2|1:0,0:0:0:0:
356,202,61486,2,0,P|349:142|361:84,1,119.999996337891,2|8,3:2|0:0,0:0:0:0:
502,168,61863,2,0,P|508:108|496:50,1,119.999996337891,2|0,3:2|1:0,0:0:0:0:
346,202,62241,2,0,P|339:142|351:84,1,119.999996337891,2|8,3:2|0:0,0:0:0:0:
492,168,62618,2,0,P|498:108|486:50,1,119.999996337891,2|0,3:2|1:0,0:0:0:0:
336,202,62996,1,2,3:2:0:0:
223,160,63185,1,8,0:0:0:0:
112,113,63373,1,0,3:0:0:0:
3,61,63562,6,0,P|52:28|111:17,1,119.999996337891,2|0,1:0|3:0,0:0:0:0:
198,70,63845,1,0,3:0:0:0:
198,69,63939,2,0,P|256:56|310:30,1,119.999996337891,8|0,0:0|3:0,0:0:0:0:
512,2,64316,2,0,P|457:23|433:76,1,119.999996337891,2|0,1:2|3:0,0:0:0:0:
460,256,64599,1,0,3:0:0:0:
460,256,64694,2,0,P|472:314|486:373,1,119.999996337891,10|0,0:0|3:0,0:0:0:0:
322,174,65071,6,0,P|202:177|87:211,1,239.999992675781,0|8,1:0|0:0,0:0:0:0:
121,384,65543,1,0,3:0:0:0:
121,384,65637,2,0,P|240:380|355:346,1,239.999992675781,2|0,3:2|3:0,0:0:0:0:
512,172,66203,2,0,P|452:165|395:147,1,119.999996337891,10|0,0:0|3:0,0:0:0:0:
298,45,66486,1,0,3:0:0:0:
297,44,66581,6,0,P|178:46|58:37,1,239.999992675781,2|10,1:2|0:0,0:0:0:0:
180,148,67147,2,0,P|72:162|86:269,1,239.999992675781,2|2,3:2|3:2,0:0:0:0:
189,330,67713,1,10,0:0:0:0:
308,328,67901,1,0,3:0:0:0:
428,328,68090,1,4,1:0:0:0:
484,169,68279,1,0,1:0:0:0:
454,175,68373,1,0,1:0:0:0:
424,181,68467,1,0,1:0:0:0:
395,190,68562,1,0,1:0:0:0:
366,198,68656,1,0,1:0:0:0:
338,208,68750,1,0,1:0:0:0:
310,219,68845,1,4,0:3:0:0:
310,219,69033,5,0,1:0:0:0:
307,188,69128,1,0,1:0:0:0:
305,158,69222,2,0,L|355:125,1,59.9999981689454,2|0,1:2|1:0,0:0:0:0:
405,0,69411,2,0,L|354:32,1,59.9999981689454,0|0,1:0|1:0,0:0:0:0:
250,41,69599,5,6,1:2:0:0:
192,190,69788,2,0,P|181:132|152:80,1,119.999996337891,2|8,3:2|0:0,0:0:0:0:
9,274,70166,2,0,P|20:332|49:384,1,119.999996337891,2|0,3:2|1:0,0:0:0:0:
203,190,70543,2,0,P|191:131|162:79,1,119.999996337891,2|8,3:2|0:0,0:0:0:0:
20,274,70921,2,0,P|31:332|60:384,1,119.999996337891,2|0,3:2|1:0,0:0:0:0:
213,190,71298,2,0,P|201:131|172:79,1,119.999996337891,2|8,3:2|0:0,0:0:0:0:
30,274,71676,2,0,P|41:332|70:384,1,119.999996337891,2|0,3:2|1:0,0:0:0:0:
223,190,72052,1,2,3:2:0:0:
249,307,72241,1,8,0:0:0:0:
442,267,72430,1,0,3:0:0:0:
416,384,72619,5,2,1:0:0:0:
416,384,72996,1,10,0:0:0:0:
340,280,73184,2,0,P|383:200|406:113,1,179.999994506836,2|0,3:2|0:0,0:0:0:0:
403,88,73562,2,0,P|462:79|518:58,1,119.999996337891,2|8,3:2|0:0,0:0:0:0:
300,6,73939,2,0,P|240:14|184:35,1,119.999996337891,2|0,3:2|1:0,0:0:0:0:
20,182,74316,2,0,P|79:173|135:152,1,119.999996337891,2|8,3:2|0:0,0:0:0:0:
339,279,74694,2,0,P|283:257|223:249,1,119.999996337891,2|0,3:2|1:0,0:0:0:0:
32,371,75071,1,2,3:2:0:0:
94,268,75260,1,8,0:0:0:0:
135,152,75449,1,0,3:0:0:0:
250,373,75637,6,0,P|349:310|467:317,1,239.999992675781,2|10,1:2|0:0,0:0:0:0:
362,166,76203,2,0,P|246:191|134:151,1,239.999992675781,2|0,3:2|3:0,0:0:0:0:
0,1,76769,2,0,P|78:14|54:90,1,179.999994506836,10|0,0:0|0:0,0:0:0:0:
23,101,77147,2,0,P|14:220|3:340,1,239.999992675781,2|8,1:2|0:0,0:0:0:0:
114,250,77713,1,0,3:0:0:0:
177,354,77901,2,0,P|192:297|224:246,1,119.999996337891,2|0,1:2|3:0,0:0:0:0:
457,376,78279,2,0,P|406:344|347:338,1,119.999996337891,10|0,0:0|3:0,0:0:0:0:
334,224,78562,1,0,3:0:0:0:
333,223,78656,2,0,P|380:187|417:140,1,119.999996337891,2|0,1:2|3:0,0:0:0:0:
512,0,79033,1,10,0:0:0:0:
420,25,79222,2,0,P|360:22|300:15,1,119.999996337891,2|0,3:2|1:0,0:0:0:0:
133,143,79599,2,0,P|192:140|252:133,1,119.999996337891,2|8,3:2|0:0,0:0:0:0:
420,25,79977,1,2,3:2:0:0:
512,115,80166,5,4,1:0:0:0:
482,240,80354,1,0,1:0:0:0:
453,248,80449,1,0,1:0:0:0:
424,256,80543,1,0,1:0:0:0:
396,268,80637,1,0,1:0:0:0:
371,285,80732,1,0,1:0:0:0:
350,306,80826,1,0,1:0:0:0:
338,278,80920,5,2,3:2:0:0:
316,256,81015,1,0,1:0:0:0:
289,241,81109,1,0,1:0:0:0:
259,235,81203,1,0,1:0:0:0:
254,264,81298,5,2,3:2:0:0:
253,293,81392,1,0,1:0:0:0:
252,322,81486,1,0,1:0:0:0:
251,352,81580,1,0,1:0:0:0:
221,352,81675,6,0,P|132:274|14:261,1,239.999992675781,6|10,1:2|0:0,0:0:0:0:
0,72,82241,2,0,P|49:104|108:116,1,119.999996337891,2|0,3:2|1:0,0:0:0:0:
269,135,82618,2,0,P|241:81|234:22,1,119.999996337891,2|8,3:2|0:0,0:0:0:0:
461,59,82996,1,0,3:0:0:0:
461,59,83090,1,0,3:0:0:0:
460,58,83184,2,0,P|404:74|375:125,1,119.999996337891,2|0,1:0|3:0,0:0:0:0:
512,272,83562,2,0,P|488:217|470:157,1,119.999996337891,8|0,0:0|3:0,0:0:0:0:
352,208,83939,2,0,P|277:250|278:336,1,179.999994506836,2|0,1:2|0:0,0:0:0:0:
278,336,84316,2,0,P|249:284|193:266,1,119.999996337891,10|0,0:0|3:0,0:0:0:0:
92,354,84599,1,0,3:0:0:0:
91,353,84694,6,0,P|79:237|165:160,1,239.999992675781,2|10,1:2|0:0,0:0:0:0:
111,33,85260,2,0,P|53:42|3:11,1,119.999996337891,2|0,3:2|1:0,0:0:0:0:
234,68,85637,2,0,P|272:112|276:171,1,119.999996337891,2|8,3:2|0:0,0:0:0:0:
272,367,86015,1,0,3:0:0:0:
272,367,86109,1,0,3:0:0:0:
272,367,86203,2,0,P|328:348|387:337,1,119.999996337891,2|0,1:0|3:0,0:0:0:0:
512,235,86581,2,0,P|458:212|436:158,1,119.999996337891,8|0,0:0|3:0,0:0:0:0:
496,0,86958,2,0,L|511:119,1,119.999996337891,2|0,1:2|3:0,0:0:0:0:
344,249,87335,2,0,P|284:254|228:276,1,119.999996337891,10|0,0:0|3:0,0:0:0:0:
99,211,87618,1,0,3:0:0:0:
99,211,87713,6,0,P|87:269|77:329,1,119.999996337891,6|0,1:0|3:0,0:0:0:0:
0,171,88090,1,10,0:0:0:0:
79,122,88279,2,0,P|67:63|57:3,1,119.999996337891,2|0,3:2|1:0,0:0:0:0:
178,143,88656,2,0,P|236:131|296:121,1,119.999996337891,2|8,3:2|0:0,0:0:0:0:
498,28,89033,1,0,3:0:0:0:
468,23,89128,1,0,3:0:0:0:
438,25,89222,2,0,P|444:84|437:143,1,119.999996337891,2|0,1:0|3:0,0:0:0:0:
318,319,89599,2,0,P|310:261|339:210,1,119.999996337891,8|0,0:0|3:0,0:0:0:0:
335,22,89977,6,0,P|244:22|155:11,1,179.999994506836,2|0,1:2|0:0,0:0:0:0:
145,33,90354,2,0,P|87:19|28:15,1,119.999996337891,10|0,0:0|3:0,0:0:0:0:
15,216,90637,1,0,3:0:0:0:
14,216,90732,2,0,P|5:275|2:335,1,119.999996337891,2|0,1:2|3:0,0:0:0:0:
112,133,91109,2,0,P|121:192|124:252,1,119.999996337891,10|0,0:0|3:0,0:0:0:0:
317,377,91486,2,0,P|266:347|208:334,1,119.999996337891,2|0,1:2|3:0,0:0:0:0:
261,147,91864,2,0,P|294:229|369:278,1,179.999994506836,10|0,0:0|0:0,0:0:0:0:
471,288,92241,5,6,1:0:0:0:
442,151,92430,1,0,1:0:0:0:
439,121,92524,1,0,1:0:0:0:
434,91,92618,1,2,1:2:0:0:
418,65,92713,1,0,1:0:0:0:
397,43,92807,1,0,1:0:0:0:
368,35,92901,1,0,1:0:0:0:
338,40,92996,1,4,0:3:0:0:
338,40,93184,5,0,1:0:0:0:
317,83,93279,1,0,1:0:0:0:
295,126,93373,2,0,P|266:129|236:127,1,59.9999981689454,2|0,1:2|1:0,0:0:0:0:
139,75,93562,2,0,P|109:76|79:73,1,59.9999981689454,0|0,1:0|1:0,0:0:0:0:
0,141,93750,5,6,1:2:0:0:
90,262,93939,5,2,3:2:0:0:
0,244,94128,1,8,0:0:0:0:
118,358,94316,1,2,3:2:0:0:
208,340,94505,1,0,1:0:0:0:
100,262,94694,5,2,3:2:0:0:
10,244,94883,1,8,0:0:0:0:
128,358,95071,1,2,3:2:0:0:
218,340,95260,1,0,1:0:0:0:
110,262,95449,5,2,3:2:0:0:
20,244,95638,1,8,0:0:0:0:
138,358,95826,1,2,3:2:0:0:
228,340,96015,1,0,1:0:0:0:
175,146,96203,5,2,3:2:0:0:
223,151,96298,1,0,3:0:0:0:
270,155,96392,1,8,0:0:0:0:
317,158,96486,1,0,3:0:0:0:
365,163,96581,1,0,3:0:0:0:
445,306,96769,6,0,P|459:248|470:189,1,119.999996337891,2|0,1:0|3:0,0:0:0:0:
358,350,97147,1,10,0:0:0:0:
273,302,97335,2,0,P|216:321|157:331,1,119.999996337891,2|0,3:2|1:0,0:0:0:0:
0,228,97713,2,0,P|29:279|38:338,1,119.999996337891,2|8,3:2|0:0,0:0:0:0:
97,142,98090,2,0,P|103:82|114:23,1,119.999996337891,2|0,3:2|1:0,0:0:0:0:
304,194,98467,2,0,P|281:139|233:103,1,119.999996337891,2|8,3:2|0:0,0:0:0:0:
453,0,98845,2,0,P|416:45|358:55,1,119.999996337891,2|0,3:2|1:0,0:0:0:0:
234,104,99222,1,2,3:2:0:0:
208,248,99411,1,8,0:0:0:0:
392,156,99599,1,0,3:0:0:0:
377,256,99788,6,0,P|258:273|141:300,1,239.999992675781,2|10,1:2|0:0,0:0:0:0:
320,362,100354,2,0,P|434:352|481:248,1,239.999992675781,2|0,3:2|3:0,0:0:0:0:
372,35,100920,2,0,P|435:86|391:155,1,179.999994506836,10|0,0:0|0:0,0:0:0:0:
370,142,101298,2,0,P|310:137|250:134,1,119.999996337891,2|0,1:2|3:0,0:0:0:0:
184,25,101581,1,0,3:0:0:0:
183,25,101675,2,0,P|135:60|80:83,1,119.999996337891,8|2,0:0|3:2,0:0:0:0:
177,209,102052,2,0,P|88:191|0:199,1,179.999994506836,2|0,1:2|0:0,0:0:0:0:
0,198,102430,2,0,P|73:249|127:321,1,179.999994506836,10|0,0:0|0:0,0:0:0:0:
19,365,102807,6,0,P|76:377|127:349,1,119.999996337891,2|0,1:2|3:0,0:0:0:0:
293,297,103184,1,10,0:0:0:0:
356,359,103373,2,0,P|412:353|475:351,1,119.999996337891,2|0,3:2|1:0,0:0:0:0:
437,185,103750,2,0,P|387:214|374:271,1,119.999996337891,2|8,3:2|0:0,0:0:0:0:
511,115,104128,1,2,3:2:0:0:
459,26,104316,5,4,1:0:0:0:
391,94,104505,1,0,1:0:0:0:
361,87,104599,1,0,1:0:0:0:
331,80,104694,1,0,1:0:0:0:
301,75,104788,1,0,1:0:0:0:
271,71,104882,1,0,1:0:0:0:
241,67,104977,1,0,1:0:0:0:
224,73,105071,5,2,3:2:0:0:
205,71,105166,1,0,1:0:0:0:
187,69,105260,1,0,1:0:0:0:
169,68,105354,1,0,1:0:0:0:
158,62,105449,5,2,3:2:0:0:
146,63,105543,1,0,1:0:0:0:
134,65,105637,1,0,1:0:0:0:
123,70,105732,1,0,1:0:0:0:
122,75,105826,5,2,0:0:0:0:
122,75,108845,5,6,1:0:0:0:
205,231,109033,1,0,1:0:0:0:
243,120,109222,1,10,0:0:0:0:
40,210,109411,2,0,P|24:152|0:97,1,119.999996337891,6|0,1:2|0:0,0:0:0:0:
0,354,109788,1,8,1:3:0:0:
112,274,109977,1,4,1:3:0:0:
259,352,110166,2,0,P|318:347|378:338,1,119.999996337891,6|0,1:2|0:0,0:0:0:0:
407,333,110449,1,8,0:0:0:0:
436,339,110543,1,2,0:0:0:0:
494,217,110732,1,8,0:0:0:0:
457,122,110920,2,0,P|398:136|339:146,1,119.999996337891,6|8,1:2|0:0,0:0:0:0:
153,107,111298,1,8,1:3:0:0:
245,275,111486,1,4,1:3:0:0:
262,31,111675,1,6,1:2:0:0:
256,192,111769,12,2,114882,0:0:0:0:
