osu file format v14

[General]
AudioFilename: audio.mp3
AudioLeadIn: 0
PreviewTime: 57429
Countdown: 0
SampleSet: Soft
StackLeniency: 0.7
Mode: 0
LetterboxInBreaks: 0
WidescreenStoryboard: 1

[Editor]
Bookmarks: 12895,24970,40065
DistanceSpacing: 0.9
BeatDivisor: 4
GridSize: 16
TimelineZoom: 1.7

[Metadata]
Title:Shinsou Noise
TitleUnicode:シンソウノイズ
Artist:Shimotsuki Haruka x Ceui
ArtistUnicode:霜月はるか x Ceui
Creator:Bellicose
Version:Normal
Source:シンソウノイズ~受信探偵の事件簿~
Tags:Shinsou Noise ~Jushin Tantei no Jikenbo~ Azurite DiGination eroge video game vn visual novel short version japanese pop shurelia
BeatmapID:3595365
BeatmapSetID:1756879

[Difficulty]
HPDrainRate:4
CircleSize:3.2
OverallDifficulty:4
ApproachRate:5
SliderMultiplier:1.1
SliderTickRate:1

[Events]
//Background and Video events
0,0,"bg.png",0,0
//Break Periods
//Storyboard Layer 0 (Background)
//Storyboard Layer 1 (Fail)
//Storyboard Layer 2 (Pass)
//Storyboard Layer 3 (Foreground)
//Storyboard Layer 4 (Overlay)
//Storyboard Sound Samples

[TimingPoints]
166,377.358490566038,4,2,3,30,1,0
166,-100,4,2,3,30,0,0
24128,-100,4,2,3,30,0,0
24316,-100,4,2,1,50,0,0
24694,-100,4,2,4,40,0,0
25826,-100,4,2,4,40,0,0
26109,-100,4,2,4,5,0,0
26203,-100,4,2,4,40,0,0
27335,-100,4,2,4,40,0,0
27713,-100,4,2,4,40,0,0
30354,-100,4,2,4,40,0,0
31109,-100,4,2,4,40,0,0
36392,-100,4,2,4,40,0,0
36958,-100,4,2,4,40,0,0
37901,-100,4,2,4,40,0,0
38090,-100,4,2,4,40,0,0
39411,377.358490566038,4,2,4,50,1,0
39411,-100,4,2,4,50,0,0
39694,-100,4,2,4,5,0,0
39788,-100,4,2,1,50,0,0
42713,-100,4,2,1,5,0,0
42807,-100,4,2,1,50,0,0
43939,-100,4,2,3,50,0,0
44222,-100,4,2,3,5,0,0
44316,-100,4,2,1,50,0,0
45449,-100,4,2,1,50,0,0
45732,-100,4,2,1,5,0,0
45826,-100,4,2,1,50,0,0
48939,-100,4,2,1,5,0,0
49033,-100,4,2,1,50,0,0
49977,-100,4,2,3,50,0,0
50166,-100,4,2,1,50,0,0
51486,-100,4,2,1,60,0,0
52052,-100,4,2,1,50,0,0
54505,-100,4,2,1,60,0,0
54788,-100,4,2,1,5,0,0
54882,-100,4,2,1,60,0,0
56298,-100,4,2,3,60,0,0
56581,-100,4,2,3,60,0,0
56769,-100,4,2,3,60,0,0
56958,-100,4,2,3,60,0,0
57147,-100,4,2,1,60,0,0
57524,-90.9090909090909,4,2,1,70,0,1
59505,-90.9090909090909,4,2,1,5,0,1
59599,-90.9090909090909,4,2,1,70,0,1
59882,-90.9090909090909,4,2,1,5,0,1
59977,-90.9090909090909,4,2,1,70,0,1
62524,-90.9090909090909,4,2,1,5,0,1
62618,-90.9090909090909,4,2,1,70,0,1
62901,-90.9090909090909,4,2,1,5,0,1
62996,-90.9090909090909,4,2,1,70,0,1
63562,-90.9090909090909,4,2,3,70,0,1
63939,-90.9090909090909,4,2,1,70,0,1
64977,-90.9090909090909,4,2,1,5,0,1
65071,-90.9090909090909,4,2,1,70,0,1
66864,-90.9090909090909,4,2,1,5,0,1
66958,-90.9090909090909,4,2,1,70,0,1
68090,-90.9090909090909,4,2,1,70,0,0
68279,-90.9090909090909,4,2,2,60,0,0
69599,-90.9090909090909,4,2,1,70,0,1
71581,-90.9090909090909,4,2,1,5,0,1
71675,-90.9090909090909,4,2,1,70,0,1
71958,-90.9090909090909,4,2,1,5,0,1
72052,-90.9090909090909,4,2,1,70,0,1
72618,-90.9090909090909,4,2,3,70,0,1
72901,-90.9090909090909,4,2,1,5,0,1
72996,-90.9090909090909,4,2,1,70,0,1
75637,-90.9090909090909,4,2,1,70,0,1
75920,-90.9090909090909,4,2,1,5,0,1
76015,-90.9090909090909,4,2,1,70,0,1
78939,-90.9090909090909,4,2,1,5,0,1
79033,-90.9090909090909,4,2,1,70,0,1
80165,-90.9090909090909,4,2,1,70,0,0
80354,-90.9090909090909,4,2,2,60,0,0
81675,-90.9090909090909,4,2,1,70,0,1
81958,-90.9090909090909,4,2,1,5,0,1
82052,-90.9090909090909,4,2,1,70,0,1
83184,-90.9090909090909,4,2,3,70,0,1
83373,-90.9090909090909,4,2,1,70,0,1
83939,-90.9090909090909,4,2,1,70,0,1
84222,-90.9090909090909,4,2,1,5,0,1
84316,-90.9090909090909,4,2,1,70,0,1
84599,-90.9090909090909,4,2,1,5,0,1
84694,-90.9090909090909,4,2,1,70,0,1
84977,-90.9090909090909,4,2,1,5,0,1
85071,-90.9090909090909,4,2,1,70,0,1
86203,-90.9090909090909,4,2,3,70,0,1
86392,-90.9090909090909,4,2,1,70,0,1
86958,-90.9090909090909,4,2,1,70,0,1
87241,-90.9090909090909,4,2,1,5,0,1
87335,-90.9090909090909,4,2,1,70,0,1
87618,-90.9090909090909,4,2,1,5,0,1
87713,-90.9090909090909,4,2,1,70,0,1
87996,-90.9090909090909,4,2,1,5,0,1
88090,-90.9090909090909,4,2,1,70,0,1
89222,-90.9090909090909,4,2,3,70,0,1
89411,-90.9090909090909,4,2,1,70,0,1
89977,-90.9090909090909,4,2,1,70,0,1
90732,-90.9090909090909,4,2,1,70,0,1
91015,-90.9090909090909,4,2,1,5,0,1
91109,-90.9090909090909,4,2,1,70,0,1
91864,-90.9090909090909,4,2,1,70,0,1
92147,-90.9090909090909,4,2,1,5,0,1
92241,-90.9090909090909,4,2,1,70,0,0
92430,-90.9090909090909,4,2,2,60,0,0
93750,-90.9090909090909,4,2,1,70,0,1
95732,-90.9090909090909,4,2,1,5,0,1
95826,-90.9090909090909,4,2,1,70,0,1
96109,-90.9090909090909,4,2,1,5,0,1
96203,-90.9090909090909,4,2,1,70,0,1
96769,-90.9090909090909,4,2,3,70,0,1
97052,-90.9090909090909,4,2,1,5,0,1
97147,-90.9090909090909,4,2,1,70,0,1
99788,-90.9090909090909,4,2,1,70,0,1
100071,-90.9090909090909,4,2,1,5,0,1
100166,-90.9090909090909,4,2,1,70,0,1
103090,-90.9090909090909,4,2,1,5,0,1
103184,-90.9090909090909,4,2,1,70,0,1
104316,-90.9090909090909,4,2,1,70,0,0
104505,-90.9090909090909,4,2,2,60,0,0
105826,-100,4,2,1,50,0,0
106392,-100,4,2,1,40,0,0
107147,-100,4,2,1,30,0,0
108090,-100,4,2,1,40,0,0
108750,-90.9090909090909,4,2,1,5,0,0
108845,-90.9090909090909,4,2,1,70,0,0
109222,-90.9090909090909,4,2,1,70,0,0
109411,-90.9090909090909,4,2,1,70,0,1
109694,-90.9090909090909,4,2,1,5,0,1
109788,-90.9090909090909,4,2,1,70,0,0
110165,-90.9090909090909,4,2,1,70,0,1
110543,-90.9090909090909,4,2,1,70,0,0
110920,-90.9090909090909,4,2,1,70,0,1
111203,-90.9090909090909,4,2,1,5,0,1
111297,-90.9090909090909,4,2,1,70,0,0
111675,-90.9090909090909,4,2,1,70,0,1
114882,377.358490566038,4,2,3,20,1,0
114882,-100,4,2,3,20,0,0
116203,-100,4,2,3,5,0,0
116392,-100,4,2,3,20,0,0
119222,-100,4,2,3,5,0,0
119411,-100,4,2,3,20,0,0
122241,-100,4,2,3,5,0,0
122430,-100,4,2,3,20,0,0
128279,-100,4,2,3,5,0,0
128467,-100,4,2,3,20,0,0
131298,-100,4,2,3,5,0,0
131486,-100,4,2,3,20,0,0
134316,-100,4,2,3,5,0,0
134505,-100,4,2,3,20,0,0
136015,-100,4,2,3,15,0,0

[Colours]
Combo1 : 226,143,243
Combo2 : 139,222,254
Combo3 : 253,206,240
Combo4 : 150,166,254

[HitObjects]
99,76,166,6,0,P|132:115|199:109,1,110,2|0,3:2|3:0,0:0:0:0:
230,90,732,2,0,P|192:181|183:256,1,165,2|0,3:2|3:0,0:0:0:0:
237,328,1675,2,0,P|298:306|360:299,1,110,2|0,3:2|3:0,0:0:0:0:
391,307,2241,1,2,3:2:0:0:
458,379,2618,2,0,P|492:335|474:271,1,110,2|0,3:2|3:0,0:0:0:0:
466,237,3184,6,0,P|474:182|494:131,1,110,2|0,3:2|3:0,0:0:0:0:
469,88,3750,2,0,B|366:72|418:162|304:135,1,165,2|0,3:2|3:0,0:0:0:0:
267,56,4694,2,0,P|214:21|152:35,1,110,2|2,3:2|0:2,0:0:0:0:
135,61,5260,1,2,3:2:0:0:
86,147,5637,2,0,P|140:155|191:175,1,110,2|0,0:0|3:0,0:0:0:0:
233,200,6203,6,0,P|191:245|198:300,1,110,2|2,3:2|0:0,0:0:0:0:
214,334,6769,2,0,P|159:342|42:383,1,165,2|0,3:2|3:0,0:0:0:0:
4,291,7713,2,0,P|23:239|32:185,1,110,2|2,3:2|3:2,0:0:0:0:
19,137,8279,1,2,3:2:0:0:
53,44,8656,2,0,P|114:49|155:15,1,110,2|0,3:2|3:0,0:0:0:0:
200,19,9222,6,0,P|180:70|171:124,1,110,2|2,3:2|3:2,0:0:0:0:
175,173,9788,1,2,3:2:0:0:
267,138,10166,2,0,P|311:107|365:115,1,110,2|0,0:0|3:0,0:0:0:0:
411,98,10732,2,0,P|441:142|433:196,1,110,2|2,3:2|0:0,0:0:0:0:
410,239,11298,1,2,3:2:0:0:
345,313,11675,2,0,P|293:293|239:284,1,110,2|0,0:0|0:0,0:0:0:0:
208,323,12241,6,0,B|186:217|142:285|130:183,1,165,2|0,3:1|3:0,0:0:0:0:
230,75,13373,1,2,3:2:0:0:
160,4,13750,2,0,P|125:50|21:34,1,165,2|2,3:1|3:2,0:0:0:0:
8,137,14694,2,0,P|28:194|37:259,1,110,0|0,3:0|3:0,0:0:0:0:
21,290,15260,6,0,B|130:284|65:228|171:222,1,165,2|0,3:1|3:0,0:0:0:0:
186,318,16203,2,0,P|227:355|292:338,1,110,2|2,0:2|0:0,0:0:0:0:
363,297,16958,1,2,0:0:0:0:
445,367,17335,2,0,P|454:312|473:261,1,110,0|2,3:0|0:0,0:0:0:0:
428,119,18279,5,2,3:1:0:0:
498,49,18656,2,0,P|446:67|277:100,1,220,2|0,0:0|3:0,0:0:0:0:
189,73,19788,2,0,P|245:106|241:211,1,165,2|0,3:1|3:0,0:0:0:0:
223,240,20543,1,2,3:2:0:0:
145,178,20920,1,0,3:0:0:0:
66,238,21298,6,0,B|72:335|126:281|130:382,2,165,2|2|2,3:1|3:2|3:2,0:0:0:0:
0,163,22807,2,0,P|31:142|26:63,1,110,2|0,3:1|3:0,0:0:0:0:
15,28,23373,2,0,P|153:53|288:85,1,275,2|4,3:2|1:0,0:0:0:0:
356,16,24694,6,0,P|334:100|318:197,1,165,2|0,1:2|3:0,0:0:0:0:
320,226,25449,1,2,1:2:0:0:
416,206,25826,2,0,P|486:214|506:254,1,110,2|0,1:2|1:0,0:0:0:0:
503,292,26392,2,0,P|421:306|375:320,1,110,2|0,3:2|3:0,0:0:0:0:
352,338,26958,1,2,1:2:0:0:
311,247,27335,6,0,P|257:260|203:268,2,110,2|0|0,1:2|1:0|1:0,0:0:0:0:
349,215,28279,2,0,P|305:164|318:123,1,110,2|2,3:2|3:2,0:0:0:0:
345,89,28845,1,2,1:2:0:0:
276,17,29222,1,2,1:2:0:0:
179,38,29599,1,2,1:2:0:0:
150,133,29977,1,2,1:2:0:0:
207,213,30354,6,0,B|108:225|160:148|60:162,1,165,6|2,1:2|3:2,0:0:0:0:
11,167,31109,2,0,P|28:228|36:285,1,110,0|0,1:0|1:0,0:0:0:0:
4,368,31864,2,0,P|59:317|150:331,1,165,2|0,1:2|3:0,0:0:0:0:
176,363,32618,1,2,1:2:0:0:
263,317,32996,1,2,1:2:0:0:
212,232,33373,6,0,P|220:177|236:124,1,110,2|0,1:2|1:0,0:0:0:0:
230,75,33939,2,0,P|287:85|332:43,1,110,2|0,3:2|3:0,0:0:0:0:
347,10,34505,1,2,1:2:0:0:
445,17,34882,2,0,P|484:51|471:113,1,110,2|0,1:2|1:0,0:0:0:0:
459,151,35449,2,0,P|404:159|351:175,1,110,0|0,3:0|3:0,0:0:0:0:
312,204,36015,1,2,1:2:0:0:
270,293,36392,6,0,B|374:292|314:360|421:360,1,165,2|2,1:2|3:2,0:0:0:0:
460,364,37147,2,0,P|468:309|484:256,1,110,2|0,1:2|1:0,0:0:0:0:
506,160,37901,1,0,1:0:0:0:
434,92,38279,1,0,1:0:0:0:
338,118,38656,2,0,P|294:151|234:141,1,110,0|0,1:0|1:0,0:0:0:0:
262,48,39411,6,0,P|207:40|154:24,1,110,6|0,1:2|1:0,0:0:0:0:
117,56,39977,2,0,P|71:70|51:83,1,55,2|0,3:2|1:0,0:0:0:0:
15,73,40354,2,0,P|-1:127|34:172,1,110,2|0,3:2|3:0,0:0:0:0:
73,185,40920,1,2,1:2:0:0:
167,153,41298,1,2,1:2:0:0:
244,214,41675,1,2,1:2:0:0:
229,311,42052,2,0,P|183:325|163:338,1,55,2|0,1:2|3:0,0:0:0:0:
145,366,42430,6,0,B|75:359|115:323|31:317,1,110,2|2,1:2|1:2,0:0:0:0:
0,311,42996,2,0,P|11:286|17:259,1,55,2|0,3:2|1:0,0:0:0:0:
13,209,43373,2,0,P|46:171|102:184,1,110,2|0,3:2|3:0,0:0:0:0:
133,217,43939,1,2,1:0:0:0:
229,194,44316,1,2,1:2:0:0:
284,275,44694,2,0,P|356:251|410:243,1,110,2|0,1:2|1:0,0:0:0:0:
441,259,45260,1,2,3:2:0:0:
441,259,45449,6,0,P|481:211|455:154,1,110,6|2,1:2|1:2,0:0:0:0:
464,119,46015,2,0,P|412:106|393:97,1,55,0|0,3:0|1:0,0:0:0:0:
366,128,46392,2,0,P|354:74|336:22,1,110,2|0,3:2|3:0,0:0:0:0:
290,3,46958,1,2,1:2:0:0:
195,33,47335,1,2,1:2:0:0:
172,129,47713,1,2,1:2:0:0:
246,194,48090,2,0,P|237:220|232:247,1,55,2|0,1:2|3:0,0:0:0:0:
186,266,48467,6,0,P|151:323|185:371,1,110,2|0,1:2|1:0,0:0:0:0:
217,377,49033,1,2,3:2:0:0:
217,377,49222,2,0,P|297:351|334:346,1,110,2|0,1:2|1:0,0:0:0:0:
373,367,49788,1,2,3:2:0:0:
373,367,49977,2,0,P|383:313|402:261,1,110,2|2,1:0|1:2,0:0:0:0:
374,166,50732,1,2,1:2:0:0:
278,139,51109,1,2,1:2:0:0:
210,211,51486,6,0,B|75:198|167:305|9:287,1,220,6|0,1:2|1:0,0:0:0:0:
37,190,52618,1,0,1:0:0:0:
4,101,52996,1,2,1:2:0:0:
4,101,53184,2,0,P|13:35|59:16,1,110,0|2,3:0|3:2,0:0:0:0:
145,4,53939,1,2,3:2:0:0:
187,93,54316,1,2,3:2:0:0:
187,93,54505,6,0,P|203:149|205:218,1,110,2|2,1:2|1:2,0:0:0:0:
189,246,55071,2,0,P|264:223|334:290,1,165,0|0,3:0|1:0,0:0:0:0:
336,325,55826,1,0,3:0:0:0:
336,325,56015,1,4,1:3:0:0:
489,107,57147,1,12,0:0:0:0:
433,13,57524,5,6,1:0:0:0:
433,13,57713,2,0,P|384:28|349:32,1,60.5000018463135,2|8,3:2|0:0,0:0:0:0:
321,18,58090,2,0,P|279:48|290:126,1,121.000003692627,2|0,3:2|3:0,0:0:0:0:
315,160,58656,1,8,0:0:0:0:
315,160,58845,2,0,P|376:167|442:190,1,121.000003692627,2|2,3:2|3:2,0:0:0:0:
479,213,59411,1,8,0:0:0:0:
479,213,59599,1,2,3:2:0:0:
447,317,59977,2,0,P|400:363|343:338,1,121.000003692627,2|0,3:2|3:0,0:0:0:0:
323,309,60543,5,2,1:2:0:0:
323,309,60732,2,0,P|293:315|264:325,1,60.5000018463135,2|8,3:2|0:0,0:0:0:0:
229,366,61109,2,0,B|224:291|183:339|177:250,1,121.000003692627,2|2,3:2|3:2,0:0:0:0:
168,212,61675,1,8,0:0:0:0:
168,212,61864,2,0,P|207:173|273:192,1,121.000003692627,2|2,3:2|3:2,0:0:0:0:
304,232,62430,1,8,0:0:0:0:
304,232,62618,1,2,3:2:0:0:
402,186,62996,2,0,P|382:123|372:60,1,121.000003692627,2|0,3:2|3:0,0:0:0:0:
389,16,63562,6,0,P|326:36|263:46,1,121.000003692627,2|8,1:0|0:0,0:0:0:0:
168,10,64316,1,2,1:2:0:0:
80,74,64694,1,10,0:0:0:0:
103,180,65071,2,0,P|166:160|229:150,1,121.000003692627,0|8,1:0|0:0,0:0:0:0:
273,140,65637,2,0,P|307:178|289:256,1,121.000003692627,2|0,3:2|3:0,0:0:0:0:
274,292,66203,1,10,0:0:0:0:
168,266,66581,5,2,1:2:0:0:
128,367,66958,1,10,0:0:0:0:
128,367,67147,2,0,P|65:347|2:337,1,121.000003692627,2|2,3:2|3:2,0:0:0:0:
1,284,67713,2,0,P|10:255|16:225,1,60.5000018463135,10|0,0:0|3:0,0:0:0:0:
6,172,68090,2,0,B|129:148|67:238|188:209,1,181.500005538941,4|0,1:0|1:0,0:0:0:0:
223,192,68845,1,4,0:3:0:0:
164,100,69222,1,2,1:2:0:0:
235,17,69599,5,6,1:2:0:0:
235,17,69788,2,0,P|264:22|293:32,1,60.5000018463135,2|8,3:2|0:0,0:0:0:0:
346,20,70166,2,0,P|390:57|379:126,1,121.000003692627,2|2,3:2|3:2,0:0:0:0:
338,136,70732,1,8,0:0:0:0:
338,136,70920,2,0,P|318:199|308:262,1,121.000003692627,2|2,3:2|3:2,0:0:0:0:
318,311,71486,1,8,0:0:0:0:
318,311,71675,1,2,3:2:0:0:
409,370,72052,2,0,P|453:333|442:264,1,121.000003692627,2|0,3:2|3:0,0:0:0:0:
425,224,72618,5,2,1:0:0:0:
504,148,72996,1,10,0:0:0:0:
504,148,73184,2,0,P|499:119|489:90,1,60.5000018463135,2|0,3:2|1:0,0:0:0:0:
467,39,73562,2,0,B|388:33|441:95|337:80,1,121.000003692627,2|2,3:2|3:2,0:0:0:0:
267,26,74316,1,2,3:2:0:0:
169,75,74694,1,2,3:2:0:0:
178,183,75071,2,0,P|241:193|316:214,1,121.000003692627,2|0,3:2|3:0,0:0:0:0:
349,194,75637,5,2,1:2:0:0:
402,295,76015,1,10,0:0:0:0:
402,295,76203,2,0,P|351:341|295:326,1,121.000003692627,2|0,3:2|3:0,0:0:0:0:
259,301,76769,1,10,0:0:0:0:
174,369,77147,2,0,P|114:359|55:344,1,121.000003692627,2|8,1:2|0:0,0:0:0:0:
7,365,77713,1,0,3:0:0:0:
7,365,77901,2,0,P|22:306|31:246,1,121.000003692627,2|10,1:2|0:0,0:0:0:0:
2,141,78656,6,0,P|53:95|109:110,1,121.000003692627,2|10,1:2|0:0,0:0:0:0:
144,135,79222,1,2,3:2:0:0:
160,242,79599,1,2,3:2:0:0:
270,224,79977,1,2,3:2:0:0:
270,224,80165,2,0,B|272:115|342:179|335:58,1,181.500005538941,4|0,1:0|1:0,0:0:0:0:
322,11,80920,2,0,P|274:29|251:35,1,60.5000018463135,2|0,3:2|1:0,0:0:0:0:
212,17,81298,2,0,P|200:66|197:90,1,60.5000018463135,2|0,3:2|1:0,0:0:0:0:
180,127,81675,6,0,P|120:137|62:153,1,121.000003692627,6|10,1:2|0:0,0:0:0:0:
12,176,82241,1,0,3:0:0:0:
7,284,82618,1,0,3:0:0:0:
112,255,82996,1,0,3:0:0:0:
112,255,83184,2,0,B|184:252|148:302|221:298,1,121.000003692627,2|8,1:0|0:0,0:0:0:0:
297,373,83939,2,0,P|346:361|370:358,1,60.5000018463135,2|0,1:2|3:0,0:0:0:0:
409,369,84316,2,0,P|414:339|422:310,1,60.5000018463135,10|0,0:0|3:0,0:0:0:0:
455,266,84694,6,0,P|404:227|348:247,1,121.000003692627,2|10,1:2|0:0,0:0:0:0:
311,275,85260,1,0,3:0:0:0:
281,170,85637,1,0,3:0:0:0:
177,191,86015,1,0,3:0:0:0:
177,191,86203,2,0,P|186:131|202:73,1,121.000003692627,2|8,1:0|0:0,0:0:0:0:
287,3,86958,2,0,P|316:11|345:16,1,60.5000018463135,2|0,1:2|3:0,0:0:0:0:
400,22,87335,2,0,P|405:51|413:80,1,60.5000018463135,10|0,0:0|3:0,0:0:0:0:
400,134,87713,6,0,P|465:127|505:185,1,121.000003692627,6|10,1:0|0:0,0:0:0:0:
508,218,88279,1,0,3:0:0:0:
469,319,88656,1,0,3:0:0:0:
378,269,89033,1,0,3:0:0:0:
378,269,89222,2,0,B|303:267|345:315|250:308,1,121.000003692627,2|8,1:0|0:0,0:0:0:0:
177,369,89977,2,0,P|147:360|118:355,1,60.5000018463135,2|0,1:2|3:0,0:0:0:0:
63,354,90354,2,0,P|57:324|49:295,1,60.5000018463135,10|0,0:0|3:0,0:0:0:0:
31,243,90732,6,0,P|89:226|149:217,1,121.000003692627,2|10,1:2|0:0,0:0:0:0:
256,232,91486,1,2,1:2:0:0:
307,135,91864,2,0,P|312:105|320:76,1,60.5000018463135,10|0,0:0|3:0,0:0:0:0:
312,22,92241,1,6,1:0:0:0:
204,3,92618,1,2,1:2:0:0:
121,74,92996,1,4,0:3:0:0:
13,55,93373,1,2,1:2:0:0:
16,170,93750,5,6,1:2:0:0:
16,170,93939,2,0,P|45:175|74:183,1,60.5000018463135,2|8,3:2|0:0,0:0:0:0:
120,213,94316,2,0,P|166:175|227:184,1,121.000003692627,2|2,3:2|3:2,0:0:0:0:
269,211,94882,1,8,0:0:0:0:
269,211,95071,2,0,P|282:132|296:78,1,121.000003692627,2|2,3:2|3:2,0:0:0:0:
305,42,95637,1,8,0:0:0:0:
305,42,95826,1,2,3:2:0:0:
408,9,96203,2,0,P|457:55|447:106,1,121.000003692627,2|0,3:2|3:0,0:0:0:0:
424,151,96769,5,2,1:0:0:0:
503,234,97147,1,10,0:0:0:0:
503,234,97335,2,0,P|494:263|489:292,1,60.5000018463135,2|0,3:2|1:0,0:0:0:0:
474,345,97713,2,0,B|406:341|446:300|357:302,1,121.000003692627,2|2,3:2|3:2,0:0:0:0:
272,358,98467,1,2,3:2:0:0:
199,276,98845,1,2,3:2:0:0:
291,219,99222,2,0,P|310:146|321:80,1,121.000003692627,2|0,3:2|3:0,0:0:0:0:
325,47,99788,5,2,1:2:0:0:
229,6,100166,1,10,0:0:0:0:
229,6,100354,2,0,P|169:17|111:33,1,121.000003692627,2|0,3:2|3:0,0:0:0:0:
59,51,100920,1,10,0:0:0:0:
14,150,101298,2,0,P|53:187|122:171,1,121.000003692627,2|8,1:2|0:0,0:0:0:0:
169,160,101864,1,2,3:2:0:0:
169,160,102052,2,0,P|153:218|141:277,1,121.000003692627,2|10,1:2|0:0,0:0:0:0:
204,367,102807,6,0,P|243:330|312:346,1,121.000003692627,2|10,1:2|0:0,0:0:0:0:
346,375,103373,1,2,3:2:0:0:
410,287,103750,1,2,3:2:0:0:
330,211,104128,1,2,3:2:0:0:
330,211,104316,2,0,B|323:106|253:168|254:53,1,181.500005538941,4|0,1:0|1:0,0:0:0:0:
276,7,105071,2,0,P|311:15|353:27,1,60.5000018463135,2|0,3:2|1:0,0:0:0:0:
388,12,105449,2,0,P|395:41|402:70,1,60.5000018463135,2|0,3:2|1:0,0:0:0:0:
444,96,105826,6,0,P|477:120|471:197,1,110,2|2,0:0|0:0,0:0:0:0:
446,221,106392,1,2,0:0:0:0:
351,192,106769,1,2,0:0:0:0:
303,279,107147,2,0,B|161:282|253:357|97:358,1,220,2|0,0:0|0:0,0:0:0:0:
58,356,108090,2,0,P|83:277|92:227,1,110,2|0,0:3|0:0,0:0:0:0:
22,163,108845,6,0,P|16:133|7:104,1,60.5000018463135,6|0,1:0|1:0,0:0:0:0:
11,53,109222,1,10,0:0:0:0:
11,53,109411,2,0,P|50:15|129:31,1,121.000003692627,6|8,1:2|1:3,0:0:0:0:
158,58,109977,1,4,1:3:0:0:
158,58,110165,1,6,1:2:0:0:
193,160,110543,2,0,P|221:151|251:145,1,60.5000018463135,2|8,0:0|0:0,0:0:0:0:
302,164,110920,2,0,B|295:89|345:128|337:34,1,121.000003692627,6|8,1:2|1:3,0:0:0:0:
311,11,111486,1,4,1:3:0:0:
311,11,111675,1,6,1:2:0:0:
256,192,111864,12,2,114882,0:0:0:0:
