osu file format v14

[General]
AudioFilename: audio.mp3
AudioLeadIn: 0
PreviewTime: 57429
Countdown: 0
SampleSet: Soft
StackLeniency: 0.7
Mode: 0
LetterboxInBreaks: 0
WidescreenStoryboard: 1

[Editor]
Bookmarks: 12895,24970,40065
DistanceSpacing: 1.2
BeatDivisor: 4
GridSize: 16
TimelineZoom: 1.7

[Metadata]
Title:Shinsou Noise
TitleUnicode:シンソウノイズ
Artist:Shimotsuki Haruka x Ceui
ArtistUnicode:霜月はるか x Ceui
Creator:Bellicose
Version:Hard
Source:シンソウノイズ~受信探偵の事件簿~
Tags:Shinsou Noise ~Jushin Tantei no Jikenbo~ Azurite DiGination eroge video game vn visual novel short version japanese pop shurelia
BeatmapID:3595363
BeatmapSetID:1756879

[Difficulty]
HPDrainRate:5
CircleSize:3.7
OverallDifficulty:6
ApproachRate:7.5
SliderMultiplier:1.6
SliderTickRate:1

[Events]
//Background and Video events
0,0,"bg.png",0,0
//Break Periods
//Storyboard Layer 0 (Background)
//Storyboard Layer 1 (Fail)
//Storyboard Layer 2 (Pass)
//Storyboard Layer 3 (Foreground)
//Storyboard Layer 4 (Overlay)
//Storyboard Sound Samples

[TimingPoints]
166,377.358490566038,4,2,3,30,1,0
166,-111.111111111111,4,2,3,30,0,0
24128,-111.111111111111,4,2,3,30,0,0
24316,-100,4,2,1,50,0,0
24694,-100,4,2,4,40,0,0
25826,-100,4,2,4,40,0,0
26109,-100,4,2,4,5,0,0
26203,-100,4,2,4,40,0,0
27335,-100,4,2,4,40,0,0
27713,-100,4,2,4,40,0,0
30354,-100,4,2,4,40,0,0
31109,-100,4,2,4,40,0,0
36392,-100,4,2,4,40,0,0
36958,-100,4,2,4,40,0,0
37901,-100,4,2,4,40,0,0
38090,-100,4,2,4,40,0,0
39411,377.358490566038,4,2,4,50,1,0
39411,-100,4,2,4,50,0,0
39694,-100,4,2,4,5,0,0
39788,-100,4,2,1,50,0,0
42713,-100,4,2,1,5,0,0
42807,-100,4,2,1,50,0,0
43939,-100,4,2,3,50,0,0
44222,-100,4,2,3,5,0,0
44316,-100,4,2,1,50,0,0
45449,-100,4,2,1,50,0,0
45732,-100,4,2,1,5,0,0
45826,-100,4,2,1,50,0,0
48939,-100,4,2,1,5,0,0
49033,-100,4,2,1,50,0,0
49977,-100,4,2,3,50,0,0
50166,-100,4,2,1,50,0,0
51486,-100,4,2,1,60,0,0
52052,-100,4,2,1,50,0,0
54505,-100,4,2,1,60,0,0
54788,-100,4,2,1,5,0,0
54882,-100,4,2,1,60,0,0
56298,-100,4,2,3,60,0,0
56581,-100,4,2,3,60,0,0
56769,-100,4,2,3,60,0,0
56958,-100,4,2,3,60,0,0
57147,-100,4,2,1,60,0,0
57524,-90.9090909090909,4,2,1,70,0,1
59505,-90.9090909090909,4,2,1,5,0,1
59599,-90.9090909090909,4,2,1,70,0,1
59882,-90.9090909090909,4,2,1,5,0,1
59977,-90.9090909090909,4,2,1,70,0,1
62524,-90.9090909090909,4,2,1,5,0,1
62618,-90.9090909090909,4,2,1,70,0,1
62901,-90.9090909090909,4,2,1,5,0,1
62996,-90.9090909090909,4,2,1,70,0,1
63562,-90.9090909090909,4,2,3,70,0,1
63939,-90.9090909090909,4,2,1,70,0,1
64977,-90.9090909090909,4,2,1,5,0,1
65071,-90.9090909090909,4,2,1,70,0,1
66864,-90.9090909090909,4,2,1,5,0,1
66958,-90.9090909090909,4,2,1,70,0,1
68090,-90.9090909090909,4,2,1,70,0,0
68279,-90.9090909090909,4,2,2,60,0,0
69599,-90.9090909090909,4,2,1,70,0,1
71581,-90.9090909090909,4,2,1,5,0,1
71675,-90.9090909090909,4,2,1,70,0,1
71958,-90.9090909090909,4,2,1,5,0,1
72052,-90.9090909090909,4,2,1,70,0,1
72618,-90.9090909090909,4,2,3,70,0,1
72901,-90.9090909090909,4,2,1,5,0,1
72996,-90.9090909090909,4,2,1,70,0,1
75637,-90.9090909090909,4,2,1,70,0,1
75920,-90.9090909090909,4,2,1,5,0,1
76015,-90.9090909090909,4,2,1,70,0,1
78939,-90.9090909090909,4,2,1,5,0,1
79033,-90.9090909090909,4,2,1,70,0,1
80165,-90.9090909090909,4,2,1,70,0,0
80354,-90.9090909090909,4,2,2,60,0,0
81675,-90.9090909090909,4,2,1,70,0,1
81958,-90.9090909090909,4,2,1,5,0,1
82052,-90.9090909090909,4,2,1,70,0,1
83184,-90.9090909090909,4,2,3,70,0,1
83373,-90.9090909090909,4,2,1,70,0,1
83939,-90.9090909090909,4,2,1,70,0,1
84222,-90.9090909090909,4,2,1,5,0,1
84316,-90.9090909090909,4,2,1,70,0,1
84599,-90.9090909090909,4,2,1,5,0,1
84694,-90.9090909090909,4,2,1,70,0,1
84977,-90.9090909090909,4,2,1,5,0,1
85071,-90.9090909090909,4,2,1,70,0,1
86203,-90.9090909090909,4,2,3,70,0,1
86392,-90.9090909090909,4,2,1,70,0,1
86958,-90.9090909090909,4,2,1,70,0,1
87241,-90.9090909090909,4,2,1,5,0,1
87335,-90.9090909090909,4,2,1,70,0,1
87618,-90.9090909090909,4,2,1,5,0,1
87713,-90.9090909090909,4,2,1,70,0,1
87996,-90.9090909090909,4,2,1,5,0,1
88090,-90.9090909090909,4,2,1,70,0,1
89222,-90.9090909090909,4,2,3,70,0,1
89411,-90.9090909090909,4,2,1,70,0,1
89977,-90.9090909090909,4,2,1,70,0,1
90732,-90.9090909090909,4,2,1,70,0,1
91015,-90.9090909090909,4,2,1,5,0,1
91109,-90.9090909090909,4,2,1,70,0,1
91864,-90.9090909090909,4,2,1,70,0,1
92147,-90.9090909090909,4,2,1,5,0,1
92241,-90.9090909090909,4,2,1,70,0,0
92430,-90.9090909090909,4,2,2,60,0,0
93750,-90.9090909090909,4,2,1,70,0,1
95732,-90.9090909090909,4,2,1,5,0,1
95826,-90.9090909090909,4,2,1,70,0,1
96109,-90.9090909090909,4,2,1,5,0,1
96203,-90.9090909090909,4,2,1,70,0,1
96769,-90.9090909090909,4,2,3,70,0,1
97052,-90.9090909090909,4,2,1,5,0,1
97147,-90.9090909090909,4,2,1,70,0,1
99788,-90.9090909090909,4,2,1,70,0,1
100071,-90.9090909090909,4,2,1,5,0,1
100166,-90.9090909090909,4,2,1,70,0,1
103090,-90.9090909090909,4,2,1,5,0,1
103184,-90.9090909090909,4,2,1,70,0,1
104316,-90.9090909090909,4,2,1,70,0,0
104505,-90.9090909090909,4,2,2,60,0,0
105826,-111.111111111111,4,2,1,50,0,0
106392,-111.111111111111,4,2,1,40,0,0
107147,-125,4,2,1,30,0,0
108090,-100,4,2,1,40,0,0
108750,-90.9090909090909,4,2,1,5,0,0
108845,-90.9090909090909,4,2,1,70,0,0
109222,-90.9090909090909,4,2,1,70,0,0
109411,-90.9090909090909,4,2,1,70,0,1
109694,-90.9090909090909,4,2,1,5,0,1
109788,-90.9090909090909,4,2,1,70,0,0
110165,-90.9090909090909,4,2,1,70,0,1
110543,-90.9090909090909,4,2,1,70,0,0
110920,-90.9090909090909,4,2,1,70,0,1
111203,-90.9090909090909,4,2,1,5,0,1
111297,-90.9090909090909,4,2,1,70,0,0
111675,-90.9090909090909,4,2,1,70,0,1
114882,377.358490566038,4,2,3,20,1,0
114882,-100,4,2,3,20,0,0
116203,-100,4,2,3,5,0,0
116392,-100,4,2,3,20,0,0
119222,-100,4,2,3,5,0,0
119411,-100,4,2,3,20,0,0
122241,-100,4,2,3,5,0,0
122430,-100,4,2,3,20,0,0
128279,-100,4,2,3,5,0,0
128467,-100,4,2,3,20,0,0
131298,-100,4,2,3,5,0,0
131486,-100,4,2,3,20,0,0
134316,-100,4,2,3,5,0,0
134505,-100,4,2,3,20,0,0
136015,-100,4,2,3,15,0,0

[Colours]
Combo1 : 226,143,243
Combo2 : 139,222,254
Combo3 : 253,206,240
Combo4 : 150,166,254

[HitObjects]
257,20,166,6,0,P|196:58|201:126,1,143.999995605469,2|0,3:2|3:0,0:0:0:0:
116,148,732,2,0,P|60:125|-17:116,2,107.999996704102,2|0|0,3:2|3:0|3:0,0:0:0:0:
143,234,1486,1,0,3:0:0:0:
143,234,1675,2,0,P|185:287|274:267,1,143.999995605469,2|0,3:2|3:0,0:0:0:0:
340,301,2241,2,0,P|356:342|363:382,1,71.9999978027344,2|0,3:2|3:0,0:0:0:0:
455,380,2618,2,0,P|434:317|409:221,1,143.999995605469,2|0,3:2|3:0,0:0:0:0:
470,177,3184,6,0,P|510:131|473:53,1,143.999995605469,2|0,3:2|3:0,0:0:0:0:
407,19,3750,2,0,P|341:35|286:64,2,107.999996704102,2|0|0,3:2|3:0|3:0,0:0:0:0:
404,109,4505,1,0,3:0:0:0:
404,109,4694,2,0,B|398:197|351:140|340:244,1,143.999995605469,2|2,3:2|0:2,0:0:0:0:
306,311,5260,2,0,P|217:304|201:257,1,143.999995605469,2|2,3:2|0:0,0:0:0:0:
247,189,5826,2,0,P|232:127|217:102,1,71.9999978027344,0|0,3:0|3:0,0:0:0:0:
149,24,6203,6,0,P|134:86|119:111,1,71.9999978027344,2|0,3:2|0:0,0:0:0:0:
47,120,6581,1,2,0:0:0:0:
47,120,6769,2,0,P|5:157|23:222,2,107.999996704102,2|0|0,3:2|3:0|3:0,0:0:0:0:
108,187,7524,1,0,3:0:0:0:
108,187,7713,2,0,P|192:161|258:155,1,143.999995605469,2|2,3:2|3:2,0:0:0:0:
274,73,8279,2,0,P|320:20|398:38,1,143.999995605469,2|2,3:2|3:2,0:0:0:0:
467,62,8845,2,0,P|440:125|439:160,1,71.9999978027344,0|0,0:0|3:0,0:0:0:0:
484,201,9222,6,0,B|394:198|460:143|332:138,1,143.999995605469,2|2,3:2|3:2,0:0:0:0:
295,197,9788,2,0,P|309:281|332:352,1,143.999995605469,2|2,3:2|0:0,0:0:0:0:
402,377,10354,2,0,P|444:348|476:357,1,71.9999978027344,0|0,3:0|3:0,0:0:0:0:
510,279,10732,1,2,3:2:0:0:
510,279,10920,1,2,0:0:0:0:
442,215,11109,1,2,0:0:0:0:
442,215,11298,2,0,P|431:143|410:74,1,143.999995605469,2|2,3:2|0:0,0:0:0:0:
352,10,11864,2,0,P|321:47|324:77,1,71.9999978027344,0|0,3:0|0:0,0:0:0:0:
330,154,12241,6,0,P|244:180|210:67,1,215.999993408203,2|0,3:1|3:0,0:0:0:0:
201,81,13373,1,2,3:2:0:0:
145,14,13562,2,0,P|98:25|55:46,1,71.9999978027344,2|2,0:0|3:1,0:0:0:0:
20,100,13939,2,0,P|9:147|-12:190,1,71.9999978027344,2|0,0:0|3:0,0:0:0:0:
9,254,14316,2,0,B|97:246|43:195|143:194,1,143.999995605469,2|0,3:2|3:0,0:0:0:0:
179,121,14882,2,0,P|227:124|249:152,1,71.9999978027344,2|0,3:2|3:0,0:0:0:0:
258,224,15260,6,0,P|233:277|224:349,2,107.999996704102,2|0|0,3:1|3:0|3:0,0:0:0:0:
126,375,16203,2,0,P|112:313|99:291,1,71.9999978027344,2|0,0:2|3:2,0:0:0:0:
69,228,16581,2,0,P|35:214|0:210,1,71.9999978027344,2|2,0:0|3:1,0:0:0:0:
51,119,16958,2,0,P|135:144|204:151,1,143.999995605469,2|0,0:0|3:0,0:0:0:0:
295,288,17713,2,0,P|328:274|364:270,1,71.9999978027344,2|0,0:0|3:0,0:0:0:0:
435,336,18090,1,0,3:0:0:0:
435,336,18184,1,0,3:0:0:0:
435,336,18279,6,0,P|477:337|505:310,1,71.9999978027344,2|0,3:1|0:0,0:0:0:0:
506,233,18656,2,0,B|495:152|377:127|441:229|330:214|289:135|338:84|392:95,1,287.999991210938,2|0,0:0|3:0,0:0:0:0:
458,80,19599,1,0,3:0:0:0:
458,80,19788,2,0,P|434:164|422:235,1,143.999995605469,2|0,3:1|3:0,0:0:0:0:
378,293,20354,1,0,3:0:0:0:
378,293,20543,2,0,P|299:298|264:240,1,143.999995605469,2|0,3:2|3:0,0:0:0:0:
186,96,21298,6,0,B|131:91|53:119|133:159|52:192|-23:171,2,215.999993408203,2|2|2,3:1|3:2|3:2,0:0:0:0:
218,16,22618,1,0,3:0:0:0:
303,5,22807,2,0,P|332:58|262:124,1,143.999995605469,2|0,3:1|3:0,0:0:0:0:
223,177,23373,2,0,P|209:232|258:275,2,107.999996704102,2|0|0,3:2|3:0|3:0,0:0:0:0:
311,214,24128,1,0,3:0:0:0:
311,214,24222,1,0,3:0:0:0:
311,214,24316,1,4,1:0:0:0:
458,90,24694,6,0,P|360:68|296:45,1,160,2|0,1:2|1:0,0:0:0:0:
215,10,25260,1,0,3:0:0:0:
141,81,25449,2,0,P|134:41|120:4,1,80,2|0,1:2|3:0,0:0:0:0:
231,102,25826,2,0,P|237:141|251:178,1,80,2|0,1:2|3:0,0:0:0:0:
165,221,26203,1,0,1:0:0:0:
87,164,26392,2,0,P|20:194|35:297,1,160,2|0,3:2|3:0,0:0:0:0:
48,362,26958,2,0,P|19:371|-11:389,2,40,2|0|0,1:2|3:0|3:0,0:0:0:0:
131,314,27335,6,0,P|170:320|207:334,1,80,2|0,1:2|3:0,0:0:0:0:
284,275,27713,2,0,P|321:289|360:295,1,80,0|0,1:0|3:0,0:0:0:0:
416,373,28090,1,0,1:0:0:0:
493,315,28279,2,0,P|494:264|461:242,1,80,2|2,3:2|1:2,0:0:0:0:
388,204,28656,1,2,3:2:0:0:
451,132,28845,6,0,P|457:92|471:55,1,80,2|0,1:2|3:0,0:0:0:0:
352,111,29222,2,0,P|366:73|372:34,1,80,2|0,1:2|3:0,0:0:0:0:
270,45,29599,2,0,P|230:38|193:24,1,80,2|0,1:2|3:0,0:0:0:0:
182,126,29977,2,0,P|221:132|258:146,1,80,2|0,1:2|3:0,0:0:0:0:
345,222,30354,6,0,B|303:252|306:317|378:268|365:376|287:415|242:359|255:315,1,240,6|2,1:2|3:2,0:0:0:0:
219,241,31109,1,0,1:0:0:0:
150,308,31298,1,0,3:0:0:0:
55,291,31486,2,0,P|48:251|34:214,1,80,0|0,1:0|3:0,0:0:0:0:
2,122,31864,2,0,P|55:97|123:175,1,160,2|0,1:2|1:0,0:0:0:0:
211,118,32430,1,0,3:0:0:0:
178,28,32618,2,0,P|215:13|254:7,1,80,2|0,1:2|3:0,0:0:0:0:
309,93,32996,2,0,P|271:107|232:113,1,80,2|0,1:2|3:0,0:0:0:0:
123,157,33373,6,0,B|136:260|181:181|202:322,1,160,2|0,1:2|1:0,0:0:0:0:
247,373,33939,2,0,P|295:351|294:248,1,160,2|0,3:2|3:0,0:0:0:0:
255,168,34505,2,0,P|261:128|275:91,1,80,2|0,1:2|3:0,0:0:0:0:
331,0,34882,2,0,P|376:54|466:31,1,160,2|0,1:2|1:0,0:0:0:0:
508,121,35449,1,0,3:0:0:0:
497,216,35637,2,0,P|459:201|420:195,1,80,0|0,1:0|3:0,0:0:0:0:
347,258,36015,2,0,P|307:251|270:237,1,80,2|0,1:2|3:0,0:0:0:0:
232,144,36392,6,0,B|130:133|193:214|66:198,1,160,2|0,1:2|1:0,0:0:0:0:
16,140,36958,1,2,3:2:0:0:
5,44,37147,2,0,P|72:25|99:8,1,80,2|0,1:2|3:0,0:0:0:0:
171,50,37524,2,0,P|207:33|246:26,1,80,0|0,1:0|3:0,0:0:0:0:
340,4,37901,5,0,1:0:0:0:
388,87,38090,1,0,3:0:0:0:
294,108,38279,2,0,P|277:144|270:183,1,80,0|0,1:0|3:0,0:0:0:0:
179,214,38656,2,0,P|151:256|163:296,1,80,0|0,1:0|3:0,0:0:0:0:
218,368,39033,1,0,1:0:0:0:
218,368,39128,1,0,3:0:0:0:
218,368,39222,1,0,3:0:0:0:
264,278,39411,6,0,P|345:294|441:330,1,160,6|0,1:2|1:0,0:0:0:0:
506,282,39977,1,2,3:2:0:0:
489,187,40166,2,0,P|476:149|469:109,1,80,0|2,1:0|3:2,0:0:0:0:
391,214,40543,2,0,P|384:174|371:136,1,80,0|0,1:0|3:0,0:0:0:0:
397,44,40920,5,2,1:2:0:0:
397,44,41109,1,0,3:0:0:0:
304,7,41298,1,2,1:2:0:0:
304,7,41486,1,0,3:0:0:0:
275,98,41675,2,0,B|226:126|186:138|186:138|156:113|109:95,1,160,2|2,1:2|1:2,0:0:0:0:
50,153,42241,1,0,3:0:0:0:
1,69,42430,6,0,P|42:6|124:17,1,160,2|2,1:2|1:2,0:0:0:0:
214,8,42996,2,0,P|222:52|251:102,1,80,2|0,3:2|1:0,0:0:0:0:
157,137,43373,2,0,P|173:173|180:212,1,80,2|0,3:2|1:0,0:0:0:0:
267,253,43750,1,0,3:0:0:0:
210,331,43939,2,0,B|105:322|165:393|56:383,1,160,2|2,1:0|1:2,0:0:0:0:
9,307,44505,1,0,3:0:0:0:
9,210,44694,2,0,P|60:212|88:185,1,80,2|0,1:2|3:0,0:0:0:0:
118,106,45071,1,0,1:0:0:0:
210,79,45260,1,2,3:2:0:0:
280,144,45449,6,0,P|372:153|395:219,1,160,6|2,1:2|1:2,0:0:0:0:
379,301,46015,1,0,3:0:0:0:
282,303,46203,2,0,P|296:363|312:405,1,80,0|2,1:0|3:2,0:0:0:0:
191,338,46581,2,0,P|177:278|161:236,1,80,0|0,1:0|3:0,0:0:0:0:
86,348,46958,5,2,1:2:0:0:
86,348,47147,1,0,3:0:0:0:
15,281,47335,1,2,1:2:0:0:
15,281,47524,1,0,3:0:0:0:
74,205,47713,2,0,B|119:201|124:162|124:162|172:124|224:148,1,160,2|2,1:2|1:2,0:0:0:0:
286,192,48279,1,0,3:0:0:0:
193,227,48467,6,0,P|171:121|144:50,1,160,2|0,1:2|1:0,0:0:0:0:
218,1,49033,1,2,3:2:0:0:
313,14,49222,2,0,P|295:79|293:115,1,80,2|2,1:2|3:2,0:0:0:0:
408,28,49599,2,0,P|390:93|388:129,1,80,0|2,1:0|3:2,0:0:0:0:
303,185,49977,2,0,B|263:210|267:259|267:259|306:270|326:310,1,160,2|2,1:0|1:2,0:0:0:0:
382,379,50543,1,0,3:0:0:0:
477,367,50732,2,0,P|502:336|497:289,1,80,2|0,1:2|3:0,0:0:0:0:
434,220,51109,2,0,P|499:202|535:200,1,80,2|0,1:2|3:0,0:0:0:0:
512,90,51486,6,0,P|423:116|328:128,1,160,6|0,1:2|1:0,0:0:0:0:
366,30,52052,1,0,3:0:0:0:
272,52,52241,2,0,P|243:93|255:137,1,80,0|0,1:0|3:0,0:0:0:0:
299,212,52618,2,0,P|259:218|221:231,1,80,0|0,1:0|3:0,0:0:0:0:
146,170,52996,5,2,1:2:0:0:
76,235,53184,2,0,P|63:272|56:312,1,80,0|0,3:0|1:0,0:0:0:0:
0,179,53562,2,0,P|12:141|19:101,1,80,2|0,3:2|1:0,0:0:0:0:
75,23,53939,2,0,P|114:16|152:3,1,80,2|0,3:2|1:0,0:0:0:0:
240,41,54316,1,2,3:2:0:0:
180,127,54505,6,0,B|276:121|210:67|331:59,1,160,2|2,1:2|1:2,0:0:0:0:
407,26,55071,1,0,3:0:0:0:
485,81,55260,2,0,P|497:118|504:158,1,80,0|0,1:0|3:0,0:0:0:0:
457,242,55637,1,0,1:0:0:0:
393,169,55826,1,0,3:0:0:0:
299,190,56015,1,4,1:3:0:0:
299,190,57147,6,0,B|328:204|349:224|349:224|322:257|318:314,1,120,12|0,0:0|0:0,0:0:0:0:
308,326,57524,5,6,1:0:0:0:
217,381,57713,2,0,P|193:345|206:293,1,88.000002685547,2|8,3:2|0:0,0:0:0:0:
95,250,58090,2,0,P|41:260|-2:281,1,88.000002685547,2|0,3:2|1:0,0:0:0:0:
41,147,58467,2,0,P|95:137|138:116,1,88.000002685547,0|8,3:0|0:0,0:0:0:0:
226,156,58845,1,2,3:2:0:0:
196,53,59033,1,0,1:0:0:0:
316,1,59222,2,0,P|299:41|292:85,1,88.000002685547,2|8,3:2|0:0,0:0:0:0:
211,167,59599,2,0,B|219:239|260:191|274:304,1,132.00000402832,2|0,3:2|0:0,0:0:0:0:
269,333,59977,1,2,3:2:0:0:
374,384,60166,2,0,P|390:343|397:299,1,88.000002685547,8|0,0:0|3:0,0:0:0:0:
508,267,60543,5,2,1:2:0:0:
506,161,60732,2,0,P|455:162|429:206,1,88.000002685547,2|8,3:2|0:0,0:0:0:0:
364,106,61109,2,0,P|313:105|287:61,1,88.000002685547,2|0,3:2|1:0,0:0:0:0:
253,194,61486,2,0,P|209:200|168:217,1,88.000002685547,2|8,3:2|0:0,0:0:0:0:
110,305,61864,1,2,3:2:0:0:
13,264,62052,1,0,1:0:0:0:
5,158,62241,2,0,P|21:117|28:73,1,88.000002685547,2|8,3:2|0:0,0:0:0:0:
104,1,62618,2,0,B|166:-9|189:40|189:40|160:66|171:104,1,132.00000402832,2|0,3:2|0:0,0:0:0:0:
166,117,62996,1,2,3:2:0:0:
274,144,63184,2,0,P|306:186|291:231,1,88.000002685547,8|0,0:0|3:0,0:0:0:0:
376,291,63562,6,0,P|291:262|206:248,1,176.000005371094,2|8,1:0|0:0,0:0:0:0:
141,331,64128,1,0,3:0:0:0:
37,313,64316,2,0,P|5:271|20:226,1,88.000002685547,2|0,1:2|3:0,0:0:0:0:
8,132,64694,2,0,P|63:151|124:155,1,88.000002685547,10|0,0:0|3:0,0:0:0:0:
178,228,65071,2,0,B|225:231|251:198|251:154|251:154|212:135|213:88,1,176.000005371094,0|8,1:0|0:0,0:0:0:0:
200,6,65637,2,0,B|316:-2|250:75|376:59,1,176.000005371094,2|0,3:2|3:0,0:0:0:0:
454,16,66203,1,10,0:0:0:0:
504,121,66392,1,0,3:0:0:0:
504,121,66486,1,0,3:0:0:0:
504,121,66581,6,0,P|485:165|473:233,1,88.000002685547,2|0,1:2|3:0,0:0:0:0:
505,305,66958,1,10,0:0:0:0:
422,371,67147,2,0,P|389:331|412:282,1,88.000002685547,2|0,3:2|1:0,0:0:0:0:
350,203,67524,1,2,3:2:0:0:
267,268,67713,2,0,P|224:278|184:296,1,88.000002685547,10|0,0:0|3:0,0:0:0:0:
93,224,68090,5,4,1:0:0:0:
163,146,68279,1,0,1:0:0:0:
163,146,68373,1,0,1:0:0:0:
163,146,68467,2,0,P|177:99|179:86,3,44.0000013427735,0|0|0|0,1:0|1:0|1:0|1:0,0:0:0:0:
220,74,68845,2,0,P|214:52|206:32,3,44.0000013427735,4|4|0|0,0:3|0:3|1:0|1:0,0:0:0:0:
158,12,69222,2,0,P|137:19|116:25,3,44.0000013427735,2|0|0|0,1:2|1:0|1:0|1:0,0:0:0:0:
63,21,69599,5,6,1:2:0:0:
1,107,69788,2,0,P|2:168|43:191,1,88.000002685547,2|8,3:2|0:0,0:0:0:0:
117,224,70166,2,0,P|196:199|239:195,1,88.000002685547,2|0,3:2|1:0,0:0:0:0:
256,108,70543,2,0,P|272:67|281:24,1,88.000002685547,2|8,3:2|0:0,0:0:0:0:
385,2,70920,1,2,3:2:0:0:
446,88,71109,1,0,1:0:0:0:
365,156,71298,2,0,P|348:196|339:239,1,88.000002685547,2|8,3:2|0:0,0:0:0:0:
254,303,71675,2,0,P|330:292|383:348,1,132.00000402832,2|0,3:2|0:0,0:0:0:0:
405,362,72052,1,2,3:2:0:0:
483,280,72241,2,0,P|509:239|494:188,1,88.000002685547,8|0,0:0|3:0,0:0:0:0:
497,91,72618,6,0,B|393:77|453:165|332:139,1,176.000005371094,2|10,1:0|0:0,0:0:0:0:
303,41,73184,1,2,3:2:0:0:
200,14,73373,1,0,1:0:0:0:
234,112,73562,2,0,P|264:215|272:305,1,176.000005371094,2|2,3:2|3:2,0:0:0:0:
207,367,74128,1,0,1:0:0:0:
115,314,74316,2,0,P|61:325|43:368,1,88.000002685547,2|8,3:2|0:0,0:0:0:0:
2,227,74694,2,0,P|13:173|56:155,1,88.000002685547,2|0,3:2|1:0,0:0:0:0:
126,215,75071,2,0,P|229:185|319:177,1,176.000005371094,2|0,3:2|3:0,0:0:0:0:
242,63,75637,6,0,P|329:74|402:96,1,132.00000402832,2|0,1:2|0:0,0:0:0:0:
420,64,76015,1,10,0:0:0:0:
504,127,76203,1,2,3:2:0:0:
444,215,76392,1,0,1:0:0:0:
444,215,76486,2,0,B|481:241|476:278|476:278|431:296|416:347,1,132.00000402832,8|10,0:0|0:0,0:0:0:0:
347,377,76958,1,0,3:0:0:0:
242,363,77147,6,0,B|251:255|315:327|321:198,1,176.000005371094,2|8,1:2|0:0,0:0:0:0:
373,122,77713,1,0,3:0:0:0:
311,36,77901,2,0,P|248:32|227:-4,1,88.000002685547,2|0,1:2|3:0,0:0:0:0:
144,73,78279,2,0,P|103:89|59:94,1,88.000002685547,10|0,0:0|3:0,0:0:0:0:
0,199,78656,2,0,B|45:191|76:214|76:214|86:276|148:268,1,176.000005371094,2|10,1:2|0:0,0:0:0:0:
183,171,79222,2,0,P|223:154|267:149,1,88.000002685547,2|0,3:2|1:0,0:0:0:0:
354,209,79599,1,2,3:2:0:0:
277,281,79788,2,0,P|270:332|301:363,1,88.000002685547,8|2,0:0|3:2,0:0:0:0:
394,384,80165,5,4,1:0:0:0:
486,329,80354,1,0,1:0:0:0:
486,329,80449,1,0,1:0:0:0:
486,329,80543,2,0,P|496:292|508:271,3,44.0000013427735,0|0|0|0,1:0|1:0|1:0|1:0,0:0:0:0:
486,235,80920,2,0,P|449:245|428:257,3,44.0000013427735,2|0|0|0,3:2|1:0|1:0|1:0,0:0:0:0:
391,252,81298,2,0,P|381:215|369:194,3,44.0000013427735,2|0|0|0,3:2|1:0|1:0|1:0,0:0:0:0:
343,171,81675,6,0,B|456:174|375:100|513:107,1,176.000005371094,6|10,1:2|0:0,0:0:0:0:
410,22,82241,2,0,P|358:13|307:-12,1,88.000002685547,0|0,3:0|1:0,0:0:0:0:
244,66,82618,2,0,P|192:75|141:100,1,88.000002685547,0|8,3:0|0:0,0:0:0:0:
71,29,82996,1,0,3:0:0:0:
0,113,83184,2,0,P|26:185|144:171,1,176.000005371094,2|8,1:0|0:0,0:0:0:0:
218,171,83750,1,0,3:0:0:0:
295,243,83939,2,0,P|271:308|269:343,1,88.000002685547,2|0,1:2|3:0,0:0:0:0:
143,384,84316,2,0,P|167:319|169:284,1,88.000002685547,10|0,0:0|3:0,0:0:0:0:
129,198,84694,6,0,B|81:212|36:241|36:241|27:202|-17:180,1,176.000005371094,2|10,1:2|0:0,0:0:0:0:
27,86,85260,2,0,P|70:78|110:60,1,88.000002685547,0|0,3:0|1:0,0:0:0:0:
206,16,85637,2,0,P|241:52|305:27,1,88.000002685547,0|8,3:0|0:0,0:0:0:0:
331,142,86015,1,0,3:0:0:0:
228,167,86203,2,0,B|243:279|291:188|305:329,1,176.000005371094,2|8,1:0|0:0,0:0:0:0:
393,371,86769,1,0,3:0:0:0:
437,274,86958,2,0,P|479:276|507:309,1,88.000002685547,2|0,1:2|3:0,0:0:0:0:
432,173,87335,2,0,P|392:154|348:147,1,88.000002685547,10|0,0:0|3:0,0:0:0:0:
244,187,87713,6,0,P|176:126|224:39,1,176.000005371094,6|10,1:0|0:0,0:0:0:0:
290,2,88279,2,0,P|329:20|373:27,1,88.000002685547,0|0,3:0|1:0,0:0:0:0:
475,0,88656,2,0,P|482:43|500:83,1,88.000002685547,0|8,3:0|0:0,0:0:0:0:
408,134,89033,1,0,3:0:0:0:
474,215,89222,2,0,B|373:223|442:145|314:154,1,176.000005371094,2|8,1:0|0:0,0:0:0:0:
335,258,89788,1,0,3:0:0:0:
232,232,89977,2,0,P|192:250|148:257,1,88.000002685547,2|0,1:2|3:0,0:0:0:0:
260,337,90354,2,0,P|216:344|176:362,1,88.000002685547,10|0,0:0|3:0,0:0:0:0:
344,267,90732,6,0,P|388:342|486:309,1,176.000005371094,2|10,1:2|0:0,0:0:0:0:
507,234,91298,1,0,3:0:0:0:
417,179,91486,2,0,P|424:135|442:95,1,88.000002685547,2|0,1:2|3:0,0:0:0:0:
348,0,91864,2,0,P|340:43|322:83,1,88.000002685547,10|0,0:0|3:0,0:0:0:0:
286,182,92241,5,6,1:0:0:0:
193,130,92430,1,0,1:0:0:0:
193,130,92524,1,0,1:0:0:0:
193,130,92618,2,0,P|149:147|134:151,3,44.0000013427735,2|0|0|0,1:2|1:0|1:0|1:0,0:0:0:0:
107,174,92996,2,0,P|124:218|128:233,3,44.0000013427735,4|4|0|0,0:3|0:3|1:0|1:0,0:0:0:0:
160,251,93373,2,0,P|143:295|139:310,3,44.0000013427735,2|0|0|0,1:2|1:0|1:0|1:0,0:0:0:0:
111,333,93750,5,6,1:2:0:0:
208,374,93939,2,0,P|247:355|291:348,1,88.000002685547,2|8,3:2|0:0,0:0:0:0:
394,369,94316,2,0,P|427:324|408:279,1,88.000002685547,2|0,3:2|1:0,0:0:0:0:
393,193,94694,2,0,P|353:211|309:218,1,88.000002685547,2|8,3:2|0:0,0:0:0:0:
220,162,95071,1,2,3:2:0:0:
154,245,95260,1,0,1:0:0:0:
61,194,95449,2,0,P|53:150|35:110,1,88.000002685547,2|8,3:2|0:0,0:0:0:0:
79,4,95826,2,0,P|126:50|202:27,1,132.00000402832,2|0,3:2|0:0,0:0:0:0:
233,16,96203,1,2,3:2:0:0:
335,43,96392,2,0,P|368:88|349:133,1,88.000002685547,8|0,0:0|3:0,0:0:0:0:
251,127,96769,6,0,B|203:170|233:226|233:226|285:222|306:267,1,176.000005371094,2|10,1:0|0:0,0:0:0:0:
395,222,97335,1,2,3:2:0:0:
444,315,97524,1,0,1:0:0:0:
357,375,97713,2,0,P|274:345|188:327,1,176.000005371094,2|2,3:2|3:2,0:0:0:0:
91,369,98279,1,0,1:0:0:0:
9,302,98467,2,0,P|6:259|36:228,1,88.000002685547,2|8,3:2|0:0,0:0:0:0:
118,144,98845,2,0,P|44:127|22:112,1,88.000002685547,2|0,3:2|1:0,0:0:0:0:
139,235,99222,2,0,P|156:148|186:66,1,176.000005371094,2|0,3:2|3:0,0:0:0:0:
282,0,99788,6,0,B|293:85|332:28|339:116,1,132.00000402832,2|0,1:2|0:0,0:0:0:0:
344,165,100166,1,10,0:0:0:0:
252,217,100354,1,2,3:2:0:0:
273,324,100543,1,0,1:0:0:0:
273,324,100637,2,0,P|350:323|387:375,1,132.00000402832,8|10,0:0|0:0,0:0:0:0:
480,320,101109,1,0,3:0:0:0:
506,217,101298,6,0,P|419:199|337:169,1,176.000005371094,2|8,1:2|0:0,0:0:0:0:
242,218,101864,1,2,3:2:0:0:
168,142,102052,2,0,P|184:101|196:58,1,88.000002685547,2|0,1:2|3:0,0:0:0:0:
285,0,102430,2,0,P|324:31|377:18,1,88.000002685547,10|0,0:0|3:0,0:0:0:0:
422,113,102807,2,0,P|445:204|359:265,1,176.000005371094,2|10,1:2|0:0,0:0:0:0:
295,220,103373,2,0,P|278:260|266:303,1,88.000002685547,2|0,3:2|1:0,0:0:0:0:
188,374,103750,1,2,3:2:0:0:
101,313,103939,2,0,P|57:312|26:341,1,88.000002685547,8|2,0:0|3:2,0:0:0:0:
0,218,104316,5,4,1:0:0:0:
83,152,104505,1,0,1:0:0:0:
83,152,104599,1,0,1:0:0:0:
83,152,104694,2,0,P|114:164|137:168,3,44.0000013427735,0|0|0|0,1:0|1:0|1:0|1:0,0:0:0:0:
168,195,105071,2,0,P|188:186|209:180,3,44.0000013427735,2|0|0|0,3:2|1:0|1:0|1:0,0:0:0:0:
256,155,105449,2,0,P|247:134|241:113,3,44.0000013427735,2|0|0|0,3:2|1:0|1:0|1:0,0:0:0:0:
215,71,105826,6,0,B|307:74|246:17|364:22,1,143.999995605469,2|2,0:0|0:0,0:0:0:0:
355,107,106392,2,0,B|452:102|391:159|483:156,1,143.999995605469,2|2,0:0|0:0,0:0:0:0:
481,156,107147,6,0,P|405:137|394:277,1,256,2|0,0:0|0:0,0:0:0:0:
480,303,108090,6,0,P|414:316|313:356,1,160,2|0,0:3|0:0,0:0:0:0:
155,225,108845,5,6,1:0:0:0:
255,194,109033,1,0,1:0:0:0:
293,95,109222,1,10,0:0:0:0:
222,16,109411,2,0,B|106:15|184:84|53:77,1,176.000005371094,6|8,1:2|1:3,0:0:0:0:
2,161,109977,1,4,1:3:0:0:
10,269,110165,2,0,P|82:252|98:184,1,132.00000402832,6|8,1:2|0:0,0:0:0:0:
142,170,110543,2,0,P|193:151|240:146,1,88.000002685547,2|8,0:0|0:0,0:0:0:0:
343,29,110920,2,0,P|324:80|319:127,1,88.000002685547,6|8,1:2|0:0,0:0:0:0:
332,218,111297,1,8,1:3:0:0:
430,256,111486,1,4,1:3:0:0:
510,187,111675,1,6,1:2:0:0:
256,192,111769,12,2,114882,0:0:0:0:
