osu file format v14

[General]
AudioFilename: audio.mp3
AudioLeadIn: 0
PreviewTime: 57429
Countdown: 0
SampleSet: Soft
StackLeniency: 0.7
Mode: 0
LetterboxInBreaks: 0
WidescreenStoryboard: 1

[Editor]
Bookmarks: 12895,24970,40065
DistanceSpacing: 1.1
BeatDivisor: 4
GridSize: 16
TimelineZoom: 1.7

[Metadata]
Title:Shinsou Noise
TitleUnicode:シンソウノイズ
Artist:Shimotsuki Haruka x Ceui
ArtistUnicode:霜月はるか x Ceui
Creator:Bellicose
Version:Easy
Source:シンソウノイズ~受信探偵の事件簿~
Tags:Shinsou Noise ~Jushin Tantei no Jikenbo~ Azurite DiGination eroge video game vn visual novel short version japanese pop shurelia
BeatmapID:3595362
BeatmapSetID:1756879

[Difficulty]
HPDrainRate:3
CircleSize:3
OverallDifficulty:2
ApproachRate:4
SliderMultiplier:0.8
SliderTickRate:1

[Events]
//Background and Video events
0,0,"bg.png",0,0
//Break Periods
//Storyboard Layer 0 (Background)
//Storyboard Layer 1 (Fail)
//Storyboard Layer 2 (Pass)
//Storyboard Layer 3 (Foreground)
//Storyboard Layer 4 (Overlay)
//Storyboard Sound Samples

[TimingPoints]
166,377.358490566038,4,2,3,30,1,0
166,-100,4,2,3,30,0,0
24128,-100,4,2,3,30,0,0
24316,-100,4,2,1,50,0,0
24694,-100,4,2,4,40,0,0
25826,-100,4,2,4,40,0,0
26109,-100,4,2,4,5,0,0
26203,-100,4,2,4,40,0,0
27335,-100,4,2,4,40,0,0
27713,-100,4,2,4,40,0,0
30354,-100,4,2,4,40,0,0
31109,-100,4,2,4,40,0,0
36392,-100,4,2,4,40,0,0
36958,-100,4,2,4,40,0,0
37901,-100,4,2,4,40,0,0
38090,-100,4,2,4,40,0,0
39411,377.358490566038,4,2,4,50,1,0
39411,-100,4,2,4,50,0,0
39694,-100,4,2,4,5,0,0
39788,-100,4,2,1,50,0,0
42713,-100,4,2,1,5,0,0
42807,-100,4,2,1,50,0,0
43939,-100,4,2,3,50,0,0
44222,-100,4,2,3,5,0,0
44316,-100,4,2,1,50,0,0
45449,-100,4,2,1,50,0,0
45732,-100,4,2,1,5,0,0
45826,-100,4,2,1,50,0,0
48939,-100,4,2,1,5,0,0
49033,-100,4,2,1,50,0,0
49977,-100,4,2,3,50,0,0
50166,-100,4,2,1,50,0,0
51486,-100,4,2,1,60,0,0
52052,-100,4,2,1,50,0,0
54505,-100,4,2,1,60,0,0
54788,-100,4,2,1,5,0,0
54882,-100,4,2,1,60,0,0
56298,-100,4,2,3,60,0,0
56581,-100,4,2,3,60,0,0
56769,-100,4,2,3,60,0,0
56958,-100,4,2,3,60,0,0
57147,-100,4,2,1,60,0,0
57524,-100,4,2,1,70,0,1
59505,-100,4,2,1,5,0,1
59599,-100,4,2,1,70,0,1
59882,-100,4,2,1,5,0,1
59977,-100,4,2,1,70,0,1
62524,-100,4,2,1,5,0,1
62618,-100,4,2,1,70,0,1
62901,-100,4,2,1,5,0,1
62996,-100,4,2,1,70,0,1
63562,-100,4,2,3,70,0,1
63939,-100,4,2,1,70,0,1
64977,-100,4,2,1,5,0,1
65071,-100,4,2,1,70,0,1
66864,-100,4,2,1,5,0,1
66958,-100,4,2,1,70,0,1
68090,-100,4,2,1,70,0,0
68279,-100,4,2,2,60,0,0
69599,-100,4,2,1,70,0,1
71581,-100,4,2,1,5,0,1
71675,-100,4,2,1,70,0,1
71958,-100,4,2,1,5,0,1
72052,-100,4,2,1,70,0,1
72618,-100,4,2,3,70,0,1
72901,-100,4,2,1,5,0,1
72996,-100,4,2,1,70,0,1
75637,-100,4,2,1,70,0,1
75920,-100,4,2,1,5,0,1
76015,-100,4,2,1,70,0,1
78939,-100,4,2,1,5,0,1
79033,-100,4,2,1,70,0,1
80165,-100,4,2,1,70,0,0
80354,-100,4,2,2,60,0,0
81675,-100,4,2,1,70,0,1
81958,-100,4,2,1,5,0,1
82052,-100,4,2,1,70,0,1
83184,-100,4,2,3,70,0,1
83373,-100,4,2,1,70,0,1
83939,-100,4,2,1,70,0,1
84222,-100,4,2,1,5,0,1
84316,-100,4,2,1,70,0,1
84599,-100,4,2,1,5,0,1
84694,-100,4,2,1,70,0,1
84977,-100,4,2,1,5,0,1
85071,-100,4,2,1,70,0,1
86203,-100,4,2,3,70,0,1
86392,-100,4,2,1,70,0,1
86958,-100,4,2,1,70,0,1
87241,-100,4,2,1,5,0,1
87335,-100,4,2,1,70,0,1
87618,-100,4,2,1,5,0,1
87713,-100,4,2,1,70,0,1
87996,-100,4,2,1,5,0,1
88090,-100,4,2,1,70,0,1
89222,-100,4,2,3,70,0,1
89411,-100,4,2,1,70,0,1
89977,-100,4,2,1,70,0,1
90732,-100,4,2,1,70,0,1
91015,-100,4,2,1,5,0,1
91109,-100,4,2,1,70,0,1
91864,-100,4,2,1,70,0,1
92147,-100,4,2,1,5,0,1
92241,-100,4,2,1,70,0,0
92430,-100,4,2,2,60,0,0
93750,-100,4,2,1,70,0,1
95732,-100,4,2,1,5,0,1
95826,-100,4,2,1,70,0,1
96109,-100,4,2,1,5,0,1
96203,-100,4,2,1,70,0,1
96769,-100,4,2,3,70,0,1
97052,-100,4,2,1,5,0,1
97147,-100,4,2,1,70,0,1
99788,-100,4,2,1,70,0,1
100071,-100,4,2,1,5,0,1
100166,-100,4,2,1,70,0,1
103090,-100,4,2,1,5,0,1
103184,-100,4,2,1,70,0,1
104316,-100,4,2,1,70,0,0
104505,-100,4,2,2,60,0,0
105826,-100,4,2,1,50,0,0
106392,-100,4,2,1,40,0,0
107147,-100,4,2,1,30,0,0
108090,-100,4,2,1,40,0,0
108750,-100,4,2,1,5,0,0
108845,-100,4,2,1,70,0,0
109222,-100,4,2,1,70,0,0
109411,-100,4,2,1,70,0,1
109694,-100,4,2,1,5,0,1
109788,-100,4,2,1,70,0,0
110165,-100,4,2,1,70,0,1
110543,-100,4,2,1,70,0,0
110920,-100,4,2,1,70,0,1
111203,-100,4,2,1,5,0,1
111297,-100,4,2,1,70,0,0
111675,-100,4,2,1,70,0,1
114882,377.358490566038,4,2,3,20,1,0
114882,-100,4,2,3,20,0,0
116203,-100,4,2,3,5,0,0
116392,-100,4,2,3,20,0,0
119222,-100,4,2,3,5,0,0
119411,-100,4,2,3,20,0,0
122241,-100,4,2,3,5,0,0
122430,-100,4,2,3,20,0,0
128279,-100,4,2,3,5,0,0
128467,-100,4,2,3,20,0,0
131298,-100,4,2,3,5,0,0
131486,-100,4,2,3,20,0,0
134316,-100,4,2,3,5,0,0
134505,-100,4,2,3,20,0,0
136015,-100,4,2,3,15,0,0

[Colours]
Combo1 : 226,143,243
Combo2 : 139,222,254
Combo3 : 253,206,240
Combo4 : 150,166,254

[HitObjects]
201,35,166,6,0,P|140:52|78:66,2,120,2|2|0,3:2|3:2|3:0,0:0:0:0:
287,20,1675,2,0,P|319:49|311:120,1,120,2|2,3:2|3:2,0:0:0:0:
246,179,2618,1,2,3:2:0:0:
346,264,3184,2,0,P|329:325|315:387,2,120,2|2|0,3:2|3:2|3:0,0:0:0:0:
409,203,4694,2,0,P|475:213|517:170,1,120,2|2,3:2|3:2,0:0:0:0:
446,122,5637,1,2,0:0:0:0:
314,130,6203,6,0,P|330:72|343:13,2,120,2|2|0,3:2|3:2|3:0,0:0:0:0:
279,211,7713,2,0,P|218:199|174:239,1,120,2|2,3:2|3:2,0:0:0:0:
144,315,8656,1,2,3:2:0:0:
29,249,9222,2,0,P|15:190|0:132,1,120,2|2,3:2|3:2,0:0:0:0:
15,46,10166,2,0,P|73:32|131:16,1,120,2|2,0:0|3:2,0:0:0:0:
262,28,11298,2,0,P|246:81|242:117,1,80,2|2,3:2|0:0,0:0:0:0:
257,236,12241,6,0,B|104:234|197:150|45:153,1,240,2|2,3:1|3:2,0:0:0:0:
3,230,13750,1,2,3:1:0:0:
74,341,14316,2,0,P|116:346|162:363,1,80,2|0,3:2|3:0,0:0:0:0:
282,376,15260,2,0,B|284:220|186:315|196:149,1,240,2|0,3:1|3:2,0:0:0:0:
233,86,16769,1,2,3:1:0:0:
359,123,17335,2,0,P|346:160|342:200,1,80,0|2,3:0|0:0,0:0:0:0:
379,327,18279,2,0,P|481:305|497:180,1,240,2|0,3:1|3:0,0:0:0:0:
454,110,19788,5,2,3:1:0:0:
354,197,20354,2,0,P|312:202|266:219,1,80,2|2,3:2|0:0,0:0:0:0:
153,165,21298,2,0,P|99:203|39:188,2,120,2|2|2,3:1|3:2|3:2,0:0:0:0:
84,109,22807,1,2,3:1:0:0:
170,9,23373,2,0,P|265:30|382:51,1,200,2|4,3:2|1:0,0:0:0:0:
453,38,24694,6,0,P|392:74|398:162,1,160,2|2,1:2|1:2,0:0:0:0:
467,203,25826,1,2,1:2:0:0:
503,329,26392,2,0,P|443:339|376:369,1,120,2|2,3:2|1:2,0:0:0:0:
301,375,27335,2,0,B|297:284|238:326|234:231,1,160,2|0,1:2|1:0,0:0:0:0:
321,227,28467,1,2,1:2:0:0:
328,139,28845,6,0,P|370:130|419:112,2,80,2|2|2,1:2|1:2|1:2,0:0:0:0:
245,107,29977,1,2,1:2:0:0:
295,35,30354,2,0,P|223:60|139:82,1,160,6|0,1:2|1:0,0:0:0:0:
54,69,31486,1,0,1:0:0:0:
9,144,31864,2,0,P|45:208|130:196,1,160,2|2,1:2|1:2,0:0:0:0:
199,158,32996,1,2,1:2:0:0:
257,223,33373,6,0,P|237:288|230:349,2,120,2|2|2,1:2|3:2|1:2,0:0:0:0:
199,158,34882,2,0,P|139:152|93:191,1,120,2|0,1:2|3:0,0:0:0:0:
21,297,36015,1,2,1:2:0:0:
74,366,36392,2,0,P|132:344|162:343,1,80,2|0,1:2|1:0,0:0:0:0:
237,352,37147,2,0,B|251:391|361:382|368:242|263:200|289:307|195:259|183:193|202:168,1,320,2|0,1:2|1:0,0:0:0:0:
215,86,39033,1,0,1:0:0:0:
273,19,39411,6,0,P|331:6|382:52,1,120,6|2,1:2|3:2,0:0:0:0:
394,126,40354,1,2,3:2:0:0:
279,191,40920,2,0,P|231:207|188:211,2,80,2|2|2,1:2|1:2|1:2,0:0:0:0:
305,275,42052,1,2,1:2:0:0:
389,249,42430,2,0,P|437:233|523:225,1,120,2|2,1:2|3:2,0:0:0:0:
506,136,43373,2,0,P|490:88|482:2,1,120,2|2,3:2|1:0,0:0:0:0:
394,7,44316,1,2,1:2:0:0:
364,90,44694,2,0,P|348:138|341:177,1,80,2|0,1:2|1:0,0:0:0:0:
396,235,45449,6,0,P|429:284|412:344,1,120,6|0,1:2|3:0,0:0:0:0:
337,380,46392,1,2,3:2:0:0:
219,319,46958,2,0,P|235:271|242:232,2,80,2|2|2,1:2|1:2|1:2,0:0:0:0:
149,373,48090,1,2,1:2:0:0:
61,373,48467,2,0,P|28:305|47:265,1,120,2|2,1:2|3:2,0:0:0:0:
94,196,49411,2,0,P|79:131|54:72,1,120,2|2,3:2|1:0,0:0:0:0:
102,5,50354,1,2,1:2:0:0:
189,16,50732,2,0,P|199:63|213:103,1,80,2|2,1:2|1:2,0:0:0:0:
158,165,51486,6,0,B|57:161|116:229|6:217,1,160,6|0,1:2|1:0,0:0:0:0:
5,305,52618,1,0,1:0:0:0:
62,372,52996,2,0,P|118:350|180:339,1,120,2|2,1:2|3:2,0:0:0:0:
258,372,53939,2,0,P|297:308|278:261,1,120,2|2,3:2|1:2,0:0:0:0:
204,232,54882,1,2,1:2:0:0:
122,199,55260,2,0,P|128:149|139:119,2,80,0|0|4,1:0|1:0|1:3,0:0:0:0:
289,22,57524,6,0,P|303:94|321:151,1,120,6|2,1:0|3:2,0:0:0:0:
261,207,58467,1,0,3:0:0:0:
174,192,58845,2,0,P|161:237|157:274,1,80,2|2,3:2|3:2,0:0:0:0:
201,345,59599,1,2,3:2:0:0:
286,324,59977,1,2,3:2:0:0:
409,370,60543,6,0,P|451:321|430:263,1,120,2|2,1:2|3:2,0:0:0:0:
376,209,61486,1,2,3:2:0:0:
417,130,61864,2,0,P|455:118|494:113,1,80,2|2,3:2|3:2,0:0:0:0:
511,26,62618,1,2,3:2:0:0:
426,2,62996,1,2,3:2:0:0:
297,31,63562,6,0,P|285:69|280:108,1,80,2|8,1:0|0:0,0:0:0:0:
316,189,64316,1,2,1:2:0:0:
268,263,64694,1,10,0:0:0:0:
180,259,65071,2,0,P|146:291|72:278,2,120,0|2|10,1:0|3:2|0:0,0:0:0:0:
226,184,66581,2,0,P|216:117|200:65,1,120,2|2,1:2|3:2,0:0:0:0:
137,5,67524,2,0,P|115:12|93:19,1,40,2|10,3:2|0:0,0:0:0:0:
11,26,68090,2,0,B|2:120|75:61|68:176,1,160,4|4,1:0|0:3,0:0:0:0:
14,234,69222,1,2,1:2:0:0:
42,317,69599,6,0,P|100:298|168:285,1,120,6|2,1:2|3:2,0:0:0:0:
179,200,70543,1,2,3:2:0:0:
265,182,70920,2,0,P|307:173|346:161,1,80,2|2,3:2|3:2,0:0:0:0:
415,211,71675,1,2,3:2:0:0:
389,295,72052,2,0,B|317:295|355:344|273:339,1,120,2|2,3:2|1:0,0:0:0:0:
199,367,72996,6,0,P|157:324|177:262,1,120,10|2,0:0|3:2,0:0:0:0:
249,235,73939,2,0,P|240:193|228:154,1,80,2|2,3:2|3:2,0:0:0:0:
277,83,74694,1,2,3:2:0:0:
220,15,75071,2,0,P|155:32|100:44,1,120,2|2,3:2|1:2,0:0:0:0:
22,77,76015,1,10,0:0:0:0:
18,164,76392,2,0,P|61:166|109:181,1,80,0|10,1:0|0:0,0:0:0:0:
174,135,77147,6,0,B|282:128|216:196|330:192,1,160,2|2,1:2|1:2,0:0:0:0:
386,141,78279,1,10,0:0:0:0:
470,166,78656,2,0,P|484:232|499:291,1,120,2|2,1:2|3:2,0:0:0:0:
449,356,79599,2,0,P|420:362|395:372,1,40,2|8,3:2|0:0,0:0:0:0:
321,367,80165,2,0,B|327:278|250:326|261:218,1,160,4|2,1:0|3:2,0:0:0:0:
318,162,81298,1,2,3:2:0:0:
315,74,81675,6,0,P|282:38|207:44,1,120,6|0,1:2|3:0,0:0:0:0:
151,100,82618,1,0,3:0:0:0:
62,101,82996,2,0,P|86:180|93:226,1,120,0|8,3:0|0:0,0:0:0:0:
43,290,83939,1,2,1:2:0:0:
98,358,84316,1,10,0:0:0:0:
186,362,84694,6,0,P|197:303|215:246,1,120,2|0,1:2|3:0,0:0:0:0:
183,164,85637,1,0,3:0:0:0:
230,89,86015,2,0,P|274:125|335:113,1,120,0|8,3:0|0:0,0:0:0:0:
381,41,86958,1,2,1:2:0:0:
468,30,87335,1,10,0:0:0:0:
510,107,87713,6,0,P|486:186|479:232,1,120,6|0,1:0|3:0,0:0:0:0:
495,309,88656,1,0,3:0:0:0:
425,362,89033,2,0,P|383:329|316:337,1,120,0|8,3:0|0:0,0:0:0:0:
239,371,89977,1,2,1:2:0:0:
164,324,90354,1,10,0:0:0:0:
168,235,90732,6,0,P|125:228|81:212,2,80,2|10|2,1:2|0:0|1:2,0:0:0:0:
253,213,91864,1,10,0:0:0:0:
340,207,92241,2,0,B|339:118|271:161|277:63,1,160,6|4,1:0|0:3,0:0:0:0:
214,5,93373,1,2,1:2:0:0:
131,34,93750,6,0,P|70:28|28:84,1,120,6|2,1:2|3:2,0:0:0:0:
2,150,94694,1,2,3:2:0:0:
41,228,95071,2,0,P|96:210|131:205,1,80,2|2,3:2|3:2,0:0:0:0:
183,148,95826,1,2,3:2:0:0:
264,181,96203,2,0,P|279:111|301:60,1,120,2|2,3:2|1:0,0:0:0:0:
363,7,97147,6,0,B|436:13|395:54|475:56,1,120,10|2,0:0|3:2,0:0:0:0:
504,135,98090,2,0,P|486:179|477:219,1,80,2|2,3:2|3:2,0:0:0:0:
402,254,98845,1,2,3:2:0:0:
359,176,99222,2,0,P|299:164|254:209,1,120,2|2,3:2|1:2,0:0:0:0:
242,286,100166,1,10,0:0:0:0:
306,346,100543,2,0,P|345:353|382:367,1,80,0|10,1:0|0:0,0:0:0:0:
463,332,101298,6,0,B|452:231|518:279|512:180,1,160,2|2,1:2|1:2,0:0:0:0:
497,100,102430,1,10,0:0:0:0:
445,29,102807,2,0,P|381:19|320:1,1,120,2|2,1:2|3:2,0:0:0:0:
247,40,103750,2,0,P|257:66|262:95,1,40,2|8,3:2|0:0,0:0:0:0:
333,125,104316,2,0,P|377:192|342:271,1,160,4|2,1:0|3:2,0:0:0:0:
293,327,105449,1,2,3:2:0:0:
210,296,105826,6,0,P|152:279|92:270,1,120,2|2,0:0|0:0,0:0:0:0:
9,115,107147,2,0,P|105:137|177:62,1,200,2|2,0:0|0:3,0:0:0:0:
339,15,108845,5,6,1:0:0:0:
301,141,109411,2,0,P|319:186|325:227,1,80,6|8,1:2|1:3,0:0:0:0:
386,279,110165,2,0,P|425:286|461:302,1,80,6|2,1:2|0:0,0:0:0:0:
508,227,110920,1,6,1:2:0:0:
490,140,111297,1,8,1:3:0:0:
413,97,111675,2,0,B|210:93|354:206|142:212|142:212|192:131|235:19|56:-14|-23:55|40:170|79:134,1,680,6|2,1:2|0:0,0:0:0:0:
